osu file format v14

[General]
AudioFilename: predator.mp3
AudioLeadIn: 0
PreviewTime: 88939
Countdown: 0
SampleSet: Soft
StackLeniency: 0.7
Mode: 0
LetterboxInBreaks: 0
WidescreenStoryboard: 0

[Editor]
Bookmarks: 86614,163264,188764,222214
DistanceSpacing: 1.8
BeatDivisor: 4
GridSize: 8
TimelineZoom: 2.999999

[Metadata]
Title:Tales of The Destinies
TitleUnicode:Tales of The Destinies
Artist:BABYMETAL
ArtistUnicode:BABYMETAL
Creator:Monstrata
Version:Predator
Source:
Tags:chromoxx ktsune suzuka nakamoto yui mizuno moa kikuchi su-metal yuimetal moametal metal resistance
BeatmapID:1131424
BeatmapSetID:534115

[Difficulty]
HPDrainRate:6
CircleSize:4.5
OverallDifficulty:9
ApproachRate:9.6
SliderMultiplier:2
SliderTickRate:1

[Events]
//Background and Video events
0,0,"desolace.jpg",0,0
//Break Periods
2,145614,149705
//Storyboard Layer 0 (Background)
//Storyboard Layer 1 (Fail)
//Storyboard Layer 2 (Pass)
//Storyboard Layer 3 (Foreground)
//Storyboard Sound Samples

[TimingPoints]
10395,300,4,2,1,5,1,0
10695,-100,4,2,1,15,0,0
10995,-100,4,2,1,20,0,0
11295,-100,4,2,1,25,0,0
11595,-100,4,2,1,30,0,0
11895,-100,4,2,1,35,0,0
12195,-100,4,2,1,40,0,0
12532,-100,4,2,1,50,0,0
12551,-100,4,2,1,5,0,0
12570,-100,4,2,1,52,0,0
12588,-100,4,2,1,5,0,0
12607,-100,4,2,1,54,0,0
12626,-100,4,2,1,5,0,0
12645,-100,4,2,1,56,0,0
12663,-100,4,2,1,5,0,0
12682,-100,4,2,1,58,0,0
12701,-100,4,2,1,5,0,0
12720,-100,4,2,1,60,0,0
12738,-100,4,2,1,5,0,0
12757,-100,4,2,1,62,0,0
12776,-100,4,2,1,5,0,0
12795,-100,4,2,1,64,0,0
12813,-100,4,2,1,5,0,0
12832,-100,4,2,1,66,0,0
12851,-100,4,2,1,5,0,0
12870,-100,4,2,1,68,0,0
12888,-100,4,2,1,5,0,0
12907,-100,4,2,1,70,0,0
12926,-100,4,2,1,5,0,0
12945,-100,4,2,1,72,0,0
12963,-100,4,2,1,5,0,0
12982,-100,4,2,1,74,0,0
13001,-100,4,2,1,5,0,0
13020,-100,4,2,1,76,0,0
13038,-100,4,2,1,5,0,0
13057,-100,4,2,1,78,0,0
13076,-100,4,2,1,5,0,0
13095,-100,4,2,1,80,0,0
13113,-100,4,2,1,5,0,0
13132,-100,4,2,1,82,0,0
13151,-100,4,2,1,5,0,0
13170,-100,4,2,1,84,0,0
13188,-100,4,2,1,5,0,0
13207,-100,4,2,1,86,0,0
13226,-100,4,2,1,5,0,0
13245,-100,4,2,1,88,0,0
13263,-100,4,2,1,5,0,0
13282,-100,4,2,1,90,0,0
13301,-100,4,2,1,5,0,0
13320,-100,4,2,1,92,0,0
13338,-100,4,2,1,5,0,0
13357,-100,4,2,1,94,0,0
13376,-100,4,2,1,5,0,0
13395,-100,4,2,1,96,0,0
13413,-100,4,2,1,5,0,0
13432,-100,4,2,1,98,0,0
13451,-100,4,2,1,5,0,0
13470,-100,4,2,1,100,0,0
13488,-100,4,2,1,5,0,0
13507,-100,4,2,1,100,0,0
13526,-100,4,2,1,5,0,0
13545,-100,4,2,1,100,0,0
13563,-100,4,2,1,5,0,0
13582,-100,4,2,1,100,0,0
13601,-100,4,2,1,5,0,0
13620,-100,4,2,1,100,0,0
13638,-100,4,2,1,5,0,0
13657,-100,4,2,1,100,0,0
13676,-100,4,2,1,5,0,0
13995,300,6,2,1,80,1,0
15645,300,6,2,1,80,1,0
19245,300,5,2,1,80,1,0
21345,300,6,2,1,80,1,0
22995,300,6,2,1,80,1,0
26595,300,5,2,1,80,1,0
28695,400,4,2,1,80,1,0
29495,400,4,2,1,80,1,0
29495,-66.6666666666667,4,2,1,80,0,0
41895,-66.6666666666667,4,2,1,50,0,0
42295,300,4,2,1,80,1,0
42595,-117.647058823529,4,2,1,80,0,0
43495,-100,4,2,1,80,0,0
43795,-117.647058823529,4,2,1,80,0,0
47095,-100,4,2,1,80,0,0
47395,-117.647058823529,4,2,1,80,0,0
49495,300,5,2,1,80,1,0
51595,300,4,2,1,80,1,0
58795,300,5,2,1,80,1,0
61045,300,6,2,1,80,1,0
62245,461.538461538462,4,2,1,80,1,0
62245,-133.333333333333,4,2,1,80,0,0
75168,-133.333333333333,4,2,1,45,0,0
75629,-133.333333333333,4,2,1,80,0,0
76091,-133.333333333333,4,2,1,60,0,0
76552,-100,4,2,1,80,0,0
76706,-83.3333333333333,4,2,1,80,0,0
76860,-71.4285714285714,4,2,1,80,0,0
77014,300,4,2,1,80,1,0
77014,-125,4,2,1,80,0,0
80014,300,4,2,1,80,1,0
80014,-111.111111111111,4,2,1,80,0,0
83014,300,4,2,1,80,1,0
89014,-100,4,2,1,80,0,1
108214,-166.666666666667,4,2,1,80,0,0
110614,-133.333333333333,4,2,1,80,0,0
113614,-83.3333333333333,4,2,1,80,0,0
113914,-133.333333333333,4,2,1,80,0,0
114214,-114.285714285714,4,2,1,80,0,0
115414,-100,4,2,1,80,0,0
117814,-133.333333333333,4,2,1,80,0,0
119014,-200,4,2,1,80,0,0
120214,-133.333333333333,4,2,1,80,0,0
126214,300,6,2,1,80,1,0
128014,300,7,2,1,80,1,0
132214,300,4,2,1,80,1,0
134614,300,5,2,1,80,1,0
140014,300,5,2,1,80,1,0
143014,300,4,2,1,80,1,0
145414,300,4,2,1,80,1,0
145597,300,4,2,1,80,1,0
145697,300,4,2,1,80,1,0
146597,300,4,2,1,80,1,0
147797,310.880829015544,6,2,1,80,1,0
148263,297.029702970297,6,2,1,80,1,0
148708,319.148936170213,6,2,1,80,1,0
149186,300,6,2,1,80,1,0
150214,300,4,2,1,80,1,0
155014,300,5,2,1,45,1,0
159364,-100,5,2,1,5,0,0
159514,375,5,2,1,80,1,0
161014,375,4,2,1,80,1,0
165889,-100,4,2,1,70,0,0
166264,-100,4,2,1,60,0,0
166639,-100,4,2,1,50,0,0
167014,-100,4,2,1,80,0,0
168514,-133.333333333333,4,2,1,80,0,0
168764,-100,4,2,1,80,0,0
169014,-80,4,2,1,80,0,0
169264,-66.6666666666667,4,2,1,80,0,0
169639,-50,4,2,1,80,0,0
170014,-100,4,2,1,80,0,0
174514,-133.333333333333,4,2,1,80,0,0
174764,-100,4,2,1,80,0,0
175014,-80,4,2,1,80,0,0
175264,-66.6666666666667,4,2,1,80,0,0
175639,-50,4,2,1,80,0,0
176014,-100,4,2,1,80,0,0
191014,300,4,2,1,80,1,0
209614,300,5,2,1,80,1,0
212614,300,4,2,1,80,1,0
223414,400,4,2,1,80,1,0
223814,-111.111111111111,4,2,1,80,0,0
224214,-125,4,2,1,80,0,0
224614,-142.857142857143,4,2,1,80,0,0
225014,-166.666666666667,4,2,1,80,0,0
225614,-200,4,2,1,80,0,0
226214,-250,4,2,1,80,0,0
226814,-333,4,2,1,80,0,0
227414,461.538461538462,4,2,1,80,1,0
227414,-133.333333333333,4,2,1,80,0,0
234798,-100,4,2,1,80,0,0
242183,300,4,2,1,80,1,0
245183,300,4,2,1,80,1,0
248183,300,4,2,1,80,1,0
253583,-76.9230769230769,4,2,1,80,0,0
254183,-100,4,2,1,80,0,1
258983,-86.9565217391304,4,2,1,80,0,1
263783,-100,4,2,1,80,0,1
273383,-100,4,2,1,80,0,0
274583,-133.333333333333,4,2,1,80,0,0
280583,400,4,2,1,80,1,0
283783,-166.666666666667,4,2,1,80,0,0
286983,461.538461538462,4,2,1,80,1,0
287444,-100,4,2,1,70,0,0
287906,-100,4,2,1,60,0,0
288367,-100,4,2,1,50,0,0
288829,425.531914893617,4,2,1,40,1,0
289254,-100,4,2,1,35,0,0
289680,431.654676258993,4,2,1,30,1,0
290111,-100,4,2,1,25,0,0
290327,-100,4,2,1,5,0,0
290543,436.363636363636,4,2,2,50,1,0
290543,-133.333333333333,4,2,2,50,0,0
291415,454.545454545455,4,2,2,50,1,0
291415,-133.333333333333,4,2,2,50,0,0
292096,428.571428571429,4,2,2,50,1,0
292310,428.571428571429,4,2,2,50,1,0
292310,-133.333333333333,4,2,2,50,0,0
292739,444.444444444444,4,2,2,50,1,0
292739,-133.333333333333,4,2,2,50,0,0
294072,444.444444444444,4,2,2,50,1,0
294072,-133.333333333333,4,2,2,50,0,0
299849,434.782608695652,4,2,2,50,1,0
299849,-133.333333333333,4,2,2,50,0,0
300718,465.116279069767,4,2,2,50,1,0
301183,444.444444444444,4,2,2,50,1,0
301627,458.015267175573,4,2,2,50,1,0
302085,446.096654275093,4,2,2,50,1,0
302308,-100,4,2,2,40,0,0
302977,446.096654275093,4,2,2,40,1,0
303200,-100,4,2,2,30,0,0
304092,-100,4,2,2,20,0,0
304761,509.463280434063,4,2,2,50,1,0
305100,473.6829639922,4,2,2,50,1,0
305415,450.001125002813,4,2,2,50,1,0
305715,472.027976154091,4,2,2,50,1,0
306029,456.081081081081,4,2,2,50,1,0
306573,444.444444444444,4,2,2,50,1,0
307017,451.977401129944,4,2,2,50,1,0
308372,450.281425891182,4,2,2,50,1,0
310173,451.127819548872,4,2,2,50,1,0
310624,-100,4,2,2,40,0,0
311075,-100,4,2,2,30,0,0
311977,453.686200378072,4,2,2,50,1,0
312884,-100,4,2,2,30,0,0
313338,458.015267175573,4,2,2,50,1,0
313796,454.545454545455,4,2,2,40,1,0
314250,434.782608695652,4,2,2,50,1,0
314684,451.127819548872,4,2,2,50,1,0
315586,455.407969639469,4,2,2,50,1,0
319229,454.545454545455,4,2,2,50,1,0
320592,468.75,4,2,2,50,1,0
321060,441.176470588235,4,2,2,50,1,0
321501,454.545454545455,4,2,2,50,1,0
322864,454.545454545455,6,2,2,50,1,0
323808,431.654676258993,4,2,2,50,1,0
324095,458.015267175573,4,2,2,50,1,0
324400,444.444444444444,4,2,2,50,1,0
324696,458.015267175573,4,2,2,50,1,0
326986,454.545454545455,4,2,2,50,1,0
327440,461.538461538462,4,2,2,50,1,0
328363,500,4,2,2,50,1,0
328863,465.116279069767,4,2,2,50,1,0
329328,500,4,2,2,40,1,0
329828,550.45871559633,4,2,2,30,1,0
330528,461.538461538462,4,2,2,20,1,0
330989,-100,4,2,2,25,0,0
331451,-100,4,2,2,30,0,0
331912,-100,4,2,2,35,0,0
332374,-100,4,2,2,40,0,0
332835,-100,4,2,2,50,0,0
333297,-100,4,2,2,55,0,0
333758,-100,4,2,2,60,0,0
334220,-100,4,2,2,68,0,0
334249,-100,4,2,2,5,0,0
334278,-100,4,2,2,69,0,0
334306,-100,4,2,2,5,0,0
334335,-100,4,2,2,70,0,0
334364,-100,4,2,2,5,0,0
334393,-100,4,2,2,71,0,0
334422,-100,4,2,2,5,0,0
334451,-100,4,2,2,72,0,0
334479,-100,4,2,2,5,0,0
334508,-100,4,2,2,73,0,0
334537,-100,4,2,2,5,0,0
334566,-100,4,2,2,74,0,0
334595,-100,4,2,2,5,0,0
334624,-100,4,2,2,75,0,0
334653,-100,4,2,2,5,0,0
334681,-100,4,2,2,76,0,0
334710,-100,4,2,2,5,0,0
334739,-100,4,2,2,77,0,0
334768,-100,4,2,2,5,0,0
334797,-100,4,2,2,78,0,0
334826,-100,4,2,2,5,0,0
334854,-100,4,2,2,79,0,0
334883,-100,4,2,2,5,0,0
334912,-100,4,2,2,80,0,0
334941,-100,4,2,2,5,0,0
334970,-100,4,2,2,81,0,0
334999,-100,4,2,2,5,0,0
335028,-100,4,2,2,82,0,0
335056,-100,4,2,2,5,0,0
335085,-100,4,2,2,83,0,0
335114,-100,4,2,2,5,0,0
335143,-100,4,2,2,84,0,0
335172,-100,4,2,2,5,0,0
335201,-100,4,2,2,85,0,0
335229,-100,4,2,2,5,0,0
335258,-100,4,2,2,86,0,0
335287,-100,4,2,2,5,0,0
335316,-100,4,2,2,87,0,0
335345,-100,4,2,2,5,0,0
335374,-100,4,2,2,88,0,0
335403,-100,4,2,2,5,0,0
335431,-100,4,2,2,89,0,0
335460,-100,4,2,2,5,0,0
335489,-100,4,2,2,90,0,0
335518,-100,4,2,2,5,0,0
335547,-100,4,2,2,91,0,0
335576,-100,4,2,2,5,0,0
335604,-100,4,2,2,5,0,0

[Colours]
Combo1 : 152,126,190
Combo2 : 120,173,180
Combo3 : 92,139,105
Combo4 : 199,139,158

[HitObjects]
256,192,10395,12,0,13695,0:0:0:0:
191,193,13995,6,0,L|311:178,1,100,12|0,0:0|3:0,0:0:0:0:
290,180,14220,1,0,3:0:0:0:
290,180,14295,1,8,0:0:0:0:
268,9,14445,2,0,L|229:101,1,100,8|0,0:0|3:0,0:0:0:0:
382,218,14745,5,8,0:0:0:0:
389,182,14820,1,0,0:0:0:0:
383,145,14895,1,0,3:0:0:0:
364,113,14970,1,0,3:0:0:0:
335,90,15045,1,8,0:0:0:0:
302,279,15195,1,10,0:0:0:0:
382,218,15345,1,2,3:2:0:0:
290,180,15495,1,2,3:2:0:0:
127,339,15645,6,0,P|174:325|221:339,1,100,8|0,0:0|3:0,0:0:0:0:
260,370,15870,1,0,3:0:0:0:
260,370,15945,1,8,0:0:0:0:
170,241,16095,2,0,P|156:193|170:146,1,100,8|0,0:0|3:0,0:0:0:0:
135,52,16320,1,0,3:0:0:0:
135,52,16395,6,0,P|182:66|229:52,1,100,8|0,0:0|3:0,0:0:0:0:
317,3,16620,1,0,0:0:0:0:
317,3,16695,1,10,0:0:0:0:
371,200,16845,5,8,0:0:0:0:
416,82,16995,1,2,3:2:0:0:
246,194,17145,1,2,3:2:0:0:
212,73,17295,1,2,0:0:0:0:
303,305,17445,6,0,L|309:240,1,50,10|0,0:1|0:0,0:0:0:0:
330,94,17595,2,0,L|271:122,1,50,0|0,3:0|0:0,0:0:0:0:
134,176,17745,2,0,L|187:213,1,50,0|0,3:0|3:0,0:0:0:0:
307,327,17895,6,0,P|316:297|343:271,1,50,10|0,0:1|0:0,0:0:0:0:
347,80,18045,2,0,P|316:86|281:76,1,50,0|0,0:0|0:0,0:0:0:0:
113,168,18195,2,0,P|134:192|143:228,1,50,0|0,3:1|0:0,0:0:0:0:
299,348,18345,6,0,P|322:327|358:318,1,50,8|0,3:0|0:0,0:0:0:0:
221,135,18495,2,0,P|235:155|242:179,1,50,0|0,3:1|0:0,0:0:0:0:
40,348,18645,6,0,P|17:327|-19:318,1,50,8|0,0:0|0:0,0:0:0:0:
118,135,18795,2,0,P|104:155|97:179,1,50,0|0,3:0|0:0,0:0:0:0:
170,384,18945,6,8,L|170:325,1,50,10|0,0:0|0:0,0:0:0:0:
170,0,19095,2,0,L|170:59,1,50,10|0,3:2|3:0,0:0:0:0:
170,192,19245,5,12,0:0:0:0:
378,87,19545,2,0,L|464:81,1,50,12|0,0:0|0:0,0:0:0:0:
388,70,19695,2,0,L|474:64,1,50,12|0,0:0|0:0,0:0:0:0:
342,192,19995,5,12,0:0:0:0:
134,87,20295,2,0,L|48:81,1,50,12|0,0:0|0:0,0:0:0:0:
124,70,20445,2,0,L|38:64,1,50,12|0,0:0|0:0,0:0:0:0:
272,350,20745,6,0,P|300:341|363:356,2,66.6666666666667,10|0|0,0:1|0:0|0:0,0:0:0:0:
193,335,21045,2,0,P|210:299|249:269,2,66.6666666666667,2|0|0,3:1|0:0|0:0,0:0:0:0:
66,375,21345,6,0,P|120:320|99:164,1,200,4|0,3:2|3:0,0:0:0:0:
218,169,21795,1,8,0:0:0:0:
218,169,21945,2,0,B|200:125|200:125|208:73,1,100,0|0,3:0|3:0,0:0:0:0:
303,73,22245,2,0,B|312:125|312:125|294:169,1,100,0|0,3:2|3:0,0:0:0:0:
153,230,22545,2,0,L|114:136,1,100,8|0,0:2|3:0,0:0:0:0:
396,137,22845,2,0,L|359:230,1,100,0|0,3:0|3:2,0:0:0:0:
256,377,23145,5,0,3:0:0:0:
208,287,23295,2,0,P|256:274|303:287,1,100,0|8,3:0|0:0,0:0:0:0:
306,175,23595,2,0,L|178:175,1,100,0|0,3:0|3:0,0:0:0:0:
163,32,23895,1,0,3:0:0:0:
256,85,24045,1,0,3:0:0:0:
349,32,24195,1,8,0:0:0:0:
113,122,24345,1,0,3:0:0:0:
399,122,24495,1,0,3:0:0:0:
256,0,24645,2,0,L|256:89,1,50,8|0,0:0|0:0,0:0:0:0:
256,192,24795,5,0,3:0:0:0:
279,184,24870,1,0,3:0:0:0:
304,181,24945,1,0,3:0:0:0:
329,181,25020,1,0,3:0:0:0:
354,186,25095,1,0,3:0:0:0:
377,194,25170,1,0,3:0:0:0:
399,206,25245,6,0,L|406:261,1,50,8|0,0:0|0:0,0:0:0:0:
312,344,25395,2,0,L|319:295,1,50,0|0,3:0|0:0,0:0:0:0:
113,206,25545,2,0,L|106:261,1,50,8|0,0:0|0:0,0:0:0:0:
199,344,25695,2,0,L|193:295,1,50,0|0,0:0|0:0,0:0:0:0:
208,128,25845,5,0,3:0:0:0:
230,118,25920,1,0,3:0:0:0:
255,115,25995,1,0,3:0:0:0:
280,118,26070,1,0,3:0:0:0:
303,128,26145,2,0,L|286:254,1,100,8|0,0:0|3:0,0:0:0:0:
196,206,26445,1,0,3:0:0:0:
397,149,26595,6,0,L|496:136,1,100,12|0,0:0|3:0,0:0:0:0:
384,49,26895,1,12,0:2:0:0:
410,249,27045,1,12,0:0:0:0:
410,249,27120,1,0,0:0:0:0:
410,249,27195,1,0,3:0:0:0:
410,249,27270,1,0,3:0:0:0:
410,249,27345,6,0,P|393:296|399:348,1,100,12|0,0:0|3:0,0:0:0:0:
431,382,27570,1,0,3:0:0:0:
431,382,27645,1,12,0:0:0:0:
505,260,27795,2,0,P|458:243|406:249,1,100,12|0,0:0|3:0,0:0:0:0:
294,201,28095,6,0,L|319:297,2,66.6666666666667,10|0|0,0:1|0:0|0:0,0:0:0:0:
228,125,28395,2,0,L|203:221,2,66.6666666666667,2|0|0,3:1|0:0|0:0,0:0:0:0:
103,86,28695,5,14,0:0:0:0:
81,148,28828,1,0,3:0:0:0:
145,136,28961,1,0,3:0:0:0:
101,75,29095,5,10,0:0:0:0:
72,155,29228,1,0,0:0:0:0:
155,139,29361,1,8,0:0:0:0:
249,5,29495,5,6,3:1:0:0:
262,87,29628,1,0,0:0:0:0:
182,60,29761,1,0,3:0:0:0:
183,224,29895,5,10,0:1:0:0:
196,142,30028,1,0,0:0:0:0:
263,197,30161,1,0,0:0:0:0:
317,20,30295,5,2,3:1:0:0:
262,87,30428,1,0,0:0:0:0:
329,142,30561,1,0,3:0:0:0:
439,8,30695,5,10,0:1:0:0:
384,75,30828,1,0,3:0:0:0:
451,130,30961,1,0,3:0:0:0:
317,20,31095,5,0,3:0:0:0:
396,197,31228,1,2,0:1:0:0:
384,75,31361,1,0,3:0:0:0:
341,264,31495,1,10,0:1:0:0:
451,130,31628,1,0,0:0:0:0:
207,154,31761,6,0,P|174:206|200:297,1,100.000003814697,2|0,0:1|3:0,0:0:0:0:
67,369,32028,1,2,3:1:0:0:
42,223,32161,1,0,3:0:0:0:
67,369,32295,2,0,P|96:329|101:279,1,100.000003814697,10|0,0:1|3:0,0:0:0:0:
112,186,32561,1,2,3:1:0:0:
172,324,32695,6,0,B|203:340|203:340|320:319,1,100.000003814697,6|0,3:1|0:0,0:0:0:0:
182,149,32961,1,0,3:0:0:0:
172,324,33095,2,0,L|59:344,1,100.000003814697,10|0,0:1|0:0,0:0:0:0:
112,186,33361,1,2,0:1:0:0:
219,267,33495,5,0,3:0:0:0:
182,149,33628,1,2,0:1:0:0:
64,186,33761,1,0,3:0:0:0:
155,269,33895,5,10,0:1:0:0:
182,149,34028,1,0,3:0:0:0:
62,122,34161,1,0,3:0:0:0:
91,271,34295,5,2,3:1:0:0:
182,149,34428,1,0,0:0:0:0:
273,271,34561,1,0,3:0:0:0:
273,113,34695,5,10,0:1:0:0:
182,235,34828,1,0,0:0:0:0:
91,113,34961,1,0,0:0:0:0:
273,192,35095,5,2,3:1:0:0:
185,62,35228,1,0,3:0:0:0:
91,271,35361,1,0,3:0:0:0:
363,156,35495,2,0,P|410:158|451:188,1,100.000003814697,10|0,0:1|3:0,0:0:0:0:
280,128,35761,1,8,0:0:0:0:
232,271,35895,5,6,3:1:0:0:
381,241,36028,1,0,0:0:0:0:
298,214,36161,1,0,3:0:0:0:
166,328,36295,5,10,0:1:0:0:
315,298,36428,1,0,0:0:0:0:
232,271,36561,1,0,0:0:0:0:
100,383,36695,6,0,P|50:385|10:357,1,100.000003814697,2|0,3:1|0:0,0:0:0:0:
149,242,36961,1,0,3:0:0:0:
249,355,37095,5,10,0:1:0:0:
232,271,37228,1,0,0:0:0:0:
166,328,37361,1,0,3:0:0:0:
315,298,37495,5,0,3:1:0:0:
215,187,37628,1,2,0:1:0:0:
166,328,37761,1,0,3:0:0:0:
320,288,37895,1,10,0:1:0:0:
198,103,38028,1,0,0:0:0:0:
166,328,38161,6,0,P|210:303|248:219,1,100.000003814697,2|0,0:1|3:0,0:0:0:0:
279,130,38428,1,2,3:1:0:0:
315,298,38561,1,0,3:0:0:0:
355,95,38695,2,0,P|404:87|450:105,1,100.000003814697,10|0,0:1|3:0,0:0:0:0:
287,47,38961,1,2,3:1:0:0:
298,214,39095,5,6,3:1:0:0:
355,95,39228,1,0,3:0:0:0:
215,187,39361,1,0,3:0:0:0:
381,241,39495,5,10,0:1:0:0:
279,130,39628,1,0,3:0:0:0:
315,298,39761,1,2,3:1:0:0:
355,95,39895,5,0,3:0:0:0:
232,271,40028,1,2,3:1:0:0:
348,179,40161,1,0,3:0:0:0:
132,160,40295,5,10,0:1:0:0:
315,298,40428,1,0,3:0:0:0:
279,130,40561,1,2,3:1:0:0:
168,328,40695,5,6,3:1:0:0:
298,214,40828,1,0,3:0:0:0:
298,214,40895,1,0,3:0:0:0:
298,214,40961,1,0,3:0:0:0:
132,160,41095,1,10,0:1:0:0:
315,298,41228,1,0,3:0:0:0:
315,298,41295,1,0,3:0:0:0:
315,298,41361,1,0,3:0:0:0:
445,138,41495,6,0,P|474:140|508:154,1,50.0000019073487,10|0,0:1|0:0,0:0:0:0:
445,246,41628,2,0,P|474:244|508:230,1,50.0000019073487,0|0,3:0|0:0,0:0:0:0:
392,50,41761,6,0,P|418:37|455:33,1,50.0000019073487,0|0,3:0|0:0,0:0:0:0:
392,333,41895,2,0,P|418:346|455:350,1,50.0000019073487,10|8,0:1|0:0,0:0:0:0:
331,99,42028,6,8,L|348:179,1,50.0000019073487
331,285,42161,2,8,L|348:205,1,50.0000019073487,8|8,0:0|0:0,0:0:0:0:
415,192,42295,6,0,B|374:216|334:194|334:194|296:207|296:207|264:189|261:213|217:198,1,200,6|0,3:1|0:0,0:0:0:0:
201,120,42745,2,0,P|221:157|223:200,1,85.0000016212464,0|0,3:0|3:0,0:0:0:0:
140,179,43045,1,0,0:0:0:0:
225,361,43195,2,0,L|252:257,1,85.0000016212464,8|0,0:0|0:0,0:0:0:0:
42,320,43495,6,0,B|106:376|180:339|180:339|226:362,1,200,6|0,3:1|0:0,0:0:0:0:
123,250,43945,1,0,3:0:0:0:
201,119,44095,1,0,3:0:0:0:
201,119,44170,1,0,3:0:0:0:
201,119,44245,1,0,3:0:0:0:
246,278,44395,1,0,3:0:0:0:
246,278,44470,1,0,3:0:0:0:
246,278,44545,1,0,3:0:0:0:
326,89,44695,6,0,P|368:69|429:89,1,85.0000016212464,4|0,3:2|0:0,0:0:0:0:
352,235,44995,2,0,L|379:155,1,85.0000016212464,0|0,0:0|3:0,0:0:0:0:
201,119,45295,2,0,L|223:204,1,85.0000016212464,0|0,3:0|0:0,0:0:0:0:
243,38,45595,5,8,0:0:0:0:
121,169,45745,1,0,3:0:0:0:
326,89,45895,1,4,3:2:0:0:
201,119,46045,1,0,3:0:0:0:
255,292,46195,1,0,0:0:0:0:
284,170,46345,1,0,3:0:0:0:
159,281,46495,1,0,3:0:0:0:
163,301,46570,1,0,3:0:0:0:
167,322,46645,1,0,3:0:0:0:
353,281,46795,1,0,3:0:0:0:
348,301,46870,1,0,3:0:0:0:
344,322,46945,1,0,3:0:0:0:
201,119,47095,6,0,P|252:152|453:57,1,300,6|0,3:1|0:0,0:0:0:0:
425,30,47620,1,0,0:0:0:0:
383,22,47695,2,0,L|392:145,1,113.333335494995
401,275,47995,2,0,L|395:190,1,85.0000016212464,8|0,0:0|0:0,0:0:0:0:
129,22,48295,5,6,3:1:0:0:
110,275,48445,2,0,L|116:190,1,85.0000016212464,8|0,0:0|0:0,0:0:0:0:
256,357,48745,1,0,3:0:0:0:
256,328,48820,1,0,3:0:0:0:
256,298,48895,2,0,L|321:282,1,42.5000008106232,8|0,0:0|0:0,0:0:0:0:
395,190,49045,2,0,L|330:174,1,42.5000008106232,8|0,0:0|0:0,0:0:0:0:
206,198,49195,5,0,0:0:0:0:
234,212,49270,1,0,0:0:0:0:
255,236,49345,1,0,0:0:0:0:
262,267,49420,1,0,0:0:0:0:
256,298,49495,6,0,L|130:294,1,100,12|0,0:0|0:0,0:0:0:0:
134,123,49795,2,0,L|209:125,1,50,12|0,0:0|0:0,0:0:0:0:
234,212,49945,2,0,L|108:208,1,100,12|0,0:0|0:0,0:0:0:0:
312,38,50245,6,0,L|438:42,1,100,12|0,0:0|0:0,0:0:0:0:
434,213,50545,2,0,L|358:210,1,50,12|0,0:0|0:0,0:0:0:0:
334,124,50695,2,0,L|460:128,1,100,12|0,0:0|0:0,0:0:0:0:
307,340,50995,5,10,0:1:0:0:
307,340,51095,2,0,L|388:342,1,66.6666666666667,8|8,0:0|0:0,0:0:0:0:
205,340,51295,1,2,3:1:0:0:
205,340,51395,2,0,L|123:342,1,66.6666666666667,0|0,3:0|3:0,0:0:0:0:
256,251,51595,6,0,B|256:126,1,66.6666666666667,6|0,3:1|0:0,0:0:0:0:
321,127,51795,1,0,3:0:0:0:
321,127,51895,2,0,B|334:199,1,66.6666666666667,8|0,0:0|3:0,0:0:0:0:
384,263,52095,1,0,3:0:0:0:
384,263,52195,2,0,B|445:213,1,66.6666666666667,0|0,3:0|0:0,0:0:0:0:
409,137,52395,1,0,0:0:0:0:
409,137,52495,2,0,P|381:193|400:296,1,133.333333333333,8|0,0:0|0:0,0:0:0:0:
421,341,52795,5,6,3:1:0:0:
420,354,52895,1,0,0:0:0:0:
419,367,52995,1,0,3:0:0:0:
418,380,53095,2,0,P|389:364|356:364,1,66.6666666666667,8|0,0:0|0:0,0:0:0:0:
279,321,53295,1,0,3:0:0:0:
279,321,53395,2,0,P|250:336|217:336,1,66.6666666666667,0|0,3:0|0:0,0:0:0:0:
184,207,53595,1,8,0:0:0:0:
184,207,53695,2,0,P|200:235|228:253,2,66.6666666666667,8|8|8,0:0|0:0|0:0,0:0:0:0:
247,70,53995,6,0,L|239:137,1,66.6666666666667,4|0,3:2|0:0,0:0:0:0:
150,33,54195,1,0,3:0:0:0:
150,33,54295,2,0,L|159:100,1,66.6666666666667,8|0,0:0|3:0,0:0:0:0:
66,93,54495,1,0,3:0:0:0:
66,93,54595,2,0,P|85:130|73:236,1,133.333333333333,0|0,3:0|0:0,0:0:0:0:
33,347,54895,2,0,P|94:322|159:331,1,133.333333333333,12|0,0:0|0:0,0:0:0:0:
287,380,55195,5,8,0:0:0:0:
267,340,55295,1,8,0:0:0:0:
262,296,55395,1,8,0:0:0:0:
271,253,55495,2,0,L|461:240,1,133.333333333333,12|0,0:0|0:0,0:0:0:0:
441,34,55795,1,0,3:0:0:0:
460,73,55895,1,0,3:0:0:0:
465,117,55995,1,0,3:0:0:0:
457,161,56095,2,0,L|267:174,1,133.333333333333,12|0,0:0|0:0,0:0:0:0:
159,190,56395,6,0,P|237:181|193:241,1,133.333333333333,6|0,3:1|0:0,0:0:0:0:
184,320,56695,2,0,L|152:156,1,133.333333333333,2|0,0:0|3:0,0:0:0:0:
349,39,56995,2,0,L|317:203,1,133.333333333333,14|0,0:1|0:0,0:0:0:0:
164,52,57295,2,0,P|229:103|205:200,1,133.333333333333,2|0,0:0|0:0,0:0:0:0:
348,332,57595,6,0,P|283:281|307:184,1,133.333333333333,6|0,3:1|0:0,0:0:0:0:
482,142,57895,1,2,3:2:0:0:
476,208,57995,1,0,3:0:0:0:
471,274,58095,1,0,3:0:0:0:
466,341,58195,2,0,P|422:313|334:347,1,133.333333333333,14|0,0:1|0:0,0:0:0:0:
129,258,58495,1,2,3:2:0:0:
199,295,58595,1,0,3:0:0:0:
278,292,58695,1,0,3:0:0:0:
345,249,58795,6,0,L|335:109,1,100,12|0,0:0|0:0,0:0:0:0:
421,278,59095,2,0,L|426:357,1,50,12|0,0:0|0:0,0:0:0:0:
278,292,59245,2,0,L|268:152,1,100,12|0,0:0|0:0,0:0:0:0:
124,238,59545,6,0,L|134:378,1,100,12|0,0:0|0:0,0:0:0:0:
48,209,59845,2,0,L|42:129,1,50,12|0,0:0|0:0,0:0:0:0:
191,195,59995,2,0,L|201:335,1,100,12|0,0:0|0:0,0:0:0:0:
337,149,60295,6,0,L|347:9,1,100,12|0,0:0|0:0,0:0:0:0:
270,192,60595,2,0,L|265:255,1,50,12|0,0:0|0:0,0:0:0:0:
391,302,60745,2,0,L|401:162,1,100,12|0,0:0|0:0,0:0:0:0:
196,72,61045,5,8,0:0:0:0:
172,92,61120,1,8,0:0:0:0:
157,119,61195,1,8,0:0:0:0:
155,150,61270,1,8,0:0:0:0:
162,180,61345,1,0,3:0:0:0:
174,209,61420,1,0,3:0:0:0:
183,239,61495,1,0,3:0:0:0:
186,270,61570,1,0,3:0:0:0:
182,301,61645,5,2,3:1:0:0:
82,133,61845,5,2,0:1:0:0:
250,32,62045,5,2,0:1:0:0:
351,201,62245,6,0,P|356:264|417:198,1,200.000007629395,6|0,3:1|3:0,0:0:0:0:
390,141,63014,1,0,3:0:0:0:
319,138,63168,2,0,L|292:23,1,100.000003814697,8|0,0:0|0:0,0:0:0:0:
232,69,63629,2,0,L|254:166,1,100.000003814697,0|0,3:0|0:0,0:0:0:0:
283,231,64091,6,0,P|240:237|191:194,1,100.000003814697,4|0,3:2|0:0,0:0:0:0:
135,168,64552,1,0,0:0:0:0:
80,213,64706,1,0,3:0:0:0:
105,278,64860,1,0,3:0:0:0:
176,274,65014,6,0,L|173:353,1,50.0000019073487,8|0,0:0|3:0,0:0:0:0:
233,360,65321,1,0,3:0:0:0:
283,311,65475,1,8,0:0:0:0:
357,337,65629,1,0,3:0:0:0:
357,337,65706,1,0,3:0:0:0:
357,337,65783,1,8,0:0:0:0:
403,280,65937,6,0,L|401:230,2,50.0000019073487,0|0|0,3:0|3:0|0:0,0:0:0:0:
314,202,66398,2,0,P|363:199|401:230,1,100.000003814697,12|0,0:0|3:0,0:0:0:0:
474,257,66860,1,0,3:0:0:0:
474,257,66937,1,0,3:0:0:0:
474,257,67014,1,0,3:0:0:0:
453,182,67168,1,0,3:0:0:0:
468,113,67321,1,0,3:0:0:0:
468,113,67398,1,0,3:0:0:0:
467,112,67475,2,0,P|443:111|419:119,1,50.0000019073487,0|0,3:0|0:0,0:0:0:0:
310,75,67783,6,0,P|335:74|359:81,1,50.0000019073487,8|0,0:0|3:0,0:0:0:0:
292,144,68091,1,0,3:0:0:0:
220,144,68245,1,0,3:0:0:0:
201,75,68398,2,0,P|176:74|153:81,1,50.0000019073487,0|0,0:0|3:0,0:0:0:0:
256,206,68706,5,10,0:1:0:0:
292,144,68860,1,0,0:0:0:0:
184,205,69014,1,10,0:1:0:0:
328,205,69168,1,10,0:1:0:0:
220,144,69321,1,0,3:0:0:0:
292,268,69475,1,0,3:0:0:0:
328,82,69629,6,0,L|288:16,1,50.0000019073487,4|0,3:2|0:0,0:0:0:0:
292,144,69937,1,0,3:0:0:0:
426,109,70091,2,0,L|424:31,1,50.0000019073487,8|0,0:0|0:0,0:0:0:0:
363,144,70399,1,0,3:0:0:0:
496,179,70552,6,0,L|533:111,1,50.0000019073487,0|0,3:0|0:0,0:0:0:0:
424,179,70860,1,0,3:0:0:0:
328,280,71014,2,0,L|367:346,1,50.0000019073487,8|0,0:0|0:0,0:0:0:0:
424,179,71322,1,0,3:0:0:0:
192,71,71475,6,0,L|184:155,1,50.0000019073487,12|0,0:0|0:0,0:0:0:0:
229,242,71783,2,0,L|233:192,1,50.0000019073487,8|0,0:0|0:0,0:0:0:0:
113,40,72091,2,0,L|105:124,1,50.0000019073487,8|0,3:0|0:0,0:0:0:0:
147,274,72398,2,0,L|151:224,1,50.0000019073487,8|0,3:0|0:0,0:0:0:0:
34,9,72706,2,0,L|26:93,1,50.0000019073487,8|0,0:0|0:0,0:0:0:0:
65,306,73014,2,0,L|69:256,1,50.0000019073487,8|0,0:0|0:0,0:0:0:0:
447,306,73321,6,0,L|442:256,1,50.0000019073487,4|0,3:2|0:0,0:0:0:0:
433,186,73629,1,2,0:1:0:0:
323,139,73783,2,0,L|368:159,1,50.0000019073487,10|0,0:1|3:0,0:0:0:0:
257,111,74091,1,0,0:0:0:0:
161,182,74245,6,0,L|201:153,1,50.0000019073487,2|0,3:1|0:0,0:0:0:0:
116,246,74552,2,0,L|156:217,1,50.0000019073487,0|2,3:0|0:1,0:0:0:0:
71,310,74860,2,0,L|111:281,1,50.0000019073487,14|0,0:1|0:0,0:0:0:0:
247,297,75168,5,0,3:0:0:0:
261,289,75245,1,0,3:0:0:0:
277,284,75321,1,0,3:0:0:0:
294,282,75398,1,0,3:0:0:0:
310,284,75475,1,0,3:0:0:0:
326,288,75552,1,0,3:0:0:0:
341,296,75629,5,8,3:0:0:0:
354,305,75705,1,0,3:0:0:0:
370,308,75782,1,0,3:0:0:0:
387,306,75859,1,0,3:0:0:0:
401,298,75936,1,0,3:0:0:0:
411,285,76013,1,0,3:0:0:0:
416,269,76091,5,8,3:0:0:0:
409,253,76167,1,0,3:0:0:0:
405,237,76244,1,0,3:0:0:0:
404,221,76321,1,0,3:0:0:0:
407,204,76398,1,0,3:0:0:0:
413,189,76475,1,0,3:0:0:0:
423,175,76552,6,0,L|416:114,1,33.3333333333333,8|0,0:0|0:0,0:0:0:0:
319,146,76706,2,0,L|310:69,1,39.9999987792969,8|0,0:0|0:0,0:0:0:0:
214,116,76860,2,0,L|208:57,1,46.6666652425131,8|0,0:0|0:0,0:0:0:0:
410,62,77014,6,0,L|418:141,1,80,4|0,3:2|3:0,0:0:0:0:
410,322,77314,6,0,L|418:242,1,80,10|0,0:0|3:0,0:0:0:0:
320,192,77614,1,2,3:2:0:0:
216,296,77764,2,0,L|296:296,1,80,8|2,0:0|0:0,0:0:0:0:
192,192,78064,1,0,3:0:0:0:
102,322,78214,6,0,L|93:242,1,80,2|0,0:0|3:0,0:0:0:0:
183,112,78514,2,0,L|191:191,1,80,10|0,0:0|0:0,0:0:0:0:
296,296,78814,5,2,0:0:0:0:
298,269,78914,1,2,0:0:0:0:
301,242,79014,1,2,0:0:0:0:
304,216,79114,5,8,0:0:0:0:
376,236,79214,1,0,3:0:0:0:
440,199,79314,1,0,3:0:0:0:
459,127,79414,6,0,B|352:116|352:116|349:118|349:118|301:113|301:113|298:116|298:116|199:106,1,240,6|0,3:1|3:0,0:0:0:0:
196,140,79939,1,0,3:0:0:0:
171,172,80014,6,0,L|290:163,1,89.9999972534181,4|0,3:2|3:0,0:0:0:0:
331,305,80314,6,0,L|242:299,1,89.9999972534181,10|0,0:0|3:0,0:0:0:0:
330,222,80614,1,2,3:2:0:0:
492,259,80764,2,0,L|485:348,1,89.9999972534181,8|2,0:0|0:0,0:0:0:0:
408,260,81064,1,0,0:0:0:0:
361,100,81214,6,0,L|450:106,1,89.9999972534181,2|0,3:2|3:0,0:0:0:0:
330,222,81514,2,0,L|291:140,1,89.9999972534181,10|0,0:0|0:0,0:0:0:0:
151,100,81814,5,2,0:0:0:0:
121,102,81914,1,2,0:0:0:0:
91,104,82014,1,2,0:0:0:0:
61,106,82114,5,8,0:0:0:0:
111,173,82214,1,0,3:0:0:0:
111,257,82314,1,0,3:0:0:0:
58,322,82414,5,10,0:1:0:0:
256,96,82614,5,8,0:0:0:0:
454,322,82814,5,8,0:0:0:0:
256,192,83014,5,10,0:1:0:0:
256,192,83089,1,8,0:0:0:0:
348,162,83764,5,10,0:1:0:0:
362,145,83839,1,8,0:0:0:0:
199,79,84214,5,10,0:1:0:0:
204,116,84289,1,8,0:0:0:0:
124,266,84889,5,10,0:1:0:0:
142,192,84964,1,8,0:0:0:0:
370,44,85264,5,2,3:1:0:0:
352,118,85339,1,0,3:0:0:0:
370,192,85414,5,12,0:0:0:0:
499,118,85564,1,2,3:1:0:0:
296,170,85714,5,8,0:0:0:0:
483,224,85864,1,2,3:1:0:0:
278,96,86014,5,8,0:0:0:0:
344,368,86164,1,2,3:1:0:0:
370,44,86314,5,8,0:0:0:0:
142,340,86464,1,2,3:1:0:0:
370,192,86614,5,0,3:0:0:0:
424,119,86714,5,0,3:0:0:0:
370,44,86814,5,0,3:0:0:0:
281,72,86914,5,8,0:0:0:0:
280,165,87214,1,8,0:0:0:0:
370,192,87514,1,8,0:0:0:0:
424,119,87814,1,8,0:0:0:0:
256,192,87914,12,0,88864,0:0:0:0:
176,211,89014,6,0,L|165:298,1,50,4|0,3:2|0:0,0:0:0:0:
264,327,89164,1,8,0:0:0:0:
264,327,89239,1,0,0:0:0:0:
264,327,89314,2,0,L|270:277,1,50,0|0,3:0|3:0,0:0:0:0:
163,111,89464,2,0,L|176:215,1,100,8|0,0:0|3:0,0:0:0:0:
349,111,89764,1,8,0:0:0:0:
243,19,89914,1,0,3:0:0:0:
246,43,89989,1,0,3:0:0:0:
249,68,90064,1,8,0:0:0:0:
252,93,90139,1,0,0:0:0:0:
255,118,90214,5,4,3:2:0:0:
443,104,90364,2,0,P|418:48|372:18,1,100,8|0,0:0|0:0,0:0:0:0:
161,125,90664,2,0,P|186:181|232:211,1,100,8|0,0:0|3:0,0:0:0:0:
250,191,90889,1,0,3:0:0:0:
286,199,90964,1,8,0:0:0:0:
312,225,91039,1,0,3:0:0:0:
320,261,91114,1,0,3:0:0:0:
308,296,91189,1,0,3:0:0:0:
278,318,91264,1,8,0:0:0:0:
241,321,91339,1,0,3:0:0:0:
209,304,91414,5,4,3:2:0:0:
380,302,91564,2,0,L|523:301,1,100,8|0,0:0|3:0,0:0:0:0:
336,160,91864,1,8,0:0:0:0:
342,184,91939,1,0,0:0:0:0:
348,208,92014,2,0,L|437:207,1,50,0|0,3:0|0:0,0:0:0:0:
456,134,92164,2,0,L|406:134,1,50,8|0,0:0|3:0,0:0:0:0:
245,72,92314,1,0,3:0:0:0:
282,72,92389,1,0,3:0:0:0:
314,90,92464,1,8,0:0:0:0:
333,122,92539,1,0,0:0:0:0:
335,159,92614,5,4,3:2:0:0:
166,115,92764,2,0,P|156:55|188:1,1,100,8|0,0:0|0:0,0:0:0:0:
387,15,93064,1,8,0:0:0:0:
348,24,93139,1,0,0:0:0:0:
318,50,93214,1,0,3:0:0:0:
305,87,93289,1,0,3:0:0:0:
311,127,93364,1,8,0:0:0:0:
334,159,93439,1,0,0:0:0:0:
357,190,93514,1,0,3:0:0:0:
363,230,93589,1,0,3:0:0:0:
349,267,93664,1,0,3:0:0:0:
320,293,93739,1,0,3:0:0:0:
281,303,93814,5,4,3:2:0:0:
134,232,93964,1,8,0:0:0:0:
85,234,94039,1,0,3:0:0:0:
48,266,94114,1,0,3:0:0:0:
40,314,94189,1,0,3:0:0:0:
65,357,94264,1,8,0:0:0:0:
110,374,94339,1,0,3:0:0:0:
157,359,94414,1,0,3:0:0:0:
183,317,94489,1,0,3:0:0:0:
180,267,94564,1,8,0:0:0:0:
163,221,94639,1,0,3:0:0:0:
134,180,94714,1,0,3:0:0:0:
95,149,94789,1,0,3:0:0:0:
64,111,94864,1,8,0:0:0:0:
66,62,94939,1,0,3:0:0:0:
100,28,95014,5,4,3:2:0:0:
149,24,95089,1,0,3:0:0:0:
188,55,95164,1,8,0:0:0:0:
196,103,95239,1,0,3:0:0:0:
187,151,95314,1,0,3:0:0:0:
208,195,95389,1,0,3:0:0:0:
252,218,95464,1,8,0:0:0:0:
300,209,95539,1,0,3:0:0:0:
334,174,95614,1,0,3:0:0:0:
339,125,95689,1,0,3:0:0:0:
315,83,95764,1,8,0:0:0:0:
271,60,95839,1,0,3:0:0:0:
221,56,95914,1,0,3:0:0:0:
174,71,95989,1,0,3:0:0:0:
137,104,96064,1,8,0:0:0:0:
115,149,96139,1,0,3:0:0:0:
113,198,96214,5,4,3:2:0:0:
152,180,96289,1,0,3:0:0:0:
195,184,96364,1,0,3:0:0:0:
230,210,96439,1,0,3:0:0:0:
248,249,96514,1,0,3:0:0:0:
243,292,96589,1,0,3:0:0:0:
218,327,96664,1,0,3:0:0:0:
178,344,96739,1,0,3:0:0:0:
135,340,96814,5,0,3:0:0:0:
161,323,96889,1,0,3:0:0:0:
190,310,96964,1,0,3:0:0:0:
221,304,97039,1,0,3:0:0:0:
252,303,97114,1,0,3:0:0:0:
283,308,97189,1,0,3:0:0:0:
312,318,97264,1,0,3:0:0:0:
339,333,97339,1,0,3:0:0:0:
363,354,97414,5,12,0:0:0:0:
148,29,97714,1,12,0:0:0:0:
135,340,98014,1,8,0:0:0:0:
135,340,98089,1,8,0:0:0:0:
135,340,98164,1,0,3:0:0:0:
381,206,98314,1,8,0:0:0:0:
376,243,98389,1,8,0:0:0:0:
372,280,98464,1,8,0:0:0:0:
367,317,98539,1,8,0:0:0:0:
363,354,98614,5,4,3:2:0:0:
305,157,98764,2,0,P|351:120|429:132,1,100,8|0,0:0|3:0,0:0:0:0:
470,297,99064,2,0,L|371:279,1,100,8|0,0:0|3:0,0:0:0:0:
206,174,99364,1,8,0:0:0:0:
189,176,99439,1,0,3:0:0:0:
173,179,99514,1,0,3:0:0:0:
156,182,99589,1,0,3:0:0:0:
140,185,99664,1,8,0:0:0:0:
123,188,99739,1,0,0:0:0:0:
107,191,99814,5,4,3:2:0:0:
241,380,99964,2,0,L|258:281,1,100,8|0,0:0|0:0,0:0:0:0:
271,4,100264,2,0,L|253:102,1,100,8|0,0:0|3:0,0:0:0:0:
306,210,100564,1,8,0:0:0:0:
338,204,100639,1,0,3:0:0:0:
371,198,100714,1,0,3:0:0:0:
403,192,100789,1,0,3:0:0:0:
436,186,100864,1,8,0:0:0:0:
468,180,100939,1,0,3:0:0:0:
501,174,101014,5,4,3:2:0:0:
338,42,101164,2,0,L|325:116,1,50,8|0,0:0|0:0,0:0:0:0:
191,168,101314,1,0,3:0:0:0:
223,151,101389,1,0,3:0:0:0:
260,153,101464,1,8,0:0:0:0:
290,175,101539,1,0,0:0:0:0:
305,209,101614,2,0,L|292:283,1,50,0|0,3:0|0:0,0:0:0:0:
182,118,101764,2,0,L|194:192,1,50,8|0,0:0|3:0,0:0:0:0:
416,75,101914,1,0,3:0:0:0:
409,111,101989,1,0,3:0:0:0:
403,148,102064,1,8,0:0:0:0:
396,185,102139,1,0,0:0:0:0:
390,222,102214,5,4,3:2:0:0:
168,34,102364,1,8,0:0:0:0:
344,34,102514,1,0,3:0:0:0:
121,222,102664,1,8,0:0:0:0:
409,111,102814,1,0,3:0:0:0:
103,111,102964,1,8,0:0:0:0:
74,128,103039,1,8,0:0:0:0:
53,154,103114,1,8,0:0:0:0:
41,184,103189,1,8,0:0:0:0:
38,218,103264,1,8,0:0:0:0:
46,250,103339,1,8,0:0:0:0:
63,278,103414,5,4,3:2:0:0:
202,124,103564,2,0,L|74:107,1,100,8|0,0:0|3:0,0:0:0:0:
261,251,103864,1,8,0:0:0:0:
261,251,103939,1,0,0:0:0:0:
261,251,104014,2,0,L|162:265,1,100,0|8,3:0|0:0,0:0:0:0:
409,111,104314,2,0,L|281:94,1,100,0|8,3:0|0:0,0:0:0:0:
468,238,104614,5,4,3:2:0:0:
370,18,104764,1,8,0:0:0:0:
370,18,104839,1,0,0:0:0:0:
370,18,104914,2,0,L|442:8,1,50,0|0,3:0|3:0,0:0:0:0:
347,191,105064,2,0,L|274:181,1,50,8|0,0:0|0:0,0:0:0:0:
142,18,105214,2,0,L|69:8,1,50,0|0,3:0|3:0,0:0:0:0:
165,191,105364,2,0,L|237:181,1,50,12|0,0:0|0:0,0:0:0:0:
270,56,105514,1,0,3:0:0:0:
270,56,105589,1,0,3:0:0:0:
270,56,105664,1,8,0:0:0:0:
270,56,105739,1,0,0:0:0:0:
270,56,105814,5,4,3:2:0:0:
280,78,105889,1,0,3:0:0:0:
287,102,105964,1,0,3:0:0:0:
287,127,106039,1,0,3:0:0:0:
281,151,106114,1,0,3:0:0:0:
277,176,106189,1,0,3:0:0:0:
278,201,106264,1,0,3:0:0:0:
284,225,106339,1,0,3:0:0:0:
292,249,106414,1,0,3:0:0:0:
309,267,106489,1,0,3:0:0:0:
330,280,106564,1,0,3:0:0:0:
355,285,106639,1,0,3:0:0:0:
379,282,106714,1,8,0:0:0:0:
402,272,106789,1,0,3:0:0:0:
420,254,106864,1,0,3:0:0:0:
431,232,106939,1,0,3:0:0:0:
437,209,107014,5,12,0:0:0:0:
431,177,107114,1,0,3:0:0:0:
413,149,107214,1,0,3:0:0:0:
385,131,107314,1,8,0:0:0:0:
353,126,107414,1,0,3:0:0:0:
321,135,107514,1,0,3:0:0:0:
296,157,107614,1,8,0:0:0:0:
270,178,107714,1,0,3:0:0:0:
239,187,107814,1,0,3:0:0:0:
206,182,107914,1,0,3:0:0:0:
178,164,108014,1,0,3:0:0:0:
160,136,108114,1,0,3:0:0:0:
156,104,108214,6,0,P|170:57|184:43,1,59.9999981689454,4|0,3:2|2:0,0:0:0:0:
248,18,108514,2,0,P|295:32|309:46,1,59.9999981689454,0|0,3:0|2:0,0:0:0:0:
242,196,108814,2,0,P|195:182|181:168,1,59.9999981689454,12|0,0:0|2:0,0:0:0:0:
334,110,109114,2,0,P|320:157|306:171,1,59.9999981689454,0|0,0:0|2:0,0:0:0:0:
122,132,109414,6,0,P|117:161|101:186,1,59.9999981689454,6|0,3:1|0:0,0:0:0:0:
58,252,109714,2,0,P|87:256|112:272,1,59.9999981689454,0|0,0:0|0:0,0:0:0:0:
294,307,110014,2,0,L|334:316,1,39.9999987792969,14|0,0:1|0:0,0:0:0:0:
217,307,110214,1,0,3:0:0:0:
217,307,110314,2,0,L|178:316,1,39.9999987792969,8|0,0:0|3:0,0:0:0:0:
256,241,110514,1,0,3:0:0:0:
255,241,110614,6,0,P|303:225|351:237,1,100.000003814697,6|0,3:1|0:0,0:0:0:0:
383,143,110914,2,0,L|349:242,1,100.000003814697,8|0,0:0|0:0,0:0:0:0:
160,237,111214,2,0,P|207:252|255:240,1,100.000003814697,6|0,3:1|0:0,0:0:0:0:
192,142,111514,2,0,L|158:241,1,100.000003814697,8|0,0:0|0:0,0:0:0:0:
14,19,111814,6,0,L|-13:97,1,50.0000019073487,8|0,0:0|3:0,0:0:0:0:
30,133,112014,1,0,3:0:0:0:
30,133,112114,2,0,L|3:211,1,50.0000019073487,8|0,0:0|0:0,0:0:0:0:
46,247,112314,1,8,0:0:0:0:
46,247,112414,2,0,L|19:325,1,50.0000019073487,0|8,3:0|0:0,0:0:0:0:
74,384,112614,1,8,0:0:0:0:
74,384,112714,2,0,L|91:337,1,50.0000019073487,8|0,0:0|3:0,0:0:0:0:
141,247,112914,1,0,3:0:0:0:
141,247,113014,6,0,L|168:325,1,50.0000019073487,4|0,3:2|0:0,0:0:0:0:
236,224,113214,2,0,L|263:302,1,50.0000019073487,0|0,0:0|0:0,0:0:0:0:
331,201,113414,2,0,L|358:279,1,50.0000019073487,0|0,3:0|0:0,0:0:0:0:
426,178,113614,6,0,L|453:256,1,79.9999975585938,12|0,0:0|0:0,0:0:0:0:
141,247,113914,1,0,0:0:0:0:
385,79,114214,6,0,L|358:157,1,58.3333338896433,4|0,3:2|0:0,0:0:0:0:
267,144,114414,2,0,L|286:88,1,58.3333338896433,0|0,0:0|0:0,0:0:0:0:
404,23,114614,2,0,L|377:101,1,58.3333338896433,0|0,3:0|0:0,0:0:0:0:
247,199,114814,2,0,L|266:143,1,58.3333338896433,8|0,0:0|0:0,0:0:0:0:
189,55,115014,1,0,3:0:0:0:
189,55,115114,2,0,L|268:146,1,116.666667779287,0|0,3:0|0:0,0:0:0:0:
457,189,115414,5,6,3:2:0:0:
410,157,115514,1,0,0:0:0:0:
354,168,115614,1,0,3:0:0:0:
321,214,115714,5,10,0:0:0:0:
331,270,115814,1,0,3:0:0:0:
377,303,115914,1,0,0:0:0:0:
433,294,116014,5,2,3:2:0:0:
387,261,116114,1,0,0:0:0:0:
331,270,116214,1,0,3:0:0:0:
298,315,116314,2,0,P|234:333|170:317,1,133.333333333333,14|0,0:1|0:0,0:0:0:0:
34,171,116614,5,2,3:2:0:0:
99,156,116714,1,0,0:0:0:0:
164,141,116814,1,0,3:0:0:0:
229,126,116914,5,14,0:2:0:0:
210,190,117014,1,0,3:0:0:0:
190,253,117114,1,0,0:0:0:0:
170,317,117214,6,0,P|195:320|246:285,1,66.6666666666667,2|0,3:2|0:0,0:0:0:0:
249,62,117414,2,0,P|224:59|173:94,1,66.6666666666667,8|8,0:0|0:0,0:0:0:0:
59,254,117614,2,0,P|88:269|121:267,1,66.6666666666667,0|0,3:0|3:0,0:0:0:0:
328,86,117814,6,0,P|255:98|224:163,1,150.000005722046,4|0,3:2|0:0,0:0:0:0:
330,236,118214,1,0,3:0:0:0:
399,49,118414,2,0,L|300:165,1,150.000005722046,12|0,0:0|0:0,0:0:0:0:
414,197,118814,1,0,3:0:0:0:
484,11,119014,6,0,P|435:15|398:48,1,100.000003814697,4|0,3:2|0:0,0:0:0:0:
28,11,119614,2,0,P|76:15|113:48,1,100.000003814697,4|0,3:2|0:0,0:0:0:0:
256,320,120214,5,10,0:1:0:0:
256,320,120314,1,8,0:0:0:0:
229,172,120914,2,0,L|336:179,1,100.000003814697,10|0,0:1|0:0,0:0:0:0:
76,96,121414,6,0,L|183:103,1,100.000003814697,10|0,0:1|0:0,0:0:0:0:
146,185,121714,1,0,0:0:0:0:
366,185,121914,1,10,0:1:0:0:
336,102,122014,1,8,0:0:0:0:
55,266,122814,6,0,P|96:238|145:245,1,100.000003814697,4|0,3:2|0:0,0:0:0:0:
113,307,123114,2,0,P|153:279|202:286,1,100.000003814697,4|0,3:2|0:0,0:0:0:0:
170,347,123414,2,0,P|210:319|259:326,1,100.000003814697,4|0,3:2|0:0,0:0:0:0:
320,131,123814,5,10,0:1:0:0:
320,131,123914,1,8,0:0:0:0:
320,131,124814,5,10,0:1:0:0:
320,131,124914,1,8,0:0:0:0:
320,131,126214,5,6,3:2:0:0:
240,143,126364,1,0,0:0:0:0:
252,223,126514,1,8,0:0:0:0:
332,211,126664,1,0,3:0:0:0:
269,67,126814,5,0,0:0:0:0:
176,192,126964,1,2,3:2:0:0:
301,285,127114,1,0,3:0:0:0:
394,160,127264,1,0,3:0:0:0:
240,143,127414,5,0,3:0:0:0:
332,211,127564,1,10,0:0:0:0:
269,67,127714,1,0,3:0:0:0:
301,285,127864,1,0,3:0:0:0:
320,131,128014,5,6,3:2:0:0:
252,223,128164,1,8,0:0:0:0:
344,291,128314,1,2,3:2:0:0:
412,199,128464,1,0,0:0:0:0:
240,143,128614,5,8,0:0:0:0:
301,285,128764,1,0,3:0:0:0:
320,131,128914,1,0,0:0:0:0:
221,297,129064,1,2,3:2:0:0:
332,211,129214,5,0,3:0:0:0:
160,155,129364,1,0,3:0:0:0:
252,223,129514,1,8,0:0:0:0:
228,63,129664,1,2,1:2:0:0:
228,63,129739,1,0,1:0:0:0:
228,63,129814,1,0,1:0:0:0:
172,235,129964,1,8,0:0:0:0:
320,131,130114,5,6,3:2:0:0:
160,155,130264,1,0,1:0:0:0:
160,155,130339,1,0,1:0:0:0:
160,155,130414,1,2,3:2:0:0:
350,56,130564,1,0,3:0:0:0:
290,206,130714,1,10,0:0:0:0:
270,67,130864,1,0,3:0:0:0:
260,281,131014,5,0,3:0:0:0:
240,143,131164,1,2,3:2:0:0:
398,261,131314,1,0,3:0:0:0:
378,123,131464,1,2,3:2:0:0:
210,219,131614,1,0,3:0:0:0:
350,56,131764,1,10,0:2:0:0:
260,281,131914,1,0,3:0:0:0:
270,67,132064,1,0,3:0:0:0:
181,293,132214,5,6,3:2:0:0:
320,131,132364,1,8,0:0:0:0:
102,305,132514,1,0,3:0:0:0:
290,206,132664,1,2,3:2:0:0:
52,242,132814,1,8,0:0:0:0:
260,281,132964,1,0,3:0:0:0:
2,179,133114,1,0,3:0:0:0:
181,293,133264,1,2,3:2:0:0:
31,104,133414,5,14,0:2:0:0:
109,312,133564,1,0,1:0:0:0:
109,312,133639,1,0,1:0:0:0:
109,312,133714,1,0,1:0:0:0:
60,29,133864,1,2,3:2:0:0:
52,242,134014,1,0,3:0:0:0:
139,16,134164,1,0,3:0:0:0:
2,179,134314,1,2,3:2:0:0:
218,3,134464,1,0,3:0:0:0:
31,104,134614,5,4,3:2:0:0:
32,115,134714,1,0,3:0:0:0:
33,126,134814,1,0,3:0:0:0:
99,162,134914,5,0,3:0:0:0:
98,173,135014,1,0,3:0:0:0:
97,184,135114,1,0,3:0:0:0:
31,220,135214,5,10,0:1:0:0:
32,231,135314,1,0,3:0:0:0:
33,242,135414,1,0,3:0:0:0:
99,278,135514,5,2,3:1:0:0:
98,289,135614,1,0,3:0:0:0:
97,300,135714,1,0,3:0:0:0:
31,336,135814,5,0,3:0:0:0:
32,347,135914,1,0,3:0:0:0:
33,358,136014,1,0,3:0:0:0:
148,357,136114,5,2,3:1:0:0:
170,354,136214,1,0,3:0:0:0:
192,352,136314,1,0,3:0:0:0:
227,282,136414,5,0,3:0:0:0:
249,285,136514,1,0,3:0:0:0:
271,287,136614,1,0,3:0:0:0:
306,357,136714,5,10,0:1:0:0:
328,354,136814,1,0,3:0:0:0:
350,352,136914,1,0,3:0:0:0:
385,282,137014,5,2,3:1:0:0:
407,285,137114,1,0,3:0:0:0:
429,287,137214,1,0,3:0:0:0:
464,357,137314,5,0,3:0:0:0:
486,354,137414,1,0,3:0:0:0:
508,352,137514,1,0,3:0:0:0:
496,243,137614,5,2,3:1:0:0:
499,198,137714,1,0,3:0:0:0:
503,154,137814,1,0,3:0:0:0:
417,117,137914,5,0,3:0:0:0:
420,162,138014,1,0,3:0:0:0:
424,206,138114,1,0,3:0:0:0:
338,243,138214,5,2,3:1:0:0:
341,198,138314,1,0,3:0:0:0:
345,154,138414,1,0,3:0:0:0:
259,117,138514,5,10,0:1:0:0:
262,162,138614,1,0,3:0:0:0:
266,206,138714,1,0,3:0:0:0:
180,243,138814,5,0,3:0:0:0:
183,198,138914,1,0,3:0:0:0:
187,154,139014,1,0,3:0:0:0:
101,117,139114,6,0,L|109:224,1,66.6666666666667,14|0,0:1|3:0,0:0:0:0:
171,65,139314,1,0,3:0:0:0:
23,58,139414,5,2,3:1:0:0:
27,124,139514,1,0,3:0:0:0:
31,190,139614,1,0,3:0:0:0:
35,256,139714,1,6,3:1:0:0:
347,45,140014,5,6,3:1:0:0:
363,46,140114,1,0,3:0:0:0:
380,48,140214,1,0,3:0:0:0:
348,129,140314,5,0,3:0:0:0:
364,130,140414,1,0,3:0:0:0:
381,132,140514,1,0,3:0:0:0:
349,213,140614,5,10,0:1:0:0:
365,214,140714,1,0,3:0:0:0:
382,216,140814,1,0,3:0:0:0:
350,297,140914,5,10,0:1:0:0:
366,298,141014,1,0,3:0:0:0:
383,300,141114,1,0,3:0:0:0:
351,381,141214,5,0,3:0:0:0:
367,382,141314,1,0,3:0:0:0:
384,384,141414,1,0,3:0:0:0:
281,338,141514,5,2,3:1:0:0:
248,341,141614,1,0,3:0:0:0:
215,344,141714,1,0,3:0:0:0:
280,254,141814,5,0,3:0:0:0:
247,257,141914,1,0,3:0:0:0:
214,260,142014,1,0,3:0:0:0:
279,170,142114,5,10,0:1:0:0:
246,173,142214,1,0,3:0:0:0:
213,176,142314,1,0,3:0:0:0:
278,86,142414,5,10,0:1:0:0:
245,89,142514,1,0,3:0:0:0:
212,92,142614,1,0,3:0:0:0:
277,2,142714,5,0,3:0:0:0:
244,5,142814,1,0,3:0:0:0:
211,8,142914,1,0,3:0:0:0:
344,48,143014,5,6,3:1:0:0:
411,38,143114,1,0,3:0:0:0:
465,76,143214,1,0,3:0:0:0:
484,139,143314,1,8,0:0:0:0:
453,198,143414,1,0,3:0:0:0:
391,223,143514,1,0,3:0:0:0:
327,206,143614,1,2,3:1:0:0:
290,150,143714,1,0,3:0:0:0:
223,148,143814,1,0,3:0:0:0:
174,193,143914,1,8,0:0:0:0:
171,259,144014,1,0,3:0:0:0:
218,305,144114,1,0,3:0:0:0:
284,306,144214,1,2,3:1:0:0:
329,257,144314,1,0,3:0:0:0:
326,190,144414,1,0,3:0:0:0:
370,140,144514,1,8,0:0:0:0:
436,137,144614,1,0,3:0:0:0:
485,182,144714,1,0,3:0:0:0:
489,247,144814,5,10,0:1:0:0:
409,253,144914,1,8,0:0:0:0:
329,257,145014,1,8,0:0:0:0:
248,262,145114,1,10,0:1:0:0:
168,266,145214,1,8,0:0:0:0:
87,271,145314,1,8,0:0:0:0:
50,343,145414,5,2,0:0:0:0:
29,75,150214,5,6,3:1:0:0:
95,70,150314,1,0,0:0:0:0:
162,66,150414,1,0,0:0:0:0:
201,136,150514,5,0,3:0:0:0:
134,140,150614,1,0,0:0:0:0:
67,144,150714,1,0,0:0:0:0:
105,213,150814,5,10,0:1:0:0:
172,209,150914,1,0,0:0:0:0:
239,205,151014,1,0,0:0:0:0:
277,274,151114,5,0,0:0:0:0:
210,278,151214,1,0,0:0:0:0:
143,282,151314,1,0,0:0:0:0:
249,345,151414,5,0,0:0:0:0:
308,376,151514,1,0,0:0:0:0:
364,341,151614,1,0,0:0:0:0:
373,213,151714,5,0,3:0:0:0:
306,209,151814,1,0,0:0:0:0:
239,205,151914,1,0,0:0:0:0:
315,83,152014,5,0,3:1:0:0:
382,79,152114,1,0,0:0:0:0:
449,75,152214,1,0,0:0:0:0:
279,27,152314,5,2,3:1:0:0:
248,86,152414,1,0,0:0:0:0:
283,142,152514,1,0,0:0:0:0:
461,152,152614,5,12,0:0:0:0:
449,75,152714,1,0,0:0:0:0:
436,0,152814,1,0,0:0:0:0:
373,49,152914,5,0,0:0:0:0:
361,126,153014,1,0,0:0:0:0:
348,201,153114,1,0,0:0:0:0:
284,249,153214,5,0,0:0:0:0:
272,172,153314,1,0,0:0:0:0:
259,97,153414,1,0,0:0:0:0:
196,146,153514,5,0,3:0:0:0:
184,223,153614,1,0,0:0:0:0:
171,298,153714,1,0,0:0:0:0:
36,169,153814,5,4,3:2:0:0:
109,111,153914,1,0,0:0:0:0:
196,146,154014,1,0,3:0:0:0:
330,79,154114,5,8,0:0:0:0:
266,13,154214,1,8,0:0:0:0:
183,54,154314,1,8,0:0:0:0:
287,161,154414,5,2,3:1:0:0:
379,157,154514,1,0,0:0:0:0:
421,75,154614,1,0,3:0:0:0:
266,13,154714,5,10,0:1:0:0:
183,54,154814,1,0,3:0:0:0:
196,146,154914,1,0,3:0:0:0:
363,0,155014,5,6,3:1:0:0:
256,192,155089,12,0,159364,0:0:0:0:
239,324,159514,6,8,L|146:333,2,66.6666666666667,10|8|10,0:1|0:0|0:1,0:0:0:0:
310,188,159889,6,0,L|302:254,1,66.6666666666667,10|0,0:1|0:0,0:0:0:0:
206,148,160139,2,0,L|213:214,1,66.6666666666667,10|0,0:1|0:0,0:0:0:0:
317,121,160389,2,0,L|309:187,1,66.6666666666667,10|0,0:1|0:0,0:0:0:0:
198,81,160639,2,0,L|205:147,1,66.6666666666667,10|0,0:1|0:0,0:0:0:0:
324,55,160889,1,8,0:0:0:0:
190,14,161014,5,6,3:1:0:0:
190,14,161139,1,0,3:0:0:0:
190,14,161264,1,0,3:0:0:0:
190,14,161389,1,0,3:0:0:0:
430,192,161764,5,10,0:1:0:0:
430,192,161889,1,0,3:0:0:0:
430,192,162014,1,0,3:0:0:0:
430,192,162139,1,0,3:0:0:0:
46,294,162514,5,2,3:1:0:0:
466,294,162764,1,2,3:1:0:0:
46,294,163014,1,2,3:1:0:0:
466,294,163264,5,10,0:1:0:0:
454,221,163389,1,0,3:0:0:0:
396,267,163514,1,0,3:0:0:0:
466,294,163639,5,10,0:1:0:0:
442,148,163764,1,0,3:0:0:0:
327,241,163889,1,0,3:0:0:0:
466,294,164014,5,6,3:1:0:0:
430,75,164139,1,0,3:0:0:0:
258,215,164264,1,0,3:0:0:0:
466,294,164389,1,2,3:1:0:0:
478,282,164764,5,10,0:1:0:0:
404,72,164889,1,0,3:0:0:0:
259,240,165014,1,0,3:0:0:0:
478,282,165139,1,2,3:1:0:0:
487,268,165514,5,10,0:1:0:0:
379,75,165639,1,8,0:0:0:0:
265,265,165764,1,0,3:0:0:0:
458,285,165889,5,2,3:1:0:0:
408,92,166014,1,0,3:0:0:0:
265,231,166139,1,0,3:0:0:0:
424,293,166264,5,10,0:1:0:0:
432,116,166389,1,0,3:0:0:0:
274,197,166514,1,0,3:0:0:0:
389,291,166639,5,2,3:1:0:0:
448,144,166764,1,0,3:0:0:0:
291,166,166889,1,0,3:0:0:0:
402,382,167014,5,6,3:1:0:0:
376,200,167139,1,0,3:0:0:0:
316,347,167264,1,0,3:0:0:0:
462,235,167389,1,8,0:0:0:0:
462,235,167764,5,6,3:1:0:0:
206,132,167889,1,0,3:0:0:0:
316,347,168014,1,0,3:0:0:0:
352,20,168139,1,8,0:0:0:0:
352,20,168514,6,0,L|447:3,1,50.0000019073487,6|0,3:1|0:0,0:0:0:0:
254,101,168764,2,0,L|320:90,1,66.6666666666667,6|0,3:1|0:0,0:0:0:0:
139,184,169014,2,0,L|221:170,1,83.3333333333333,6|0,3:1|0:0,0:0:0:0:
4,234,169264,2,0,L|142:257,2,100.000003814697,6|0|0,3:1|3:0|3:0,0:0:0:0:
144,85,169639,6,0,B|169:102|169:125|169:125|139:139|140:186|140:186|179:174|201:211|171:247|171:247|175:260|175:260|172:269|172:269|179:277|179:277|175:286|175:286|186:371,1,266.666666666667,14|0,0:1|0:0,0:0:0:0:
175,288,170014,5,6,3:1:0:0:
287,276,170139,1,0,3:0:0:0:
275,164,170264,1,0,3:0:0:0:
163,176,170389,1,8,0:0:0:0:
105,129,170764,5,6,3:1:0:0:
321,106,170889,1,0,3:0:0:0:
344,322,171014,1,0,3:0:0:0:
128,345,171139,1,8,0:0:0:0:
175,288,171514,5,2,3:2:0:0:
164,201,171639,1,0,3:0:0:0:
244,234,171764,1,0,3:0:0:0:
197,121,171889,5,10,0:0:0:0:
164,201,172014,1,8,0:0:0:0:
277,154,172139,1,8,0:0:0:0:
111,132,172264,5,2,2:0:0:0:
244,234,172389,1,0,3:0:0:0:
265,68,172514,1,0,3:0:0:0:
175,288,172639,5,10,0:0:0:0:
329,222,172764,1,0,3:0:0:0:
197,121,172889,1,0,3:0:0:0:
257,321,173014,5,6,3:1:0:0:
277,154,173139,1,0,3:0:0:0:
162,277,173264,1,0,3:0:0:0:
327,245,173389,1,8,0:0:0:0:
327,245,173764,5,6,3:1:0:0:
195,5,173889,1,0,3:0:0:0:
442,121,174014,1,0,3:0:0:0:
174,173,174139,2,0,L|84:146,1,66.6666666666667,8|0,0:0|3:0,0:0:0:0:
248,135,174389,1,0,3:0:0:0:
185,246,174514,6,0,P|179:271|181:295,1,50.0000019073487,6|0,3:1|0:0,0:0:0:0:
321,310,174764,2,0,P|329:277|326:243,1,66.6666666666667,6|0,3:1|0:0,0:0:0:0:
123,222,175014,2,0,P|112:262|114:304,1,83.3333333333333,6|0,3:1|0:0,0:0:0:0:
384,336,175264,2,0,P|396:285|393:234,2,100.000003814697,14|0|0,0:1|3:0|3:0,0:0:0:0:
218,162,175639,6,0,B|230:136|254:131|254:131|277:143|277:143|306:127|342:140|342:140|350:154|358:163|372:144|372:144|385:155|385:155|396:147|396:147|415:166|434:150|434:150|520:151,1,266.666666666667,14|0,0:0|0:0,0:0:0:0:
443,150,176014,5,6,3:1:0:0:
393,237,176139,1,0,3:0:0:0:
369,72,176264,1,0,3:0:0:0:
465,313,176389,1,8,0:0:0:0:
465,313,176764,5,6,3:1:0:0:
369,72,176889,1,0,3:0:0:0:
369,312,177014,1,0,3:0:0:0:
465,70,177139,2,0,P|497:72|526:89,2,66.6666666666667,8|0|8,0:0|3:0|0:0,0:0:0:0:
256,192,177514,5,6,3:2:0:0:
369,312,177639,1,8,0:0:0:0:
417,155,177764,1,8,0:0:0:0:
256,192,177889,5,10,0:0:0:0:
293,352,178014,1,0,3:0:0:0:
413,240,178139,1,0,3:0:0:0:
256,192,178264,5,10,0:0:0:0:
208,349,178389,1,0,3:0:0:0:
368,312,178514,1,8,0:0:0:0:
256,192,178639,5,10,0:0:0:0:
136,305,178764,1,8,0:0:0:0:
293,353,178889,1,8,0:0:0:0:
256,192,179014,6,0,L|189:195,1,66.6666666666667,6|0,3:1|0:0,0:0:0:0:
208,349,179264,1,0,3:0:0:0:
413,240,179389,2,0,L|419:174,1,66.6666666666667,10|0,0:1|0:0,0:0:0:0:
256,111,179639,1,8,0:0:0:0:
472,17,179764,2,0,L|466:83,1,66.6666666666667,2|0,3:1|0:0,0:0:0:0:
413,240,180014,1,0,3:0:0:0:
256,30,180139,2,0,L|189:26,1,66.6666666666667,10|0,0:1|3:0,0:0:0:0:
99,240,180389,1,0,0:0:0:0:
336,170,180514,6,0,P|352:140|356:107,1,66.6666666666667,2|0,3:1|0:0,0:0:0:0:
119,73,180764,1,0,3:0:0:0:
298,316,180889,2,0,P|331:315|361:302,1,66.6666666666667,10|0,0:1|3:0,0:0:0:0:
256,111,181139,1,8,0:0:0:0:
19,300,181264,2,0,P|3:270|0:237,1,66.6666666666667,2|8,3:1|0:0,0:0:0:0:
189,26,181514,1,0,3:0:0:0:
298,316,181639,2,0,P|331:315|361:302,1,66.6666666666667,10|0,0:1|0:0,0:0:0:0:
323,26,181889,1,8,0:0:0:0:
214,316,182014,6,0,P|180:315|150:302,1,66.6666666666667,6|0,3:1|0:0,0:0:0:0:
256,111,182264,1,0,3:0:0:0:
447,338,182389,2,0,L|431:233,1,66.6666666666667,8|0,0:0|0:0,0:0:0:0:
256,111,182639,1,0,0:0:0:0:
65,338,182764,2,0,L|81:233,1,66.6666666666667,0|0,3:0|0:0,0:0:0:0:
256,111,183014,1,0,3:0:0:0:
256,384,183139,2,0,L|256:288,1,66.6666666666667,8|0,0:0|0:0,0:0:0:0:
256,111,183389,1,10,0:1:0:0:
154,320,183514,5,4,3:2:0:0:
262,192,183639,1,8,0:0:0:0:
97,162,183764,1,0,3:0:0:0:
237,324,183889,5,0,3:0:0:0:
345,196,184014,1,0,3:0:0:0:
180,166,184139,1,0,3:0:0:0:
320,328,184264,5,8,0:0:0:0:
428,200,184389,1,0,3:0:0:0:
263,170,184514,1,0,3:0:0:0:
403,332,184639,5,0,3:0:0:0:
511,204,184764,1,0,3:0:0:0:
346,174,184889,1,0,3:0:0:0:
486,336,185014,6,0,L|469:261,1,66.6666666666667,6|0,3:1|0:0,0:0:0:0:
409,115,185264,1,0,3:0:0:0:
300,266,185389,2,0,L|375:249,1,66.6666666666667,8|0,0:0|0:0,0:0:0:0:
256,72,185639,1,8,0:0:0:0:
146,251,185764,2,0,L|212:266,1,66.6666666666667,2|0,3:1|0:0,0:0:0:0:
103,115,186014,1,0,3:0:0:0:
26,336,186139,2,0,L|43:261,1,66.6666666666667,8|0,0:0|3:0,0:0:0:0:
256,152,186389,1,0,3:0:0:0:
191,354,186514,5,0,3:0:0:0:
364,230,186639,1,0,0:0:0:0:
150,230,186764,1,0,3:0:0:0:
322,354,186889,2,0,L|416:344,1,66.6666666666667,8|0,0:0|3:0,0:0:0:0:
364,230,187139,1,0,0:0:0:0:
190,353,187264,2,0,L|96:343,1,66.6666666666667,0|0,3:0|3:0,0:0:0:0:
150,230,187514,1,0,3:0:0:0:
322,354,187639,2,0,L|416:344,1,66.6666666666667,12|0,0:0|3:0,0:0:0:0:
364,230,187889,1,8,0:0:0:0:
176,99,188014,5,6,3:1:0:0:
216,222,188139,1,0,0:0:0:0:
302,125,188264,1,0,3:0:0:0:
135,180,188389,5,10,0:1:0:0:
306,215,188514,1,0,3:0:0:0:
252,50,188639,1,0,3:0:0:0:
140,271,188764,6,0,L|137:328,3,33.3333333333333
210,295,189014,2,0,L|207:352,1,33.3333333333333,0|0,3:0|0:0,0:0:0:0:
372,271,189139,6,0,L|375:328,3,33.3333333333333,8|0|0|0,0:0|0:0|0:0|0:0,0:0:0:0:
302,295,189389,2,0,L|305:352,1,33.3333333333333,8|0,0:0|0:0,0:0:0:0:
306,215,189514,6,0,L|290:154,1,33.3333333333333,2|0,3:2|0:0,0:0:0:0:
250,137,189639,2,0,L|206:181,1,33.3333333333333,8|8,0:0|0:0,0:0:0:0:
211,223,189764,2,0,L|271:240,1,33.3333333333333,8|0,0:0|0:0,0:0:0:0:
351,123,189889,6,0,L|318:115,1,33.3333333333333,10|0,0:0|0:0,0:0:0:0:
149,143,190014,2,0,L|158:176,1,33.3333333333333,0|0,3:0|0:0,0:0:0:0:
267,308,190139,2,0,L|291:284,1,33.3333333333333,0|0,3:0|3:0,0:0:0:0:
221,65,190264,6,0,L|176:109,1,33.3333333333333,2|0,3:2|0:0,0:0:0:0:
163,285,190389,2,0,L|224:302,1,33.3333333333333,0|0,3:0|0:0,0:0:0:0:
383,225,190514,2,0,L|367:164,1,33.3333333333333,0|0,3:0|0:0,0:0:0:0:
256,192,190639,5,2,3:2:0:0:
256,192,190701,1,0,3:0:0:0:
256,192,190764,1,0,3:0:0:0:
256,192,190826,1,0,3:0:0:0:
256,192,190889,1,0,3:0:0:0:
256,192,190951,1,0,3:0:0:0:
256,192,191014,6,0,P|255:241|224:279,1,100,0|0,3:0|0:0,0:0:0:0:
352,183,191314,2,0,P|352:133|383:95,1,100,10|0,0:1|0:0,0:0:0:0:
249,4,191614,5,2,3:1:0:0:
250,20,191689,1,0,0:0:0:0:
252,37,191764,1,0,3:0:0:0:
254,53,191839,1,0,0:0:0:0:
286,69,191914,1,2,0:1:0:0:
284,85,191989,1,0,0:0:0:0:
282,102,192064,1,0,0:0:0:0:
280,118,192139,1,0,0:0:0:0:
248,134,192214,5,2,0:1:0:0:
250,150,192289,1,0,0:0:0:0:
252,167,192364,1,0,0:0:0:0:
254,183,192439,1,0,0:0:0:0:
286,199,192514,1,2,0:1:0:0:
284,215,192589,1,0,0:0:0:0:
282,232,192664,1,0,0:0:0:0:
280,248,192739,1,0,0:0:0:0:
248,264,192814,5,2,3:2:0:0:
248,264,192889,1,0,0:0:0:0:
248,264,192964,1,0,3:0:0:0:
340,310,193114,1,10,0:0:0:0:
340,310,193189,1,0,0:0:0:0:
340,310,193264,1,0,3:2:0:0:
425,253,193414,5,2,0:0:0:0:
425,253,193489,1,0,0:0:0:0:
425,253,193564,1,0,3:0:0:0:
418,150,193714,1,10,0:1:0:0:
418,150,193789,1,0,0:0:0:0:
418,150,193864,1,0,3:0:0:0:
326,105,194014,5,10,0:1:0:0:
326,105,194089,1,0,0:0:0:0:
326,105,194164,1,0,3:0:0:0:
241,161,194314,1,10,0:1:0:0:
241,161,194389,1,0,0:0:0:0:
241,161,194464,1,0,3:0:0:0:
150,114,194614,6,0,L|145:13,2,66.6666666666667,2|0|0,0:1|0:0|0:0,0:0:0:0:
64,169,194914,2,0,L|-25:122,2,66.6666666666667,14|0|0,0:1|0:0|0:0,0:0:0:0:
67,270,195214,2,0,L|-18:324,2,66.6666666666667,2|0|0,3:1|0:0|0:0,0:0:0:0:
155,317,195514,1,2,0:1:0:0:
327,310,195664,2,0,L|239:264,1,100,6|0,3:1|0:0,0:0:0:0:
416,357,195964,5,2,3:1:0:0:
407,158,196114,1,8,0:0:0:0:
239,264,196264,1,0,0:0:0:0:
411,257,196414,1,2,3:1:0:0:
428,255,196489,1,0,0:0:0:0:
444,251,196564,1,0,3:0:0:0:
459,244,196639,1,0,0:0:0:0:
473,234,196714,1,8,0:0:0:0:
484,222,196789,2,0,L|489:113,1,100,0|0,0:0|0:0,0:0:0:0:
487,97,197014,5,2,0:1:0:0:
473,83,197089,1,0,0:0:0:0:
458,72,197164,1,0,3:0:0:0:
441,64,197239,1,0,0:0:0:0:
423,60,197314,1,10,0:1:0:0:
404,59,197389,1,0,0:0:0:0:
386,61,197464,1,0,0:0:0:0:
368,66,197539,1,0,0:0:0:0:
351,75,197614,5,2,3:1:0:0:
365,102,197689,1,0,0:0:0:0:
374,132,197764,1,0,3:0:0:0:
372,163,197839,1,0,0:0:0:0:
362,193,197914,1,10,0:1:0:0:
353,223,197989,1,0,0:0:0:0:
352,254,198064,1,0,3:0:0:0:
359,284,198139,1,0,0:0:0:0:
371,313,198214,6,0,P|439:305|489:335,1,100,2|0,0:1|3:0,0:0:0:0:
267,200,198514,2,0,P|199:208|149:178,1,100,14|0,0:1|0:0,0:0:0:0:
275,384,198814,2,0,P|289:337|279:289,1,100,10|0,0:1|3:0,0:0:0:0:
227,30,199114,2,0,P|212:77|223:125,1,100,10|0,0:1|3:0,0:0:0:0:
451,198,199414,2,0,P|403:183|355:194,1,100,10|0,0:1|0:0,0:0:0:0:
61,186,199714,2,0,P|108:200|156:189,1,100,14|0,0:1|0:0,0:0:0:0:
512,0,200014,5,6,3:1:0:0:
0,384,200464,2,0,L|141:366,1,100,6|0,3:1|0:0,0:0:0:0:
198,358,200764,1,0,3:0:0:0:
73,172,200914,2,0,L|86:272,1,100,8|0,0:0|3:0,0:0:0:0:
438,172,201214,6,0,L|426:272,1,100,2|0,3:1|3:0,0:0:0:0:
314,358,201514,1,8,0:0:0:0:
512,384,201664,2,0,L|371:366,1,100,6|0,3:1|0:0,0:0:0:0:
256,257,201964,1,0,3:0:0:0:
445,116,202114,6,0,P|486:170|403:274,1,200,10|2,0:1|3:1,0:0:0:0:
345,128,202564,2,0,L|486:110,1,100,2|8,3:1|0:0,0:0:0:0:
179,101,202864,2,0,L|320:83,1,100,6|0,3:1|0:0,0:0:0:0:
13,74,203164,2,0,L|154:56,1,100,0|8,3:0|0:0,0:0:0:0:
112,322,203464,2,0,L|13:310,1,100,0|0,3:0|3:0,0:0:0:0:
278,295,203764,2,0,L|179:283,1,100,0|8,3:0|0:0,0:0:0:0:
444,268,204064,2,0,L|345:256,1,100,6|0,3:1|0:0,0:0:0:0:
336,241,204289,1,0,0:0:0:0:
332,225,204364,1,0,0:0:0:0:
332,208,204439,1,0,0:0:0:0:
336,192,204514,1,0,3:0:0:0:
345,178,204589,1,0,0:0:0:0:
356,166,204664,1,0,0:0:0:0:
226,41,204814,5,6,3:1:0:0:
244,58,204889,1,0,0:0:0:0:
252,81,204964,1,0,0:0:0:0:
250,105,205039,1,0,0:0:0:0:
237,127,205114,1,10,0:1:0:0:
216,140,205189,1,0,0:0:0:0:
191,143,205264,1,0,3:0:0:0:
168,134,205339,1,0,0:0:0:0:
151,116,205414,5,2,3:1:0:0:
182,115,205489,1,0,0:0:0:0:
210,127,205564,1,0,3:0:0:0:
232,148,205639,1,0,0:0:0:0:
244,177,205714,1,10,0:1:0:0:
244,208,205789,1,0,0:0:0:0:
232,237,205864,1,4,3:2:0:0:
210,258,205939,1,0,0:0:0:0:
181,269,206014,5,2,0:1:0:0:
198,236,206089,1,0,0:0:0:0:
226,211,206164,1,0,3:0:0:0:
261,199,206239,1,0,0:0:0:0:
299,199,206314,1,10,0:1:0:0:
333,213,206389,1,0,0:0:0:0:
360,239,206464,1,0,3:0:0:0:
376,273,206539,1,0,3:0:0:0:
379,310,206614,5,2,3:1:0:0:
348,280,206689,1,0,0:0:0:0:
336,239,206764,1,0,3:0:0:0:
346,197,206839,1,0,0:0:0:0:
377,167,206914,1,10,0:1:0:0:
407,136,206989,1,0,0:0:0:0:
418,94,207064,1,4,3:2:0:0:
406,53,207139,1,0,0:0:0:0:
374,23,207214,5,2,0:1:0:0:
344,62,207289,1,0,0:0:0:0:
338,111,207364,1,0,3:0:0:0:
356,157,207439,1,0,3:0:0:0:
394,189,207514,1,10,0:1:0:0:
443,198,207589,1,0,0:0:0:0:
480,229,207664,1,0,3:0:0:0:
487,277,207739,1,0,3:0:0:0:
460,318,207814,5,2,3:1:0:0:
412,329,207889,1,0,3:0:0:0:
370,306,207964,1,0,0:0:0:0:
353,260,208039,1,0,0:0:0:0:
356,211,208114,1,10,0:1:0:0:
328,171,208189,1,0,0:0:0:0:
281,155,208264,1,4,3:2:0:0:
235,172,208339,1,0,0:0:0:0:
208,213,208414,5,2,0:1:0:0:
494,133,208714,1,14,0:1:0:0:
0,38,209014,1,6,3:1:0:0:
292,84,209614,5,14,0:1:0:0:
323,76,209714,1,0,3:0:0:0:
354,68,209814,1,0,3:0:0:0:
334,163,209914,5,0,3:0:0:0:
351,190,210014,1,0,3:0:0:0:
368,217,210114,1,0,3:0:0:0:
271,227,210214,5,10,0:1:0:0:
251,251,210314,1,0,3:0:0:0:
230,276,210414,1,0,3:0:0:0:
190,187,210514,5,10,0:1:0:0:
160,175,210614,1,0,3:0:0:0:
131,163,210714,1,0,3:0:0:0:
203,98,210814,5,0,3:0:0:0:
205,67,210914,1,0,3:0:0:0:
208,34,211014,1,0,3:0:0:0:
94,107,211114,5,10,0:1:0:0:
102,151,211214,1,0,3:0:0:0:
112,195,211314,1,0,3:0:0:0:
78,290,211414,5,0,3:0:0:0:
122,295,211514,1,0,3:0:0:0:
167,300,211614,1,0,3:0:0:0:
246,361,211714,5,10,0:1:0:0:
265,321,211814,1,0,3:0:0:0:
283,280,211914,1,0,3:0:0:0:
366,223,212014,5,10,0:1:0:0:
333,193,212114,1,0,3:0:0:0:
300,162,212214,1,0,3:0:0:0:
272,66,212314,5,0,3:0:0:0:
233,88,212414,1,0,3:0:0:0:
194,110,212514,1,0,3:0:0:0:
158,248,212614,5,6,3:1:0:0:
208,296,212714,1,0,3:0:0:0:
275,278,212814,1,0,3:0:0:0:
295,209,212914,1,8,0:0:0:0:
244,160,213014,1,0,3:0:0:0:
177,178,213114,1,0,3:0:0:0:
138,253,213214,5,2,3:1:0:0:
202,315,213314,1,0,3:0:0:0:
289,292,213414,1,0,3:0:0:0:
314,203,213514,1,8,0:0:0:0:
249,140,213614,1,0,3:0:0:0:
162,163,213714,1,0,3:0:0:0:
118,258,213814,5,2,3:1:0:0:
196,334,213914,1,0,3:0:0:0:
300,304,214014,1,0,3:0:0:0:
326,198,214114,1,8,0:0:0:0:
248,123,214214,1,0,3:0:0:0:
144,153,214314,1,0,3:0:0:0:
97,262,214414,5,2,3:1:0:0:
189,353,214514,1,0,3:0:0:0:
313,318,214614,1,0,3:0:0:0:
345,192,214714,1,8,0:0:0:0:
253,102,214814,1,0,3:0:0:0:
129,136,214914,1,0,3:0:0:0:
97,262,215014,6,0,L|179:238,1,66.6666666666667,6|0,3:1|0:0,0:0:0:0:
345,192,215214,1,0,0:0:0:0:
345,192,215314,2,0,L|283:131,1,66.6666666666667,0|0,3:0|3:0,0:0:0:0:
161,6,215514,1,0,3:0:0:0:
161,6,215614,2,0,L|112:197,1,133.333333333333,10|0,0:1|0:0,0:0:0:0:
312,321,215914,2,0,L|344:191,1,133.333333333333,2|0,3:1|0:0,0:0:0:0:
182,353,216214,5,2,3:1:0:0:
225,342,216314,1,0,3:0:0:0:
268,331,216414,1,0,3:0:0:0:
312,321,216514,1,0,3:0:0:0:
269,310,216614,1,0,3:0:0:0:
226,299,216714,1,0,3:0:0:0:
182,289,216814,2,0,L|52:321,1,133.333333333333,8|0,0:0|0:0,0:0:0:0:
185,213,217114,1,0,3:0:0:0:
228,223,217214,1,0,3:0:0:0:
271,234,217314,1,0,3:0:0:0:
132,151,217414,5,2,3:1:0:0:
101,161,217489,1,0,3:0:0:0:
69,171,217564,1,0,3:0:0:0:
38,181,217639,1,0,3:0:0:0:
7,191,217714,2,0,L|35:310,1,100,2|0,3:1|0:0,0:0:0:0:
185,213,218014,2,0,L|143:387,1,133.333333333333,12|0,0:0|0:0,0:0:0:0:
327,213,218314,2,0,L|368:387,1,133.333333333333,2|0,3:1|0:0,0:0:0:0:
481,139,218614,5,2,3:1:0:0:
465,203,218714,1,0,3:0:0:0:
401,221,218814,1,0,3:0:0:0:
415,155,218914,2,0,P|456:206|449:271,1,133.333333333333,14|0,0:1|0:0,0:0:0:0:
266,187,219214,5,0,3:0:0:0:
282,251,219314,1,0,3:0:0:0:
346,269,219414,1,0,3:0:0:0:
331,203,219514,2,0,P|290:253|297:318,1,133.333333333333,14|0,0:1|0:0,0:0:0:0:
347,132,219814,5,10,0:1:0:0:
289,100,219914,1,0,0:0:0:0:
223,107,220014,1,0,0:0:0:0:
173,150,220114,1,0,3:0:0:0:
156,213,220214,1,0,0:0:0:0:
177,275,220314,1,0,0:0:0:0:
171,340,220414,1,2,3:1:0:0:
117,379,220514,1,0,0:0:0:0:
51,364,220614,1,0,3:0:0:0:
18,305,220714,1,8,0:0:0:0:
37,241,220814,1,0,0:0:0:0:
99,221,220914,1,0,0:0:0:0:
162,240,221014,6,0,L|182:335,2,66.6666666666667,10|0|0,0:1|0:0|0:0,0:0:0:0:
254,195,221314,2,0,L|234:290,2,66.6666666666667,0|0|0,3:0|0:0|0:0,0:0:0:0:
436,225,221614,2,0,L|449:290,2,66.6666666666667,2|0|0,3:1|0:0|0:0,0:0:0:0:
337,262,221914,2,0,L|323:327,2,66.6666666666667,8|0|0,0:0|0:0|0:0,0:0:0:0:
372,53,222214,5,10,0:1:0:0:
272,90,222314,1,0,0:0:0:0:
254,195,222414,1,8,0:0:0:0:
337,262,222514,1,2,3:1:0:0:
436,225,222614,1,8,0:0:0:0:
452,120,222714,1,8,0:0:0:0:
354,158,222814,5,2,3:1:0:0:
254,195,222914,1,0,3:0:0:0:
172,127,223014,1,0,3:0:0:0:
272,90,223114,1,2,3:1:0:0:
354,158,223214,1,0,3:0:0:0:
337,262,223314,1,0,3:0:0:0:
237,298,223414,6,0,L|104:294,1,100,6|0,3:1|0:0,0:0:0:0:
129,215,223714,1,0,3:0:0:0:
129,215,223814,2,0,L|228:218,1,89.9999972534181,14|0,0:1|0:0,0:0:0:0:
315,67,224214,2,0,L|225:64,1,80,2|0,3:1|0:0,0:0:0:0:
252,145,224514,1,0,3:0:0:0:
252,145,224614,2,0,L|331:147,1,69.9999978637696,10|0,0:1|0:0,0:0:0:0:
389,104,224914,1,0,3:0:0:0:
389,104,225014,6,0,P|402:156|364:217,1,119.999996337891,14|0,0:1|0:0,0:0:0:0:
295,223,225614,2,0,L|315:321,1,100,2|0,3:1|0:0,0:0:0:0:
236,297,226214,2,0,P|197:293|160:307,1,80,2|0,3:1|0:0,0:0:0:0:
210,370,226714,1,0,3:0:0:0:
210,370,226814,2,0,L|279:387,1,60.0600600600601,14|0,0:1|0:0,0:0:0:0:
333,298,227414,6,0,P|278:288|224:301,1,100.000003814697,6|0,3:1|0:0,0:0:0:0:
168,199,227875,2,0,P|222:209|276:195,1,100.000003814697,0|0,0:0|0:0,0:0:0:0:
159,99,228337,2,0,L|169:222,1,100.000003814697,8|0,0:0|0:0,0:0:0:0:
143,331,228798,2,0,L|133:218,1,100.000003814697,0|0,0:0|0:0,0:0:0:0:
49,352,229260,6,0,P|130:328|175:348,1,100.000003814697,6|0,3:1|0:0,0:0:0:0:
327,363,229721,2,0,P|278:371|231:355,1,100.000003814697
287,189,230183,2,0,L|285:289,1,100.000003814697,8|0,0:0|0:0,0:0:0:0:
205,159,230644,5,0,0:0:0:0:
262,95,230798,1,8,0:0:0:0:
319,31,230952,1,8,0:0:0:0:
179,78,231106,6,0,L|137:100,1,25.0000009536744,0|0,3:0|0:0,0:0:0:0:
80,79,231260,2,0,L|87:125,1,25.0000009536744,0|0,3:0|0:0,0:0:0:0:
50,173,231414,2,0,L|96:179,1,25.0000009536744,0|0,3:0|0:0,0:0:0:0:
130,230,231567,2,0,L|151:187,1,25.0000009536744,0|0,3:0|0:0,0:0:0:0:
210,171,231721,2,0,L|176:137,1,25.0000009536744,0|0,3:0|0:0,0:0:0:0:
54,253,231875,2,0,L|42:298,1,25.0000009536744,0|0,3:0|0:0,0:0:0:0:
203,347,232029,6,0,L|248:334,1,25.0000009536744,8|0,0:0|0:0,0:0:0:0:
311,195,232183,2,0,L|265:182,1,25.0000009536744,0|0,3:0|0:0,0:0:0:0:
207,274,232337,6,0,L|252:261,1,25.0000009536744,0|0,3:0|0:0,0:0:0:0:
315,122,232491,2,0,L|269:109,1,25.0000009536744,0|0,3:0|0:0,0:0:0:0:
211,201,232644,6,0,L|256:188,1,25.0000009536744,0|0,3:0|0:0,0:0:0:0:
319,49,232798,2,0,L|273:36,1,25.0000009536744,0|0,3:0|0:0,0:0:0:0:
145,234,232952,5,8,0:0:0:0:
381,89,233106,1,0,3:0:0:0:
141,307,233260,5,0,3:0:0:0:
377,162,233414,1,0,3:0:0:0:
137,380,233567,5,0,3:0:0:0:
373,235,233721,1,0,3:0:0:0:
79,267,233875,5,10,0:1:0:0:
377,316,234029,1,8,0:0:0:0:
377,316,234106,1,8,0:0:0:0:
377,316,234183,1,8,0:0:0:0:
141,307,234337,1,10,0:1:0:0:
381,89,234490,1,8,0:0:0:0:
369,308,234644,1,8,0:0:0:0:
153,88,234798,6,0,L|229:110,1,66.6666666666667,4|0,3:2|0:0,0:0:0:0:
381,89,235106,1,0,3:0:0:0:
369,308,235260,2,0,L|304:289,1,66.6666666666667,8|0,0:0|0:0,0:0:0:0:
141,307,235567,1,0,3:0:0:0:
305,61,235721,6,0,L|283:137,1,66.6666666666667,0|0,3:0|0:0,0:0:0:0:
304,289,236029,1,0,3:0:0:0:
63,301,236183,2,0,L|81:236,1,66.6666666666667,8|0,0:0|0:0,0:0:0:0:
64,73,236490,1,0,3:0:0:0:
249,339,236644,6,0,P|277:358|310:362,1,66.6666666666667,6|0,3:2|0:0,0:0:0:0:
286,125,236952,2,0,P|253:129|226:148,1,66.6666666666667,10|0,0:0|0:0,0:0:0:0:
162,331,237260,2,0,P|190:350|223:354,1,66.6666666666667,2|0,3:2|0:0,0:0:0:0:
372,116,237567,2,0,P|340:121|313:140,1,66.6666666666667,2|0,3:2|0:0,0:0:0:0:
75,323,237875,2,0,P|103:342|136:346,1,66.6666666666667,10|0,0:0|0:0,0:0:0:0:
459,108,238183,2,0,P|427:113|400:132,1,66.6666666666667,10|0,0:0|0:0,0:0:0:0:
59,182,238490,6,0,L|66:256,1,66.6666666666667,4|0,3:2|0:0,0:0:0:0:
319,327,238798,1,0,0:0:0:0:
319,327,238952,2,0,L|312:260,1,66.6666666666667,10|0,0:1|3:0,0:0:0:0:
512,0,239260,1,0,0:0:0:0:
512,0,239414,2,0,L|505:66,1,66.6666666666667,2|0,3:1|0:0,0:0:0:0:
254,178,239721,2,0,L|260:111,1,66.6666666666667,0|2,3:0|0:1,0:0:0:0:
512,206,240029,2,0,L|505:272,1,66.6666666666667,8|0,0:0|0:0,0:0:0:0:
254,384,240336,6,0,L|260:317,1,66.6666666666667,6|0,3:1|0:0,0:0:0:0:
446,154,240644,2,0,L|393:158,1,33.3333333333333,0|0,3:0|0:0,0:0:0:0:
173,329,240798,2,0,L|179:262,1,66.6666666666667,10|0,0:1|0:0,0:0:0:0:
365,99,241106,2,0,L|312:103,1,33.3333333333333,0|0,3:0|0:0,0:0:0:0:
92,274,241260,6,0,L|98:207,1,66.6666666666667,14|0,0:1|0:0,0:0:0:0:
443,15,241567,2,0,L|437:82,1,66.6666666666667,0|0,3:0|0:0,0:0:0:0:
37,123,241875,2,0,L|104:129,1,66.6666666666667,0|0,3:0|3:0,0:0:0:0:
429,161,242183,5,12,0:0:0:0:
213,60,242333,1,8,0:0:0:0:
233,297,242483,2,0,L|346:289,1,100,10|0,0:0|3:0,0:0:0:0:
411,44,242783,2,0,L|312:52,1,100,10|8,0:0|0:0,0:0:0:0:
221,317,243083,2,0,L|334:309,1,100,2|0,0:0|3:0,0:0:0:0:
423,24,243383,6,0,L|310:32,1,100,2|0,0:0|3:0,0:0:0:0:
71,115,243683,2,0,P|117:135|143:176,1,100,2|0,3:0|0:0,0:0:0:0:
392,249,243983,2,0,P|346:268|320:309,1,100,2|0,0:0|0:0,0:0:0:0:
25,352,244283,5,10,0:0:0:0:
90,345,244383,1,0,3:0:0:0:
141,304,244483,1,0,3:0:0:0:
161,240,244583,6,0,B|131:202|232:156|211:239|286:196|286:196|273:159|342:210|386:195|386:195|408:174|408:174|350:156,1,350,6|0,3:1|0:0,0:0:0:0:
236,128,245183,5,12,0:0:0:0:
320,309,245333,1,8,0:0:0:0:
42,296,245483,2,0,L|63:167,1,100,10|0,0:0|3:0,0:0:0:0:
219,29,245783,2,0,L|240:158,1,100,10|8,0:0|0:0,0:0:0:0:
126,362,246083,2,0,L|147:233,1,100,2|0,0:0|3:0,0:0:0:0:
335,95,246383,6,0,L|356:224,1,100,2|0,0:0|3:0,0:0:0:0:
54,293,246683,2,0,P|103:293|141:263,1,100,2|0,3:2|0:0,0:0:0:0:
422,65,246983,2,0,P|372:64|334:94,1,100,2|0,0:0|0:0,0:0:0:0:
383,351,247283,5,2,0:0:0:0:
443,298,247383,1,0,3:0:0:0:
427,219,247483,1,0,3:0:0:0:
351,193,247583,2,0,L|344:279,1,66.6666666666667,10|0,0:1|0:0,0:0:0:0:
141,262,247783,2,0,L|134:348,1,66.6666666666667,8|0,0:0|0:0,0:0:0:0:
334,94,247983,2,0,L|327:180,1,66.6666666666667,8|0,0:0|0:0,0:0:0:0:
383,351,248183,5,10,0:1:0:0:
443,298,248258,1,8,0:0:0:0:
184,225,248933,5,10,0:1:0:0:
284,246,249008,1,8,0:0:0:0:
344,58,249383,5,10,0:1:0:0:
246,166,249458,1,8,0:0:0:0:
79,108,250058,5,10,0:1:0:0:
273,96,250133,1,8,0:0:0:0:
62,36,250433,5,2,3:1:0:0:
79,108,250508,1,0,3:0:0:0:
96,180,250583,5,12,0:0:0:0:
273,96,250733,1,2,3:1:0:0:
79,108,250883,5,8,0:1:0:0:
163,285,251033,1,2,3:1:0:0:
256,24,251183,5,8,0:0:0:0:
79,108,251333,1,2,3:1:0:0:
349,285,251483,5,8,0:0:0:0:
273,96,251633,1,2,3:1:0:0:
116,379,251783,5,8,0:0:0:0:
422,190,252008,5,8,0:0:0:0:
105,18,252233,5,8,0:0:0:0:
213,196,252383,1,2,3:2:0:0:
235,206,252458,1,0,0:0:0:0:
260,209,252533,1,0,0:0:0:0:
285,205,252608,1,0,0:0:0:0:
307,195,252683,1,2,0:0:0:0:
326,179,252758,1,0,0:0:0:0:
340,158,252833,1,0,0:0:0:0:
348,134,252908,1,0,0:0:0:0:
346,109,252983,6,0,P|324:153|328:202,1,100,10|0,0:1|0:0,0:0:0:0:
311,296,253208,2,0,P|332:252|328:203,1,100,8|0,0:0|0:0,0:0:0:0:
226,98,253433,2,0,L|235:147,1,50,8|0,0:0|0:0,0:0:0:0:
123,295,253583,6,0,B|204:260|205:332|321:376|385:276|369:173|305:128|229:138|194:187|197:241|259:237,1,454.999979171754,14|0,0:0|0:0,0:0:0:0:
335,360,254183,6,0,L|413:351,1,50,4|0,3:2|0:0,0:0:0:0:
446,201,254333,1,8,0:0:0:0:
446,201,254408,1,0,0:0:0:0:
446,201,254483,2,0,L|396:206,1,50,0|0,3:0|3:0,0:0:0:0:
220,127,254633,2,0,L|335:140,1,100,8|0,0:0|3:0,0:0:0:0:
180,35,254933,1,8,0:0:0:0:
61,219,255083,1,0,3:0:0:0:
85,216,255158,1,0,3:0:0:0:
110,213,255233,1,8,0:0:0:0:
135,210,255308,1,0,0:0:0:0:
160,207,255383,5,4,3:2:0:0:
37,19,255533,2,0,L|49:119,1,100,8|0,0:0|0:0,0:0:0:0:
330,39,255833,2,0,L|318:138,1,100,8|0,0:0|3:0,0:0:0:0:
179,34,256133,1,8,0:0:0:0:
214,20,256208,1,0,3:0:0:0:
251,21,256283,1,0,3:0:0:0:
285,37,256358,1,0,3:0:0:0:
310,65,256433,1,8,0:0:0:0:
321,100,256508,1,0,3:0:0:0:
318,137,256583,5,4,3:2:0:0:
47,213,256733,2,0,P|33:165|48:118,1,100,8|0,0:0|3:0,0:0:0:0:
211,277,257033,1,8,0:0:0:0:
214,301,257108,1,0,0:0:0:0:
217,325,257183,2,0,L|290:339,1,50,0|0,3:0|0:0,0:0:0:0:
333,252,257333,2,0,L|283:261,1,50,8|0,0:0|3:0,0:0:0:0:
138,292,257483,1,0,3:0:0:0:
170,273,257558,1,0,3:0:0:0:
192,243,257633,1,8,0:0:0:0:
201,207,257708,1,0,0:0:0:0:
196,170,257783,5,4,3:2:0:0:
49,24,257933,2,0,P|33:70|47:118,1,100,8|0,0:0|0:0,0:0:0:0:
273,187,258233,1,8,0:0:0:0:
267,138,258308,1,0,0:0:0:0:
234,101,258383,1,0,3:0:0:0:
186,92,258458,1,0,3:0:0:0:
142,113,258533,1,8,0:0:0:0:
118,156,258608,1,0,0:0:0:0:
125,204,258683,1,0,3:0:0:0:
159,240,258758,1,0,3:0:0:0:
176,286,258833,1,0,3:0:0:0:
164,334,258908,1,0,3:0:0:0:
128,368,258983,6,0,P|100:373|72:369,1,57.5000010967255,4|0,3:2|3:0,0:0:0:0:
54,196,259133,1,8,0:0:0:0:
98,160,259208,1,0,3:0:0:0:
154,151,259283,1,0,3:0:0:0:
207,172,259358,1,0,3:0:0:0:
241,217,259433,1,8,0:0:0:0:
249,274,259508,1,0,3:0:0:0:
243,329,259583,1,0,3:0:0:0:
277,374,259658,1,0,3:0:0:0:
333,384,259733,1,8,0:0:0:0:
380,354,259808,1,0,3:0:0:0:
394,299,259883,1,0,3:0:0:0:
368,250,259958,1,0,3:0:0:0:
331,207,260033,1,8,0:0:0:0:
334,151,260108,1,0,3:0:0:0:
375,112,260183,5,4,3:2:0:0:
431,110,260258,1,0,3:0:0:0:
472,148,260333,1,8,0:0:0:0:
477,204,260408,1,0,3:0:0:0:
443,248,260483,1,0,3:0:0:0:
392,272,260558,1,0,3:0:0:0:
335,268,260633,1,8,0:0:0:0:
288,236,260708,1,0,3:0:0:0:
263,185,260783,1,0,3:0:0:0:
266,128,260858,1,0,3:0:0:0:
246,76,260933,1,8,0:0:0:0:
197,48,261008,1,0,3:0:0:0:
141,57,261083,1,0,3:0:0:0:
104,99,261158,1,0,3:0:0:0:
102,156,261233,1,8,0:0:0:0:
136,201,261308,1,0,3:0:0:0:
191,214,261383,5,4,3:2:0:0:
178,159,261458,1,0,3:0:0:0:
136,121,261533,1,0,3:0:0:0:
80,115,261608,1,0,3:0:0:0:
31,143,261683,1,0,3:0:0:0:
7,194,261758,1,0,3:0:0:0:
18,250,261833,1,0,3:0:0:0:
59,288,261908,1,0,3:0:0:0:
112,309,261983,1,0,3:0:0:0:
169,313,262058,1,0,3:0:0:0:
225,301,262133,1,0,3:0:0:0:
274,272,262208,1,0,3:0:0:0:
316,233,262283,1,0,3:0:0:0:
373,240,262358,1,0,3:0:0:0:
400,289,262433,1,0,3:0:0:0:
383,341,262508,1,0,3:0:0:0:
332,364,262583,6,0,L|206:381,1,115.000002193451,12|0,0:0|0:0,0:0:0:0:
125,163,262883,2,0,L|251:180,1,115.000002193451,12|0,0:0|0:0,0:0:0:0:
440,28,263183,1,8,0:0:0:0:
417,46,263258,1,8,0:0:0:0:
402,69,263333,1,0,3:0:0:0:
429,270,263483,1,8,0:0:0:0:
433,227,263558,1,8,0:0:0:0:
416,188,263633,1,8,0:0:0:0:
383,162,263708,1,8,0:0:0:0:
341,154,263783,5,4,3:2:0:0:
215,338,263933,2,0,L|340:332,1,100,8|0,0:0|3:0,0:0:0:0:
118,136,264233,1,8,0:0:0:0:
118,136,264308,1,0,0:0:0:0:
118,136,264383,2,0,L|127:203,1,50,0|0,3:0|0:0,0:0:0:0:
285,68,264533,2,0,L|276:135,1,50,8|0,0:0|3:0,0:0:0:0:
31,49,264683,1,0,3:0:0:0:
35,86,264758,1,0,3:0:0:0:
40,123,264833,1,8,0:0:0:0:
45,160,264908,1,0,0:0:0:0:
50,197,264983,6,0,L|59:264,1,50,4|0,3:2|0:0,0:0:0:0:
322,211,265133,2,0,L|223:198,1,100,8|0,0:0|0:0,0:0:0:0:
78,340,265433,1,8,0:0:0:0:
104,320,265508,1,0,0:0:0:0:
134,309,265583,1,0,3:0:0:0:
166,308,265658,1,0,0:0:0:0:
198,315,265733,1,8,0:0:0:0:
227,329,265808,1,0,3:0:0:0:
257,341,265883,1,0,3:0:0:0:
289,348,265958,1,0,3:0:0:0:
321,346,266033,1,8,0:0:0:0:
352,337,266108,1,0,3:0:0:0:
381,322,266183,5,4,3:2:0:0:
237,42,266333,1,8,0:0:0:0:
189,354,266483,1,0,3:0:0:0:
411,129,266633,1,8,0:0:0:0:
99,180,266783,1,0,3:0:0:0:
80,196,266858,1,0,0:0:0:0:
66,217,266933,1,8,0:0:0:0:
58,240,267008,1,0,3:0:0:0:
55,265,267083,1,0,3:0:0:0:
58,290,267158,1,0,3:0:0:0:
68,313,267233,1,8,0:0:0:0:
82,333,267308,1,0,0:0:0:0:
101,349,267383,6,0,L|169:335,1,50,4|0,3:2|0:0,0:0:0:0:
305,203,267533,2,0,L|256:192,1,50,8|0,0:0|0:0,0:0:0:0:
50,190,267683,2,0,L|118:176,1,50,0|0,3:0|0:0,0:0:0:0:
254,44,267833,2,0,L|205:33,1,50,8|0,0:0|0:0,0:0:0:0:
287,286,267983,5,0,3:0:0:0:
324,285,268058,1,0,0:0:0:0:
357,269,268133,1,8,0:0:0:0:
381,240,268208,1,8,0:0:0:0:
390,204,268283,1,8,0:0:0:0:
383,168,268358,1,8,0:0:0:0:
362,137,268433,1,8,0:0:0:0:
329,119,268508,1,8,0:0:0:0:
292,116,268583,5,4,3:2:0:0:
148,363,268733,2,0,P|195:347|243:356,1,100,8|0,0:0|3:0,0:0:0:0:
127,213,269033,1,8,0:0:0:0:
130,238,269108,1,0,0:0:0:0:
134,263,269183,2,0,L|199:264,1,50,0|0,3:0|0:0,0:0:0:0:
305,203,269333,2,0,L|240:204,1,50,8|0,0:0|0:0,0:0:0:0:
199,86,269483,2,0,L|198:151,1,50,0|0,3:0|0:0,0:0:0:0:
361,320,269633,2,0,L|362:255,1,50,8|0,0:0|0:0,0:0:0:0:
292,116,269783,5,4,3:2:0:0:
148,363,269933,2,0,P|195:347|243:356,1,100,8|0,0:0|3:0,0:0:0:0:
390,139,270233,1,8,0:0:0:0:
390,139,270308,1,0,0:0:0:0:
390,139,270383,2,0,L|391:204,1,50,0|0,3:0|3:0,0:0:0:0:
255,253,270533,2,0,L|254:203,1,50,12|0,0:0|0:0,0:0:0:0:
327,33,270683,2,0,L|328:98,1,50,0|0,3:0|3:0,0:0:0:0:
192,147,270833,2,0,L|191:97,1,50,8|0,0:0|0:0,0:0:0:0:
408,58,270983,5,4,3:2:0:0:
455,72,271058,1,0,3:0:0:0:
491,106,271133,1,0,3:0:0:0:
508,152,271208,1,0,3:0:0:0:
503,202,271283,1,0,3:0:0:0:
477,244,271358,1,0,3:0:0:0:
435,270,271433,1,0,3:0:0:0:
385,274,271508,1,0,3:0:0:0:
339,257,271583,1,0,3:0:0:0:
291,242,271658,1,0,3:0:0:0:
242,246,271733,1,0,3:0:0:0:
197,266,271808,1,0,3:0:0:0:
161,301,271883,1,8,0:0:0:0:
165,252,271958,1,0,3:0:0:0:
138,211,272033,1,0,3:0:0:0:
92,195,272108,1,0,3:0:0:0:
46,211,272183,5,12,0:0:0:0:
33,276,272283,1,0,3:0:0:0:
61,335,272383,1,0,3:0:0:0:
119,366,272483,1,8,0:0:0:0:
184,357,272583,1,0,3:0:0:0:
231,311,272683,1,0,3:0:0:0:
242,246,272783,1,8,0:0:0:0:
229,181,272883,1,0,3:0:0:0:
257,122,272983,1,0,3:0:0:0:
315,91,273083,1,0,3:0:0:0:
380,100,273183,1,0,3:0:0:0:
427,146,273283,1,0,3:0:0:0:
438,210,273383,5,4,3:2:0:0:
256,47,273683,1,0,0:0:0:0:
256,337,273983,5,12,0:0:0:0:
315,91,274283,1,0,0:0:0:0:
52,265,274583,6,0,P|123:244|190:275,1,150.000005722046,6|0,3:1|0:0,0:0:0:0:
256,337,275033,1,0,0:0:0:0:
365,297,275183,2,0,P|342:289|321:275,1,50.0000019073487,10|0,0:1|0:0,0:0:0:0:
377,221,275383,1,0,3:0:0:0:
377,221,275483,2,0,P|400:228|421:242,1,50.0000019073487,8|0,0:0|3:0,0:0:0:0:
441,314,275683,1,0,3:0:0:0:
441,314,275783,6,0,L|516:305,1,50.0000019073487,6|0,3:1|0:0,0:0:0:0:
488,181,275983,1,0,3:0:0:0:
488,181,276083,2,0,L|497:256,1,50.0000019073487,12|0,0:0|0:0,0:0:0:0:
371,248,276283,1,0,0:0:0:0:
371,248,276383,6,0,L|446:239,1,50.0000019073487,0|0,3:0|0:0,0:0:0:0:
408,111,276583,1,0,3:0:0:0:
408,111,276683,2,0,L|417:186,1,50.0000019073487,8|0,0:0|0:0,0:0:0:0:
290,180,276883,1,0,3:0:0:0:
290,180,276983,6,0,L|365:171,1,50.0000019073487,8|0,0:0|3:0,0:0:0:0:
327,43,277183,1,0,3:0:0:0:
327,43,277283,2,0,L|336:118,1,50.0000019073487,8|0,0:0|3:0,0:0:0:0:
94,128,277583,5,8,0:0:0:0:
126,102,277683,1,8,0:0:0:0:
166,90,277783,1,8,0:0:0:0:
207,93,277883,1,0,3:0:0:0:
244,110,277983,1,0,3:0:0:0:
273,140,278083,1,0,3:0:0:0:
289,179,278183,6,0,L|254:308,1,100.000003814697,4|0,3:2|3:0,3:0:0:0:
328,312,278483,2,0,L|354:215,1,100.000003814697
189,292,278783,2,0,P|215:335|262:351,1,100.000003814697,8|0,0:0|0:0,0:0:0:0:
427,198,279083,2,0,P|402:158|352:141,1,100.000003814697
186,123,279383,6,0,L|212:219,1,100.000003814697,4|0,3:2|0:0,0:0:0:0:
430,367,279683,2,0,L|403:270,1,100.000003814697
367,92,279983,2,0,L|347:164,1,50.0000019073487,8|0,0:0|0:0,0:0:0:0:
289,179,280183,1,0,3:0:0:0:
289,179,280283,2,0,L|323:306,1,100.000003814697,0|0,3:0|0:0,0:0:0:0:
103,297,280583,5,6,3:1:0:0:
133,204,280716,1,0,0:0:0:0:
198,276,280849,1,0,3:0:0:0:
74,322,280983,5,10,0:1:0:0:
125,166,281116,1,0,3:0:0:0:
233,287,281249,1,0,0:0:0:0:
282,132,281383,2,0,L|167:156,1,66.6666666666667,2|0,3:1|0:0,0:0:0:0:
324,267,281649,2,0,L|390:253,1,66.6666666666667,2|8,3:1|0:0,0:0:0:0:
373,112,281916,2,0,L|358:177,1,66.6666666666667,2|0,0:1|0:0,0:0:0:0:
233,287,282183,5,2,3:1:0:0:
390,340,282316,1,0,0:0:0:0:
358,177,282449,1,0,3:0:0:0:
324,267,282583,5,14,0:1:0:0:
449,157,282716,1,0,3:0:0:0:
292,104,282849,1,0,0:0:0:0:
290,357,282983,5,2,3:1:0:0:
387,85,283116,1,8,0:0:0:0:
233,287,283249,1,8,0:0:0:0:
449,157,283383,1,8,0:0:0:0:
176,217,283516,1,0,3:0:0:0:
390,340,283649,1,0,3:0:0:0:
291,103,283783,6,0,P|239:78|182:92,1,119.999996337891,6|0,3:1|0:0,0:0:0:0:
183,100,284316,1,0,3:0:0:0:
184,107,284449,1,0,3:0:0:0:
185,115,284583,6,0,L|108:128,1,59.9999981689454,12|0,0:0|0:0,0:0:0:0:
127,252,284983,2,0,L|187:262,1,59.9999981689454,2|0,0:1|0:0,0:0:0:0:
443,141,285383,2,0,L|325:122,1,119.999996337891,6|0,3:1|0:0,0:0:0:0:
68,281,286183,2,0,L|186:261,1,119.999996337891,6|0,3:1|0:0,0:0:0:0:
68,103,286983,5,0,0:0:0:0:
256,192,287098,12,0,290327,2:0:0:0:
153,217,290543,6,0,L|255:205,1,100.000003814697,2|0,0:0|0:0,0:0:0:0:
211,297,290979,2,0,L|109:285,1,100.000003814697,2|0,0:0|0:0,0:0:0:0:
252,205,291415,2,0,L|268:389,1,150.000005722046,2|0,0:0|0:0,0:0:0:0:
419,339,292096,5,2,0:0:0:0:
421,345,292167,1,0,0:0:0:0:
423,351,292238,1,0,0:0:0:0:
425,357,292310,6,0,P|470:356|519:308,1,100.000003814697,2|0,0:0|0:0,0:0:0:0:
478,241,292739,2,0,P|433:242|384:290,1,100.000003814697,2|0,0:0|0:0,0:0:0:0:
302,286,293183,2,0,P|257:285|208:237,1,100.000003814697,2|0,0:0|0:0,0:0:0:0:
249,170,293627,2,0,P|294:171|343:219,1,100.000003814697,2|0,0:0|0:0,0:0:0:0:
330,309,294072,6,0,P|257:309|214:251,1,150.000005722046,2|0,0:0|0:0,0:0:0:0:
214,251,294960,5,2,0:0:0:0:
346,208,295257,1,2,0:0:0:0:
136,194,295553,1,2,0:0:0:0:
385,119,295849,5,2,0:0:0:0:
155,369,296294,1,0,0:0:0:0:
0,39,296738,5,2,0:0:0:0:
230,289,297183,2,0,L|322:283,1,75.0000028610231,0|0,0:0|0:0,0:0:0:0:
307,289,297460,1,0,0:0:0:0:
310,294,297516,1,0,0:0:0:0:
314,299,297572,1,0,0:0:0:0:
317,304,297627,6,0,L|436:296,1,100.000003814697,2|0,0:0|0:0,0:0:0:0:
422,206,298072,1,0,0:0:0:0:
397,204,298220,1,0,0:0:0:0:
372,202,298368,1,0,0:0:0:0:
346,200,298516,2,0,P|324:157|328:107,1,100.000003814697,2|0,0:0|0:0,0:0:0:0:
255,199,298960,2,0,P|277:242|273:292,1,100.000003814697,0|0,0:0|0:0,0:0:0:0:
97,258,299405,6,0,L|197:259,1,100.000003814697,2|0,0:0|0:0,0:0:0:0:
197,125,299849,2,0,L|97:125,1,100.000003814697,0|0,0:0|0:0,0:0:0:0:
256,192,300283,1,2,0:0:0:0:
327,155,300428,1,0,0:0:0:0:
323,234,300573,1,0,0:0:0:0:
394,197,300718,6,0,L|447:192,2,33.3333333333333,2|0|0,0:0|0:0|0:0,0:0:0:0:
399,229,300950,2,0,L|447:251,2,33.3333333333333,0|0|0,0:0|0:0|0:0,0:0:0:0:
387,259,301183,6,0,P|407:303|280:340,1,200,2|0,0:0|0:0,0:0:0:0:
205,252,301856,6,0,L|226:395,1,100,2|0,0:0|0:0,0:0:0:0:
314,153,302308,2,0,L|293:296,1,100,2|0,0:0|0:0,0:0:0:0:
205,54,302754,2,0,L|226:197,1,100,2|0,0:0|0:0,0:0:0:0:
372,112,303200,2,0,P|394:68|440:50,1,100,2|0,0:0|0:0,0:0:0:0:
372,271,303646,2,0,P|394:315|440:333,1,100,2|0,0:0|0:0,0:0:0:0:
320,192,304092,5,2,0:0:0:0:
240,264,304315,1,0,0:0:0:0:
217,158,304538,1,2,0:0:0:0:
137,230,304761,5,2,0:0:0:0:
343,298,305100,1,0,0:0:0:0:
299,86,305415,1,0,0:0:0:0:
204,373,305715,5,2,0:0:0:0:
433,168,306029,1,0,0:0:0:0:
141,71,306333,1,0,0:0:0:0:
343,298,306573,5,0,0:0:0:0:
327,199,306721,1,0,0:0:0:0:
249,262,306869,1,0,0:0:0:0:
358,303,307017,5,2,0:0:0:0:
359,202,307167,1,0,0:0:0:0:
271,251,307318,1,0,0:0:0:0:
371,310,307468,5,2,0:0:0:0:
389,211,307619,1,0,0:0:0:0:
294,243,307770,1,0,0:0:0:0:
382,318,307920,5,2,0:0:0:0:
417,224,308071,1,0,0:0:0:0:
318,239,308222,1,0,0:0:0:0:
391,327,308372,5,2,0:0:0:0:
358,169,308522,1,0,0:0:0:0:
237,276,308672,1,0,0:0:0:0:
329,258,308822,5,2,0:0:0:0:
176,206,308972,1,0,0:0:0:0:
207,364,309122,1,0,0:0:0:0:
267,187,309272,5,2,0:0:0:0:
145,293,309422,1,0,0:0:0:0:
298,346,309572,1,0,0:0:0:0:
176,206,309722,5,2,0:0:0:0:
207,364,309872,1,0,0:0:0:0:
236,275,310023,1,0,0:0:0:0:
54,311,310173,5,2,0:0:0:0:
115,381,310323,2,0,L|137:326,2,33.3333333333333,0|0|0,0:0|0:0|0:0,0:0:0:0:
63,188,310624,5,2,0:0:0:0:
124,258,310774,2,0,L|146:203,2,33.3333333333333,0|0|0,0:0|0:0|0:0,0:0:0:0:
72,65,311075,5,2,0:0:0:0:
133,135,311225,2,0,L|155:80,2,33.3333333333333,0|0|0,0:0|0:0|0:0,0:0:0:0:
212,172,311526,2,0,L|213:228,2,33.3333333333333
241,146,311751,2,0,L|242:90,2,33.3333333333333,0|0|0,0:0|0:0|0:0,0:0:0:0:
288,163,311977,5,2,0:0:0:0:
424,174,312128,5,0,0:0:0:0:
296,195,312279,37,0,0:0:0:0:
410,204,312430,5,0,0:0:0:0:
305,227,312581,37,0,0:0:0:0:
396,234,312732,5,0,0:0:0:0:
314,259,312884,37,2,0:0:0:0:
382,264,313035,5,0,0:0:0:0:
323,291,313186,37,0,0:0:0:0:
368,295,313337,5,0,0:0:0:0:
331,323,313490,37,0,0:0:0:0:
354,325,313643,5,0,0:0:0:0:
340,355,313796,38,0,P|316:362|291:365,1,50,2|0,0:0|0:0,0:0:0:0:
171,355,314023,2,0,P|195:362|220:365,1,50,0|0,0:0|0:0,0:0:0:0:
336,252,314250,2,0,P|327:275|309:292,1,50,0|0,0:0|0:0,0:0:0:0:
176,252,314467,2,0,P|184:275|202:292,1,50,0|0,0:0|0:0,0:0:0:0:
309,91,314684,6,0,P|327:108|336:132,1,50,2|0,0:0|0:0,0:0:0:0:
202,91,314909,2,0,P|184:108|176:132,1,50,0|0,0:0|0:0,0:0:0:0:
256,168,315135,1,0,0:0:0:0:
256,180,315247,1,0,0:0:0:0:
256,193,315360,1,0,0:0:0:0:
256,205,315473,1,0,0:0:0:0:
255,217,315586,6,0,P|286:229|319:225,1,66.6666666666667,2|0,0:0|0:0,0:0:0:0:
385,179,315889,1,0,0:0:0:0:
340,10,316041,6,0,P|314:30|302:61,1,66.6666666666667,0|0,0:0|0:0,0:0:0:0:
309,141,316344,1,0,0:0:0:0:
466,178,316496,6,0,P|460:145|440:119,1,66.6666666666667,2|0,0:0|0:0,0:0:0:0:
345,249,316800,2,0,P|375:260|408:256,1,66.6666666666667,2|0,0:0|0:0,0:0:0:0:
344,108,317104,2,0,P|318:128|306:159,1,66.6666666666667,2|0,0:0|0:0,0:0:0:0:
168,108,317407,6,0,P|193:128|205:159,1,66.6666666666667,2|0,0:0|0:0,0:0:0:0:
201,239,317711,1,0,0:0:0:0:
64,217,317863,6,0,P|94:205|127:209,1,66.6666666666667,0|0,0:0|0:0,0:0:0:0:
193,253,318167,1,0,0:0:0:0:
105,360,318318,6,0,P|110:327|130:301,1,66.6666666666667,2|0,0:0|0:0,0:0:0:0:
201,266,318622,1,0,0:0:0:0:
407,360,318773,6,0,P|401:327|381:301,1,66.6666666666667,0|0,0:0|0:0,0:0:0:0:
311,266,319077,1,0,0:0:0:0:
256,104,319229,6,0,L|256:171,1,66.6666666666667,2|0,0:0|0:0,0:0:0:0:
334,187,319532,1,0,0:0:0:0:
357,108,319683,1,0,0:0:0:0:
413,167,319835,1,0,0:0:0:0:
436,88,319986,1,0,0:0:0:0:
469,226,320138,6,0,L|469:292,2,66.6666666666667,2|0|0,0:0|0:0|0:0,0:0:0:0:
345,150,320592,2,0,L|345:84,1,66.6666666666667
265,134,320826,2,0,L|235:82,2,33.3333333333333
208,189,321060,5,2,0:0:0:0:
174,328,321207,1,0,0:0:0:0:
311,288,321354,1,0,0:0:0:0:
208,189,321501,5,2,0:0:0:0:
109,292,321652,1,0,0:0:0:0:
247,326,321804,1,0,0:0:0:0:
128,211,321955,5,2,0:0:0:0:
168,348,322107,1,0,0:0:0:0:
266,246,322258,1,0,0:0:0:0:
70,155,322410,5,2,0:0:0:0:
109,292,322562,1,0,0:0:0:0:
208,189,322713,1,0,0:0:0:0:
49,233,322864,6,0,P|25:294|52:353,1,133.333333333333,2|0,0:0|0:0,0:0:0:0:
192,290,323318,2,0,P|185:258|165:231,1,66.6666666666667,0|0,0:0|0:0,0:0:0:0:
109,292,323621,1,0,0:0:0:0:
235,362,323808,6,0,P|259:339|272:309,1,66.6666666666667,2|0,0:0|0:0,0:0:0:0:
241,174,324095,2,0,P|248:207|268:234,1,66.6666666666667,2|0,0:0|0:0,0:0:0:0:
399,273,324400,2,0,P|367:262|334:266,1,66.6666666666667,2|0,0:0|0:0,0:0:0:0:
120,177,324696,6,0,P|181:201|240:174,1,133.333333333333,2|0,0:0|0:0,0:0:0:0:
241,63,325154,2,0,P|180:39|121:66,1,133.333333333333,2|0,0:0|0:0,0:0:0:0:
1,181,325612,2,0,P|61:204|120:177,1,133.333333333333,2|0,0:0|0:0,0:0:0:0:
161,309,326070,1,0,0:0:0:0:
206,243,326222,1,0,0:0:0:0:
240,314,326375,1,0,0:0:0:0:
362,255,326528,6,0,P|396:317|366:382,1,133.333333333333,2|0,0:0|0:0,0:0:0:0:
318,320,326986,2,0,P|284:258|314:193,1,133.333333333333,0|0,0:0|0:0,0:0:0:0:
354,142,327440,2,0,P|415:161|471:127,1,133.333333333333,2|0,0:0|0:0,0:0:0:0:
407,14,327901,2,0,P|399:46|406:78,2,66.6666666666667,2|0|0,0:0|0:0|0:0,0:0:0:0:
259,68,328363,6,0,P|321:85|353:141,1,133.333333333333,2|0,0:0|0:0,0:0:0:0:
221,217,328863,5,2,0:0:0:0:
268,153,329018,1,0,0:0:0:0:
299,225,329173,1,0,0:0:0:0:
174,281,329328,5,2,0:0:0:0:
221,217,329494,1,0,0:0:0:0:
252,289,329661,1,0,0:0:0:0:
127,345,329828,5,2,0:0:0:0:
174,281,330011,1,0,0:0:0:0:
205,353,330194,1,0,0:0:0:0:
259,68,330528,5,6,0:0:0:0:
256,192,330604,12,0,335604,0:0:0:0:
