osu file format v14

[General]
AudioFilename: audio.mp3
AudioLeadIn: 0
PreviewTime: 88976
Countdown: 0
SampleSet: None
StackLeniency: 0.4
Mode: 0
LetterboxInBreaks: 0
WidescreenStoryboard: 0

[Editor]
Bookmarks: 19245,55195
DistanceSpacing: 1.1
BeatDivisor: 3
GridSize: 8
TimelineZoom: 2.9

[Metadata]
Title:Tales of The Destinies
TitleUnicode:Tales of The Destinies
Artist:BABYMETAL
ArtistUnicode:BABYMETAL
Creator:MashaSG
Version:Now and Forever
Source:
Tags:kitsune suzuka nakamoto yui mizuno moa kikuchi su-metal yuimetal moametal metal resistance
BeatmapID:1414400
BeatmapSetID:625702

[Difficulty]
HPDrainRate:6.6
CircleSize:4
OverallDifficulty:9
ApproachRate:9.4
SliderMultiplier:2.1
SliderTickRate:1

[Events]
//Background and Video events
0,0,"IFoundSomeBGThatIEnjoy.jpg",0,0
//Break Periods
2,145614,149586
//Storyboard Layer 0 (Background)
//Storyboard Layer 1 (Fail)
//Storyboard Layer 2 (Pass)
//Storyboard Layer 3 (Foreground)
//Storyboard Sound Samples

[TimingPoints]
10395,300,4,3,3,5,1,0
10695,-100,4,2,1,10,0,0
10995,-100,4,2,1,15,0,0
11295,-100,4,2,1,20,0,0
11595,-100,4,2,1,25,0,0
11895,-100,4,2,1,30,0,0
12195,-100,4,2,1,35,0,0
12495,-100,4,2,1,40,0,0
12795,-100,4,2,1,45,0,0
13095,-100,4,2,1,50,0,0
13395,-100,4,2,1,55,0,0
13695,-100,4,2,1,5,0,0
13995,300,6,3,1,80,1,0
15195,-125,6,3,1,65,0,0
15345,-125,6,3,2,65,0,0
15645,300,6,3,1,80,1,0
16845,-125,6,3,1,65,0,0
16995,-125,6,3,2,65,0,0
17445,-100,6,3,1,80,0,0
18645,-125,6,3,2,80,0,0
18720,-125,6,3,1,5,0,0
18795,-125,6,3,2,80,0,0
18870,-125,6,3,1,5,0,0
18945,-125,6,3,3,80,0,0
19245,300,5,3,1,80,1,0
19320,-100,5,3,1,5,0,0
19545,-100,5,3,1,80,0,0
19620,-100,5,3,1,5,0,0
19695,-100,5,3,1,80,0,0
19770,-100,5,3,1,5,0,0
19995,-100,5,3,1,80,0,0
20070,-100,5,3,1,5,0,0
20295,-100,5,3,1,80,0,0
20370,-100,5,3,1,5,0,0
20445,-100,5,3,1,80,0,0
20520,-100,5,3,1,5,0,0
20745,-100,5,3,2,80,0,0
21345,300,6,3,1,80,1,0
22695,-90.9090909090909,6,3,1,80,0,0
22995,300,6,3,1,80,1,0
24195,-90.9090909090909,6,3,1,80,0,0
25245,-100,6,3,1,80,0,0
25770,-100,6,3,1,5,0,0
25845,-100,6,3,2,80,0,0
26595,300,5,3,1,80,1,0
26595,-90.9090909090909,5,3,1,80,0,0
26970,-90.9090909090909,5,3,1,5,0,0
27045,-90.9090909090909,5,3,1,80,0,0
27120,-90.9090909090909,5,3,1,5,0,0
27345,-90.9090909090909,5,3,1,80,0,0
27720,-90.9090909090909,5,3,1,5,0,0
27795,-90.9090909090909,5,3,1,80,0,0
27870,-90.9090909090909,5,3,1,5,0,0
28095,-100,5,3,2,80,0,0
28695,400,4,3,2,80,1,0
28828,-100,4,3,1,80,0,0
29095,-100,4,3,2,80,0,0
29228,-100,4,3,1,80,0,0
29495,400,4,3,5,80,1,0
29495,-66.6666666666667,4,3,5,80,0,0
31761,-66.6666666666667,4,3,6,80,0,0
32695,-66.6666666666667,4,3,5,80,0,0
33361,-66.6666666666667,4,3,6,80,0,0
34295,-66.6666666666667,4,3,5,80,0,0
38161,-66.6666666666667,4,3,6,80,0,0
39095,-66.6666666666667,4,3,5,80,0,0
39761,-66.6666666666667,4,3,6,80,0,0
40695,-66.6666666666667,4,3,5,80,0,0
42295,300,4,3,1,80,1,0
42595,-117.647058823529,4,3,1,5,0,0
42745,-117.647058823529,4,3,1,80,0,0
43420,-117.647058823529,4,3,1,5,0,0
43495,-100,4,3,1,80,0,0
43795,-117.647058823529,4,3,1,5,0,0
43945,-117.647058823529,4,3,1,80,0,0
44095,-117.647058823529,4,3,2,80,0,0
44695,-117.647058823529,4,3,1,80,0,0
46495,-117.647058823529,4,3,2,80,0,0
47095,-100,4,3,1,80,0,0
47395,-117.647058823529,4,3,1,5,0,0
47545,-117.647058823529,4,3,1,80,0,0
48220,-117.647058823529,4,3,1,5,0,0
48295,-100,4,3,1,80,0,0
48745,-100,4,3,5,80,0,0
49495,300,5,3,1,80,1,0
49495,-90.9090909090909,5,3,1,80,0,0
49945,-83.3333333333333,5,3,1,80,0,0
50245,-90.9090909090909,5,3,1,80,0,0
50695,-83.3333333333333,5,3,1,80,0,0
51595,300,4,3,2,80,1,0
51595,-90.9090909090909,4,3,2,80,0,0
51695,-100,4,3,1,5,0,0
51795,-100,4,3,2,80,0,0
52795,-90.9090909090909,4,3,2,80,0,0
52895,-100,4,3,1,5,0,0
52995,-100,4,3,2,80,0,0
53595,-100,4,3,5,80,0,0
53995,-100,4,3,2,80,0,0
54795,-100,4,3,1,5,0,0
54895,-100,4,3,1,80,0,0
55095,-100,4,3,1,5,0,0
55195,-100,4,3,3,80,0,0
55495,-90.9090909090909,4,3,1,80,0,0
55795,-90.9090909090909,4,3,3,80,0,0
56095,-90.9090909090909,4,3,1,80,0,0
56395,-90.9090909090909,4,3,3,80,0,0
56695,-100,4,3,1,80,0,0
56995,-90.9090909090909,4,3,3,80,0,0
57295,-100,4,3,1,80,0,0
57595,-90.9090909090909,4,3,3,80,0,0
58195,-83.3333333333333,4,3,3,80,0,0
58495,-100,4,3,4,80,0,0
58795,300,5,3,1,80,1,0
61045,300,6,3,3,80,1,0
61345,-100,6,3,4,80,0,0
61645,-100,6,3,1,80,0,0
61845,-100,6,3,1,50,0,0
62045,-100,6,3,1,20,0,0
62245,461.538461538462,4,3,1,80,1,0
62245,-133.333333333333,4,3,1,80,0,0
75168,-133.333333333333,4,3,1,45,0,0
75629,-133.333333333333,4,3,1,80,0,0
76091,-133.333333333333,4,3,1,60,0,0
76552,-100,4,3,2,80,0,0
77014,300,4,3,1,80,1,0
77014,-111.111111111111,4,3,1,80,0,0
79114,-111.111111111111,4,3,3,80,0,0
79714,-111.111111111111,4,3,3,5,0,0
79751,-111.111111111111,4,3,3,80,0,0
79939,-111.111111111111,4,3,1,80,0,0
80014,300,4,3,1,80,1,0
80014,-111.111111111111,4,3,1,80,0,0
82114,-111.111111111111,4,3,3,80,0,0
82414,-111.111111111111,4,3,1,80,0,0
83014,300,4,3,1,80,1,0
83164,-100,4,3,1,20,0,0
83764,-100,4,3,1,80,0,0
83914,-100,4,3,1,20,0,0
84214,-100,4,3,1,80,0,0
84364,-100,4,3,1,20,0,0
84889,-100,4,3,1,80,0,0
85039,-100,4,3,1,20,0,0
85264,-100,4,3,1,80,0,0
86614,-100,4,3,3,80,0,0
89014,-100,4,3,1,80,0,1
93214,-100,4,3,2,80,0,1
93814,-86.9565217391304,4,3,1,80,0,1
96214,-86.9565217391304,4,3,2,80,0,1
98614,-100,4,3,1,80,0,1
107014,-100,4,3,2,80,0,1
107314,-111.111111111111,4,3,2,80,0,1
107614,-100,4,3,2,80,0,1
107814,-111.111111111111,4,3,3,80,0,1
108214,-166.666666666667,4,3,1,80,0,0
110214,-166.666666666667,4,3,2,80,0,0
110614,-133.333333333333,4,3,2,80,0,0
112114,-133.333333333333,4,3,3,80,0,0
112614,-133.333333333333,4,3,4,80,0,0
113014,-153.846153846154,4,3,1,80,0,0
114814,-133.333333333333,4,3,1,80,0,0
115414,-100,4,3,2,80,0,0
116314,-76.9230769230769,4,3,1,80,0,0
116614,-100,4,3,2,80,0,0
117414,-100,4,3,3,80,0,0
117814,-200,4,3,1,80,0,0
118714,-200,4,3,1,80,0,0
119014,-200,4,3,1,80,0,0
119314,-200,4,3,1,5,0,0
119351,-200,4,3,1,80,0,0
119514,300,4,3,1,80,1,0
119614,-200,4,3,1,80,0,0
119914,-200,4,3,1,5,0,0
119964,-200,4,3,1,80,0,0
120214,-133.333333333333,4,3,1,80,0,0
121714,-133.333333333333,4,3,1,5,0,0
121764,-133.333333333333,4,3,1,80,0,0
126214,300,6,3,8,80,1,0
127564,-100,6,3,2,80,0,0
128014,300,7,3,8,80,1,0
131764,-100,7,3,2,80,0,0
132214,300,4,3,8,80,1,0
134614,300,5,3,2,80,1,0
137314,-100,5,3,2,80,0,0
139714,-83.3333333333333,5,3,2,80,0,0
139914,-83.3333333333333,5,3,2,5,0,0
140014,300,5,3,2,80,1,0
143014,300,4,3,2,80,1,0
144814,-100,4,3,1,80,0,0
145414,300,4,2,1,80,1,0
145597,300,4,2,1,80,1,0
145697,300,4,2,1,80,1,0
146597,300,4,2,1,80,1,0
147797,310.880829015544,6,2,1,80,1,0
148263,297.029702970297,6,2,1,80,1,0
148708,319.148936170213,6,2,1,80,1,0
149186,300,6,2,1,80,1,0
150214,300,4,3,1,80,1,0
153514,-90.9090909090909,4,3,1,80,0,0
154114,-90.9090909090909,4,3,3,80,0,0
154714,-90.9090909090909,4,3,4,80,0,0
155014,300,5,3,4,80,1,0
159364,-100,5,3,1,5,0,0
159514,375,5,3,2,80,1,0
159889,-100,5,3,3,80,0,0
160389,-100,5,3,4,80,0,0
161014,375,4,3,2,80,1,0
162514,-100,4,3,3,80,0,0
163264,-100,4,3,2,80,0,0
165514,-100,4,3,2,80,0,0
165889,-100,4,3,2,70,0,0
166264,-100,4,3,3,60,0,0
166639,-100,4,3,3,50,0,0
167014,-100,4,3,4,80,0,0
168514,-74.0740740740741,4,3,2,80,0,0
169639,-50,4,3,1,80,0,0
169889,-50,4,3,1,5,0,0
170014,-100,4,3,3,80,0,0
171514,-100,4,3,2,80,0,0
173014,-100,4,3,3,80,0,0
174514,-74.074074074074,4,3,2,80,0,0
175264,-66.6666666666667,4,3,1,80,0,0
175639,-50,4,3,1,80,0,0
175889,-50,4,3,1,5,0,0
176014,-100,4,3,3,80,0,0
177514,-100,4,3,2,80,0,0
180139,-90.9090909090909,4,3,3,80,0,0
180889,-83.3333333333333,4,3,4,80,0,0
181639,-76.9230769230769,4,3,1,80,0,0
182264,-76.9230769230769,4,3,1,5,0,0
182389,-83.3333333333333,4,3,2,80,0,0
183139,-83.3333333333333,4,3,1,5,0,0
183264,-83.3333333333333,4,3,2,80,0,0
184264,-100,4,3,3,60,0,0
185014,-100,4,3,2,80,0,0
186889,-100,4,3,2,80,0,0
188764,-76.9230769230769,4,3,2,80,0,0
189514,-76.9230769230769,4,3,3,80,0,0
190639,-76.9230769230769,4,3,2,80,0,0
191014,300,4,3,1,80,1,0
194614,-100,4,3,2,80,0,0
209614,300,5,3,2,80,1,0
212614,300,4,3,2,80,1,0
215014,-100,4,3,1,80,0,0
219814,-90.9090909090909,4,3,1,80,0,0
223414,400,4,3,1,80,1,0
223814,-111.111111111111,4,3,1,80,0,0
224080,-111.111111111111,4,3,1,5,0,0
224214,-125,4,3,1,80,0,0
224614,-142.857142857143,4,3,1,80,0,0
225014,-166.666666666667,4,3,1,80,0,0
225414,-166.666666666667,4,3,1,5,0,0
225614,-200,4,3,1,80,0,0
226014,-200,4,3,1,5,0,0
226214,-250,4,3,1,80,0,0
226814,-333,4,3,1,80,0,0
227214,-333,4,3,1,5,0,0
227280,-333,4,3,1,80,0,0
227414,461.538461538462,4,3,1,80,1,0
227414,-133.333333333333,4,3,1,80,0,0
230029,-133.333333333333,4,3,1,5,0,0
230183,-133.333333333333,4,3,1,80,0,0
240337,-117.647058823529,4,3,1,80,0,0
242183,300,4,3,1,80,1,0
242483,-111.111111111111,4,3,1,80,0,0
244283,-100,4,3,3,80,0,0
244883,-100,4,3,3,5,0,0
244920,-100,4,3,3,80,0,0
245183,300,4,3,1,80,1,0
245183,-111.111111111111,4,3,1,80,0,0
247283,-111.111111111111,4,3,3,80,0,0
247583,-111.111111111111,4,3,1,80,0,0
248183,300,4,3,1,80,1,0
248333,-100,4,3,1,20,0,0
248933,-100,4,3,1,80,0,0
249083,-100,4,3,1,20,0,0
249383,-100,4,3,1,80,0,0
249533,-100,4,3,1,20,0,0
250058,-100,4,3,1,80,0,0
250208,-100,4,3,1,20,0,0
250433,-100,4,3,1,80,0,0
253583,-76.9230769230769,4,2,1,30,0,0
253658,-76.9230769230769,4,2,1,35,0,0
253733,-76.9230769230769,4,2,1,40,0,0
253808,-76.9230769230769,4,2,1,45,0,0
253883,-76.9230769230769,4,2,1,50,0,0
253958,-76.9230769230769,4,2,1,55,0,0
254033,-76.9230769230769,4,2,1,60,0,0
254108,-76.9230769230769,4,2,1,5,0,0
254183,-100,4,3,1,80,0,1
258383,-100,4,3,2,80,0,1
258983,-86.9565217391304,4,3,1,80,0,1
261383,-86.9565217391304,4,3,2,80,0,1
263783,-100,4,3,1,80,0,1
272183,-100,4,3,2,80,0,1
272483,-111.111111111111,4,3,2,80,0,1
272783,-100,4,3,1,80,0,1
272983,-111.111111111111,4,3,3,80,0,1
273383,-166.666666666667,4,3,1,80,0,0
275183,-133.333333333333,4,3,1,80,0,0
275783,-133.333333333333,4,3,2,80,0,0
277583,-133.333333333333,4,3,3,80,0,0
277883,-133.333333333333,4,3,4,80,0,0
278183,-153.846153846153,4,3,1,80,0,0
279983,-133.333333333333,4,3,1,80,0,0
280483,-133.333333333333,4,3,1,5,0,0
280583,400,4,3,2,80,1,0
281783,-66.6666666666667,4,3,1,80,0,0
282183,-100,4,3,2,80,0,0
283783,-166.666666666667,4,3,2,80,0,0
285783,-166.666666666667,4,3,2,5,0,0
285833,-166.666666666667,4,3,2,80,0,0
286049,-166.666666666667,4,3,2,5,0,0
286183,-166.666666666667,4,3,2,80,0,0
286583,-166.666666666667,4,3,2,5,0,0
286649,-166.666666666667,4,3,2,80,0,0
286849,-166.666666666667,4,3,2,5,0,0
286983,461.538461538462,4,2,1,80,1,0
287444,-100,4,2,1,70,0,0
287906,-100,4,2,1,60,0,0
288367,-100,4,2,1,50,0,0
288829,425.531914893617,4,2,1,40,1,0
289254,-100,4,2,1,35,0,0
289680,431.654676258993,4,2,1,30,1,0
290111,-100,4,2,1,25,0,0
290327,-100,4,2,1,5,0,0
290543,436.363636363636,4,2,1,45,1,0
290543,-133.333333333333,4,2,1,45,0,0
290870,-133.333333333333,4,2,1,5,0,0
290979,-133.333333333333,4,2,1,25,0,0
291306,-133.333333333333,4,2,1,5,0,0
291415,454.545454545455,4,2,1,45,1,0
291415,-133.333333333333,4,2,1,45,0,0
291983,-133.333333333333,4,2,1,5,0,0
292096,428.571428571429,4,2,1,40,1,0
292310,428.571428571429,4,2,1,55,1,0
292310,-133.333333333333,4,2,1,55,0,0
292631,-133.333333333333,4,2,1,5,0,0
292739,444.444444444444,4,2,1,50,1,0
292739,-133.333333333333,4,2,1,50,0,0
293072,-133.333333333333,4,2,1,5,0,0
293183,-133.333333333333,4,2,1,65,0,0
293516,-133.333333333333,4,2,1,5,0,0
293627,-133.333333333333,4,2,1,50,0,0
293961,-133.333333333333,4,2,1,5,0,0
294072,444.444444444444,4,2,1,65,1,0
294072,-133.333333333333,4,2,1,65,0,0
294405,-133.333333333333,4,2,1,5,0,0
294516,-133.333333333333,4,2,1,20,0,0
294849,-133.333333333333,4,2,1,5,0,0
294960,-133.333333333333,4,2,1,45,0,0
295257,-133.333333333333,4,2,1,50,0,0
295553,-133.333333333333,4,2,1,55,0,0
295849,-133.333333333333,4,2,1,60,0,0
296294,-133.333333333333,4,2,1,15,0,0
296738,-133.333333333333,4,2,1,65,0,0
297183,-133.333333333333,4,2,1,20,0,0
297460,-133.333333333333,4,2,1,35,0,0
297627,-133.333333333333,4,2,1,45,0,0
298072,-133.333333333333,4,2,1,10,0,0
298516,-133.333333333333,4,2,1,45,0,0
298812,-133.333333333333,4,2,1,5,0,0
298960,-133.333333333333,4,2,1,35,0,0
299257,-133.333333333333,4,2,1,5,0,0
299405,-133.333333333333,4,2,1,70,0,0
299849,434.782608695652,4,2,1,15,1,0
299849,-133.333333333333,4,2,1,15,0,0
300138,-133.333333333333,4,2,1,5,0,0
300283,-133.333333333333,4,2,1,30,0,0
300718,465.116279069767,4,2,1,35,1,0
300795,-100,4,2,1,40,0,0
300873,-100,4,2,1,45,0,0
300950,-100,4,2,1,55,0,0
301028,-100,4,2,1,75,0,0
301105,-100,4,2,1,80,0,0
301183,444.444444444444,4,2,1,90,1,0
301627,458.015267175573,4,2,1,15,1,0
301856,-100,4,2,1,60,0,0
302085,446.096654275093,4,2,1,30,1,0
302308,-100,4,2,1,50,0,0
302531,-100,4,2,1,15,0,0
302754,-100,4,2,1,60,0,0
302977,446.096654275093,4,2,1,25,1,0
303200,-100,4,2,1,35,0,0
303423,-100,4,2,1,10,0,0
303646,-100,4,2,1,30,0,0
303869,-100,4,2,1,10,0,0
304092,-100,4,2,1,25,0,0
304315,-100,4,2,1,20,0,0
304649,-100,4,2,1,10,0,0
304761,509.463280434063,4,2,1,50,1,0
305015,-100,4,2,1,5,0,0
305100,473.6829639922,4,2,1,45,1,0
305336,-100,4,2,1,5,0,0
305415,450.001125002813,4,2,1,50,1,0
305640,-100,4,2,1,5,0,0
305715,472.027976154091,4,2,1,65,1,0
305951,-100,4,2,1,5,0,0
306029,456.081081081081,4,2,1,60,1,0
306257,-100,4,2,1,5,0,0
306333,-100,4,2,1,45,0,0
306485,-100,4,2,1,5,0,0
306573,444.444444444444,4,2,1,50,1,0
307017,451.977401129944,4,2,1,80,1,0
307167,-100,4,2,1,65,0,0
307468,-100,4,2,1,80,0,0
307619,-100,4,2,1,65,0,0
307920,-100,4,2,1,65,0,0
308071,-100,4,2,1,50,0,0
308372,450.281425891182,4,2,1,80,1,0
308522,-100,4,2,1,65,0,0
308822,-100,4,2,1,70,0,0
308972,-100,4,2,1,55,0,0
309272,-100,4,2,1,60,0,0
309422,-100,4,2,1,30,0,0
309722,-100,4,2,1,35,0,0
309872,-100,4,2,1,20,0,0
310173,451.127819548872,4,2,1,50,1,0
310173,-100,4,2,1,50,0,0
310323,-100,4,2,1,50,0,0
310624,-100,4,2,1,65,0,0
310774,-100,4,2,1,50,0,0
311075,-100,4,2,1,65,0,0
311225,-100,4,2,1,50,0,0
311376,-100,4,2,1,50,0,0
311526,-100,4,2,1,55,0,0
311676,-100,4,2,1,40,0,0
311977,453.686200378072,4,2,1,50,1,0
312128,-100,4,2,1,35,0,0
312430,-100,4,2,1,45,0,0
312581,-100,4,2,1,30,0,0
312884,-100,4,2,1,40,0,0
313035,-100,4,2,1,25,0,0
313338,458.015267175573,4,2,1,35,1,0
313490,-100,4,2,1,20,0,0
313796,454.545454545455,4,2,1,25,1,0
314250,434.782608695652,4,2,1,30,1,0
314684,451.127819548872,4,2,1,35,1,0
314796,-100,4,2,1,40,0,0
314909,-100,4,2,1,45,0,0
315022,-100,4,2,1,50,0,0
315135,-100,4,2,1,55,0,0
315247,-100,4,2,1,60,0,0
315360,-100,4,2,1,65,0,0
315586,455.407969639469,4,2,1,70,1,0
315813,-100,4,2,1,5,0,0
316496,-100,4,2,1,35,0,0
316648,-100,4,2,1,10,0,0
316800,-100,4,2,1,35,0,0
316952,-100,4,2,1,10,0,0
317104,-100,4,2,1,35,0,0
317255,-100,4,2,1,10,0,0
317407,-76.9230769230769,4,2,1,55,0,0
317559,-76.9230769230769,4,2,1,15,0,0
318318,-100,4,2,1,40,0,0
318773,-100,4,2,1,10,0,0
319229,454.545454545455,4,2,1,60,1,0
319683,-100,4,2,1,5,0,0
320138,-100,4,2,1,40,0,0
320592,468.75,4,2,1,20,1,0
321060,441.176470588235,4,2,1,35,1,0
321354,-100,4,2,1,5,0,0
321501,454.545454545455,4,2,1,45,1,0
321804,-100,4,2,1,10,0,0
321955,-100,4,2,1,40,0,0
322258,-100,4,2,1,10,0,0
322410,-100,4,2,1,20,0,0
322561,-100,4,2,1,15,0,0
322713,-100,4,2,1,15,0,0
322864,454.545454545455,6,2,1,55,1,0
323318,-100,6,2,1,15,0,0
323808,431.654676258993,4,2,1,45,1,0
323951,-100,4,2,1,5,0,0
324095,458.015267175573,4,2,1,50,1,0
324247,-100,4,2,1,5,0,0
324400,444.444444444444,4,2,1,55,1,0
324548,-100,4,2,1,5,0,0
324696,458.015267175573,4,2,1,65,1,0
324696,-76.9230769230769,4,2,1,65,0,0
324848,-100,4,2,1,5,0,0
325154,-100,4,2,1,35,0,0
325459,-100,4,2,1,5,0,0
325612,-100,4,2,1,45,0,0
325670,458.015267175573,4,2,1,50,1,0
325975,-100,4,2,1,5,0,0
326070,458.015267175573,4,2,1,25,1,0
326451,-100,4,2,1,45,0,0
326528,-100,4,2,1,50,0,0
326833,-100,4,2,1,5,0,0
326986,454.545454545455,4,2,1,15,1,0
327289,-100,4,2,1,35,0,0
327363,-100,4,2,1,40,0,0
327440,461.538461538462,4,2,1,45,1,0
327747,-100,4,2,1,5,0,0
327901,-100,4,2,1,35,0,0
328363,500,4,2,1,35,1,0
328425,-100,4,2,1,45,0,0
328738,-100,4,2,1,5,0,0
328863,465.116279069767,4,2,1,45,1,0
329018,-100,4,2,1,20,0,0
329328,500,4,2,1,40,1,0
329494,-100,4,2,1,15,0,0
329828,550.45871559633,4,2,1,35,1,0
330011,-100,4,2,1,15,0,0
330528,461.538461538462,4,2,1,20,1,0
330604,-100,4,2,1,5,0,0
330989,-100,4,2,1,10,0,0
331451,-100,4,2,1,15,0,0
331912,-100,4,2,1,20,0,0
332374,-100,4,2,1,25,0,0
332835,-100,4,2,1,30,0,0
333297,-100,4,2,1,35,0,0
333758,-100,4,2,1,40,0,0
334220,-100,4,2,1,45,0,0
334681,-100,4,2,1,50,0,0
335143,-100,4,2,1,60,0,0
335604,-100,4,2,1,5,0,0

[Colours]
Combo1 : 184,113,255
Combo2 : 119,119,255
Combo3 : 255,151,151
Combo4 : 0,166,166

[HitObjects]
256,192,10395,12,0,13695,0:0:0:0:
193,139,13995,6,0,L|187:243,1,105,14|0,0:0|0:0,0:0:0:0:
57,177,14295,1,10,0:0:0:0:
279,111,14445,2,0,L|273:215,1,105,10|0,0:0|0:0,0:0:0:0:
63,72,14745,2,0,L|57:176,1,105,10|0,0:0|0:0,0:0:0:0:
168,65,15045,1,10,0:0:0:0:
219,273,15195,6,0,P|262:293|313:283,2,84,10|0|0,0:0|0:0|0:0,0:0:0:0:
273,77,15645,6,0,L|137:62,1,105,14|0,0:0|0:0,0:0:0:0:
399,37,15945,1,10,0:0:0:0:
285,178,16095,2,0,L|149:163,1,105,10|0,0:0|0:0,0:0:0:0:
367,118,16395,2,0,L|503:103,1,105,10|0,0:0|0:0,0:0:0:0:
265,1,16695,1,10,0:0:0:0:
379,219,16845,6,0,P|414:200|477:213,1,84,10|0,0:0|0:0,0:0:0:0:
288,102,17145,2,0,P|324:121|366:118,1,84,2|0,0:0|0:0,0:0:0:0:
298,280,17445,6,0,B|248:294|248:294|190:276,1,105,14|0,0:0|0:0,0:0:0:0:
90,145,17745,1,2,0:0:0:0:
97,131,17820,1,0,0:0:0:0:
104,117,17895,2,0,L|92:221,1,105,10|0,0:0|0:0,0:0:0:0:
154,47,18195,2,0,P|105:31|53:47,2,105,2|0|2,0:0|0:0|0:0,0:0:0:0:
248,209,18645,6,0,L|311:204,1,42,2|0,0:0|0:0,0:0:0:0:
231,122,18795,2,0,L|189:125,1,42,8|0,0:0|0:0,0:0:0:0:
91,221,18945,5,8,0:0:0:0:
131,217,19020,1,8,0:0:0:0:
171,214,19095,1,0,0:0:0:0:
211,211,19170,1,0,0:0:0:0:
248,209,19245,6,0,L|253:264,1,52.5,10|0,0:0|0:0,0:0:0:0:
465,193,19545,6,0,L|460:248,1,52.5,10|0,0:0|0:0,0:0:0:0:
392,16,19695,2,0,L|387:71,1,52.5,10|0,0:0|0:0,0:0:0:0:
248,209,19995,6,0,L|243:264,1,52.5,10|0,0:0|0:0,0:0:0:0:
31,193,20295,6,0,L|36:248,1,52.5,10|0,0:0|0:0,0:0:0:0:
104,16,20445,2,0,L|109:71,1,52.5,10|0,0:0|0:0,0:0:0:0:
171,328,20745,6,8,P|164:353|169:417,1,52.5,10|8,0:0|0:0,0:0:0:0:
239,260,20895,2,8,P|246:235|241:171,1,52.5,10|8,0:0|0:0,0:0:0:0:
203,109,21045,69,2,0:0:0:0:
202,114,21120,1,0,0:0:0:0:
201,119,21195,1,2,0:0:0:0:
201,124,21270,1,0,0:0:0:0:
201,129,21345,6,0,P|261:117|332:168,1,105,4|0,0:0|0:0,0:0:0:0:
355,271,21645,1,0,0:0:0:0:
311,122,21795,2,0,L|325:-27,1,105,12|0,0:0|0:0,0:0:0:0:
430,130,22095,1,0,0:0:0:0:
243,261,22245,2,0,P|182:272|111:221,1,105,4|0,0:0|0:0,0:0:0:0:
311,122,22545,1,12,0:0:0:0:
348,384,22695,2,2,B|354:358|346:332|346:332|354:318|354:318|349:292|358:262,1,115.50000352478
482,45,22995,6,0,P|462:103|382:138,1,105,6|0,0:0|0:0,0:0:0:0:
268,46,23295,1,0,0:0:0:0:
243,261,23445,2,0,L|233:365,1,105,12|0,0:0|0:0,0:0:0:0:
142,257,23745,1,0,0:0:0:0:
308,202,23895,2,0,P|368:190|439:241,1,105,4|2,0:0|0:0,0:0:0:0:
482,45,24195,70,2,B|464:52|440:45|440:45|424:52|424:52|396:42|364:51,1,115.50000352478,14|2,0:0|0:0,0:0:0:0:
187,99,24495,5,2,0:0:0:0:
186,110,24570,1,0,0:0:0:0:
185,121,24645,2,0,L|189:63,1,57.7500017623902,14|0,0:0|0:0,0:0:0:0:
142,257,24795,5,6,0:0:0:0:
141,268,24870,1,0,0:0:0:0:
140,280,24945,1,0,0:0:0:0:
139,291,25020,1,0,0:0:0:0:
138,303,25095,1,0,0:0:0:0:
137,314,25170,1,0,0:0:0:0:
136,325,25245,6,0,L|254:316,1,105,12|0,0:0|0:0,0:0:0:0:
372,46,25545,2,0,P|359:101|452:83,1,157.5,4|0,0:0|0:0,0:0:0:0:
450,99,25845,1,2,0:0:0:0:
449,114,25920,1,0,0:0:0:0:
448,130,25995,1,2,0:0:0:0:
448,146,26070,1,0,0:0:0:0:
447,161,26145,6,0,P|373:168|316:61,1,210,14|0,0:0|0:0,0:0:0:0:
110,36,26595,70,0,L|119:151,1,115.50000352478,14|0,0:0|0:0,0:0:0:0:
219,224,26820,1,0,0:0:0:0:
219,224,26895,6,0,L|215:166,1,57.7500017623902,10|0,0:0|0:0,0:0:0:0:
132,322,27045,2,0,L|137:379,1,57.7500017623902,10|0,0:0|0:0,0:0:0:0:
404,36,27345,6,0,L|394:151,1,115.50000352478,14|0,0:0|0:0,0:0:0:0:
295,224,27570,1,0,0:0:0:0:
295,224,27645,6,0,L|299:166,1,57.7500017623902,10|0,0:0|0:0,0:0:0:0:
380,322,27795,2,0,L|375:379,1,57.7500017623902,10|0,0:0|0:0,0:0:0:0:
185,319,28095,70,8,L|127:323,1,52.5,10|8,0:0|0:0,0:0:0:0:
328,319,28245,2,8,L|385:323,1,52.5,10|8,0:0|0:0,0:0:0:0:
257,260,28395,1,2,0:0:0:0:
257,254,28470,1,0,0:0:0:0:
257,249,28545,1,2,0:0:0:0:
257,244,28620,1,0,0:0:0:0:
219,224,28695,6,0,L|149:218,2,70,12|0|0,0:0|0:0|0:0,0:0:0:0:
295,224,29095,2,0,L|364:218,2,70,12|0|0,0:0|0:0|0:0,0:0:0:0:
382,113,29495,70,2,L|271:124,1,105.000004005432,6|2,0:0|0:0,0:0:0:0:
233,32,29761,1,2,0:0:0:0:
443,32,29895,1,14,0:0:0:0:
382,113,30028,1,0,0:0:0:0:
342,19,30161,1,2,0:0:0:0:
482,125,30295,6,0,L|482:231,1,105.000004005432,2|0,0:0|0:0,0:0:0:0:
482,366,30561,1,2,0:0:0:0:
381,229,30695,2,0,P|430:216|499:243,1,105.000004005432,10|0,0:0|0:0,0:0:0:0:
322,312,30961,1,0,0:0:0:0:
382,112,31095,5,2,0:0:0:0:
381,229,31228,1,2,0:0:0:0:
280,169,31361,1,2,0:0:0:0:
410,118,31495,1,10,0:0:0:0:
361,250,31628,1,0,0:0:0:0:
271,141,31761,6,0,B|280:89|280:89|323:47,1,105.000004005432,2|0,0:0|0:0,0:0:0:0:
361,250,32028,2,0,B|311:268|311:268|253:251,1,105.000004005432,2|0,0:0|0:0,0:0:0:0:
410,118,32295,2,0,B|450:151|450:151|465:210,1,105.000004005432,10|0,0:0|0:0,0:0:0:0:
372,334,32561,1,2,0:0:0:0:
271,141,32695,6,0,P|219:133|155:146,1,105.000004005432,6|0,0:0|0:0,0:0:0:0:
42,221,32961,1,0,0:0:0:0:
110,52,33095,1,12,0:0:0:0:
167,141,33228,1,0,0:0:0:0:
61,145,33361,6,0,P|19:104|6:46,1,105.000004005432,2|0,0:0|0:0,0:0:0:0:
167,141,33628,2,0,P|152:197|108:238,1,105.000004005432,2|0,0:0|0:0,0:0:0:0:
110,52,33895,2,0,P|166:36|223:53,1,105.000004005432,10|0,0:0|0:0,0:0:0:0:
271,141,34161,1,2,0:0:0:0:
61,145,34295,1,2,0:0:0:0:
259,127,34428,1,2,0:0:0:0:
120,230,34561,1,2,0:0:0:0:
210,46,34695,6,0,P|263:32|348:154,1,210.000008010865,14|0,0:0|0:0,0:0:0:0:
244,326,35095,1,2,0:0:0:0:
259,127,35228,1,2,0:0:0:0:
264,325,35361,1,2,0:0:0:0:
159,133,35495,2,0,P|100:125|52:153,1,105.000004005432,14|0,0:0|0:0,0:0:0:0:
6,279,35761,1,8,0:0:0:0:
224,327,35895,70,2,L|213:216,1,105.000004005432,6|2,0:0|0:0,0:0:0:0:
210,46,36161,1,2,0:0:0:0:
301,258,36295,1,14,0:0:0:0:
120,230,36428,1,0,0:0:0:0:
258,126,36561,1,2,0:0:0:0:
204,328,36695,6,0,L|87:335,1,105.000004005432,2|0,0:0|0:0,0:0:0:0:
6,279,36961,1,2,0:0:0:0:
153,119,37095,2,0,L|270:126,1,105.000004005432,10|0,0:0|0:0,0:0:0:0:
301,258,37361,1,0,0:0:0:0:
355,58,37495,5,2,0:0:0:0:
365,177,37628,1,2,0:0:0:0:
257,125,37761,1,2,0:0:0:0:
384,62,37895,1,10,0:0:0:0:
346,201,38028,1,0,0:0:0:0:
246,97,38161,6,0,B|255:45|255:45|298:3,1,105.000004005432,2|0,0:0|0:0,0:0:0:0:
346,201,38428,2,0,B|296:219|296:219|238:202,1,105.000004005432,2|0,0:0|0:0,0:0:0:0:
384,62,38695,2,0,B|424:95|424:95|439:154,1,105.000004005432,10|0,0:0|0:0,0:0:0:0:
447,284,38961,1,2,0:0:0:0:
246,205,39095,6,0,P|197:193|139:206,1,105.000004005432,4|0,0:0|0:0,0:0:0:0:
53,367,39361,1,2,0:0:0:0:
17,164,39495,1,14,0:0:0:0:
69,359,39628,1,0,0:0:0:0:
246,205,39761,6,0,P|295:193|353:206,1,105.000004005432,2|0,0:0|0:0,0:0:0:0:
196,290,40028,2,0,P|161:253|143:196,1,105.000004005432,2|0,0:0|0:0,0:0:0:0:
295,291,40295,2,0,P|280:339|240:383,1,105.000004005432,10|0,0:0|0:0,0:0:0:0:
69,359,40561,1,2,0:0:0:0:
138,114,40695,5,6,0:0:0:0:
204,297,40828,1,0,0:0:0:0:
204,297,40895,1,0,0:0:0:0:
204,297,40961,1,0,0:0:0:0:
17,164,41095,5,14,0:0:0:0:
254,212,41228,1,0,0:0:0:0:
254,212,41295,1,0,0:0:0:0:
254,212,41361,1,0,0:0:0:0:
47,281,41495,1,14,0:0:0:0:
138,114,41628,1,0,0:0:0:0:
204,297,41761,1,0,0:0:0:0:
298,117,41895,6,8,L|362:110,1,52.5000020027161,10|8,0:0|0:0,0:0:0:0:
409,287,42028,2,8,L|345:294,1,52.5000020027161
437,64,42161,2,8,L|501:57,1,52.5000020027161
454,220,42295,6,0,B|411:196|369:218|369:218|348:210|348:210|298:236|248:209,1,210,4|0,0:0|0:0,0:0:0:0:
118,290,42745,2,0,P|160:283|224:312,1,89.2500017023087,2|0,0:0|0:0,0:0:0:0:
155,382,43045,1,2,0:0:0:0:
166,204,43195,2,0,P|209:135|277:128,1,133.875002553463,10|0,0:0|0:0,0:0:0:0:
276,24,43495,6,0,B|246:68|257:124|257:124|243:60|185:44,1,210,4|0,0:0|0:0,0:0:0:0:
81,205,43945,2,0,P|124:195|167:204,1,89.2500017023087,2|0,0:0|0:0,0:0:0:0:
167,204,44170,1,0,0:0:0:0:
167,204,44245,1,2,0:0:0:0:
115,37,44395,1,2,0:0:0:0:
115,37,44470,1,0,0:0:0:0:
115,37,44545,1,0,0:0:0:0:
175,211,44695,6,0,P|221:221|279:203,1,89.2500017023087,4|0,0:0|0:0,0:0:0:0:
443,0,44995,2,0,L|433:98,1,89.2500017023087,2|0,0:0|0:0,0:0:0:0:
211,22,45295,2,0,L|221:120,1,89.2500017023087,2|0,0:0|0:0,0:0:0:0:
421,239,45595,1,10,0:0:0:0:
326,99,45745,1,8,0:0:0:0:
248,300,45895,6,0,P|291:291|334:301,1,89.2500017023087,6|0,0:0|0:0,0:0:0:0:
507,237,46195,2,0,P|463:228|420:238,1,89.2500017023087,2|0,0:0|0:0,0:0:0:0:
298,383,46495,1,2,0:0:0:0:
298,383,46570,1,0,0:0:0:0:
298,383,46645,1,0,0:0:0:0:
381,175,46795,1,2,0:0:0:0:
381,175,46870,1,0,0:0:0:0:
381,175,46945,1,0,0:0:0:0:
98,163,47095,6,0,B|145:175|181:151|181:151|201:173|201:173|255:148|311:185,1,210,14|0,0:0|0:0,0:0:0:0:
431,343,47545,1,2,0:0:0:0:
512,151,47695,2,0,P|500:208|513:251,1,89.2500017023087,2|2,0:0|0:0,0:0:0:0:
309,72,47995,2,0,P|370:96|448:58,1,133.875002553463,10|0,0:0|0:0,0:0:0:0:
372,0,48295,6,0,B|363:29|363:29|382:62|382:62|344:145|390:214,1,210,4|0,0:0|0:0,0:0:0:0:
431,343,48745,2,0,L|484:355,1,52.5,10|0,0:0|0:0,0:0:0:0:
310,332,48895,1,10,0:0:0:0:
304,357,48970,1,8,0:0:0:0:
298,383,49045,1,8,0:0:0:0:
495,186,49195,1,10,0:0:0:0:
500,211,49270,1,8,0:0:0:0:
506,237,49345,1,8,0:0:0:0:
313,179,49495,6,0,P|293:122|323:55,1,115.50000352478,14|0,0:0|0:0,0:0:0:0:
440,120,49720,1,0,0:0:0:0:
440,120,49795,2,0,P|400:126|358:108,1,57.7500017623902,10|0,0:0|0:0,0:0:0:0:
188,69,49945,2,0,P|250:86|328:57,1,125.999996154785,10|0,0:0|0:0,0:0:0:0:
298,383,50245,6,0,P|318:326|288:259,1,115.50000352478,14|0,0:0|0:0,0:0:0:0:
171,324,50470,1,0,0:0:0:0:
171,324,50545,2,0,P|211:330|253:312,1,57.7500017623902,10|0,0:0|0:0,0:0:0:0:
423,273,50695,2,0,P|361:290|283:261,1,125.999996154785,10|0,0:0|0:0,0:0:0:0:
188,69,50995,6,0,P|165:114|127:137,2,83.9999974365235,10|2|2,0:0|0:0|0:0,0:0:0:0:
283,22,51295,2,0,P|299:70|288:112,2,83.9999974365235,10|2|2,0:0|0:0|0:0,0:0:0:0:
475,148,51595,6,0,L|482:233,1,77.0000023498536,4|0,0:0|0:0,0:0:0:0:
442,69,51795,1,0,0:0:0:0:
442,69,51895,2,0,P|476:62|515:72,1,70,8|0,0:0|0:0,0:0:0:0:
394,141,52095,1,2,0:0:0:0:
394,141,52195,2,0,P|359:148|321:138,1,70,2|0,0:0|0:0,0:0:0:0:
286,26,52395,1,2,0:0:0:0:
286,26,52495,2,0,P|336:79|292:169,1,140,14|0,0:0|0:0,0:0:0:0:
96,252,52795,6,0,L|89:167,1,77.0000023498536,4|0,0:0|0:0,0:0:0:0:
129,331,52995,1,0,0:0:0:0:
129,331,53095,2,0,P|95:338|56:328,1,70,8|0,0:0|0:0,0:0:0:0:
181,263,53295,1,2,0:0:0:0:
181,263,53395,2,0,P|216:256|254:266,1,70,2|0,0:0|0:0,0:0:0:0:
412,351,53595,5,10,0:0:0:0:
406,281,53695,1,10,0:0:0:0:
400,211,53795,1,8,0:0:0:0:
394,141,53895,1,8,0:0:0:0:
389,71,53995,6,0,P|357:86|318:86,1,70,4|0,0:0|0:0,0:0:0:0:
149,101,54195,1,0,0:0:0:0:
149,101,54295,2,0,P|172:127|182:165,1,70,2|0,0:0|0:0,0:0:0:0:
185,267,54495,1,0,0:0:0:0:
185,267,54595,2,0,P|212:203|282:184,1,140,2|0,0:0|0:0,0:0:0:0:
484,301,54895,2,0,P|420:274|401:204,1,140,14|0,0:0|0:0,0:0:0:0:
445,34,55195,5,2,0:0:0:0:
389,71,55295,1,0,0:0:0:0:
322,70,55395,1,0,0:0:0:0:
265,36,55495,2,0,B|289:73|289:73|272:206,1,154.000004699707,12|0,0:0|0:0,0:0:0:0:
5,270,55795,5,2,0:0:0:0:
61,233,55895,1,0,0:0:0:0:
128,233,55995,1,0,0:0:0:0:
185,267,56095,2,0,B|161:230|161:230|178:97,1,154.000004699707,12|0,0:0|0:0,0:0:0:0:
383,240,56395,70,0,B|360:230|360:230|384:377,1,154.000004699707,4|0,0:0|0:0,0:0:0:0:
509,347,56695,2,0,P|413:336|377:363,1,140,2|0,0:0|0:0,0:0:0:0:
266,238,56995,6,0,B|289:248|289:248|265:101,1,154.000004699707,12|0,0:0|0:0,0:0:0:0:
138,126,57295,2,0,P|219:144|285:104,1,140,2|0,0:0|0:0,0:0:0:0:
383,240,57595,6,0,B|393:217|393:217|246:241,1,154.000004699707,4|0,0:0|0:0,0:0:0:0:
124,321,57895,1,2,0:0:0:0:
158,260,57995,1,0,0:0:0:0:
163,191,58095,1,0,0:0:0:0:
138,126,58195,6,0,B|128:149|128:149|278:119,1,167.999994873047,12|0,0:0|0:0,0:0:0:0:
395,104,58495,1,2,0:0:0:0:
472,122,58595,1,0,0:0:0:0:
485,200,58695,1,0,0:0:0:0:
417,242,58795,70,0,L|307:227,1,105,14|0,0:0|0:0,0:0:0:0:
216,113,59020,1,0,0:0:0:0:
216,113,59095,2,0,L|292:124,1,52.5,10|0,0:0|0:0,0:0:0:0:
424,263,59245,2,0,L|314:248,1,105,10|0,0:0|0:0,0:0:0:0:
350,59,59545,6,0,L|392:161,1,105,14|0,0:0|0:0,0:0:0:0:
339,297,59770,1,0,0:0:0:0:
339,297,59845,2,0,L|310:225,1,52.5,10|0,0:0|0:0,0:0:0:0:
365,42,59995,2,0,L|407:144,1,105,10|0,0:0|0:0,0:0:0:0:
226,208,60295,6,0,L|293:120,1,105,14|0,0:0|0:0,0:0:0:0:
437,98,60520,1,0,0:0:0:0:
437,98,60595,2,0,L|389:158,1,52.5,10|0,0:0|0:0,0:0:0:0:
203,203,60745,2,0,L|270:115,1,105,10|0,0:0|0:0,0:0:0:0:
231,326,61045,5,10,0:0:0:0:
199,329,61120,1,8,0:0:0:0:
168,324,61195,1,10,0:0:0:0:
139,312,61270,1,8,0:0:0:0:
114,293,61345,1,2,0:0:0:0:
95,268,61420,1,0,0:0:0:0:
82,240,61495,1,2,0:0:0:0:
76,209,61570,1,0,0:0:0:0:
78,177,61645,69,2,0:0:0:0:
333,177,61845,5,2,0:0:0:0:
139,312,62045,5,2,0:0:0:0:
222,36,62245,6,0,P|270:22|346:54,1,105.000004005432,6|0,0:0|0:0,0:0:0:0:
272,118,62706,2,0,L|204:128,2,52.5000020027161,2|0|0,0:0|0:0|0:0,0:0:0:0:
420,88,63168,2,0,L|488:98,2,52.5000020027161,14|0|0,0:0|0:0|0:0,0:0:0:0:
429,175,63629,2,0,L|497:185,2,52.5000020027161,2|0|0,0:0|0:0|0:0,0:0:0:0:
220,125,64091,70,0,P|206:173|238:249,1,105.000004005432,4|0,0:0|0:0,0:0:0:0:
317,262,64552,1,2,0:0:0:0:
213,243,64706,1,0,0:0:0:0:
109,224,64860,1,0,0:0:0:0:
5,206,65014,5,8,0:0:0:0:
73,125,65168,1,0,0:0:0:0:
177,144,65321,1,2,0:0:0:0:
213,243,65475,1,8,0:0:0:0:
153,330,65629,1,10,0:0:0:0:
153,330,65706,1,8,0:0:0:0:
153,330,65783,1,8,0:0:0:0:
41,304,65937,6,0,L|26:359,2,52.5000020027161,2|0|0,0:0|0:0|0:0,0:0:0:0:
213,243,66398,2,0,P|271:232|330:251,1,105.000004005432,12|0,0:0|0:0,0:0:0:0:
265,356,66860,1,0,0:0:0:0:
265,356,66937,1,0,0:0:0:0:
265,356,67014,1,0,0:0:0:0:
153,330,67168,1,2,0:0:0:0:
117,231,67321,1,0,0:0:0:0:
117,231,67398,1,0,0:0:0:0:
117,231,67475,2,0,L|143:181,1,52.5000020027161,2|0,0:0|0:0,0:0:0:0:
290,173,67783,6,0,P|264:172|239:177,1,52.5000020027161,10|0,0:0|0:0,0:0:0:0:
31,113,68091,2,0,P|57:111|82:116,1,52.5000020027161,2|0,0:0|0:0,0:0:0:0:
278,24,68398,2,0,P|251:22|226:27,1,52.5000020027161,2|0,0:0|0:0,0:0:0:0:
117,231,68706,5,10,0:0:0:0:
173,96,68860,1,0,0:0:0:0:
173,96,68937,1,8,0:0:0:0:
173,96,69014,1,8,0:0:0:0:
133,239,69168,1,8,0:0:0:0:
290,173,69321,1,0,0:0:0:0:
82,116,69475,1,0,0:0:0:0:
278,24,69629,6,0,P|305:22|330:27,1,52.5000020027161,4|0,0:0|0:0,0:0:0:0:
173,96,69937,1,0,0:0:0:0:
314,100,70091,2,0,P|339:115|358:135,1,52.5000020027161,10|0,0:0|0:0,0:0:0:0:
173,96,70399,1,0,0:0:0:0:
298,189,70552,2,0,P|311:218|316:249,1,52.5000020027161,2|0,0:0|0:0,0:0:0:0:
173,96,70860,1,0,0:0:0:0:
227,259,71014,2,0,P|220:294|205:324,1,52.5000020027161,10|0,0:0|0:0,0:0:0:0:
173,96,71322,1,0,0:0:0:0:
417,69,71475,6,0,L|480:61,1,52.5000020027161,6|0,0:0|0:0,0:0:0:0:
225,102,71783,2,0,L|162:94,1,52.5000020027161,14|0,0:0|0:0,0:0:0:0:
449,157,72091,2,0,L|512:149,1,52.5000020027161,6|0,0:0|0:0,0:0:0:0:
193,190,72399,2,0,L|130:182,1,52.5000020027161,6|0,0:0|0:0,0:0:0:0:
481,245,72706,1,10,0:0:0:0:
278,24,73014,1,10,0:0:0:0:
234,337,73321,6,0,P|175:334|132:289,1,105.000004005432,6|0,0:0|0:0,0:0:0:0:
193,190,73783,2,0,L|161:231,1,52.5000020027161,10|0,0:0|0:0,0:0:0:0:
84,252,74091,1,0,0:0:0:0:
161,104,74245,2,0,L|212:111,1,52.5000020027161,10|0,0:0|0:0,0:0:0:0:
269,167,74553,1,0,0:0:0:0:
103,175,74706,2,0,L|83:126,1,52.5000020027161,10|0,0:0|0:0,0:0:0:0:
103,49,75013,1,0,0:0:0:0:
212,111,75168,69,2,0:0:0:0:
235,108,75244,1,0,0:0:0:0:
258,106,75321,1,0,0:0:0:0:
282,103,75398,1,0,0:0:0:0:
305,101,75475,1,0,0:0:0:0:
329,98,75552,1,0,0:0:0:0:
352,96,75629,6,0,L|366:47,2,26.2500010013581
376,172,75860,2,0,L|424:186,2,26.2500010013581
242,184,76091,5,2,0:0:0:0:
228,199,76167,1,0,0:0:0:0:
219,218,76244,1,0,0:0:0:0:
216,239,76321,1,0,0:0:0:0:
217,260,76398,1,0,0:0:0:0:
225,279,76475,1,0,0:0:0:0:
237,296,76552,6,0,L|296:294,1,35,12|0,0:0|0:0,0:0:0:0:
376,172,76706,2,0,L|348:224,1,35,8|0,0:0|0:0,0:0:0:0:
413,354,76860,2,0,L|381:303,1,35,8|0,0:0|0:0,0:0:0:0:
242,184,77014,70,0,P|186:173|141:191,1,94.499997116089,4|0,0:0|0:0,0:0:0:0:
82,384,77314,2,0,L|78:271,1,94.499997116089,10|0,0:0|0:0,0:0:0:0:
24,174,77614,1,2,0:0:0:0:
0,362,77764,1,8,0:0:0:0:
198,266,77914,2,0,B|245:256|245:256|307:270,1,94.499997116089,2|0,0:0|0:0,0:0:0:0:
406,384,78214,6,0,L|410:271,1,94.499997116089,2|0,0:0|0:0,0:0:0:0:
464,174,78514,1,10,0:0:0:0:
488,362,78664,1,0,0:0:0:0:
290,266,78814,5,2,0:0:0:0:
244,254,78914,1,0,0:0:0:0:
198,266,79014,1,0,0:0:0:0:
166,301,79114,5,10,0:0:0:0:
190,224,79214,1,0,0:0:0:0:
161,149,79314,1,0,0:0:0:0:
91,109,79414,6,0,B|174:133|174:133|377:83,1,283.499991348267,2|0,0:0|0:0,0:0:0:0:
383,80,79939,1,0,0:0:0:0:
400,75,80014,6,0,P|382:125|407:183,1,94.499997116089,4|0,0:0|0:0,0:0:0:0:
503,292,80314,2,0,L|390:288,1,94.499997116089,10|0,0:0|0:0,0:0:0:0:
512,201,80614,1,2,0:0:0:0:
393,384,80764,1,8,0:0:0:0:
256,232,80914,2,0,P|262:185|297:144,1,94.499997116089,2|0,0:0|0:0,0:0:0:0:
9,292,81214,6,0,L|122:288,1,94.499997116089,2|0,0:0|0:0,0:0:0:0:
0,201,81514,1,10,0:0:0:0:
119,384,81664,1,0,0:0:0:0:
256,232,81814,5,2,0:0:0:0:
247,179,81914,1,0,0:0:0:0:
213,139,82014,1,0,0:0:0:0:
162,124,82114,5,10,0:0:0:0:
245,132,82214,1,0,0:0:0:0:
312,82,82314,1,0,0:0:0:0:
328,0,82414,5,10,0:0:0:0:
346,220,82614,5,8,0:0:0:0:
106,64,82814,5,8,0:0:0:0:
391,54,83014,5,10,0:0:0:0:
391,54,83089,2,0,L|390:110,1,52.5,8|0,0:0|0:0,0:0:0:0:
100,148,83764,69,10,0:0:0:0:
79,152,83839,2,0,L|78:208,1,52.5,8|0,0:0|0:0,0:0:0:0:
342,217,84214,5,10,0:0:0:0:
383,226,84289,2,0,L|384:282,1,52.5,8|0,0:0|0:0,0:0:0:0:
100,286,84889,5,10,0:0:0:0:
18,305,84964,2,0,L|17:361,1,52.5,8|0,0:0|0:0,0:0:0:0:
495,243,85264,5,0,0:0:0:0:
495,295,85339,1,0,0:0:0:0:
496,347,85414,69,14,0:0:0:0:
299,284,85564,1,0,0:0:0:0:
429,166,85714,5,8,0:0:0:0:
342,355,85864,1,0,0:0:0:0:
340,134,86014,5,14,0:0:0:0:
424,374,86164,1,0,0:0:0:0:
412,72,86314,5,8,0:0:0:0:
259,356,86464,1,0,0:0:0:0:
429,166,86614,6,0,L|437:241,2,70,2|0|0,0:0|0:0|0:0,0:0:0:0:
259,356,86914,5,14,0:0:0:0:
287,75,87214,1,14,0:0:0:0:
436,235,87514,1,14,0:0:0:0:
79,152,87814,1,14,0:0:0:0:
256,192,87889,12,0,88864,0:0:0:0:
272,197,89014,70,0,L|288:345,1,105,6|8,0:0|0:0,0:0:0:0:
397,123,89314,1,0,0:0:0:0:
397,123,89389,1,0,0:0:0:0:
397,123,89464,2,0,L|259:62,1,105,10|0,0:0|0:0,0:0:0:0:
399,269,89764,1,8,0:0:0:0:
420,253,89839,1,0,0:0:0:0:
441,237,89914,1,2,0:0:0:0:
462,222,89989,1,0,0:0:0:0:
483,206,90064,1,8,0:0:0:0:
184,114,90214,5,2,0:0:0:0:
283,301,90364,2,0,L|294:196,1,105,8|0,0:0|0:0,0:0:0:0:
386,18,90664,1,8,0:0:0:0:
478,98,90814,5,0,0:0:0:0:
454,118,90889,1,0,0:0:0:0:
426,134,90964,1,8,0:0:0:0:
395,140,91039,1,0,0:0:0:0:
364,138,91114,1,0,0:0:0:0:
334,128,91189,1,0,0:0:0:0:
308,111,91264,1,8,0:0:0:0:
287,87,91339,1,0,0:0:0:0:
273,59,91414,5,2,0:0:0:0:
90,171,91564,2,0,L|79:66,1,105,8|0,0:0|0:0,0:0:0:0:
170,286,91864,1,10,0:0:0:0:
179,61,92014,1,0,0:0:0:0:
271,196,92164,1,8,0:0:0:0:
267,222,92239,1,0,0:0:0:0:
264,248,92314,1,2,0:0:0:0:
262,274,92389,1,0,0:0:0:0:
259,300,92464,1,8,0:0:0:0:
80,67,92614,69,2,0:0:0:0:
170,286,92764,2,0,L|181:181,1,105,8|0,0:0|0:0,0:0:0:0:
29,211,93064,1,8,0:0:0:0:
186,69,93214,1,0,0:0:0:0:
186,69,93289,1,0,0:0:0:0:
186,69,93364,2,8,L|244:94,1,52.5
86,120,93514,2,0,L|80:67,1,52.5
181,182,93664,2,0,L|138:213,1,52.5
322,84,93814,5,4,0:0:0:0:
353,66,93889,1,0,0:0:0:0:
389,62,93964,1,8,0:0:0:0:
423,72,94039,1,0,0:0:0:0:
450,96,94114,1,2,0:0:0:0:
424,120,94189,1,0,0:0:0:0:
410,154,94264,1,8,0:0:0:0:
412,190,94339,1,0,0:0:0:0:
429,221,94414,5,2,0:0:0:0:
441,254,94489,1,0,0:0:0:0:
440,290,94564,1,8,0:0:0:0:
427,323,94639,1,0,0:0:0:0:
402,349,94714,1,2,0:0:0:0:
369,364,94789,1,0,0:0:0:0:
333,366,94864,1,8,0:0:0:0:
299,355,94939,1,0,0:0:0:0:
271,332,95014,6,0,P|256:304|255:271,3,60.3750011515618,2|0|8|0,0:0|0:0|0:0|0:0,0:0:0:0:
306,113,95314,2,0,P|289:139|261:157,1,60.3750011515618
87,111,95464,69,10,0:0:0:0:
99,130,95539,1,0,0:0:0:0:
102,151,95614,1,0,0:0:0:0:
103,173,95689,1,0,0:0:0:0:
99,193,95764,2,0,P|130:194|159:209,1,60.3750011515618,8|0,0:0|0:0,0:0:0:0:
108,282,95914,5,2,0:0:0:0:
104,303,95989,1,0,0:0:0:0:
105,324,96064,1,8,0:0:0:0:
109,344,96139,1,0,0:0:0:0:
117,363,96214,5,10,0:0:0:0:
157,337,96289,1,0,0:0:0:0:
180,295,96364,1,0,0:0:0:0:
179,247,96439,1,0,0:0:0:0:
155,206,96514,1,0,0:0:0:0:
131,165,96589,1,0,0:0:0:0:
130,117,96664,1,0,0:0:0:0:
153,75,96739,1,0,0:0:0:0:
193,49,96814,5,2,0:0:0:0:
240,48,96889,1,0,0:0:0:0:
282,71,96964,1,0,0:0:0:0:
307,112,97039,1,0,0:0:0:0:
308,159,97114,1,0,0:0:0:0:
285,201,97189,1,0,0:0:0:0:
244,226,97264,1,0,0:0:0:0:
197,227,97339,1,0,0:0:0:0:
155,206,97414,70,0,P|182:282|155:338,1,120.750002303124,12|0,0:0|0:0,0:0:0:0:
62,177,97714,2,0,P|114:115|176:111,1,120.750002303124,12|0,0:0|0:0,0:0:0:0:
84,272,98014,1,8,0:0:0:0:
84,272,98089,1,8,0:0:0:0:
84,272,98164,2,0,L|18:282,1,60.3750011515618
155,206,98314,1,8,0:0:0:0:
186,210,98389,1,8,0:0:0:0:
217,215,98464,1,8,0:0:0:0:
248,220,98539,1,8,0:0:0:0:
279,224,98614,6,0,B|300:272|300:272|288:326,1,105,6|8,0:0|0:0,0:0:0:0:
232,107,98914,1,0,0:0:0:0:
232,107,98989,1,0,0:0:0:0:
232,107,99064,2,0,B|263:64|263:64|315:48,1,105,10|0,0:0|0:0,0:0:0:0:
155,206,99364,1,8,0:0:0:0:
128,203,99439,1,0,0:0:0:0:
102,200,99514,1,2,0:0:0:0:
83,182,99589,1,0,0:0:0:0:
64,164,99664,1,8,0:0:0:0:
324,147,99814,5,2,0:0:0:0:
145,106,99964,2,0,L|156:1,1,105,8|0,0:0|0:0,0:0:0:0:
102,200,100264,1,8,0:0:0:0:
273,95,100414,5,0,0:0:0:0:
299,77,100489,1,0,0:0:0:0:
331,74,100564,1,8,0:0:0:0:
360,83,100639,1,0,0:0:0:0:
383,105,100714,1,0,0:0:0:0:
406,126,100789,1,0,0:0:0:0:
436,135,100864,1,8,0:0:0:0:
468,132,100939,1,0,0:0:0:0:
494,115,101014,70,0,P|443:131|420:178,1,105,0|8,0:0|0:0,0:0:0:0:
84,272,101314,2,0,L|198:300,1,105,2|8,0:0|0:0,0:0:0:0:
494,191,101614,2,0,L|380:219,1,105,2|8,0:0|0:0,0:0:0:0:
83,109,101914,2,0,L|197:137,1,105,2|8,0:0|0:0,0:0:0:0:
493,28,102214,5,2,0:0:0:0:
324,147,102364,2,0,L|309:21,1,105,8|0,0:0|0:0,0:0:0:0:
392,216,102664,1,8,0:0:0:0:
185,297,102814,1,2,0:0:0:0:
222,14,102964,5,8,0:0:0:0:
227,60,103039,1,8,0:0:0:0:
232,107,103114,1,8,0:0:0:0:
238,154,103189,1,8,0:0:0:0:
243,201,103264,1,8,0:0:0:0:
249,248,103339,1,8,0:0:0:0:
259,297,103414,6,0,L|271:192,1,105,6|8,0:0|0:0,0:0:0:0:
155,93,103714,1,0,0:0:0:0:
155,93,103789,1,0,0:0:0:0:
155,93,103864,2,0,L|161:147,1,52.5,8|0,0:0|0:0,0:0:0:0:
354,9,104014,1,0,0:0:0:0:
354,9,104089,1,0,0:0:0:0:
354,9,104164,2,0,L|348:63,1,52.5,8|0,0:0|0:0,0:0:0:0:
271,192,104314,1,0,0:0:0:0:
222,14,104464,1,8,0:0:0:0:
353,230,104614,6,0,L|340:334,1,105,2|8,0:0|0:0,0:0:0:0:
279,199,104914,1,0,0:0:0:0:
279,199,104989,1,0,0:0:0:0:
279,199,105064,2,0,L|284:146,1,52.5,10|0,0:0|0:0,0:0:0:0:
433,301,105214,1,0,0:0:0:0:
433,301,105289,1,0,0:0:0:0:
433,301,105364,2,0,L|427:248,1,52.5,12|0,0:0|0:0,0:0:0:0:
157,253,105514,2,0,L|151:200,2,52.5,2|0|12,0:0|0:0|0:0,0:0:0:0:
254,368,105814,69,2,0:0:0:0:
284,360,105889,1,0,0:0:0:0:
310,343,105964,1,0,0:0:0:0:
329,318,106039,1,0,0:0:0:0:
337,287,106114,1,8,0:0:0:0:
335,256,106189,1,0,0:0:0:0:
322,228,106264,1,0,0:0:0:0:
299,206,106339,1,0,0:0:0:0:
271,192,106414,5,0,0:0:0:0:
243,178,106489,1,0,0:0:0:0:
220,156,106564,1,0,0:0:0:0:
207,128,106639,1,0,0:0:0:0:
205,97,106714,1,10,0:0:0:0:
213,66,106789,1,0,0:0:0:0:
232,41,106864,1,0,0:0:0:0:
258,24,106939,1,0,0:0:0:0:
288,16,107014,6,0,L|359:14,2,70,10|0|0,0:0|0:0|0:0,0:0:0:0:
122,83,107314,6,0,L|51:81,2,62.9999980773926,12|0|0,0:0|0:0|0:0,0:0:0:0:
271,192,107614,70,0,L|278:122,1,70,10|0,0:0|0:0,0:0:0:0:
113,184,107814,5,8,0:0:0:0:
109,232,107914,1,10,0:0:0:0:
103,280,108014,2,0,L|96:350,1,62.9999980773926,8|0,0:0|0:0,0:0:0:0:
60,82,108214,6,0,P|127:48|227:103,1,167.999994873047,6|0,0:0|0:0,0:0:0:0:
209,78,108814,2,0,L|189:263,1,167.999994873047,12|0,0:0|0:0,0:0:0:0:
122,158,109414,6,0,P|189:137|274:186,1,167.999994873047,6|0,0:0|0:0,0:0:0:0:
394,353,110014,2,0,L|400:312,1,41.9999987182618,14|0,0:0|0:0,0:0:0:0:
491,302,110214,1,0,0:0:0:0:
491,302,110314,2,0,L|480:381,2,41.9999987182618,8|0|0,0:0|0:0|0:0,0:0:0:0:
429,153,110614,70,0,L|338:141,1,52.5000020027161,6|0,0:0|0:0,0:0:0:0:
463,79,110814,1,0,0:0:0:0:
463,79,110914,2,0,L|372:67,2,52.5000020027161,12|0|0,0:0|0:0|0:0,0:0:0:0:
208,153,111214,70,0,L|299:141,1,52.5000020027161,6|0,0:0|0:0,0:0:0:0:
174,79,111414,1,0,0:0:0:0:
174,79,111514,2,0,L|265:67,2,52.5000020027161,12|0|0,0:0|0:0|0:0,0:0:0:0:
319,0,111814,6,0,L|319:64,2,52.5000020027161,12|8|8,0:0|0:0|0:0,0:0:0:0:
318,246,112114,1,8,0:0:0:0:
318,288,112214,1,8,0:0:0:0:
318,330,112314,1,8,0:0:0:0:
318,372,112414,2,0,L|338:348,2,26.2500010013581
239,285,112614,5,8,0:0:0:0:
190,245,112714,1,8,0:0:0:0:
127,246,112814,1,8,0:0:0:0:
79,283,112914,1,8,0:0:0:0:
63,343,113014,6,0,P|93:284|14:186,1,181.999991668702,6|0,0:0|0:0,0:0:0:0:
160,348,113614,2,0,B|216:373|216:373|351:348,1,181.999991668702,6|0,0:0|0:0,0:0:0:0:
489,226,114214,2,0,P|442:233|488:320,1,181.999991668702,6|0,0:0|0:0,0:0:0:0:
376,146,114814,6,0,P|393:122|429:106,1,52.5000020027161,14|0,0:0|0:0,0:0:0:0:
238,169,115014,1,0,0:0:0:0:
238,169,115114,2,0,P|290:204|300:268,1,105.000004005432
328,370,115414,5,6,0:0:0:0:
340,323,115514,1,0,0:0:0:0:
376,291,115614,1,0,0:0:0:0:
424,284,115714,2,0,P|462:301|484:329,2,70,8|0|0,0:0|0:0|0:0,0:0:0:0:
275,102,116014,70,0,P|301:68|337:53,1,70
413,166,116214,1,0,0:0:0:0:
413,166,116314,6,0,B|376:155|334:177|334:177|314:168|314:168|272:191|228:164,1,181.999991668702,12|0,0:0|0:0,0:0:0:0:
78,148,116614,5,0,0:0:0:0:
125,160,116714,1,0,0:0:0:0:
157,196,116814,1,0,0:0:0:0:
164,244,116914,2,0,P|147:282|119:304,2,70,12|0|0,0:0|0:0|0:0,0:0:0:0:
316,125,117214,6,0,L|325:46,1,70,6|0,0:0|0:0,0:0:0:0:
238,169,117414,1,10,0:0:0:0:
246,238,117514,1,8,0:0:0:0:
252,293,117614,1,2,0:0:0:0:
257,334,117714,1,0,0:0:0:0:
260,360,117814,6,0,P|256:318|272:365,1,140,6|0,0:0|0:0,0:0:0:0:
458,338,118414,5,12,0:0:0:0:
316,125,118714,6,0,L|335:204,1,70,2|0,0:0|0:0,0:0:0:0:
449,81,119014,2,0,P|427:127|304:107,1,175,6|0,0:0|0:0,0:0:0:0:
373,73,119614,2,0,P|351:119|228:99,1,175,6|0,0:0|0:0,0:0:0:0:
297,65,120214,69,10,0:0:0:0:
297,65,120289,1,8,0:0:0:0:
123,261,120914,6,0,L|220:244,1,78.7500030040742,10|0,0:0|0:0,0:0:0:0:
468,316,121414,6,0,P|400:274|274:357,1,210.000008010865,10|0,0:0|0:0,0:0:0:0:
274,311,121914,1,10,0:0:0:0:
259,301,122014,1,8,0:0:0:0:
158,72,122814,6,0,L|165:134,2,52.5000020027161,4|0|0,0:0|0:0|0:0,0:0:0:0:
64,188,123114,2,0,L|57:250,2,52.5000020027161,4|0|0,0:0|0:0|0:0,0:0:0:0:
201,248,123414,2,0,L|208:310,2,52.5000020027161,4|0|0,0:0|0:0|0:0,0:0:0:0:
377,80,123814,69,10,0:0:0:0:
377,80,123914,1,8,0:0:0:0:
205,252,124814,5,10,0:0:0:0:
205,252,124914,1,8,0:0:0:0:
205,252,126214,6,0,L|93:265,1,105,6|0,0:0|0:0,0:0:0:0:
280,167,126514,2,0,L|392:180,1,105,14|0,0:0|0:0,0:0:0:0:
168,144,126814,1,2,0:0:0:0:
209,261,126964,1,2,0:0:0:0:
160,136,127114,1,0,0:0:0:0:
98,278,127264,1,2,0:0:0:0:
285,157,127414,1,4,0:0:0:0:
95,76,127564,2,2,P|72:146|94:196,2,105,10|2|2,0:0|0:0|0:0,0:0:0:0:
295,149,128014,6,0,L|307:44,1,105,6|8,0:0|0:0,0:0:0:0:
214,272,128314,2,0,L|201:167,1,105,6|0,0:0|0:0,0:0:0:0:
409,350,128614,2,0,L|421:245,1,105,14|0,0:0|0:0,0:0:0:0:
395,50,128914,1,2,0:0:0:0:
290,158,129064,1,2,0:0:0:0:
406,41,129214,1,0,0:0:0:0:
415,240,129364,1,2,0:0:0:0:
271,43,129514,5,12,0:0:0:0:
280,254,129664,1,2,0:0:0:0:
281,269,129739,1,8,0:0:0:0:
282,284,129814,1,10,0:0:0:0:
295,149,129964,1,10,0:0:0:0:
104,286,130114,1,6,0:0:0:0:
271,361,130264,1,8,0:0:0:0:
300,370,130339,1,8,0:0:0:0:
329,379,130414,6,0,P|382:367|439:379,1,105,6|0,0:0|0:0,0:0:0:0:
280,242,130714,2,0,P|229:230|177:238,1,105,14|0,0:0|0:0,0:0:0:0:
431,126,131014,1,2,0:0:0:0:
361,288,131164,1,2,0:0:0:0:
300,140,131314,1,0,0:0:0:0:
496,288,131464,2,0,P|481:226|509:169,1,105,2|0,0:0|0:0,0:0:0:0:
280,320,131764,2,2,P|228:328|177:316,2,105,10|2|2,0:0|0:0|0:0,0:0:0:0:
420,129,132214,1,2,0:0:0:0:
171,231,132364,6,0,L|161:98,1,105,14|0,0:0|0:0,0:0:0:0:
287,235,132664,1,2,0:0:0:0:
28,121,132814,1,6,0:0:0:0:
267,107,132964,1,0,0:0:0:0:
163,241,133114,1,2,0:0:0:0:
198,26,133264,1,2,0:0:0:0:
370,278,133414,5,12,0:0:0:0:
356,79,133564,1,10,0:0:0:0:
356,79,133639,1,8,0:0:0:0:
356,79,133714,1,10,0:0:0:0:
214,277,133864,5,10,0:0:0:0:
200,261,133939,1,8,0:0:0:0:
183,249,134014,1,8,0:0:0:0:
163,241,134089,1,8,0:0:0:0:
142,240,134164,1,0,0:0:0:0:
0,292,134314,1,0,0:0:0:0:
155,120,134464,1,0,0:0:0:0:
297,271,134614,5,6,0:0:0:0:
338,266,134714,1,0,0:0:0:0:
373,244,134814,1,0,0:0:0:0:
393,207,134914,1,0,0:0:0:0:
394,166,135014,1,0,0:0:0:0:
375,128,135114,1,0,0:0:0:0:
341,104,135214,6,0,L|425:89,2,70,14|0|0,0:0|0:0|0:0,0:0:0:0:
273,26,135514,2,0,L|357:11,2,70,6|0|0,0:0|0:0|0:0,0:0:0:0:
146,82,135814,1,0,0:0:0:0:
121,120,135914,1,0,0:0:0:0:
122,166,136014,1,0,0:0:0:0:
147,203,136114,6,0,L|72:171,2,70,6|0|0,0:0|0:0|0:0,0:0:0:0:
283,251,136414,1,0,0:0:0:0:
308,293,136514,1,0,0:0:0:0:
307,343,136614,1,0,0:0:0:0:
280,384,136714,70,0,L|360:349,2,70,14|0|0,0:0|0:0|0:0,0:0:0:0:
152,303,137014,2,0,L|88:330,2,70,6|0|0,0:0|0:0|0:0,0:0:0:0:
283,251,137314,1,0,0:0:0:0:
330,229,137414,1,0,0:0:0:0:
379,209,137514,1,0,0:0:0:0:
427,189,137614,6,0,P|476:197|523:232,2,70,6|0|0,0:0|0:0|0:0,0:0:0:0:
289,154,137914,1,0,0:0:0:0:
238,129,138014,1,0,0:0:0:0:
221,76,138114,1,0,0:0:0:0:
249,29,138214,6,0,P|296:3|358:3,2,70,6|2|0,0:0|0:0|0:0,0:0:0:0:
102,53,138514,2,0,P|66:34|20:34,2,70,14|0|0,0:0|0:0|0:0,0:0:0:0:
166,185,138814,1,0,0:0:0:0:
158,244,138914,1,0,0:0:0:0:
152,303,139014,1,0,0:0:0:0:
144,362,139114,6,0,L|80:335,2,70,6|0|0,0:0|0:0|0:0,0:0:0:0:
344,355,139414,2,0,L|408:328,2,70,6|0|0,0:0|0:0|0:0,0:0:0:0:
248,226,139714,70,2,B|275:228|290:208|290:208|318:219|318:219|367:199|455:235,1,167.999994873047
483,111,140014,5,14,0:0:0:0:
441,107,140114,1,0,0:0:0:0:
399,104,140214,1,0,0:0:0:0:
357,101,140314,1,0,0:0:0:0:
315,98,140414,1,0,0:0:0:0:
273,95,140514,1,0,0:0:0:0:
231,91,140614,6,0,P|230:53|245:21,2,70,14|0|0,0:0|0:0|0:0,0:0:0:0:
113,119,140914,2,0,P|114:81|99:49,2,70,14|0|0,0:0|0:0|0:0,0:0:0:0:
113,235,141214,1,0,0:0:0:0:
158,231,141314,1,0,0:0:0:0:
203,228,141414,1,0,0:0:0:0:
248,224,141514,6,0,L|329:218,2,70,14|0|0,0:0|0:0|0:0,0:0:0:0:
356,125,141814,1,0,0:0:0:0:
395,153,141914,1,0,0:0:0:0:
416,197,142014,1,0,0:0:0:0:
415,245,142114,70,0,L|497:232,2,70,14|0|0,0:0|0:0|0:0,0:0:0:0:
334,338,142414,2,0,L|252:325,2,70,14|0|0,0:0|0:0|0:0,0:0:0:0:
248,224,142714,1,0,0:0:0:0:
224,178,142814,1,0,0:0:0:0:
230,126,142914,1,0,0:0:0:0:
265,88,143014,6,0,P|290:63|333:52,2,70,6|0|0,0:0|0:0|0:0,0:0:0:0:
193,55,143314,2,0,P|168:30|125:19,2,70,10|0|0,0:0|0:0|0:0,0:0:0:0:
330,127,143614,6,0,P|364:117|406:129,2,70,6|0|0,0:0|0:0|0:0,0:0:0:0:
129,94,143914,2,0,P|95:84|61:91,2,70,10|0|0,0:0|0:0|0:0,0:0:0:0:
365,192,144214,6,0,P|399:201|425:224,2,70,6|0|0,0:0|0:0|0:0,0:0:0:0:
93,160,144514,2,0,P|58:169|28:200,2,70,10|0|0,0:0|0:0|0:0,0:0:0:0:
262,251,144814,69,10,0:0:0:0:
248,183,144914,1,8,0:0:0:0:
274,119,145014,1,8,0:0:0:0:
332,81,145114,1,10,0:0:0:0:
401,82,145214,1,8,0:0:0:0:
457,121,145314,1,8,0:0:0:0:
482,186,145414,5,6,0:0:0:0:
352,56,150214,6,0,L|358:130,2,70,6|0|0,0:0|0:0|0:0,0:0:0:0:
440,99,150514,2,0,L|426:172,2,70,6|0|0,0:0|0:0|0:0,0:0:0:0:
264,99,150814,1,10,0:0:0:0:
275,131,150914,1,0,0:0:0:0:
287,164,151014,1,0,0:0:0:0:
299,197,151114,1,2,0:0:0:0:
311,230,151214,1,0,0:0:0:0:
323,263,151314,1,0,0:0:0:0:
335,296,151414,6,0,L|262:282,2,70
127,257,151714,2,0,L|200:243,2,70,6|0|0,0:0|0:0|0:0,0:0:0:0:
355,177,152014,2,0,L|282:163,2,70,6|0|0,0:0|0:0|0:0,0:0:0:0:
115,137,152314,2,0,L|188:123,2,70,2|0|0,0:0|0:0|0:0,0:0:0:0:
381,71,152614,5,14,0:0:0:0:
429,97,152714,1,0,0:0:0:0:
459,143,152814,1,0,0:0:0:0:
463,199,152914,1,2,0:0:0:0:
439,249,153014,1,0,0:0:0:0:
393,281,153114,5,8,0:0:0:0:
345,253,153214,1,2,0:0:0:0:
290,251,153314,1,0,0:0:0:0:
241,276,153414,1,0,0:0:0:0:
209,322,153514,6,0,P|175:299|138:297,2,77.0000023498536,6|0|0,0:0|0:0|0:0,0:0:0:0:
229,200,153814,2,0,P|263:176|300:174,2,77.0000023498536,4|0|0,0:0|0:0|0:0,0:0:0:0:
161,17,154114,5,10,0:0:0:0:
182,80,154214,1,8,0:0:0:0:
150,139,154314,1,8,0:0:0:0:
85,156,154414,2,0,P|49:154|14:131,2,77.0000023498536,6|0|0,0:0|0:0|0:0,0:0:0:0:
39,316,154714,5,8,0:0:0:0:
140,296,154814,1,8,0:0:0:0:
241,276,154914,1,8,0:0:0:0:
384,328,155014,5,14,0:0:0:0:
256,192,155089,12,0,159364,0:0:0:0:
256,272,159514,6,10,L|256:352,2,70
171,160,159889,2,0,B|152:190|152:190|147:239,1,70,10|0,0:0|0:0,0:0:0:0:
341,160,160139,2,0,B|360:190|360:190|365:239,1,70,8|0,0:0|0:0,0:0:0:0:
88,72,160389,2,0,B|53:78|53:78|15:110,1,70,10|0,0:0|0:0,0:0:0:0:
424,72,160639,2,0,B|459:78|459:78|497:110,1,70,8|0,0:0|0:0,0:0:0:0:
256,272,160889,1,10,0:0:0:0:
167,70,161014,5,6,0:0:0:0:
149,225,161139,1,0,0:0:0:0:
181,58,161264,1,0,0:0:0:0:
118,227,161389,1,0,0:0:0:0:
345,70,161764,5,14,0:0:0:0:
363,225,161889,1,0,0:0:0:0:
331,58,162014,1,0,0:0:0:0:
394,227,162139,1,0,0:0:0:0:
118,227,162514,6,0,L|56:261,1,70,2|0,0:0|0:0,0:0:0:0:
394,227,162764,2,0,L|455:261,1,70,2|0,0:0|0:0,0:0:0:0:
256,80,163015,2,0,L|255:9,1,70,2|0,0:0|0:0,0:0:0:0:
104,144,163264,6,0,L|43:178,2,70,14|0|0,0:0|0:0|0:0,0:0:0:0:
408,144,163639,2,0,L|469:178,2,70,14|0|0,0:0|0:0|0:0,0:0:0:0:
187,154,164014,5,6,0:0:0:0:
132,310,164139,1,0,0:0:0:0:
104,144,164264,1,0,0:0:0:0:
215,344,164389,1,0,0:0:0:0:
325,154,164764,5,14,0:0:0:0:
380,310,164889,1,0,0:0:0:0:
408,144,165014,1,0,0:0:0:0:
297,344,165139,1,0,0:0:0:0:
168,250,165514,6,0,L|132:309,2,70,8|8|0,0:0|0:0|0:0,0:0:0:0:
344,250,165889,2,0,L|380:309,2,70
157,86,166264,2,0,B|136:112|136:112|104:128,2,70,8|8|0,0:0|0:0|0:0,0:0:0:0:
355,86,166639,2,0,B|376:112|376:112|408:128,2,70
256,192,167014,5,6,0:0:0:0:
256,48,167139,1,0,0:0:0:0:
340,186,167264,1,0,0:0:0:0:
157,86,167389,1,8,0:0:0:0:
256,265,167764,5,6,0:0:0:0:
256,48,167889,1,0,0:0:0:0:
129,255,168014,1,0,0:0:0:0:
408,128,168139,1,8,0:0:0:0:
256,265,168514,6,0,B|239:307|239:307|183:340,1,94.5000003604889,2|0,0:0|0:0,0:0:0:0:
386,223,168764,2,0,B|430:216|430:216|487:248,1,94.5000003604889,2|0,0:0|0:0,0:0:0:0:
284,132,169014,2,0,B|256:96|256:96|255:31,1,94.5000003604889,2|0,0:0|0:0,0:0:0:0:
408,128,169264,1,6,0:0:0:0:
218,185,169389,1,0,0:0:0:0:
414,298,169514,1,0,0:0:0:0:
126,377,169639,6,0,B|94:323|141:272|141:272|114:262|114:262|136:223|136:223|113:173|154:116,1,280,14|0,0:0|0:0,0:0:0:0:
256,48,170014,5,6,0:0:0:0:
218,185,170139,1,0,0:0:0:0:
172,36,170264,1,0,0:0:0:0:
302,197,170389,1,8,0:0:0:0:
256,48,170764,5,6,0:0:0:0:
316,271,170889,1,0,0:0:0:0:
392,28,171014,1,0,0:0:0:0:
179,291,171139,1,8,0:0:0:0:
124,102,171514,5,6,0:0:0:0:
179,291,171639,1,0,0:0:0:0:
159,86,171764,1,0,0:0:0:0:
168,304,171889,2,8,L|94:337,2,70,10|8|8,0:0|0:0|0:0,0:0:0:0:
388,102,172264,5,2,0:0:0:0:
333,291,172389,1,0,0:0:0:0:
353,86,172514,1,0,0:0:0:0:
344,304,172639,2,0,L|418:337,2,70,10|0|0,0:0|0:0|0:0,0:0:0:0:
208,127,173014,5,6,0:0:0:0:
386,186,173139,1,0,0:0:0:0:
168,304,173264,1,0,0:0:0:0:
353,86,173389,1,8,0:0:0:0:
124,177,173764,5,6,0:0:0:0:
386,186,173889,1,0,0:0:0:0:
253,16,174014,1,0,0:0:0:0:
168,304,174139,1,8,0:0:0:0:
386,186,174514,6,0,B|427:167|427:167|490:182,1,94.5000003604889,10|0,0:0|0:0,0:0:0:0:
258,200,174764,2,0,B|221:173|221:173|202:111,1,94.5000003604889,10|0,0:0|0:0,0:0:0:0:
334,303,175014,2,0,B|329:348|329:348|284:395,1,94.5000003604889,10|0,0:0|0:0,0:0:0:0:
376,81,175264,2,0,L|388:211,1,105.000004005432,14|0,0:0|0:0,0:0:0:0:
477,334,175451,1,0,0:0:0:0:
477,334,175514,1,0,0:0:0:0:
477,334,175576,1,0,0:0:0:0:
477,334,175639,6,0,B|511:281|467:228|467:228|495:219|495:219|475:179|475:179|502:132|462:71,1,280,14|0,0:0|0:0,0:0:0:0:
327,1,176014,5,6,0:0:0:0:
385,185,176139,1,0,0:0:0:0:
470,8,176264,1,0,0:0:0:0:
205,89,176389,1,8,0:0:0:0:
477,334,176764,5,6,0:0:0:0:
174,271,176889,1,0,0:0:0:0:
441,90,177014,1,0,0:0:0:0:
294,383,177139,2,0,P|334:320|400:316,1,140,8|0,0:0|0:0,0:0:0:0:
220,204,177514,5,2,0:0:0:0:
220,204,177576,1,0,0:0:0:0:
220,204,177639,2,0,P|187:191|152:193,1,70,8|8,0:0|0:0,0:0:0:0:
358,192,177889,2,0,P|324:191|292:204,2,70,10|0|0,0:0|0:0|0:0,0:0:0:0:
256,0,178264,6,0,L|256:144,1,140,10|0,0:0|0:0,0:0:0:0:
256,272,178639,1,10,0:0:0:0:
178,119,178764,1,8,0:0:0:0:
334,119,178889,1,8,0:0:0:0:
320,337,179014,6,0,P|258:363|182:322,1,140,6|0,0:0|0:0,0:0:0:0:
344,249,179389,2,0,L|421:256,1,70,10|0,0:0|0:0,0:0:0:0:
334,119,179639,1,2,0:0:0:0:
168,249,179764,2,0,L|91:256,1,70,2|0,0:0|0:0,0:0:0:0:
178,119,180014,1,0,0:0:0:0:
413,255,180139,6,0,P|422:284|421:335,1,77.0000023498536,10|0,0:0|0:0,0:0:0:0:
334,119,180389,1,0,0:0:0:0:
99,255,180514,2,0,P|90:284|91:335,1,77.0000023498536,2|0,0:0|0:0,0:0:0:0:
178,119,180764,1,0,0:0:0:0:
421,330,180889,6,0,P|472:337|517:326,1,83.9999974365235,10|0,0:0|0:0,0:0:0:0:
334,119,181139,1,10,0:0:0:0:
91,330,181264,2,0,P|40:337|-5:326,1,83.9999974365235,2|0,0:0|0:0,0:0:0:0:
178,119,181514,1,0,0:0:0:0:
256,384,181639,6,0,L|256:288,1,90.9999958343508,10|0,0:0|0:0,0:0:0:0:
256,0,181889,1,10,0:0:0:0:
333,240,182014,6,2,P|239:201|167:265,1,181.999991668702
40,192,182389,6,2,P|256:80|472:192,1,503.999984619141,10|10,0:0|0:0,0:0:0:0:
256,384,183264,5,0,0:0:0:0:
256,200,183389,1,8,0:0:0:0:
421,330,183514,2,0,P|464:346|509:344,2,83.9999974365235,6|0|0,0:0|0:0|0:0,0:0:0:0:
91,330,183889,2,0,P|48:346|3:344,2,83.9999974365235
338,311,184264,2,0,P|337:356|349:382,2,70,8|0|0,0:0|0:0|0:0,0:0:0:0:
174,311,184639,2,0,P|174:356|162:382,2,70
379,130,185014,6,0,L|363:198,1,70,6|0,0:0|0:0,0:0:0:0:
280,104,185264,1,0,0:0:0:0:
465,72,185389,2,0,P|409:84|350:17,1,140,10|10,0:0|0:0,0:0:0:0:
168,49,185764,2,0,B|179:96|179:96|159:206,1,140,2|0,0:0|0:0,0:0:0:0:
22,237,186139,6,0,P|64:240|102:271,2,70,10|0|0,0:0|0:0|0:0,0:0:0:0:
239,294,186514,2,0,P|197:297|159:328,2,70,2|0|2,0:0|0:0|0:0,0:0:0:0:
423,202,186889,6,0,P|367:214|298:154,1,140,10|0,0:0|0:0,0:0:0:0:
379,130,187264,1,2,0:0:0:0:
345,318,187389,1,0,0:0:0:0:
345,318,187451,1,0,0:0:0:0:
345,318,187514,1,0,0:0:0:0:
228,203,187639,2,0,P|197:186|162:186,1,70,12|0,0:0|0:0,0:0:0:0:
22,237,187889,1,0,0:0:0:0:
239,294,188014,6,0,P|151:311|119:366,1,140,6|0,0:0|0:0,0:0:0:0:
345,318,188389,2,0,L|340:240,2,70,10|0|0,0:0|0:0|0:0,0:0:0:0:
215,112,188764,6,0,B|240:105|268:118|268:118|284:101|284:101|296:114|309:108|309:108|327:115|346:103|346:103|410:111,1,181.999991668702,6|0,0:0|0:0,0:0:0:0:
163,187,189139,2,0,P|124:100|170:32,1,181.999991668702,8|8,0:0|0:0,0:0:0:0:
318,30,189514,5,4,0:0:0:0:
254,194,189639,1,8,0:0:0:0:
250,207,189701,1,8,0:0:0:0:
246,220,189764,1,8,0:0:0:0:
382,107,189889,5,8,0:0:0:0:
246,220,190014,1,0,0:0:0:0:
242,233,190076,1,0,0:0:0:0:
238,246,190139,1,0,0:0:0:0:
376,163,190264,5,2,0:0:0:0:
238,246,190389,2,0,L|173:255,2,45.4999979171754
215,112,190639,5,2,0:0:0:0:
215,112,190701,1,0,0:0:0:0:
215,112,190764,1,2,0:0:0:0:
215,112,190826,1,0,0:0:0:0:
215,112,190889,1,2,0:0:0:0:
215,112,190951,1,0,0:0:0:0:
215,112,191014,5,4,0:0:0:0:
297,314,191164,1,2,0:0:0:0:
376,163,191314,2,0,B|421:141|421:141|492:145,1,105,10|0,0:0|0:0,0:0:0:0:
376,246,191614,1,2,0:0:0:0:
350,241,191689,1,0,0:0:0:0:
327,229,191764,1,2,0:0:0:0:
308,210,191839,1,0,0:0:0:0:
297,187,191914,2,0,P|292:155|299:128,1,52.5,10|0,0:0|0:0,0:0:0:0:
402,41,192064,69,6,0:0:0:0:
365,44,192139,1,0,0:0:0:0:
328,47,192214,1,0,0:0:0:0:
292,50,192289,1,0,0:0:0:0:
255,54,192364,1,0,0:0:0:0:
218,57,192439,1,0,0:0:0:0:
182,60,192514,2,0,L|209:10,3,52.5,10|0|0|0,0:0|0:0|0:0|0:0,0:0:0:0:
157,161,192814,2,0,L|181:207,3,52.5,2|0|0|0,0:0|0:0|0:0|0:0,0:0:0:0:
107,42,193114,2,0,L|82:88,1,52.5,10|0,0:0|0:0,0:0:0:0:
0,219,193264,6,0,P|62:235|87:279,1,105,6|0,0:0|0:0,0:0:0:0:
85,280,193489,1,0,0:0:0:0:
85,293,193564,1,0,0:0:0:0:
321,243,193714,5,10,0:0:0:0:
324,269,193789,1,0,0:0:0:0:
327,295,193864,1,0,0:0:0:0:
189,141,194014,5,10,0:0:0:0:
185,174,194089,1,0,0:0:0:0:
181,207,194164,1,0,0:0:0:0:
380,53,194314,69,10,0:0:0:0:
385,97,194389,1,0,0:0:0:0:
390,141,194464,1,6,0:0:0:0:
395,185,194539,1,0,0:0:0:0:
400,229,194614,6,0,L|479:211,2,70,2|0|0,0:0|0:0|0:0,0:0:0:0:
153,308,194914,2,0,L|74:290,2,70,8|0|0,0:0|0:0|0:0,0:0:0:0:
405,369,195214,1,6,0:0:0:0:
70,10,195664,6,0,P|95:72|-6:168,1,210,6|2,0:0|0:0,0:0:0:0:
0,73,196114,1,10,0:0:0:0:
84,292,196264,1,0,0:0:0:0:
189,141,196414,5,2,0:0:0:0:
219,135,196489,1,0,0:0:0:0:
251,139,196564,1,2,0:0:0:0:
280,151,196639,1,0,0:0:0:0:
304,171,196714,1,10,0:0:0:0:
322,197,196789,1,0,0:0:0:0:
332,227,196864,2,0,L|394:214,3,52.5,4|0|0|0,0:0|0:0|0:0|0:0,0:0:0:0:
210,298,197164,2,0,L|223:236,1,52.5
364,105,197314,6,0,P|390:95|425:94,3,52.5,10|0|0|0,0:0|0:0|0:0|0:0,0:0:0:0:
240,40,197614,2,0,P|214:30|179:29,3,52.5,2|0|0|0,0:0|0:0|0:0|0:0,0:0:0:0:
189,141,197914,1,10,0:0:0:0:
164,149,197989,1,0,0:0:0:0:
139,157,198064,1,6,0:0:0:0:
114,165,198139,1,0,0:0:0:0:
89,173,198214,6,0,P|82:111|109:66,1,105,2|0,0:0|0:0,0:0:0:0:
286,160,198514,2,0,P|293:222|266:267,1,105,10|0,0:0|0:0,0:0:0:0:
262,267,198739,1,0,0:0:0:0:
249,273,198814,1,10,0:0:0:0:
443,190,198964,1,0,0:0:0:0:
461,182,199039,1,0,0:0:0:0:
479,173,199114,6,0,P|417:180|372:153,1,105,10|0,0:0|0:0,0:0:0:0:
155,101,199414,2,0,P|217:108|262:81,1,105,2|0,0:0|0:0,0:0:0:0:
512,20,199714,2,0,L|424:112,1,105,14|0,0:0|0:0,0:0:0:0:
136,370,200014,5,6,0:0:0:0:
301,13,200464,6,0,P|341:77|253:181,1,210,6|0,0:0|0:0,0:0:0:0:
155,101,200914,1,10,0:0:0:0:
249,273,201064,1,0,0:0:0:0:
249,273,201139,1,0,0:0:0:0:
249,273,201214,2,0,L|383:268,1,105,2|0,0:0|0:0,0:0:0:0:
483,262,201514,1,10,0:0:0:0:
230,361,201664,6,0,P|163:287|199:201,1,157.5,6|0,0:0|0:0,0:0:0:0:
187,211,201964,1,0,0:0:0:0:
363,131,202114,2,0,L|355:243,1,105,10|0,0:0|0:0,0:0:0:0:
354,252,202339,1,0,0:0:0:0:
353,269,202414,1,2,0:0:0:0:
155,101,202564,1,0,0:0:0:0:
363,131,202714,1,10,0:0:0:0:
233,296,202864,6,0,L|117:302,1,105,6|0,0:0|0:0,0:0:0:0:
263,89,203164,1,0,0:0:0:0:
268,133,203239,1,0,0:0:0:0:
273,177,203314,1,10,0:0:0:0:
159,68,203464,1,0,0:0:0:0:
155,101,203539,1,0,0:0:0:0:
151,134,203614,1,2,0:0:0:0:
257,37,203764,1,0,0:0:0:0:
260,63,203839,1,0,0:0:0:0:
263,89,203914,1,10,0:0:0:0:
82,205,204064,70,0,L|198:211,1,105,6|0,0:0|0:0,0:0:0:0:
206,229,204289,1,0,0:0:0:0:
221,250,204364,1,0,0:0:0:0:
229,274,204439,1,0,0:0:0:0:
232,301,204514,2,0,P|229:326|216:355,2,52.5,6|0|0,0:0|0:0|0:0,0:0:0:0:
416,238,204814,5,6,0:0:0:0:
394,216,204889,1,0,0:0:0:0:
376,191,204964,1,0,0:0:0:0:
367,161,205039,1,0,0:0:0:0:
363,131,205114,2,0,L|312:145,3,52.5,10|0|8|0,0:0|0:0|0:0|0:0,0:0:0:0:
168,83,205414,2,0,L|219:98,1,52.5
177,211,205564,2,0,L|228:226,1,52.5,10|0,0:0|0:0,0:0:0:0:
12,140,205713,2,0,L|63:155,1,52.5
70,282,205864,5,4,0:0:0:0:
89,306,205939,1,0,0:0:0:0:
115,324,206014,1,2,0:0:0:0:
144,336,206089,1,0,0:0:0:0:
175,340,206164,1,0,0:0:0:0:
206,336,206239,1,0,0:0:0:0:
236,325,206314,2,0,P|258:303|271:285,1,52.5,8|0,0:0|0:0,0:0:0:0:
377,107,206464,5,0,0:0:0:0:
375,138,206539,1,0,0:0:0:0:
374,169,206614,2,0,L|411:132,1,52.5
356,257,206764,2,0,L|368:307,1,52.5
288,197,206914,2,0,L|237:182,1,52.5,10|0,0:0|0:0,0:0:0:0:
123,123,207064,69,4,0:0:0:0:
124,159,207139,1,0,0:0:0:0:
126,196,207214,1,2,0:0:0:0:
127,233,207289,1,0,0:0:0:0:
129,269,207364,1,0,0:0:0:0:
131,306,207439,1,0,0:0:0:0:
132,343,207514,2,0,L|88:299,1,52.5,8|0,0:0|0:0,0:0:0:0:
39,177,207664,5,0,0:0:0:0:
73,138,207739,1,0,0:0:0:0:
123,123,207814,1,0,0:0:0:0:
173,135,207889,1,0,0:0:0:0:
211,171,207964,1,0,0:0:0:0:
249,207,208039,1,0,0:0:0:0:
299,219,208114,1,10,0:0:0:0:
349,204,208189,1,0,0:0:0:0:
383,165,208264,2,0,P|397:138|402:109,1,52.5,4|0,0:0|0:0,0:0:0:0:
187,5,208414,5,2,0:0:0:0:
132,343,208714,5,14,0:0:0:0:
498,19,209014,69,6,0:0:0:0:
205,164,209614,5,14,0:0:0:0:
177,195,209714,1,0,0:0:0:0:
169,235,209814,1,0,0:0:0:0:
181,275,209914,1,0,0:0:0:0:
212,303,210014,1,0,0:0:0:0:
252,312,210114,1,0,0:0:0:0:
292,300,210214,6,0,L|277:376,2,70,14|0|0,0:0|0:0|0:0,0:0:0:0:
374,186,210514,2,0,L|447:160,2,70,14|0|0,0:0|0:0|0:0,0:0:0:0:
248,231,210814,1,0,0:0:0:0:
204,245,210914,1,0,0:0:0:0:
160,260,211014,1,0,0:0:0:0:
119,276,211114,6,0,P|95:302|82:354,2,70,14|0|0,0:0|0:0|0:0,0:0:0:0:
205,164,211414,1,0,0:0:0:0:
234,125,211514,1,0,0:0:0:0:
236,77,211614,1,0,0:0:0:0:
209,35,211714,70,0,L|123:47,2,70,14|0|0,0:0|0:0|0:0,0:0:0:0:
338,50,212014,2,0,L|411:61,2,70,14|0|0,0:0|0:0|0:0,0:0:0:0:
182,119,212314,1,0,0:0:0:0:
234,125,212414,1,0,0:0:0:0:
285,133,212514,1,0,0:0:0:0:
336,142,212614,6,0,L|425:155,2,70,6|0|0,0:0|0:0|0:0,0:0:0:0:
170,213,212914,2,0,L|80:226,2,70,8|0|0,0:0|0:0|0:0,0:0:0:0:
367,228,213214,2,0,L|440:239,2,70,6|0|0,0:0|0:0|0:0,0:0:0:0:
139,299,213514,2,0,L|66:310,2,70,8|0|0,0:0|0:0|0:0,0:0:0:0:
252,261,213814,5,6,0:0:0:0:
269,208,213914,1,0,0:0:0:0:
253,155,214014,1,0,0:0:0:0:
210,121,214114,1,8,0:0:0:0:
155,118,214214,1,0,0:0:0:0:
108,146,214314,1,0,0:0:0:0:
85,197,214414,5,10,0:0:0:0:
155,199,214514,1,0,0:0:0:0:
225,202,214614,1,8,0:0:0:0:
295,204,214714,1,10,0:0:0:0:
365,207,214814,1,8,0:0:0:0:
435,209,214914,1,8,0:0:0:0:
505,211,215014,70,0,P|429:234|404:317,1,140,6|0,0:0|0:0,0:0:0:0:
262,324,215314,1,0,0:0:0:0:
258,303,215414,1,0,0:0:0:0:
255,282,215514,1,0,0:0:0:0:
252,261,215614,6,0,P|169:255|121:289,1,140,10|0,0:0|0:0,0:0:0:0:
203,162,215914,2,0,P|286:156|334:190,1,140,2|0,0:0|0:0,0:0:0:0:
402,284,216214,1,2,0:0:0:0:
407,249,216314,1,0,0:0:0:0:
413,214,216414,1,0,0:0:0:0:
418,180,216514,1,0,0:0:0:0:
424,145,216614,1,0,0:0:0:0:
429,110,216714,1,0,0:0:0:0:
435,75,216814,6,0,P|356:86|298:22,1,140,10|0,0:0|0:0,0:0:0:0:
198,57,217114,1,2,0:0:0:0:
207,83,217214,1,0,0:0:0:0:
209,111,217314,1,0,0:0:0:0:
204,138,217414,6,0,L|131:130,3,52.5,2|0|0|0,0:0|0:0|0:0|0:0,0:0:0:0:
259,209,217714,1,0,0:0:0:0:
311,51,217864,1,2,0:0:0:0:
242,223,218014,2,0,B|230:275|230:275|261:338,1,105,14|0,0:0|0:0,0:0:0:0:
424,363,218314,1,2,0:0:0:0:
308,267,218464,1,2,0:0:0:0:
126,368,218614,69,0,0:0:0:0:
127,326,218714,1,0,0:0:0:0:
129,284,218814,1,0,0:0:0:0:
130,242,218914,2,0,P|95:236|46:256,2,70,14|0|0,0:0|0:0|0:0,0:0:0:0:
252,321,219214,1,0,0:0:0:0:
301,344,219314,1,0,0:0:0:0:
354,328,219414,1,0,0:0:0:0:
382,282,219514,2,0,L|377:359,2,70,14|0|0,0:0|0:0|0:0,0:0:0:0:
317,115,219814,6,0,P|374:127|454:99,2,115.50000352478,14|0|0,0:0|0:0|0:0,0:0:0:0:
130,242,220264,2,0,P|73:230|-7:258,2,115.50000352478,14|0|0,0:0|0:0|0:0,0:0:0:0:
256,325,220639,1,0,0:0:0:0:
256,325,220714,2,0,L|252:187,1,115.50000352478,14|0,0:0|0:0,0:0:0:0:
428,114,221014,6,0,P|386:159|319:164,1,115.50000352478,14|0,0:0|0:0,0:0:0:0:
346,84,221314,1,2,0:0:0:0:
509,59,221464,2,0,P|528:117|498:178,1,115.50000352478,14|0,0:0|0:0,0:0:0:0:
354,91,221764,1,2,0:0:0:0:
354,91,221839,1,0,0:0:0:0:
354,91,221914,2,0,L|362:207,1,115.50000352478,14|0,0:0|0:0,0:0:0:0:
123,93,222214,69,10,0:0:0:0:
152,32,222314,1,8,0:0:0:0:
218,16,222414,1,8,0:0:0:0:
272,56,222514,1,8,0:0:0:0:
276,124,222614,1,8,0:0:0:0:
226,170,222714,1,0,0:0:0:0:
159,161,222814,6,0,P|120:160|76:187,2,77.0000023498536,2|0|0,0:0|0:0|0:0,0:0:0:0:
336,215,223114,2,0,P|375:214|412:235,2,77.0000023498536,2|0|0,0:0|0:0|0:0,0:0:0:0:
128,379,223414,6,0,L|141:224,1,140,6|0,0:0|0:0,0:0:0:0:
236,44,223814,2,0,L|223:199,1,125.999996154785,8|0,0:0|0:0,0:0:0:0:
35,151,224214,2,0,L|190:164,1,112,2|0,0:0|0:0,0:0:0:0:
314,255,224614,2,0,L|216:246,1,97.9999970092774,8|0,0:0|0:0,0:0:0:0:
236,44,225014,6,0,P|298:39|360:96,1,125.999996154785,14|0,0:0|0:0,0:0:0:0:
239,134,225614,2,0,P|188:129|137:176,1,105,2|0,0:0|0:0,0:0:0:0:
238,237,226214,2,0,P|280:232|323:272,1,84,2|0,0:0|0:0,0:0:0:0:
320,273,226714,1,0,0:0:0:0:
320,273,226814,2,0,L|406:267,1,78.8288288288288,14|0,0:0|0:0,0:0:0:0:
239,134,227414,70,0,L|222:222,1,78.7500030040742,6|0,0:0|0:0,0:0:0:0:
183,369,227875,2,0,B|138:385|138:385|23:363,2,157.500006008148,2|12|2,0:0|0:0|0:0,0:0:0:0:
183,369,229260,6,0,P|191:310|228:278,1,78.7500030040742,4|0,0:0|0:0,0:0:0:0:
431,240,229721,2,0,P|363:236|328:203,1,105.000004005432,2|0,0:0|0:0,0:0:0:0:
174,199,230183,2,0,P|242:195|277:162,1,105.000004005432,12|0,0:0|0:0,0:0:0:0:
254,25,230644,1,0,0:0:0:0:
133,113,230798,1,8,0:0:0:0:
270,174,230952,1,8,0:0:0:0:
133,35,231106,6,0,L|87:41,5,26.2500010013581,10|0|0|0|0|0,0:0|0:0|0:0|0:0|0:0|0:0,0:0:0:0:
254,25,231567,2,0,L|271:-17,5,26.2500010013581
202,134,232029,2,0,L|230:170,3,26.2500010013581,8|0|0|0,0:0|0:0|0:0|0:0,0:0:0:0:
133,35,232337,2,0,L|78:42,2,52.5000020027161,2|0|2,0:0|0:0|0:0,0:0:0:0:
437,349,232952,6,0,L|373:340,1,52.5000020027161,10|0,0:0|0:0,0:0:0:0:
234,274,233260,2,0,L|297:265,1,52.5000020027161,2|0,0:0|0:0,0:0:0:0:
462,207,233567,2,0,L|398:198,1,52.5000020027161,2|0,0:0|0:0,0:0:0:0:
206,112,233875,69,10,0:0:0:0:
294,274,234029,1,0,0:0:0:0:
294,274,234106,1,8,0:0:0:0:
294,274,234183,1,8,0:0:0:0:
309,95,234337,1,8,0:0:0:0:
188,220,234490,1,8,0:0:0:0:
360,189,234644,1,8,0:0:0:0:
204,23,234798,6,0,P|177:21|152:26,1,52.5000020027161,4|0,0:0|0:0,0:0:0:0:
309,95,235106,1,0,0:0:0:0:
168,99,235260,2,0,P|143:114|124:134,1,52.5000020027161,10|0,0:0|0:0,0:0:0:0:
309,95,235568,1,0,0:0:0:0:
184,188,235721,2,0,P|171:217|166:248,1,52.5000020027161,2|0,0:0|0:0,0:0:0:0:
309,95,236029,1,0,0:0:0:0:
255,258,236183,2,0,P|262:293|277:323,1,52.5000020027161,10|0,0:0|0:0,0:0:0:0:
309,95,236491,1,0,0:0:0:0:
81,66,236644,6,0,L|18:58,1,52.5000020027161,6|0,0:0|0:0,0:0:0:0:
309,95,236952,2,0,L|372:87,1,52.5000020027161,14|0,0:0|0:0,0:0:0:0:
52,149,237260,2,0,L|-11:141,1,52.5000020027161,6|0,0:0|0:0,0:0:0:0:
338,178,237568,2,0,L|401:170,1,52.5000020027161,14|0,0:0|0:0,0:0:0:0:
106,365,237875,1,8,0:0:0:0:
204,23,238183,1,8,0:0:0:0:
372,362,238490,6,0,P|434:332|451:283,1,105.000004005432,6|0,0:0|0:0,0:0:0:0:
341,111,238952,70,0,L|277:119,1,52.5000020027161,10|0,0:0|0:0,0:0:0:0:
209,187,239260,1,0,0:0:0:0:
428,191,239414,2,0,L|452:131,1,52.5000020027161,10|0,0:0|0:0,0:0:0:0:
427,37,239722,1,0,0:0:0:0:
315,226,239875,2,0,L|353:277,1,52.5000020027161,10|0,0:0|0:0,0:0:0:0:
448,301,240183,1,0,0:0:0:0:
341,111,240337,6,0,P|266:90|208:117,1,119.000002269745,6|0,0:0|0:0,0:0:0:0:
96,196,240798,2,0,P|171:175|229:202,1,119.000002269745,8|0,0:0|0:0,0:0:0:0:
152,330,241260,2,0,L|159:271,1,59.5000011348725,14|0,0:0|0:0,0:0:0:0:
215,127,241567,2,0,L|208:186,1,59.5000011348725
96,196,241875,1,0,0:0:0:0:
270,261,242029,1,0,0:0:0:0:
118,95,242183,5,12,0:0:0:0:
159,270,242333,1,8,0:0:0:0:
303,77,242483,2,0,L|397:82,1,94.499997116089,2|0,0:0|0:0,0:0:0:0:
464,232,242783,1,10,0:0:0:0:
484,31,242933,1,8,0:0:0:0:
343,162,243083,2,0,L|226:155,1,94.499997116089,2|0,0:0|0:0,0:0:0:0:
23,100,243383,6,0,L|140:93,1,94.499997116089,2|0,0:0|0:0,0:0:0:0:
34,190,243683,1,2,0:0:0:0:
169,34,243833,1,0,0:0:0:0:
183,223,243983,5,2,0:0:0:0:
183,269,244083,1,0,0:0:0:0:
155,306,244183,1,0,0:0:0:0:
111,318,244283,5,10,0:0:0:0:
190,319,244383,1,0,0:0:0:0:
269,322,244483,1,0,0:0:0:0:
349,323,244583,6,0,B|389:277|432:346|392:392|326:387|284:348|313:270|359:248|359:248|327:192|361:143,1,367.5,2|0,0:0|0:0,0:0:0:0:
512,188,245183,6,8,P|452:201|400:188,1,94.499997116089,12|8,0:0|0:0,0:0:0:0:
322,16,245483,2,0,L|416:22,1,94.499997116089,2|0,0:0|0:0,0:0:0:0:
358,147,245783,1,10,0:0:0:0:
512,91,245933,1,8,0:0:0:0:
253,74,246083,2,0,L|148:67,1,94.499997116089,2|0,0:0|0:0,0:0:0:0:
98,266,246383,70,0,L|215:259,1,94.499997116089,2|0,0:0|0:0,0:0:0:0:
163,379,246683,1,2,0:0:0:0:
215,171,246833,1,0,0:0:0:0:
315,321,246983,5,2,0:0:0:0:
356,353,247083,1,0,0:0:0:0:
409,355,247183,1,0,0:0:0:0:
452,325,247283,5,10,0:0:0:0:
385,273,247383,1,0,0:0:0:0:
373,190,247483,1,0,0:0:0:0:
415,117,247583,5,10,0:0:0:0:
120,275,247783,5,8,0:0:0:0:
305,37,247983,69,8,0:0:0:0:
319,325,248183,5,10,0:0:0:0:
319,325,248258,2,8,L|318:272,1,52.5,8|0,0:0|0:0,0:0:0:0:
120,275,248933,5,10,0:0:0:0:
99,271,249008,2,8,L|100:218,1,52.5,8|0,0:0|0:0,0:0:0:0:
357,206,249383,5,10,0:0:0:0:
398,197,249458,2,0,L|397:144,1,52.5,8|0,0:0|0:0,0:0:0:0:
115,137,250058,69,10,0:0:0:0:
33,118,250133,2,8,L|34:65,1,52.5,8|0,0:0|0:0,0:0:0:0:
511,176,250433,5,0,0:0:0:0:
511,123,250508,1,0,0:0:0:0:
511,70,250583,5,14,0:0:0:0:
314,112,250733,1,0,0:0:0:0:
444,230,250883,5,12,0:0:0:0:
357,41,251033,1,0,0:0:0:0:
355,262,251183,69,14,0:0:0:0:
439,22,251333,1,0,0:0:0:0:
427,324,251483,5,12,0:0:0:0:
274,40,251633,1,0,0:0:0:0:
337,355,251783,5,14,0:0:0:0:
439,22,252008,5,10,0:0:0:0:
98,218,252233,69,10,0:0:0:0:
298,143,252383,5,6,0:0:0:0:
323,149,252458,1,0,0:0:0:0:
346,161,252533,1,2,0:0:0:0:
366,179,252608,1,0,0:0:0:0:
381,200,252683,1,2,0:0:0:0:
390,225,252758,1,0,0:0:0:0:
394,251,252833,1,2,0:0:0:0:
391,277,252908,1,0,0:0:0:0:
383,301,252983,6,0,L|509:289,1,105,14|0,0:0|0:0,0:0:0:0:
285,253,253208,2,0,L|159:241,1,105,12|0,0:0|0:0,0:0:0:0:
381,200,253433,2,0,L|447:193,1,52.5,12|0,0:0|0:0,0:0:0:0:
298,143,253583,6,0,L|232:136,14,34.1249984378815,12|0|0|0|0|0|0|0|0|0|0|0|0|0|0,0:0|0:0|0:0|0:0|0:0|0:0|0:0|0:0|0:0|0:0|0:0|0:0|0:0|0:0|0:0,0:0:0:0:
180,243,254183,70,0,L|54:231,1,105,4|8,0:0|0:0,0:0:0:0:
306,150,254483,1,0,0:0:0:0:
306,150,254558,1,0,0:0:0:0:
306,150,254633,2,0,L|358:265,1,105,10|0,0:0|0:0,0:0:0:0:
160,89,254933,1,8,0:0:0:0:
175,67,255008,1,0,0:0:0:0:
190,46,255083,1,2,0:0:0:0:
205,24,255158,1,0,0:0:0:0:
220,4,255233,1,8,0:0:0:0:
349,245,255383,5,2,0:0:0:0:
201,160,255533,2,0,L|305:150,1,105,8|0,0:0|0:0,0:0:0:0:
177,323,255833,1,8,0:0:0:0:
29,241,255983,5,0,0:0:0:0:
51,218,256058,1,0,0:0:0:0:
79,206,256133,1,8,0:0:0:0:
111,204,256208,1,0,0:0:0:0:
140,214,256283,1,0,0:0:0:0:
164,234,256358,1,0,0:0:0:0:
180,261,256433,1,8,0:0:0:0:
184,292,256508,1,0,0:0:0:0:
177,323,256583,5,2,0:0:0:0:
101,99,256733,2,0,L|110:203,1,105,8|0,0:0|0:0,0:0:0:0:
194,1,257033,1,10,0:0:0:0:
11,89,257183,1,0,0:0:0:0:
248,146,257333,1,8,0:0:0:0:
272,150,257408,1,0,0:0:0:0:
298,156,257483,1,2,0:0:0:0:
324,163,257558,1,0,0:0:0:0:
349,169,257633,1,8,0:0:0:0:
194,1,257783,5,2,0:0:0:0:
206,223,257933,2,0,L|209:338,1,105,8|0,0:0|0:0,0:0:0:0:
60,148,258233,1,8,0:0:0:0:
305,163,258383,1,0,0:0:0:0:
305,163,258458,1,0,0:0:0:0:
305,163,258533,2,0,L|303:239,1,52.5,8|8,0:0|0:0,0:0:0:0:
193,151,258683,2,0,L|148:123,1,52.5
250,63,258834,2,0,L|295:37,1,52.5
411,110,258983,5,4,0:0:0:0:
423,142,259058,1,0,0:0:0:0:
425,178,259133,1,8,0:0:0:0:
416,214,259208,1,0,0:0:0:0:
396,244,259283,1,2,0:0:0:0:
367,223,259358,1,0,0:0:0:0:
333,211,259433,1,8,0:0:0:0:
297,212,259508,1,0,0:0:0:0:
263,224,259583,5,2,0:0:0:0:
230,240,259658,1,0,0:0:0:0:
195,239,259733,1,8,0:0:0:0:
164,221,259808,1,0,0:0:0:0:
145,190,259883,1,2,0:0:0:0:
143,154,259958,1,0,0:0:0:0:
158,122,260033,1,8,0:0:0:0:
187,101,260108,1,0,0:0:0:0:
222,95,260183,6,0,P|262:108|280:131,3,60.3750011515618,2|0|8|0,0:0|0:0|0:0|0:0,0:0:0:0:
335,269,260483,2,0,P|327:238|333:206,1,60.3750011515618
495,132,260633,69,10,0:0:0:0:
475,127,260708,1,0,0:0:0:0:
458,115,260783,1,0,0:0:0:0:
442,102,260858,1,0,0:0:0:0:
430,85,260933,2,0,P|398:113|369:117,1,60.3750011515618,8|0,0:0|0:0,0:0:0:0:
356,25,261083,5,2,0:0:0:0:
344,42,261158,1,0,0:0:0:0:
328,55,261233,1,8,0:0:0:0:
311,67,261308,1,0,0:0:0:0:
291,72,261383,5,10,0:0:0:0:
329,100,261458,1,0,0:0:0:0:
350,143,261533,1,0,0:0:0:0:
349,191,261608,1,0,0:0:0:0:
325,232,261683,1,0,0:0:0:0:
311,277,261758,1,0,0:0:0:0:
321,324,261833,1,0,0:0:0:0:
352,361,261908,1,0,0:0:0:0:
397,378,261983,5,2,0:0:0:0:
444,373,262058,1,0,0:0:0:0:
484,346,262133,1,0,0:0:0:0:
506,304,262208,1,0,0:0:0:0:
505,256,262283,1,0,0:0:0:0:
482,214,262358,1,0,0:0:0:0:
442,188,262433,1,0,0:0:0:0:
394,184,262508,1,0,0:0:0:0:
349,191,262583,70,0,L|362:63,1,120.750002303124,12|0,0:0|0:0,0:0:0:0:
148,207,262883,2,0,L|135:79,1,120.750002303124,12|0,0:0|0:0,0:0:0:0:
350,287,263183,1,8,0:0:0:0:
350,287,263258,1,8,0:0:0:0:
350,287,263333,2,0,L|419:279,1,60.3750011515618
271,222,263483,1,8,0:0:0:0:
240,217,263558,1,8,0:0:0:0:
209,214,263633,1,8,0:0:0:0:
178,210,263708,1,8,0:0:0:0:
148,207,263783,6,0,B|127:255|127:255|139:309,1,105,6|8,0:0|0:0,0:0:0:0:
143,94,264083,1,0,0:0:0:0:
143,94,264158,1,0,0:0:0:0:
143,94,264233,2,0,B|112:51|112:51|60:35,1,105,8|0,0:0|0:0,0:0:0:0:
247,136,264533,1,8,0:0:0:0:
273,133,264608,1,0,0:0:0:0:
299,130,264683,1,2,0:0:0:0:
318,113,264758,1,0,0:0:0:0:
337,95,264833,1,8,0:0:0:0:
49,131,264983,5,2,0:0:0:0:
138,306,265133,2,0,L|151:178,1,105,8|0,0:0|0:0,0:0:0:0:
256,37,265433,1,8,0:0:0:0:
273,252,265583,5,0,0:0:0:0:
298,232,265658,1,0,0:0:0:0:
328,224,265733,1,8,0:0:0:0:
359,225,265808,1,0,0:0:0:0:
388,238,265883,1,0,0:0:0:0:
410,261,265958,1,0,0:0:0:0:
424,289,266033,1,8,0:0:0:0:
428,321,266108,1,0,0:0:0:0:
422,352,266183,70,0,P|373:344|322:365,1,105,0|8,0:0|0:0,0:0:0:0:
97,143,266483,2,0,L|105:253,1,105,2|8,0:0|0:0,0:0:0:0:
366,120,266783,2,0,L|358:230,1,105,2|8,0:0|0:0,0:0:0:0:
54,59,267083,2,0,L|62:169,1,105,2|8,0:0|0:0,0:0:0:0:
409,35,267383,5,2,0:0:0:0:
393,244,267533,2,0,L|404:89,1,105,8|0,0:0|0:0,0:0:0:0:
485,263,267833,1,8,0:0:0:0:
319,189,267983,5,10,0:0:0:0:
301,232,268058,1,8,0:0:0:0:
307,279,268133,1,8,0:0:0:0:
335,317,268208,1,8,0:0:0:0:
377,336,268283,1,8,0:0:0:0:
425,332,268358,1,8,0:0:0:0:
464,305,268433,1,8,0:0:0:0:
485,263,268508,1,8,0:0:0:0:
483,216,268583,6,0,L|371:228,1,105,6|8,0:0|0:0,0:0:0:0:
356,40,268883,1,0,0:0:0:0:
356,40,268958,1,0,0:0:0:0:
356,40,269033,2,0,L|408:34,1,52.5,8|0,0:0|0:0,0:0:0:0:
209,146,269184,1,0,0:0:0:0:
209,146,269258,1,0,0:0:0:0:
209,146,269333,2,0,L|156:140,1,52.5,8|0,0:0|0:0,0:0:0:0:
257,12,269483,1,0,0:0:0:0:
301,232,269633,1,8,0:0:0:0:
31,216,269783,70,0,L|143:228,1,105,2|8,0:0|0:0,0:0:0:0:
158,40,270083,1,0,0:0:0:0:
158,40,270158,1,0,0:0:0:0:
158,40,270233,2,0,L|105:34,1,52.5,10|0,0:0|0:0,0:0:0:0:
305,146,270384,1,0,0:0:0:0:
305,146,270458,1,0,0:0:0:0:
305,146,270533,2,0,L|357:140,1,52.5,12|0,0:0|0:0,0:0:0:0:
136,121,270683,2,0,L|83:127,2,52.5,2|0|12,0:0|0:0|0:0,0:0:0:0:
279,62,270983,5,10,0:0:0:0:
251,77,271058,1,0,0:0:0:0:
231,101,271133,1,0,0:0:0:0:
222,131,271208,1,0,0:0:0:0:
225,162,271283,1,8,0:0:0:0:
239,190,271358,1,0,0:0:0:0:
262,211,271433,1,0,0:0:0:0:
292,221,271508,1,0,0:0:0:0:
323,220,271583,5,0,0:0:0:0:
354,218,271658,1,0,0:0:0:0:
383,229,271733,1,0,0:0:0:0:
407,249,271808,1,0,0:0:0:0:
421,277,271883,1,10,0:0:0:0:
423,308,271958,1,0,0:0:0:0:
414,338,272033,1,0,0:0:0:0:
395,363,272108,1,0,0:0:0:0:
367,378,272183,6,0,L|297:379,2,70,10|0|0,0:0|0:0|0:0,0:0:0:0:
93,326,272483,70,0,L|162:327,2,62.9999980773926,8|0|0,0:0|0:0|0:0,0:0:0:0:
292,221,272783,6,0,L|293:290,1,70,10|0,0:0|0:0,0:0:0:0:
167,228,272983,5,8,0:0:0:0:
168,179,273083,1,2,0:0:0:0:
170,131,273183,2,0,L|172:60,1,62.9999980773926
323,134,273383,6,0,P|269:161|164:124,1,167.999994873047,6|0,0:0|0:0,0:0:0:0:
170,131,273983,2,0,L|164:331,1,167.999994873047,12|0,0:0|0:0,0:0:0:0:
298,222,274583,70,0,P|328:180|374:262,1,167.999994873047,14|0,0:0|0:0,0:0:0:0:
465,340,275183,2,0,L|382:333,1,52.5000020027161,14|0,0:0|0:0,0:0:0:0:
392,248,275383,1,0,0:0:0:0:
392,248,275483,2,0,L|445:253,2,52.5000020027161,8|0|0,0:0|0:0|0:0,0:0:0:0:
374,52,275783,6,0,L|379:-1,1,52.5000020027161,12|0,0:0|0:0,0:0:0:0:
465,122,275983,1,0,0:0:0:0:
465,122,276083,2,0,L|460:175,2,52.5000020027161,14|0|0,0:0|0:0|0:0,0:0:0:0:
138,52,276383,2,0,L|133:-1,1,52.5000020027161,12|0,0:0|0:0,0:0:0:0:
47,122,276583,1,0,0:0:0:0:
47,122,276683,2,0,L|52:175,2,52.5000020027161,12|0|0,0:0|0:0|0:0,0:0:0:0:
465,122,276983,6,0,L|412:127,2,52.5000020027161,12|0|0,0:0|0:0|0:0,0:0:0:0:
47,122,277283,2,0,L|100:127,2,52.5000020027161,12|0|0,0:0|0:0|0:0,0:0:0:0:
256,8,277583,5,8,0:0:0:0:
256,81,277683,1,8,0:0:0:0:
256,143,277783,1,8,0:0:0:0:
256,195,277883,1,8,0:3:0:0:
256,236,277983,1,8,0:3:0:0:
256,267,278083,1,8,0:3:0:0:
256,287,278183,6,0,P|211:257|193:363,1,181.999991668702,6|0,0:0|0:0,0:0:0:0:
374,52,278783,2,0,L|375:262,1,181.999991668702,12|0,0:0|0:0,0:0:0:0:
74,96,279383,2,0,P|138:72|87:121,1,181.999991668702,6|0,0:0|0:0,0:0:0:0:
460,7,279983,6,0,L|512:12,1,52.5000020027161,14|0,0:0|0:0,0:0:0:0:
374,52,280183,1,0,0:0:0:0:
374,52,280283,2,0,L|260:41,1,105.000004005432
374,233,280583,6,0,L|443:239,2,70,6|0|0,0:0|0:0|0:0,0:0:0:0:
138,233,280983,2,0,L|68:239,2,70,10|0|0,0:0|0:0|0:0,0:0:0:0:
256,91,281383,2,0,L|256:19,1,70,10|0,0:0|0:0,0:0:0:0:
344,144,281649,1,8,0:0:0:0:
344,144,281783,2,0,P|274:192|154:82,1,210.000008010865,14|0,0:0|0:0,0:0:0:0:
374,233,282183,70,0,P|372:269|387:303,2,70,6|0|0,0:0|0:0|0:0,0:0:0:0:
138,233,282583,2,0,P|140:269|125:303,2,70,10|0|0,0:0|0:0|0:0,0:0:0:0:
346,143,282983,6,0,L|424:137,1,70,6|0,0:0|0:0,0:0:0:0:
168,143,283249,2,0,L|90:137,1,70,10|8,0:0|0:0,0:0:0:0:
388,97,283517,2,0,L|524:86,1,70,2|0,0:0|0:0,0:0:0:0:
126,97,283783,6,0,L|-10:86,1,125.999996154785,6|0,0:0|0:0,0:0:0:0:
42,187,284316,2,0,L|3:184,3,20.9999993591309
42,187,284583,2,0,P|62:247|33:316,1,125.999996154785,12|2,0:0|0:0,0:0:0:0:
451,27,285383,6,0,L|220:43,1,209.999993591309,6|0,0:0|0:0,0:0:0:0:
255,141,286183,70,0,P|308:179|205:213,1,209.999993591309,6|0,0:0|0:0,0:0:0:0:
256,192,286983,12,0,290327,0:0:0:0:
173,157,290543,6,0,P|237:150|292:193,1,118.125004506111,2|0,0:0|0:0,0:0:0:0:
214,239,290979,2,0,P|150:232|95:275,1,118.125004506111,2|0,0:0|0:0,0:0:0:0:
174,322,291415,6,0,L|402:308,1,196.875007510186,2|0,0:0|0:0,0:0:0:0:
393,225,292096,2,0,L|438:222,2,35,2|2|2,0:0|0:0|0:0,0:0:0:0:
393,225,292310,6,0,P|392:166|436:119,1,118.125004506111,2|0,0:0|0:0,0:0:0:0:
370,309,292739,2,0,P|319:277|300:217,1,118.125004506111,2|0,0:0|0:0,0:0:0:0:
218,110,293183,2,0,P|219:167|182:212,1,118.125004506111,2|0,0:0|0:0,0:0:0:0:
240,25,293627,2,0,P|289:55|310:109,1,118.125004506111,2|0,0:0|0:0,0:0:0:0:
182,213,294072,6,0,L|309:225,1,118.125004506111,2|2,0:0|0:0,0:0:0:0:
185,100,294516,2,0,P|199:152|178:222,1,118.125004506111,2|0,0:0|0:0,0:0:0:0:
75,283,294960,6,0,L|179:293,2,105.000004005432,2|2|2,0:0|0:0|0:0,0:0:0:0:
302,239,295849,2,0,P|310:331|269:393,1,157.500006008148,2|2,0:0|0:0,0:0:0:0:
512,193,296738,2,0,P|460:173|470:253,1,157.500006008148,2|2,0:0|0:0,0:0:0:0:
321,51,297460,2,0,L|350:59,2,19.6875007510186,2|2|2,0:0|0:0|0:0,0:0:0:0:
321,51,297627,6,0,P|300:116|345:202,1,157.500006008148,2|2,0:0|0:0,0:0:0:0:
407,256,298220,1,2,0:0:0:0:
308,269,298368,1,2,0:0:0:0:
209,282,298516,70,0,L|71:302,1,105.000004005432,2|0,0:0|0:0,0:0:0:0:
62,162,298960,2,0,L|200:182,1,105.000004005432,2|0,0:0|0:0,0:0:0:0:
369,349,299405,1,2,0:0:0:0:
369,349,299849,6,0,L|378:236,1,105.000004005432,2|0,0:0|0:0,0:0:0:0:
422,138,300283,2,0,P|447:136|480:141,2,52.5000020027161,2|2|2,0:0|0:0|0:0,0:0:0:0:
310,177,300718,2,0,P|285:175|252:180,2,35,2|2|2,0:0|0:0|0:0,0:0:0:0:
377,244,300950,2,0,P|402:242|435:247,2,35,2|2|2,0:0|0:0|0:0,0:0:0:0:
377,244,301183,6,0,P|328:287|431:323,1,210,2|2,0:0|0:0,0:0:0:0:
377,244,301856,2,0,L|268:233,1,105,2|2,0:0|0:0,0:0:0:0:
369,150,302308,2,0,L|478:139,1,105,2|2,0:0|0:0,0:0:0:0:
272,45,302754,1,2,0:0:0:0:
272,45,303200,6,0,P|254:113|273:147,1,105,2|2,0:0|0:0,0:0:0:0:
412,148,303646,2,0,P|362:98|323:97,1,105,2|2,0:0|0:0,0:0:0:0:
252,217,304092,2,0,P|319:198|339:165,1,105,2|2,0:0|0:0,0:0:0:0:
272,45,304538,2,0,L|194:39,1,52.5,2|0,0:0|0:0,0:0:0:0:
172,182,304761,70,0,L|163:288,1,105,2|0,0:0|0:0,0:0:0:0:
252,217,305100,2,0,L|243:323,1,105,2|0,0:0|0:0,0:0:0:0:
332,252,305415,2,0,L|323:358,1,105,2|0,0:0|0:0,0:0:0:0:
404,188,305715,6,0,P|379:167|301:161,1,105,2|0,0:0|0:0,0:0:0:0:
198,112,306029,2,0,P|228:100|272:36,1,105,2|0,0:0|0:0,0:0:0:0:
379,0,306333,2,0,P|379:46|396:78,1,70,2|0,0:0|0:0,0:0:0:0:
404,188,306573,2,0,L|496:173,2,70,0|2|2,0:0|0:0|0:0,0:0:0:0:
252,217,307017,5,2,0:0:0:0:
280,293,307167,1,2,0:0:0:0:
227,355,307318,1,2,0:0:0:0:
120,265,307468,5,2,0:0:0:0:
172,202,307618,1,2,0:0:0:0:
252,217,307769,1,2,0:0:0:0:
227,355,307920,5,2,0:0:0:0:
146,342,308070,1,2,0:0:0:0:
120,265,308221,1,2,0:0:0:0:
331,230,308372,5,2,0:0:0:0:
307,369,308522,1,2,0:0:0:0:
331,230,308672,1,2,0:0:0:0:
259,169,308822,5,2,0:0:0:0:
280,293,308972,1,2,0:0:0:0:
259,169,309122,1,2,0:0:0:0:
350,119,309272,5,2,0:0:0:0:
331,230,309422,1,2,0:0:0:0:
350,119,309572,1,2,0:0:0:0:
242,70,309722,5,2,0:0:0:0:
259,169,309872,1,2,0:0:0:0:
242,70,310022,1,2,0:0:0:0:
436,190,310173,5,2,0:0:0:0:
358,127,310323,1,2,0:0:0:0:
358,127,310398,1,2,0:0:0:0:
358,127,310473,1,2,0:0:0:0:
246,274,310624,5,2,0:0:0:0:
339,237,310774,1,2,0:0:0:0:
339,237,310849,1,2,0:0:0:0:
339,237,310924,1,2,0:0:0:0:
242,70,311075,5,2,0:0:0:0:
227,174,311225,1,2,0:0:0:0:
227,174,311300,1,2,0:0:0:0:
227,174,311376,2,0,L|214:125,1,35,2|0,0:0|0:0,0:0:0:0:
140,273,311526,2,0,L|153:224,1,35,2|0,0:0|0:0,0:0:0:0:
227,372,311676,1,2,0:0:0:0:
227,372,311751,1,2,0:0:0:0:
227,372,311827,1,2,0:0:0:0:
227,372,311902,1,2,0:0:0:0:
227,372,311977,5,2,0:0:0:0:
246,274,312128,1,2,0:0:0:0:
339,237,312279,1,2,0:0:0:0:
461,338,312430,5,2,0:0:0:0:
372,320,312581,1,2,0:0:0:0:
339,237,312732,1,2,0:0:0:0:
430,128,312884,5,2,0:0:0:0:
413,208,313035,1,2,0:0:0:0:
339,237,313186,1,2,0:0:0:0:
230,146,313338,5,2,0:0:0:0:
310,163,313489,1,2,0:0:0:0:
339,237,313643,1,2,0:0:0:0:
148,239,313796,6,0,L|130:309,3,52.5,2|2|2|2,0:0|0:0|0:0|0:0,0:0:0:0:
230,146,314250,2,0,L|248:216,3,52.5,2|2|2|2,0:0|0:0|0:0|0:0,0:0:0:0:
64,35,314684,1,2,0:0:0:0:
61,82,314796,1,2,0:0:0:0:
59,129,314909,1,2,0:0:0:0:
56,176,315022,1,2,0:0:0:0:
54,223,315135,1,2,0:0:0:0:
51,270,315247,1,2,0:0:0:0:
49,318,315360,2,0,L|71:262,1,52.5,2|0,0:0|0:0,0:0:0:0:
250,322,315586,5,2,0:0:0:0:
469,31,316496,6,0,L|450:144,1,70,2|2,0:0|0:0,0:0:0:0:
389,50,316800,2,0,L|370:163,1,70,2|2,0:0|0:0,0:0:0:0:
308,71,317104,2,0,L|289:184,1,70,2|2,0:0|0:0,0:0:0:0:
199,175,317407,70,0,L|215:80,1,90.9999958343508,2|0,0:0|0:0,0:0:0:0:
418,313,318318,6,0,P|348:258|373:350,1,210,2|2,0:0|0:0,0:0:0:0:
0,162,319229,6,0,B|71:199|71:199|209:172,1,210,2|2,0:0|0:0,0:0:0:0:
469,31,320138,2,0,P|423:104|497:200,1,210,2|2,0:0|0:0,0:0:0:0:
371,261,320826,2,0,L|370:301,2,35,2|2|2,0:0|0:0|0:0,0:0:0:0:
371,261,321060,6,0,P|300:232|235:251,1,140,2|0,0:0|0:0,0:0:0:0:
90,170,321501,2,0,P|161:141|226:160,1,140,2|0,0:0|0:0,0:0:0:0:
368,64,321955,2,0,P|297:35|232:54,1,140,2|0,0:0|0:0,0:0:0:0:
89,100,322410,2,0,L|90:183,2,70,2|2|2,0:0|0:0|0:0,0:0:0:0:
181,224,322864,70,0,P|119:273|1:228,1,210,2|2,0:0|0:0,0:0:0:0:
238,50,323808,6,0,L|246:137,1,70,2|0,0:0|0:0,0:0:0:0:
325,87,324095,2,0,L|317:174,1,70,2|0,0:0|0:0,0:0:0:0:
412,124,324400,2,0,L|420:211,1,70,2|0,0:0|0:0,0:0:0:0:
505,256,324696,6,0,L|513:156,1,90.9999958343508,2|0,0:0|0:0,0:0:0:0:
368,48,325154,6,0,P|431:40|496:97,1,140,2|0,0:0|0:0,0:0:0:0:
323,160,325612,1,2,0:0:0:0:
323,160,325670,2,0,P|260:152|195:209,1,140,2|0,0:0|0:0,0:0:0:0:
176,280,326070,2,0,L|105:292,2,70,2|2|2,0:0|0:0|0:0,0:0:0:0:
296,297,326451,1,2,0:0:0:0:
296,297,326528,6,0,L|323:157,1,140,2|0,0:0|0:0,0:0:0:0:
203,127,326986,2,0,P|242:166|333:149,1,140,2|2,0:0|0:0,0:0:0:0:
396,126,327364,1,2,0:0:0:0:
396,126,327440,70,0,P|356:86|265:103,1,140,2|0,0:0|0:0,0:0:0:0:
321,158,327901,2,0,L|334:246,2,70,2|2|2,0:0|0:0|0:0,0:0:0:0:
207,131,328363,1,2,0:0:0:0:
207,131,328425,6,0,P|168:182|92:165,1,131.25,2|0,0:0|0:0,0:0:0:0:
107,54,328863,6,0,L|189:44,2,70,2|2|2,0:0|0:0|0:0,0:0:0:0:
207,131,329328,2,0,L|289:121,2,70,2|2|2,0:0|0:0|0:0,0:0:0:0:
307,208,329828,2,0,L|389:198,2,70,2|2|2,0:0|0:0|0:0,0:0:0:0:
85,346,330528,5,6,0:0:0:0:
256,192,330604,12,0,335604,0:0:0:0:
