osu file format v14

[General]
AudioFilename: audio.mp3
AudioLeadIn: 0
PreviewTime: 88928
Countdown: 0
SampleSet: None
StackLeniency: 0.7
Mode: 0
LetterboxInBreaks: 0
WidescreenStoryboard: 0

[Editor]
Bookmarks: 29634,29709,29784,33425,165953,224278
DistanceSpacing: 1.3
BeatDivisor: 4
GridSize: 4
TimelineZoom: 2.1

[Metadata]
Title:Tales of Destinies
TitleUnicode:Tales of Destinies
Artist:BABYMETAL
ArtistUnicode:BABYMETAL
Creator:Keada
Version:Unmei
Source:
Tags:
BeatmapID:1004059
BeatmapSetID:469524

[Difficulty]
HPDrainRate:6
CircleSize:4.5
OverallDifficulty:8
ApproachRate:9.5
SliderMultiplier:1.6
SliderTickRate:1

[Events]
//Background and Video events
0,0,"blood_c_wallpaper_abstract_by_gantahat62-d903zog.jpg",0,0
//Break Periods
//Storyboard Layer 0 (Background)
//Storyboard Layer 1 (Fail)
//Storyboard Layer 2 (Pass)
//Storyboard Layer 3 (Foreground)
//Storyboard Sound Samples

[TimingPoints]
549,300,4,3,1,10,1,0
10749,-100,4,3,1,20,0,0
11349,-100,4,3,1,30,0,0
11949,-100,4,3,1,40,0,0
12549,-100,4,3,1,50,0,0
13149,-100,4,3,1,60,0,0
13749,-100,4,3,1,5,0,0
14049,300,4,3,1,70,1,0
15699,300,6,3,1,70,1,0
21399,300,6,3,4,70,1,0
23049,300,6,3,4,70,1,0
25299,-100,6,3,1,70,0,0
28749,270.27027027027,3,3,1,70,1,0
29559,400,4,3,1,70,1,0
29959,-100,4,3,3,70,0,0
32759,-100,4,3,1,70,0,0
33159,-100,4,3,3,70,0,0
35959,-100,4,3,1,70,0,0
36359,-100,4,3,3,70,0,0
39159,-100,4,3,1,70,0,0
39559,-100,4,3,3,70,0,0
40759,-100,4,3,1,70,0,0
42292,-100,4,3,1,5,0,0
42359,300,4,3,1,70,1,0
51659,300,4,3,1,70,1,0
56709,-100,4,3,1,5,0,0
56759,-100,4,3,1,70,0,0
57309,-100,4,3,1,5,0,0
57359,-100,4,3,1,70,0,0
58509,-100,4,3,1,5,0,0
58559,-100,4,3,1,70,0,0
61109,300,4,3,1,70,1,0
62309,461.538461538462,4,3,1,70,1,0
77078,300,4,3,1,70,1,0
79478,-142.857142857143,4,3,1,70,0,0
80078,300,4,3,1,70,1,0
83078,300,4,3,1,70,1,0
89078,-83.3333333333333,4,3,1,80,0,1
108278,-100,4,3,1,70,0,0
108528,-100,4,3,1,5,0,0
108578,-100,4,3,1,70,0,0
109128,-100,4,3,1,5,0,0
109178,-100,4,3,1,70,0,0
109728,-100,4,3,1,5,0,0
109778,-100,4,3,1,70,0,0
113328,-100,4,3,1,5,0,0
113378,-100,4,3,1,70,0,0
113928,-100,4,3,1,5,0,0
113978,-100,4,3,1,70,0,0
114528,-100,4,3,1,5,0,0
114578,-100,4,3,1,70,0,0
120278,344.827586206897,4,3,1,70,1,0
122864,300,4,3,1,70,1,0
123464,200,7,3,1,70,1,0
126264,300,6,3,1,70,1,0
128064,300,7,3,1,70,1,0
130164,300,7,3,1,70,1,0
132264,300,4,3,1,70,1,0
134664,300,5,3,1,70,1,0
139164,300,3,3,1,70,1,0
140064,300,5,3,1,70,1,0
143064,300,4,3,1,70,1,0
145464,-200,4,3,1,40,0,0
147864,461.538461538462,4,3,1,40,1,0
148210,-100,4,3,1,5,0,0
148325,434.782608695652,4,3,1,40,1,0
148651,-100,4,3,1,5,0,0
148759,461.538461538462,4,3,1,40,1,0
149105,-100,4,3,1,5,0,0
149220,-100,4,3,1,40,0,0
149682,571.428571428571,4,3,1,40,1,0
150110,-100,4,3,1,5,0,0
150253,300,4,3,1,70,1,0
155053,387.096774193548,4,3,1,70,1,0
158149,352.941176470588,4,3,1,70,1,0
159560,379.746835443038,4,3,1,70,1,0
161078,375,4,3,1,70,1,0
191078,300,6,3,1,70,1,0
204878,300,4,3,1,70,1,0
208478,-83.3333333333333,4,3,1,70,0,0
209678,300,5,3,1,70,1,0
212678,300,4,3,1,70,1,0
223478,400,4,3,1,70,1,0
225078,600,4,3,1,70,1,0
227478,461.538461538462,6,3,1,70,1,0
242247,300,4,3,1,70,1,0
245247,300,4,3,1,70,1,0
248247,244.897959183673,3,3,1,70,1,0
248981,223.880597014925,4,3,1,70,1,0
249429,226.415094339623,4,3,1,70,1,0
250108,190.47619047619,4,3,1,70,1,0
250490,333.333333333333,4,3,1,70,1,0
250656,300,4,3,1,70,1,0
253056,-83.3333333333333,4,3,1,70,0,0
253656,-200,4,3,1,70,0,0
254256,-83.3333333333333,4,3,1,80,0,1
273456,-100,4,3,1,70,0,0
280656,400,4,3,1,70,1,0
290256,-100,4,3,1,20,0,0
290606,441.176470588235,4,3,1,20,1,0
294135,447.761194029851,4,3,1,20,1,0
295926,441.176470588235,4,3,1,20,1,0
297692,444.444444444444,4,3,1,20,1,0
301247,447.761194029851,4,3,1,20,1,0
306620,454.545454545455,4,3,1,20,1,0
308441,451.127819548872,4,3,1,20,1,0
310245,447.761194029851,4,3,1,20,1,0
312036,458.015267175573,4,3,1,20,1,0
313868,447.761194029851,4,3,1,20,1,0
315659,454.545454545455,4,3,1,20,1,0
319296,454.545454545455,4,3,1,20,1,0
322932,461.538461538462,4,3,1,20,1,0
324778,447.761194029851,4,3,1,20,1,0
326569,465.116279069767,4,3,1,20,1,0
328429,500,4,3,1,20,1,0
329429,461.538461538462,4,3,1,20,1,0
330582,631.578947368421,4,3,1,20,1,0
335634,-100,4,3,1,5,0,0

[HitObjects]
256,192,10149,12,0,13749,2:0:0:0:
152,116,14049,6,0,L|152:228,1,80,6|2,0:0|0:0,0:0:0:0:
160,224,14274,1,2,0:0:0:0:
168,252,14349,1,8,0:0:0:0:
324,288,14499,2,0,L|320:200,1,80,8|2,0:0|0:0,0:0:0:0:
312,180,14724,1,2,0:0:0:0:
304,152,14799,1,8,0:0:0:0:
460,112,14949,1,2,0:0:0:0:
420,268,15099,1,8,0:0:0:0:
368,76,15249,5,8,0:0:0:0:
468,200,15399,1,2,0:0:0:0:
316,252,15549,1,2,0:0:0:0:
312,16,15699,6,0,P|372:0|408:4,1,80,6|2,0:0|0:0,0:0:0:0:
416,12,15924,1,2,0:0:0:0:
440,28,15999,1,8,0:0:0:0:
312,124,16149,2,0,P|272:122|234:108,1,80,8|2,0:0|0:0,0:0:0:0:
168,36,16374,1,2,0:0:0:0:
168,36,16449,2,0,L|152:120,1,80,8|2,0:0|0:0,0:0:0:0:
196,268,16749,1,8,0:0:0:0:
40,232,16899,1,8,0:0:0:0:
184,184,17049,1,2,0:0:0:0:
120,320,17199,1,2,0:0:0:0:
0,224,17349,1,0,0:0:0:0:
184,184,17499,6,0,P|232:192|260:216,1,80,6|2,0:0|0:0,0:0:0:0:
360,352,17799,1,2,0:0:0:0:
360,352,17874,1,2,0:0:0:0:
360,352,17949,2,0,B|372:316|372:316|368:252,1,80,8|0,0:0|0:0,0:0:0:0:
316,88,18249,5,2,0:0:0:0:
264,240,18399,1,2,0:0:0:0:
420,208,18549,1,8,0:0:0:0:
336,72,18699,1,8,0:0:0:0:
288,268,18849,1,8,0:0:0:0:
420,112,18999,1,2,0:0:0:0:
420,112,19074,1,2,0:0:0:0:
420,112,19149,1,2,0:0:0:0:
216,76,19299,5,8,0:0:0:0:
168,296,19599,1,8,0:0:0:0:
216,76,19749,1,8,0:0:0:0:
80,168,20049,1,8,0:0:0:0:
300,212,20349,1,8,0:0:0:0:
124,80,20499,1,8,0:0:0:0:
276,288,20799,5,8,0:0:0:0:
315,293,20874,1,8,0:0:0:0:
351,278,20949,1,8,0:0:0:0:
374,246,21024,1,8,0:0:0:0:
378,207,21099,1,2,0:0:0:0:
381,167,21174,1,2,0:0:0:0:
405,135,21249,1,2,0:0:0:0:
441,120,21324,1,2,0:0:0:0:
480,126,21399,6,0,P|496:184|488:232,1,80,6|2,0:0|0:0,0:0:0:0:
424,328,21699,1,2,0:0:0:0:
332,104,21849,2,0,P|332:44|344:8,1,80,12|2,0:0|0:0,0:0:0:0:
480,12,22149,1,2,0:0:0:0:
378,207,22299,2,0,P|334:215|284:200,1,80,6|0,0:0|0:0,0:0:0:0:
124,40,22599,2,0,P|168:32|218:47,1,80,12|0,0:0|0:0,0:0:0:0:
332,104,22899,1,2,0:0:0:0:
140,252,23049,6,0,B|132:212|132:212|140:156,1,80,6|2,0:0|0:0,0:0:0:0:
202,39,23349,1,2,0:0:0:0:
378,207,23499,2,0,B|339:215|339:215|299:211,1,80,12|2,0:0|0:0,0:0:0:0:
137,173,23799,1,2,0:0:0:0:
332,104,23949,2,0,B|372:104|372:104|424:120,1,80,6|2,0:0|0:0,0:0:0:0:
436,316,24249,1,8,0:0:0:0:
300,212,24399,1,2,0:0:0:0:
284,372,24549,5,2,0:0:0:0:
284,372,24624,1,2,0:0:0:0:
284,372,24699,2,0,P|228:376|184:352,1,80,12|2,0:0|0:0,0:0:0:0:
76,276,24999,1,2,0:0:0:0:
52,244,25074,1,2,0:0:0:0:
45,205,25149,1,2,0:0:0:0:
58,167,25224,1,2,0:0:0:0:
87,140,25299,2,0,L|188:136,1,80,12|2,0:0|0:0,0:0:0:0:
380,80,25599,2,0,L|279:75,1,80,12|2,0:0|0:0,0:0:0:0:
131,67,25899,5,2,0:0:0:0:
155,98,25974,1,2,0:0:0:0:
167,136,26049,1,2,0:0:0:0:
163,175,26124,1,2,0:0:0:0:
146,211,26199,1,8,0:0:0:0:
304,196,26349,1,2,0:0:0:0:
224,60,26499,1,2,0:0:0:0:
204,268,26649,6,0,L|200:328,1,40,12|0,0:0|0:0,0:0:0:0:
348,292,26799,1,2,0:0:0:0:
348,292,26874,1,2,0:0:0:0:
348,292,26949,2,0,L|352:244,1,40,8|0,0:0|0:0,0:0:0:0:
460,176,27099,2,0,L|456:228,1,40,8|0,0:0|0:0,0:0:0:0:
448,344,27249,1,2,0:0:0:0:
448,344,27324,1,2,0:0:0:0:
448,344,27399,2,0,L|400:344,1,40,12|0,0:0|0:0,0:0:0:0:
278,279,27549,1,2,0:0:0:0:
278,279,27624,1,2,0:0:0:0:
278,279,27699,2,0,L|326:279,1,40,8|0,0:0|0:0,0:0:0:0:
208,364,27849,2,0,L|168:364,1,40,8|0,0:0|0:0,0:0:0:0:
84,232,27999,2,0,L|140:232,1,40,2|2,0:0|0:0,0:0:0:0:
268,200,28149,5,8,0:0:0:0:
295,172,28224,1,8,0:0:0:0:
296,133,28299,1,8,0:0:0:0:
270,104,28374,1,8,0:0:0:0:
231,102,28449,1,2,0:0:0:0:
192,99,28524,1,2,0:0:0:0:
165,71,28599,1,2,0:0:0:0:
166,32,28674,1,2,0:0:0:0:
196,0,28749,6,0,P|248:0|306:15,1,80,12|0,0:0|0:0,0:0:0:0:
428,52,29019,1,2,0:0:0:0:
512,244,29154,2,0,P|476:256|420:248,1,80,8|2,0:0|0:0,0:0:0:0:
420,244,29357,1,2,0:0:0:0:
420,244,29424,1,2,0:0:0:0:
248,92,29559,6,0,P|284:88|328:96,1,53.3333333333333,6|0,0:0|0:0,0:0:0:0:
372,168,29825,1,2,0:0:0:0:
224,232,29959,2,0,P|176:232|136:216,1,53.3333333333333,12|0,0:0|0:0,0:0:0:0:
80,176,30225,1,4,0:0:0:0:
232,60,30359,5,6,0:0:0:0:
196,160,30492,1,0,0:0:0:0:
128,80,30625,1,6,0:0:0:0:
240,76,30759,1,12,0:0:0:0:
168,156,30892,1,0,0:0:0:0:
136,56,31025,1,4,0:0:0:0:
304,40,31159,6,0,P|312:64|312:100,1,53.3333333333333,6|0,0:0|0:0,0:0:0:0:
284,196,31425,1,6,0:0:0:0:
392,180,31559,2,0,P|420:180|456:200,1,53.3333333333333,12|0,0:0|0:0,0:0:0:0:
288,280,31825,2,0,P|260:280|224:260,1,53.3333333333333,6|2,0:0|0:0,0:0:0:0:
408,260,32092,2,0,P|412:284|404:320,1,53.3333333333333,2|4,0:0|0:0,0:0:0:0:
284,196,32359,1,12,0:0:0:0:
392,180,32492,1,2,0:0:0:0:
288,204,32625,1,4,0:0:0:0:
400,108,32759,6,0,P|432:120|460:160,1,53.3333333333333,6|0,0:0|0:0,0:0:0:0:
476,236,33025,1,2,0:0:0:0:
332,132,33159,2,0,P|328:104|340:64,1,53.3333333333333,12|0,0:0|0:0,0:0:0:0:
240,24,33425,2,0,P|244:50|240:76,1,53.3333333333333,6|2,0:0|0:0,0:0:0:0:
188,168,33692,1,2,0:0:0:0:
180,180,33759,1,2,0:0:0:0:
172,192,33825,1,2,0:0:0:0:
164,204,33892,1,2,0:0:0:0:
156,216,33959,2,0,P|112:224|88:212,1,53.3333333333333,12|0,0:0|0:0,0:0:0:0:
28,148,34225,1,6,0:0:0:0:
196,156,34359,6,0,P|224:168|240:192,1,53.3333333333333,6|0,0:0|0:0,0:0:0:0:
268,288,34625,1,2,0:0:0:0:
344,212,34759,2,0,P|372:208|412:216,1,53.3333333333333,12|0,0:0|0:0,0:0:0:0:
464,292,35025,1,6,0:0:0:0:
500,192,35159,2,0,L|504:124,2,53.3333333333333,6|2|6,0:0|0:0|0:0,0:0:0:0:
368,284,35559,2,0,B|364:312|364:312|368:348,1,53.3333333333333,12|0,0:0|0:0,0:0:0:0:
492,268,35825,1,6,0:0:0:0:
400,120,35959,5,6,0:0:0:0:
344,212,36092,1,2,0:0:0:0:
428,144,36225,1,2,0:0:0:0:
320,136,36359,1,12,0:0:0:0:
372,228,36492,1,0,0:0:0:0:
332,128,36625,1,2,0:0:0:0:
264,212,36759,2,0,P|264:252|276:284,1,53.3333333333333,6|0,0:0|0:0,0:0:0:0:
336,348,37025,1,2,0:0:0:0:
228,340,37159,2,0,P|192:344|164:364,1,53.3333333333333,12|0,0:0|0:0,0:0:0:0:
72,348,37425,1,6,0:0:0:0:
148,240,37559,6,0,P|164:192|136:132,1,106.666666666667,6|6,0:0|0:0,0:0:0:0:
40,188,37959,2,0,P|68:192|104:188,1,53.3333333333333,12|0,0:0|0:0,0:0:0:0:
176,76,38225,2,0,P|148:72|112:76,1,53.3333333333333,0|6,0:0|0:0,0:0:0:0:
240,156,38492,2,0,P|268:160|304:156,1,53.3333333333333,0|6,0:0|0:0,0:0:0:0:
404,52,38759,2,0,P|376:48|340:52,1,53.3333333333333,12|0,0:0|0:0,0:0:0:0:
248,76,39025,1,8,0:0:0:0:
392,140,39159,5,6,0:0:0:0:
356,240,39292,1,0,0:0:0:0:
416,152,39425,1,2,0:0:0:0:
416,292,39559,1,12,0:0:0:0:
332,224,39692,1,0,0:0:0:0:
484,228,39825,2,0,L|488:284,1,53.3333333333333,6|2,0:0|0:0,0:0:0:0:
328,277,40092,2,0,L|331:223,1,53.3333333333333,6|0,0:0|0:0,0:0:0:0:
440,164,40359,1,12,0:0:0:0:
344,116,40492,1,2,0:0:0:0:
432,56,40625,1,4,0:0:0:0:
356,212,40759,6,0,P|320:216|284:204,1,53.3333333333333,12|2,0:0|0:0,0:0:0:0:
284,204,40959,1,2,0:0:0:0:
284,204,41025,1,2,0:0:0:0:
344,116,41159,2,0,P|388:116|412:124,1,53.3333333333333,12|2,0:0|0:0,0:0:0:0:
416,128,41359,1,2,0:0:0:0:
416,128,41425,1,2,0:0:0:0:
264,128,41559,2,0,P|224:128|200:116,1,53.3333333333333,12|2,0:0|0:0,0:0:0:0:
132,52,41825,1,2,0:0:0:0:
116,184,41959,2,0,B|124:216|148:232|148:232|152:256|152:256|176:276|180:304,1,133.333333333333,6|0,0:0|2:0,0:0:0:0:
248,340,42359,6,0,B|304:340|304:340|344:320|344:320|416:320,1,160,6|2,0:0|0:0,0:0:0:0:
508,196,42809,2,0,B|472:188|472:188|412:196,1,80,2|2,0:0|0:0,0:0:0:0:
284,260,43109,1,2,0:0:0:0:
316,104,43259,2,0,B|316:68|316:68|296:16,1,80,8|0,0:0|0:0,0:0:0:0:
116,112,43559,5,6,0:0:0:0:
144,312,43709,1,2,0:0:0:0:
156,324,44009,1,2,0:0:0:0:
216,176,44159,1,2,0:0:0:0:
216,176,44234,1,2,0:0:0:0:
216,176,44309,1,2,0:0:0:0:
56,192,44459,1,2,0:0:0:0:
56,192,44534,1,2,0:0:0:0:
56,192,44609,1,2,0:0:0:0:
248,256,44759,6,0,B|288:260|288:260|336:248,1,80,6|0,0:0|0:0,0:0:0:0:
464,172,45059,1,2,0:0:0:0:
328,84,45209,1,2,0:0:0:0:
448,192,45359,1,2,0:0:0:0:
480,36,45509,1,0,0:0:0:0:
376,160,45659,2,0,P|372:208|400:256,1,80,8|2,0:0|0:0,0:0:0:0:
500,368,45959,5,6,0:0:0:0:
292,248,46109,2,0,L|188:252,1,80,2|0,0:0|0:0,0:0:0:0:
84,348,46409,1,2,0:0:0:0:
96,188,46559,1,2,0:0:0:0:
100,172,46634,1,2,0:0:0:0:
104,156,46709,1,2,0:0:0:0:
232,60,46859,1,2,0:0:0:0:
236,76,46934,1,2,0:0:0:0:
240,92,47009,1,2,0:0:0:0:
188,316,47159,6,0,P|148:276|200:184,1,160,12|2,0:0|0:0,0:0:0:0:
324,112,47609,2,0,L|352:24,2,80,2|2|2,0:0|0:0|0:0,0:0:0:0:
364,268,48059,2,0,P|404:280|468:252,1,80,8|2,0:0|0:0,0:0:0:0:
324,112,48359,5,12,0:0:0:0:
248,296,48509,1,8,0:0:0:0:
260,320,48809,1,2,0:0:0:0:
260,320,48884,1,2,0:0:0:0:
260,320,48959,2,0,L|168:320,1,80,8|2,0:0|0:0,0:0:0:0:
60,216,49259,1,8,0:0:0:0:
48,200,49334,1,8,0:0:0:0:
36,184,49409,1,8,0:0:0:0:
200,72,49559,6,0,L|204:116,1,40,12|0,0:0|0:0,0:0:0:0:
56,72,49709,1,2,0:0:0:0:
56,72,49784,1,2,0:0:0:0:
56,72,49859,2,0,L|59:32,1,40,8|0,0:0|0:0,0:0:0:0:
276,56,50009,2,0,L|279:95,1,40,8|0,0:0|0:0,0:0:0:0:
128,108,50159,1,2,0:0:0:0:
128,108,50234,1,2,0:0:0:0:
128,108,50309,2,0,L|131:68,1,40,12|0,0:0|0:0,0:0:0:0:
256,168,50459,1,2,0:0:0:0:
256,168,50534,1,2,0:0:0:0:
256,168,50609,2,0,L|259:207,1,40,8|0,0:0|0:0,0:0:0:0:
124,276,50759,6,0,P|164:272|220:284,1,80,10|0,0:0|0:0,0:0:0:0:
272,320,50984,1,2,0:0:0:0:
272,320,51059,6,0,B|304:324|304:324|324:318,2,53.3333333333333,2|2|2,0:0|0:0|0:0,0:0:0:0:
352,240,51359,2,0,B|372:234|372:234|404:238,2,53.3333333333333,2|2|2,0:0|0:0|0:0,0:0:0:0:
416,328,51659,6,0,P|460:312|488:268,1,80,6|0,0:0|0:0,0:0:0:0:
412,144,51959,1,8,0:0:0:0:
404,92,52059,1,2,0:0:0:0:
432,48,52159,1,2,0:0:0:0:
484,40,52259,2,0,B|432:24|432:24|364:40,1,106.666666666667,2|0,0:0|0:0,0:0:0:0:
292,132,52559,2,0,B|241:143|241:143|189:127,1,106.666666666667,8|0,0:0|0:0,0:0:0:0:
72,28,52859,6,0,B|68:64|68:64|72:92|72:92|64:140,1,106.666666666667,6|0,0:0|0:0,0:0:0:0:
44,268,53159,1,2,0:0:0:0:
92,248,53259,1,2,0:0:0:0:
136,280,53359,1,2,0:0:0:0:
180,252,53459,2,0,P|224:244|288:268,1,106.666666666667,2|2,0:0|0:0,0:0:0:0:
380,356,53759,1,8,0:0:0:0:
416,316,53859,1,8,0:0:0:0:
424,264,53959,1,8,0:0:0:0:
404,212,54059,6,0,P|392:160|408:92,1,106.666666666667,6|0,0:0|0:0,0:0:0:0:
492,12,54359,1,2,0:0:0:0:
444,36,54459,1,2,0:0:0:0:
392,36,54559,1,2,0:0:0:0:
344,16,54659,2,0,P|296:4|236:24,1,106.666666666667,2|0,0:0|0:0,0:0:0:0:
288,184,54959,2,0,P|308:132|296:72,1,106.666666666667,12|0,0:0|0:0,0:0:0:0:
172,116,55259,5,2,0:0:0:0:
160,168,55359,1,2,0:0:0:0:
188,212,55459,1,2,0:0:0:0:
176,264,55559,2,0,B|124:280|124:280|60:268,1,106.666666666667,12|0,0:0|0:0,0:0:0:0:
120,104,55859,5,2,0:0:0:0:
172,116,55959,1,2,0:0:0:0:
216,88,56059,1,2,0:0:0:0:
268,100,56159,2,0,B|284:152|284:152|272:216,1,106.666666666667,12|0,0:0|0:0,0:0:0:0:
220,320,56459,6,0,B|260:312|260:312|308:328|308:328|364:316,1,133.333333333333,6|0,0:0|0:0,0:0:0:0:
376,324,56759,2,0,L|380:248,1,53.3333333333333,2|2,0:0|0:0,0:0:0:0:
252,48,57059,6,0,B|212:40|212:40|164:56|164:56|108:44,1,133.333333333333,12|0,0:0|0:0,0:0:0:0:
100,36,57359,2,0,L|104:108,1,53.3333333333333,2|2,0:0|0:0,0:0:0:0:
300,232,57659,6,0,B|308:184|308:184|288:120,1,106.666666666667,6|2,0:0|0:0,0:0:0:0:
164,232,57959,1,2,0:0:0:0:
152,256,58059,1,2,0:0:0:0:
164,272,58159,1,2,0:0:0:0:
156,296,58259,2,0,B|151:371|151:371|160:344|208:320,1,133.333333333333,12|0,0:0|0:0,0:0:0:0:
276,312,58559,2,0,P|288:260|280:208,1,106.666666666667,2|2,0:0|0:0,0:0:0:0:
168,104,58859,6,0,L|164:44,1,40,12|0,0:0|0:0,0:0:0:0:
312,80,59009,1,2,0:0:0:0:
312,80,59084,1,2,0:0:0:0:
312,80,59159,2,0,L|316:128,1,40,8|0,0:0|0:0,0:0:0:0:
212,204,59309,2,0,L|208:152,1,40,8|0,0:0|0:0,0:0:0:0:
388,104,59459,5,2,0:0:0:0:
388,104,59534,1,2,0:0:0:0:
388,104,59609,2,0,L|392:152,1,40,8|0,0:0|0:0,0:0:0:0:
239,79,59759,1,2,0:0:0:0:
239,79,59834,1,2,0:0:0:0:
239,79,59909,2,0,L|235:31,1,40,8|0,0:0|0:0,0:0:0:0:
452,44,60059,2,0,L|460:104,1,40,8|0,0:0|0:0,0:0:0:0:
328,236,60209,5,2,0:0:0:0:
328,236,60284,1,2,0:0:0:0:
328,236,60359,2,0,L|324:188,1,40,8|0,0:0|0:0,0:0:0:0:
476,172,60509,1,2,0:0:0:0:
476,172,60584,1,2,0:0:0:0:
476,172,60659,2,0,L|472:220,1,40,8|0,0:0|0:0,0:0:0:0:
260,288,60809,2,0,L|256:248,1,40,8|0,0:0|0:0,0:0:0:0:
440,332,60959,5,2,0:0:0:0:
440,332,61034,1,2,0:0:0:0:
440,332,61109,1,8,0:0:0:0:
400,335,61184,1,8,0:0:0:0:
360,338,61259,1,8,0:0:0:0:
320,341,61334,1,8,0:0:0:0:
272,372,61409,1,2,0:0:0:0:
232,367,61484,1,2,0:0:0:0:
192,362,61559,1,2,0:0:0:0:
152,357,61634,1,2,0:0:0:0:
108,324,61709,6,0,B|96:276|96:276|100:200,2,106.666666666667,2|2|2,0:0|0:0|0:0,0:0:0:0:
320,341,62309,5,6,0:0:0:0:
248,264,62462,1,0,0:0:0:0:
352,236,62616,1,0,0:0:0:0:
256,284,62770,1,2,0:0:0:0:
260,176,62924,1,2,0:0:0:0:
360,216,63078,1,2,0:0:0:0:
168,228,63232,2,0,B|160:176|160:176|176:104,1,106.666666666667,12|0,0:0|0:0,0:0:0:0:
348,116,63693,1,2,0:0:0:0:
260,176,63847,1,2,0:0:0:0:
256,68,64001,1,2,0:0:0:0:
432,112,64155,6,0,B|436:152|436:152|428:180|428:180|432:228,1,106.666666666667,6|0,0:0|0:0,0:0:0:0:
440,352,64616,1,0,0:0:0:0:
352,292,64770,1,2,0:0:0:0:
256,340,64924,1,2,0:0:0:0:
172,276,65078,2,0,B|168:248|168:248|172:200,2,53.3333333333333,8|2|2,0:0|0:0|0:0,0:0:0:0:
264,224,65539,1,8,0:0:0:0:
256,340,65693,1,8,0:0:0:0:
256,340,65770,1,8,0:0:0:0:
256,340,65847,1,8,0:0:0:0:
352,292,66001,5,2,0:0:0:0:
364,184,66155,1,2,0:0:0:0:
280,116,66309,1,2,0:0:0:0:
176,128,66462,2,0,L|184:64,1,53.3333333333333,12|0,0:0|0:0,0:0:0:0:
272,16,66770,1,2,0:0:0:0:
252,220,66924,2,0,L|248:268,2,26.6666666666667,2|2|2,0:0|0:0|0:0,0:0:0:0:
280,116,67232,1,2,0:0:0:0:
172,248,67385,2,0,L|168:296,2,26.6666666666667,2|2|2,0:0|0:0|0:0,0:0:0:0:
176,128,67693,1,2,0:0:0:0:
48,244,67847,6,0,P|40:276|48:312,1,53.3333333333333,10|0,0:0|0:0,0:0:0:0:
128,364,68155,1,2,0:0:0:0:
181,179,68309,2,0,P|182:152|175:127,1,53.3333333333333,2|0,0:0|0:0,0:0:0:0:
96,56,68616,1,2,0:0:0:0:
148,256,68770,6,0,P|196:264|232:244,1,80,10|2,0:0|0:0,0:0:0:0:
260,212,69078,1,8,0:0:0:0:
324,296,69232,1,2,0:0:0:0:
364,196,69385,1,2,0:0:0:0:
424,284,69539,1,2,0:0:0:0:
396,96,69693,6,0,B|360:96|360:96|332:108|332:108|288:108,1,106.666666666667,6|2,0:0|0:0,0:0:0:0:
184,88,70155,2,0,P|132:92|88:152,1,106.666666666667,8|2,0:0|0:0,0:0:0:0:
172,268,70616,2,0,P|188:224|156:156,1,106.666666666667,2|2,0:0|0:0,0:0:0:0:
16,188,71078,2,0,P|56:224|116:216,1,106.666666666667,8|2,0:0|0:0,0:0:0:0:
248,148,71539,6,0,P|272:144|304:148,1,53.3333333333333,6|2,0:0|0:0,0:0:0:0:
420,256,71847,2,0,P|396:260|364:256,1,53.3333333333333,8|0,0:0|0:0,0:0:0:0:
272,120,72155,2,0,P|296:122|326:134,1,53.3333333333333,2|0,0:0|0:0,0:0:0:0:
396,288,72463,2,0,P|371:285|341:273,1,53.3333333333333,2|0,0:0|0:0,0:0:0:0:
164,88,72770,1,8,0:0:0:0:
428,56,73078,1,8,0:0:0:0:
272,272,73385,6,0,P|208:284|148:260,1,106.666666666667,6|0,0:0|0:0,0:0:0:0:
84,204,73847,1,8,0:0:0:0:
184,168,74001,1,2,0:0:0:0:
169,273,74155,1,2,0:0:0:0:
0,200,74309,2,0,L|-4:124,1,53.3333333333333,6|0,0:0|0:0,0:0:0:0:
184,168,74616,2,0,L|186:114,1,53.3333333333333,2|0,0:0|0:0,0:0:0:0:
60,56,74924,2,0,L|60:128,1,53.3333333333333,12|0,0:0|0:0,0:0:0:0:
169,273,75232,6,0,L|168:316,5,26.6666666666667,2|2|2|2|2|2,0:0|0:0|0:0|0:0|0:0|0:0,0:0:0:0:
256,248,75693,2,0,L|257:205,5,26.6666666666667,2|2|2|2|2|2,0:0|0:0|0:0|0:0|0:0|0:0,0:0:0:0:
320,312,76155,2,0,P|352:316|400:276,1,80,0|2,0:0|0:0,0:0:0:0:
404,268,76462,2,0,L|408:220,1,26.6666666666667,2|2,0:0|0:0,0:0:0:0:
408,160,76616,1,2,0:0:0:0:
304,144,76770,1,8,0:0:0:0:
368,60,76924,1,8,0:0:0:0:
340,244,77078,6,0,P|284:248|248:228,1,80,6|0,0:0|0:0,0:0:0:0:
164,112,77378,1,8,0:0:0:0:
104,260,77528,1,2,0:0:0:0:
104,260,77603,1,2,0:0:0:0:
104,260,77678,2,0,P|48:260|4:240,1,80,10|2,0:0|0:0,0:0:0:0:
164,112,77978,2,0,P|220:112|264:132,1,80
372,276,78278,6,0,P|428:288|472:272,1,80,0|2,0:0|0:0,0:0:0:0:
392,92,78578,2,0,P|352:87|314:99,1,80,8|0,0:0|0:0,0:0:0:0:
232,284,78878,2,0,P|196:288|152:272,1,80,2|0,0:0|0:0,0:0:0:0:
64,80,79178,5,8,0:0:0:0:
56,72,79278,5,2,0:0:0:0:
64,64,79378,5,2,0:0:0:0:
72,72,79478,6,0,B|84:100|72:132|72:132|80:160|80:160|64:196|76:240,1,167.999994873047,2|2,0:0|0:0,0:0:0:0:
144,204,80003,1,2,0:0:0:0:
144,204,80078,2,0,P|184:196|232:208,1,80,6|2,0:0|0:0,0:0:0:0:
348,304,80378,1,8,0:0:0:0:
384,148,80528,1,2,0:0:0:0:
384,148,80603,1,2,0:0:0:0:
384,148,80678,2,0,P|380:96|356:48,1,80,2|8,0:0|0:0,0:0:0:0:
221,203,80978,2,0,P|208:240|207:280,1,80,0|2,0:0|0:0,0:0:0:0:
397,225,81278,6,0,P|395:185|383:147,1,80,2|2,0:0|0:0,0:0:0:0:
224,28,81578,2,0,P|211:65|210:105,1,80,2|2,0:0|0:0,0:0:0:0:
468,168,81878,2,0,P|466:128|454:90,1,80,2|2,0:0|0:0,0:0:0:0:
220,212,82178,5,8,0:0:0:0:
219,223,82278,5,2,0:0:0:0:
208,223,82378,5,2,0:0:0:0:
208,212,82478,6,0,B|254:211|254:211|288:224|288:224|340:200,2,120,8|8|8,0:0|0:0|0:0,0:0:0:0:
204,96,83078,6,0,L|200:168,1,40,8|0,0:0|0:0,0:0:0:0:
268,184,83828,6,0,L|264:256,1,40,8|0,0:0|0:0,0:0:0:0:
340,264,84278,6,0,L|336:336,1,40,8|0,0:0|0:0,0:0:0:0:
348,128,84953,6,0,L|344:200,1,40,8|0,0:0|0:0,0:0:0:0:
144,64,85328,5,2,0:0:0:0:
144,64,85403,1,2,0:0:0:0:
144,64,85478,1,12,0:0:0:0:
132,224,85628,1,2,0:0:0:0:
224,44,85778,1,8,0:0:0:0:
212,204,85928,1,2,0:0:0:0:
300,24,86078,1,8,0:0:0:0:
292,184,86228,1,2,0:0:0:0:
96,140,86378,1,8,0:0:0:0:
256,116,86528,1,2,0:0:0:0:
204,308,86678,5,2,0:0:0:0:
156,328,86778,5,2,0:0:0:0:
104,324,86878,5,2,0:0:0:0:
64,292,86978,6,0,L|56:188,1,80,12|2,0:0|0:0,0:0:0:0:
256,116,87278,2,0,L|249:195,1,80,8|2,0:0|0:0,0:0:0:0:
8,128,87578,2,0,L|0:24,1,80,8|2,0:0|0:0,0:0:0:0:
224,44,87878,5,8,0:0:0:0:
256,192,87953,12,0,88928,0:0:0:0:
324,192,89078,6,0,B|340:240|340:240|336:300,1,95.9999970703126,6|0,0:0|0:0,0:0:0:0:
120,188,89378,1,0,0:0:0:0:
120,188,89453,1,0,0:0:0:0:
120,188,89528,2,0,B|116:142|116:142|132:94,1,95.9999970703126
428,100,89828,1,0,0:0:0:0:
414,145,89903,1,0,0:0:0:0:
383,181,89978,1,0,0:0:0:0:
339,200,90053,1,0,0:0:0:0:
291,200,90128,1,0,0:0:0:0:
248,180,90203,1,0,0:0:0:0:
218,143,90278,6,0,L|204:40,1,95.9999970703126
428,100,90578,1,0,0:0:0:0:
432,132,90653,1,0,0:0:0:0:
436,164,90728,1,0,0:0:0:0:
233,289,90878,1,0,0:0:0:0:
192,265,90953,1,0,0:0:0:0:
172,222,91028,1,0,0:0:0:0:
182,175,91103,1,0,0:0:0:0:
212,140,91178,1,0,0:0:0:0:
256,124,91253,1,0,0:0:0:0:
276,81,91328,1,0,0:0:0:0:
266,35,91403,1,0,0:0:0:0:
232,3,91478,6,0,L|128:8,1,95.9999970703126
77,217,91778,1,0,0:0:0:0:
77,217,91853,1,0,0:0:0:0:
77,217,91928,2,0,L|181:222,1,95.9999970703126
400,160,92228,1,0,0:0:0:0:
444,176,92303,1,0,0:0:0:0:
469,216,92378,1,0,0:0:0:0:
465,263,92453,1,0,0:0:0:0:
433,298,92528,1,0,0:0:0:0:
248,144,92678,6,0,B|244:96|244:96|256:40,1,95.9999970703126
484,108,92978,1,0,0:0:0:0:
484,108,93053,1,0,0:0:0:0:
484,108,93128,1,0,0:0:0:0:
272,268,93278,1,0,0:0:0:0:
264,272,93353,1,0,0:0:0:0:
256,276,93428,1,0,0:0:0:0:
276,232,93503,1,0,0:0:0:0:
272,184,93578,1,0,0:0:0:0:
240,148,93653,1,0,0:0:0:0:
192,136,93728,1,0,0:0:0:0:
148,152,93803,1,0,0:0:0:0:
102,167,93878,5,0,0:0:0:0:
57,152,93953,1,0,0:0:0:0:
29,114,94028,1,0,0:0:0:0:
25,67,94103,1,0,0:0:0:0:
49,26,94178,1,0,0:0:0:0:
92,5,94253,1,0,0:0:0:0:
139,12,94328,1,0,0:0:0:0:
174,43,94403,1,0,0:0:0:0:
185,89,94478,1,0,0:0:0:0:
188,136,94553,1,0,0:0:0:0:
218,173,94628,1,0,0:0:0:0:
263,186,94703,1,0,0:0:0:0:
308,170,94778,1,0,0:0:0:0:
335,132,94853,1,0,0:0:0:0:
335,85,94928,1,0,0:0:0:0:
308,46,95003,1,0,0:0:0:0:
263,30,95078,5,0,0:0:0:0:
270,77,95153,1,0,0:0:0:0:
300,114,95228,1,0,0:0:0:0:
345,130,95303,1,0,0:0:0:0:
391,119,95378,1,0,0:0:0:0:
438,114,95453,1,0,0:0:0:0:
480,137,95528,1,0,0:0:0:0:
501,179,95603,1,0,0:0:0:0:
495,226,95678,1,0,0:0:0:0:
466,264,95753,1,0,0:0:0:0:
422,281,95828,1,0,0:0:0:0:
376,270,95903,1,0,0:0:0:0:
343,236,95978,1,0,0:0:0:0:
334,190,96053,1,0,0:0:0:0:
352,146,96128,1,0,0:0:0:0:
391,119,96203,1,0,0:0:0:0:
438,114,96278,6,0,L|504:116,1,47.9999985351563
316,76,96428,2,0,L|256:76,1,47.9999985351563
429,191,96578,1,0,0:0:0:0:
439,237,96653,1,0,0:0:0:0:
422,281,96728,1,0,0:0:0:0:
383,308,96803,1,0,0:0:0:0:
336,309,96878,1,0,0:0:0:0:
296,283,96953,1,0,0:0:0:0:
277,240,97028,1,0,0:0:0:0:
258,196,97103,1,0,0:0:0:0:
218,171,97178,1,0,0:0:0:0:
170,172,97253,1,0,0:0:0:0:
132,199,97328,1,0,0:0:0:0:
114,243,97403,1,0,0:0:0:0:
125,289,97478,6,0,B|77:303|77:303|17:291,1,95.9999970703126
228,96,97778,2,0,B|276:82|276:82|336:94,1,95.9999970703126
187,299,98078,1,0,0:0:0:0:
187,299,98153,1,0,0:0:0:0:
187,299,98228,2,0,L|179:235,1,47.9999985351563
396,272,98378,1,0,0:0:0:0:
369,311,98453,1,0,0:0:0:0:
324,324,98528,1,0,0:0:0:0:
281,307,98603,1,0,0:0:0:0:
258,266,98678,6,0,L|256:148,1,95.9999970703126
456,48,98978,1,0,0:0:0:0:
456,48,99053,1,0,0:0:0:0:
456,48,99128,2,0,L|454:143,1,95.9999970703126
184,184,99428,1,0,0:0:0:0:
137,192,99503,1,0,0:0:0:0:
99,165,99578,1,0,0:0:0:0:
91,119,99653,1,0,0:0:0:0:
117,81,99728,2,0,L|172:64,1,47.9999985351563
328,144,99878,6,0,P|332:196|316:248,1,95.9999970703126
100,344,100178,1,0,0:0:0:0:
100,344,100253,1,0,0:0:0:0:
100,344,100328,2,0,P|88:297|92:250,1,95.9999970703126
235,52,100628,1,0,0:0:0:0:
240,60,100703,1,0,0:0:0:0:
244,68,100778,1,0,0:0:0:0:
263,111,100853,1,0,0:0:0:0:
254,157,100928,1,0,0:0:0:0:
220,190,101003,1,0,0:0:0:0:
173,197,101078,6,0,L|64:180,1,95.9999970703126
324,64,101378,1,0,0:0:0:0:
336,96,101453,1,0,0:0:0:0:
348,128,101528,1,0,0:0:0:0:
156,272,101678,2,0,L|46:254,1,95.9999970703126
304,204,101978,1,0,0:0:0:0:
313,238,102053,1,0,0:0:0:0:
323,273,102128,1,0,0:0:0:0:
333,307,102203,1,0,0:0:0:0:
343,342,102278,5,0,0:0:0:0:
400,160,102428,1,0,0:0:0:0:
212,192,102578,1,0,0:0:0:0:
212,192,102653,1,0,0:0:0:0:
212,192,102728,1,0,0:0:0:0:
436,276,102878,1,0,0:0:0:0:
324,120,103028,1,0,0:0:0:0:
293,83,103103,1,0,0:0:0:0:
251,61,103178,1,0,0:0:0:0:
203,56,103253,1,0,0:0:0:0:
157,70,103328,1,0,0:0:0:0:
120,100,103403,1,0,0:0:0:0:
97,141,103478,6,0,L|88:280,1,95.9999970703126
324,296,103778,2,0,L|324:240,1,47.9999985351563
188,204,103928,1,0,0:0:0:0:
396,344,104078,2,0,L|396:288,1,47.9999985351563
252,252,104228,1,0,0:0:0:0:
464,376,104378,1,0,0:0:0:0:
380,152,104528,1,0,0:0:0:0:
208,324,104678,6,0,B|260:332|260:332|316:316,1,95.9999970703126
428,84,104978,1,0,0:0:0:0:
428,84,105053,1,0,0:0:0:0:
428,84,105128,2,0,B|376:76|376:76|320:92,1,95.9999970703126
268,160,105353,1,0,0:0:0:0:
268,160,105428,2,0,B|220:168|220:168|152:152,1,95.9999970703126
92,108,105653,1,0,0:0:0:0:
92,108,105728,1,0,0:0:0:0:
16,316,105878,5,0,0:0:0:0:
44,353,105953,1,0,0:0:0:0:
89,368,106028,1,0,0:0:0:0:
135,356,106103,1,0,0:0:0:0:
165,320,106178,1,0,0:0:0:0:
195,284,106253,1,0,0:0:0:0:
241,271,106328,1,0,0:0:0:0:
286,286,106403,1,0,0:0:0:0:
314,324,106478,1,0,0:0:0:0:
303,277,106553,1,0,0:0:0:0:
319,233,106628,1,0,0:0:0:0:
357,204,106703,1,0,0:0:0:0:
404,201,106778,1,0,0:0:0:0:
436,225,106853,1,0,0:0:0:0:
460,268,106928,1,0,0:0:0:0:
456,316,107003,1,0,0:0:0:0:
424,352,107078,6,0,B|392:352|392:352|352:340,2,63.9999980468751
319,233,107378,2,0,B|288:223|288:223|256:223,2,63.9999980468751
464,160,107678,1,0,0:0:0:0:
384,60,107878,1,0,0:0:0:0:
324,44,107978,1,0,0:0:0:0:
260,52,108078,1,0,0:0:0:0:
216,96,108178,1,0,0:0:0:0:
208,160,108278,6,0,B|144:172|144:172|68:148,1,133.333333333333
40,120,108578,2,0,L|28:44,1,53.3333333333333
296,136,108878,2,0,B|288:176|288:176|292:216|292:216|276:272,1,133.333333333333
264,316,109178,2,0,L|336:316,1,53.3333333333333
172,224,109478,6,0,P|116:240|84:324,1,133.333333333333
96,352,109778,2,0,L|160:348,1,53.3333333333333
248,96,110078,5,0,0:0:0:0:
416,104,110278,1,0,0:0:0:0:
416,104,110378,2,0,B|448:104|448:104|488:112,2,53.3333333333333
268,176,110678,6,0,P|228:176|200:168,2,53.3333333333333
376,168,110978,2,0,P|384:212|376:264,1,80
216,360,111278,1,0,0:0:0:0:
176,232,111478,1,0,0:0:0:0:
176,232,111578,2,0,L|112:224,2,53.3333333333333
380,246,111878,6,0,P|416:262|432:290,2,53.3333333333333
288,236,112178,1,0,0:0:0:0:
268,188,112278,1,0,0:0:0:0:
276,136,112378,1,0,0:0:0:0:
316,100,112478,6,0,L|352:100,2,26.6666666666667
280,60,112678,1,0,0:0:0:0:
228,60,112778,1,0,0:0:0:0:
184,88,112878,1,0,0:0:0:0:
172,140,112978,1,0,0:0:0:0:
192,188,113078,6,0,B|124:204|124:204|52:184,1,133.333333333333
28,152,113378,2,0,L|28:224,1,53.3333333333333
288,288,113678,2,0,B|296:244|296:244|288:208|288:208|300:156,1,133.333333333333
316,108,113978,2,0,P|356:112|376:120,1,53.3333333333333
344,344,114278,6,0,P|304:368|224:328,1,133.333333333333
200,296,114578,2,0,L|144:296,1,53.3333333333333
80,92,114878,1,0,0:0:0:0:
316,108,115078,1,0,0:0:0:0:
316,108,115178,2,0,P|340:140|336:216,1,106.666666666667
236,180,115478,5,0,0:0:0:0:
188,160,115578,1,0,0:0:0:0:
136,172,115678,1,0,0:0:0:0:
88,148,115778,2,0,L|24:136,2,53.3333333333333
180,240,116078,2,0,L|176:308,1,53.3333333333333
56,312,116278,2,0,L|52:258,1,53.3333333333333
204,252,116478,2,0,L|200:320,1,53.3333333333333
88,148,116678,5,0,0:0:0:0:
104,96,116778,1,0,0:0:0:0:
152,72,116878,1,0,0:0:0:0:
204,84,116978,2,0,P|236:92|268:84,2,53.3333333333333
296,12,117278,5,0,0:0:0:0:
336,44,117378,1,0,0:0:0:0:
348,96,117478,1,0,0:0:0:0:
328,144,117578,1,0,0:0:0:0:
304,192,117678,1,0,0:0:0:0:
312,244,117778,1,0,0:0:0:0:
352,276,117878,6,0,L|208:284,1,133.333333333333
172,304,118178,2,0,L|152:232,1,53.3333333333333
420,216,118478,2,0,P|444:264|404:348,1,133.333333333333
380,364,118778,2,0,L|448:364,1,53.3333333333333
412,88,119078,5,0,0:0:0:0:
104,312,119678,5,0,0:0:0:0:
184,60,120278,6,0,L|236:84,1,40
304,120,120967,5,0,0:0:0:0:
304,120,121484,6,0,B|312:172|312:172|300:216|300:216|316:288,1,160,0|0,0:0|2:0,0:0:0:0:
428,220,121959,2,0,L|388:220,1,40
128,180,122864,6,0,L|116:348,2,160
176,52,123864,5,0,0:0:0:0:
248,40,123964,1,0,0:0:0:0:
336,144,124864,5,0,0:0:0:0:
268,124,124964,1,0,0:0:0:0:
164,204,126264,5,0,0:0:0:0:
240,64,126414,1,0,0:0:0:0:
336,192,126564,1,0,0:0:0:0:
180,236,126714,1,0,0:0:0:0:
248,92,126864,1,0,0:0:0:0:
268,252,127014,1,0,0:0:0:0:
328,104,127164,1,0,0:0:0:0:
424,232,127314,1,0,0:0:0:0:
208,160,127464,6,0,P|176:120|168:80,1,80
416,104,127764,2,0,P|403:141|376:171,1,80
164,280,128064,5,0,0:0:0:0:
296,188,128214,1,0,0:0:0:0:
332,344,128364,1,0,0:0:0:0:
176,312,128514,1,0,0:0:0:0:
272,184,128664,1,0,0:0:0:0:
256,344,128814,1,0,0:0:0:0:
132,244,128964,1,0,0:0:0:0:
244,356,129114,1,0,0:0:0:0:
148,228,129264,1,0,0:0:0:0:
76,372,129414,1,0,0:0:0:0:
236,256,129564,1,0,0:0:0:0:
40,264,129714,1,0,0:0:0:0:
40,264,129789,1,0,0:0:0:0:
40,264,129864,1,0,0:0:0:0:
164,364,130014,1,0,0:0:0:0:
196,136,130164,6,0,P|140:124|88:136,1,80
24,52,130389,1,0,0:0:0:0:
24,52,130464,2,0,P|84:60|116:52,1,80
260,20,130764,1,0,0:0:0:0:
292,176,130914,1,0,0:0:0:0:
184,56,131064,1,0,0:0:0:0:
344,36,131214,1,0,0:0:0:0:
216,132,131364,1,0,0:0:0:0:
376,148,131514,1,0,0:0:0:0:
276,272,131664,1,0,0:0:0:0:
296,104,131814,1,0,0:0:0:0:
388,236,131964,1,0,0:0:0:0:
232,208,132114,1,0,0:0:0:0:
448,108,132264,5,0,0:0:0:0:
396,260,132414,1,0,0:0:0:0:
296,136,132564,2,0,L|312:24,1,80
464,96,132864,1,0,0:0:0:0:
332,208,133014,1,0,0:0:0:0:
332,208,133089,1,0,0:0:0:0:
332,208,133164,2,0,P|288:216|240:192,1,80
120,52,133464,5,0,0:0:0:0:
212,216,133614,1,0,0:0:0:0:
212,216,133689,1,0,0:0:0:0:
212,216,133764,1,0,0:0:0:0:
68,136,133914,1,0,0:0:0:0:
176,304,134064,1,0,0:0:0:0:
164,144,134214,1,0,0:0:0:0:
96,289,134364,1,0,0:0:0:0:
256,284,134514,1,0,0:0:0:0:
120,52,134664,6,0,B|92:48|92:48|44:52,2,53.3333333333333
236,56,134964,2,0,B|264:60|264:60|312:56,2,53.3333333333333
164,144,135264,1,0,0:0:0:0:
184,184,135364,1,0,0:0:0:0:
224,204,135464,1,0,0:0:0:0:
304,196,135564,6,0,B|332:200|332:200|360:220,2,53.3333333333333
264,288,135864,2,0,B|280:310|280:310|286:344,2,53.3333333333333
224,204,136164,5,0,0:0:0:0:
232,152,136264,1,0,0:0:0:0:
272,116,136364,1,0,0:0:0:0:
324,112,136464,2,0,L|380:112,2,53.3333333333333
208,76,136764,1,0,0:0:0:0:
156,60,136864,1,0,0:0:0:0:
108,80,136964,1,0,0:0:0:0:
56,144,137064,2,0,B|24:144|24:144|-4:140,2,53.3333333333333
176,220,137364,2,0,B|208:220|208:220|236:216,2,53.3333333333333
52,280,137664,5,0,0:0:0:0:
96,328,137764,1,0,0:0:0:0:
160,336,137864,1,0,0:0:0:0:
216,308,137964,2,0,P|248:304|276:308,2,53.3333333333333
336,352,138264,1,0,0:0:0:0:
364,296,138364,1,0,0:0:0:0:
352,232,138464,1,0,0:0:0:0:
296,156,138564,2,0,B|292:132|292:132|296:96,2,53.3333333333333
400,88,138864,2,0,B|404:64|404:64|400:35,2,53.3333333333333
264,32,139164,5,0,0:0:0:0:
200,60,139264,1,0,0:0:0:0:
192,128,139364,1,0,0:0:0:0:
216,192,139464,5,0,0:0:0:0:
232,260,139564,1,0,0:0:0:0:
200,320,139664,1,0,0:0:0:0:
136,344,139764,6,0,B|128:324|136:300|136:300|128:276|128:276|140:252|132:224,1,106.666666666667
80,120,140064,6,0,P|52:112|16:120,2,53.3333333333333
184,132,140364,2,0,P|212:140|248:132,2,53.3333333333333
99,252,140664,1,0,0:0:0:0:
135,276,140764,1,0,0:0:0:0:
179,272,140864,1,0,0:0:0:0:
248,232,140964,2,0,P|280:232|316:244,2,53.3333333333333
272,320,141264,2,0,P|294:342|328:359,2,53.3333333333333
376,280,141564,5,0,0:0:0:0:
388,228,141664,1,0,0:0:0:0:
372,176,141764,1,0,0:0:0:0:
332,140,141864,2,0,L|276:136,2,53.3333333333333
416,72,142164,1,0,0:0:0:0:
376,40,142264,1,0,0:0:0:0:
324,40,142364,1,0,0:0:0:0:
248,72,142464,2,0,L|184:72,2,53.3333333333333
164,144,142764,2,0,L|100:144,2,53.3333333333333
252,208,143064,5,0,0:0:0:0:
208,256,143164,1,0,0:0:0:0:
144,252,143264,1,0,0:0:0:0:
116,192,143364,5,0,0:0:0:0:
68,152,143464,1,0,0:0:0:0:
8,172,143564,1,0,0:0:0:0:
0,236,143664,5,0,0:0:0:0:
44,284,143764,1,0,0:0:0:0:
108,284,143864,1,0,0:0:0:0:
140,228,143964,5,0,0:0:0:0:
112,168,144064,1,0,0:0:0:0:
120,104,144164,1,0,0:0:0:0:
152,48,144264,5,0,0:0:0:0:
208,16,144364,1,0,0:0:0:0:
268,32,144464,1,0,0:0:0:0:
304,84,144564,5,0,0:0:0:0:
364,104,144664,1,0,0:0:0:0:
424,80,144764,1,0,0:0:0:0:
464,32,144864,5,0,0:0:0:0:
468,96,144964,1,0,0:0:0:0:
472,160,145064,1,0,0:0:0:0:
476,224,145164,5,0,0:0:0:0:
416,200,145264,1,0,0:0:0:0:
352,204,145364,1,0,0:0:0:0:
308,248,145464,6,0,P|280:252|240:240,1,60,0|0,2:0|2:0,2:0:0:0:
180,204,145764,2,0,P|152:200|120:204,1,53.3333333333333,0|0,2:0|2:0,2:0:0:0:
140,280,146064,2,0,P|172:288|200:284,1,53.3333333333333,0|0,2:0|2:0,2:0:0:0:
276,176,146364,1,0,2:0:0:0:
156,76,146564,5,0,2:0:0:0:
152,80,146664,2,0,L|216:80,1,53.3333333333333,0|0,2:0|2:0,2:0:0:0:
284,80,146964,1,0,2:0:0:0:
152,168,147164,5,0,2:0:0:0:
424,160,147464,5,0,2:0:0:0:
152,168,147864,6,0,L|276:152,1,120,0|0,2:0|2:0,2:0:0:0:
408,236,148325,6,0,L|272:228,1,120,0|0,2:0|2:0,2:0:0:0:
140,92,148759,6,0,L|264:76,1,120,0|0,2:0|2:0,2:0:0:0:
424,160,149220,5,0,2:0:0:0:
316,312,149566,5,0,2:0:0:0:
316,312,149682,2,0,P|252:320|204:284,1,120,0|0,2:0|2:0,2:0:0:0:
56,140,150253,5,0,0:0:0:0:
88,125,150353,1,0,0:0:0:0:
123,126,150453,1,0,0:0:0:0:
155,141,150553,5,0,0:0:0:0:
187,163,150653,1,0,0:0:0:0:
226,167,150753,1,0,0:0:0:0:
262,150,150853,5,0,0:0:0:0:
308,144,150953,1,0,0:0:0:0:
344,168,151053,1,0,0:0:0:0:
356,212,151153,5,0,0:0:0:0:
396,180,151253,1,0,0:0:0:0:
448,180,151353,1,0,0:0:0:0:
488,212,151453,5,0,0:0:0:0:
432,224,151553,1,0,0:0:0:0:
396,180,151653,1,0,0:0:0:0:
420,128,151753,5,0,0:0:0:0:
444,76,151853,1,0,0:0:0:0:
416,24,151953,1,0,0:0:0:0:
360,8,152053,5,0,0:0:0:0:
308,44,152153,1,0,0:0:0:0:
308,108,152253,1,0,0:0:0:0:
260,156,152353,5,0,0:0:0:0:
192,148,152453,1,0,0:0:0:0:
152,92,152553,1,0,0:0:0:0:
68,60,152653,5,0,0:0:0:0:
84,92,152753,1,0,0:0:0:0:
84,128,152853,1,0,0:0:0:0:
72,160,152953,5,0,0:0:0:0:
112,156,153053,1,0,0:0:0:0:
148,172,153153,1,0,0:0:0:0:
172,205,153253,5,0,0:0:0:0:
200,240,153353,1,0,0:0:0:0:
244,252,153453,1,0,0:0:0:0:
284,236,153553,5,0,0:0:0:0:
332,216,153653,1,0,0:0:0:0:
384,224,153753,1,0,0:0:0:0:
424,256,153853,5,0,0:0:0:0:
436,312,153953,1,0,0:0:0:0:
412,364,154053,1,0,0:0:0:0:
356,368,154153,5,0,0:0:0:0:
316,320,154253,1,0,0:0:0:0:
376,312,154353,1,0,0:0:0:0:
356,368,154453,5,0,0:0:0:0:
292,380,154553,1,0,0:0:0:0:
256,324,154653,1,0,0:0:0:0:
272,260,154753,5,0,0:0:0:0:
268,188,154853,1,0,0:0:0:0:
216,140,154953,1,0,0:0:0:0:
136,136,155053,5,0,0:0:0:0:
256,192,155149,12,0,159207,0:0:0:0:
196,208,159560,5,0,0:0:0:0:
248,256,159686,1,0,0:0:0:0:
320,244,159813,1,0,0:0:0:0:
368,296,159939,2,0,L|368:364,1,53.3333333333333
396,224,160192,1,0,0:0:0:0:
400,152,160319,6,0,L|404:84,1,53.3333333333333
464,192,160572,1,0,0:0:0:0:
460,264,160699,2,0,L|460:328,2,53.3333333333333
403,98,161078,5,0,0:0:0:0:
332,96,161203,1,0,0:0:0:0:
272,136,161328,1,0,0:0:0:0:
200,136,161453,1,0,0:0:0:0:
332,96,161828,5,0,0:0:0:0:
332,168,161953,1,0,0:0:0:0:
288,224,162078,1,0,0:0:0:0:
288,296,162203,1,0,0:0:0:0:
200,136,162578,6,0,B|200:108|200:108|204:68,1,53.3333333333333
332,96,162828,2,0,B|332:68|332:68|328:28,1,53.3333333333333
184,112,163078,2,0,B|184:84|184:84|188:44,1,53.3333333333333
408,96,163328,5,0,0:0:0:0:
432,164,163453,1,0,0:0:0:0:
388,220,163578,1,0,0:0:0:0:
364,152,163703,5,0,0:0:0:0:
432,164,163828,1,0,0:0:0:0:
456,232,163953,1,0,0:0:0:0:
344,276,164078,5,0,0:0:0:0:
272,276,164203,1,0,0:0:0:0:
216,320,164328,1,0,0:0:0:0:
144,320,164453,1,0,0:0:0:0:
228,76,164828,5,0,0:0:0:0:
228,147,164953,1,0,0:0:0:0:
272,204,165078,1,0,0:0:0:0:
272,276,165203,1,0,0:0:0:0:
36,244,165578,6,0,P|32:216|40:172,1,53.3333333333333
72,128,165828,1,0,0:0:0:0:
112,256,165953,2,0,P|114:282|110:308,1,53.3333333333333
40,324,166203,1,0,0:0:0:0:
120,180,166328,2,0,P|140:180|192:196,1,53.3333333333333
224,236,166578,1,0,0:0:0:0:
288,268,166703,2,0,B|312:268|312:268|332:276|332:276|352:276,2,53.3333333333333
200,120,167078,5,0,0:0:0:0:
272,108,167203,1,0,0:0:0:0:
344,96,167328,1,0,0:0:0:0:
276,120,167453,5,0,0:0:0:0:
55,104,167828,5,0,0:0:0:0:
127,112,167953,1,0,0:0:0:0:
200,120,168078,1,0,0:0:0:0:
132,100,168203,5,0,0:0:0:0:
356,192,168578,6,0,L|360:264,1,53.3333333333333
192,232,168828,2,0,L|188:304,1,53.3333333333333
376,212,169078,2,0,L|380:284,1,53.3333333333333
168,248,169328,1,0,0:0:0:0:
108,208,169453,1,0,0:0:0:0:
100,136,169578,1,0,0:0:0:0:
140,76,169703,2,0,B|176:76|176:76|204:88|204:88|264:88,1,106.666666666667
448,120,170078,5,0,0:0:0:0:
456,192,170203,1,0,0:0:0:0:
404,244,170328,1,0,0:0:0:0:
400,316,170453,1,0,0:0:0:0:
448,120,170828,5,0,0:0:0:0:
376,128,170953,1,0,0:0:0:0:
324,76,171078,1,0,0:0:0:0:
252,72,171203,1,0,0:0:0:0:
160,288,171578,6,0,B|188:292|188:292|228:288,1,53.3333333333333
276,252,171828,1,0,0:0:0:0:
140,212,171953,2,0,B|112:208|112:208|72:212,1,53.3333333333333
32,260,172203,1,0,0:0:0:0:
216,208,172328,6,0,L|220:152,1,53.3333333333333
264,100,172578,1,0,0:0:0:0:
108,140,172703,2,0,L|104:72,1,53.3333333333333
156,36,172953,1,0,0:0:0:0:
24,104,173078,5,0,0:0:0:0:
16,176,173203,1,0,0:0:0:0:
8,248,173328,1,0,0:0:0:0:
0,320,173453,1,0,0:0:0:0:
332,340,173828,5,0,0:0:0:0:
324,268,173953,1,0,0:0:0:0:
316,196,174078,1,0,0:0:0:0:
308,124,174203,2,0,L|292:60,2,53.3333333333333
256,244,174578,6,0,P|228:244|188:232,1,53.3333333333333
316,196,174828,2,0,P|344:196|384:208,1,53.3333333333333
232,216,175078,6,0,P|204:208|169:186,1,53.3333333333333
336,216,175328,2,0,P|363:223|398:245,1,53.3333333333333
400,248,175515,2,0,L|408:280,2,26.6666666666667
456,184,175703,6,0,B|456:156|444:128|444:128|452:108|452:108|440:84|440:40,1,133.333333333333
460,24,176078,5,0,0:0:0:0:
392,40,176203,1,0,0:0:0:0:
324,16,176328,1,0,0:0:0:0:
252,24,176453,1,0,0:0:0:0:
48,104,176828,5,0,0:0:0:0:
116,88,176953,1,0,0:0:0:0:
184,112,177078,1,0,0:0:0:0:
256,104,177203,2,0,L|328:104,1,53.3333333333333
360,152,177453,1,0,0:0:0:0:
348,224,177578,6,0,L|353:264,2,26.6666666666667
416,204,177828,1,0,0:0:0:0:
432,136,177953,2,0,L|432:80,2,53.3333333333333
448,272,178328,1,0,0:0:0:0:
448,272,178453,2,0,L|440:336,1,53.3333333333333
280,272,178703,1,0,0:0:0:0:
280,272,178828,2,0,L|273:219,1,53.3333333333333
256,80,179078,5,0,0:0:0:0:
192,48,179203,1,0,0:0:0:0:
124,72,179328,1,0,0:0:0:0:
56,48,179453,2,0,L|44:104,1,53.3333333333333
116,264,179703,1,0,0:0:0:0:
184,244,179828,2,0,L|184:180,1,53.3333333333333
48,232,180078,1,0,0:0:0:0:
52,304,180203,2,0,L|60:360,2,53.3333333333333
132,140,180578,6,0,P|176:120|248:152,1,106.666666666667
324,224,180953,1,0,0:0:0:0:
372,168,181078,1,0,0:0:0:0:
368,96,181203,1,0,0:0:0:0:
324,40,181328,2,0,L|216:36,1,106.666666666667
324,224,181703,1,0,0:0:0:0:
392,244,181828,1,0,0:0:0:0:
460,224,181953,1,0,0:0:0:0:
488,160,182078,6,0,B|488:80|488:80|448:112,1,106.666666666667
376,168,182453,1,0,0:0:0:0:
324,224,182578,1,0,0:0:0:0:
304,156,182703,1,0,0:0:0:0:
392,244,182828,2,0,L|396:312,1,53.3333333333333
248,260,183078,2,0,L|251:206,1,53.3333333333333
408,264,183328,2,0,L|412:332,1,53.3333333333333
256,340,183578,5,0,0:0:0:0:
192,312,183703,1,0,0:0:0:0:
124,332,183828,1,0,0:0:0:0:
60,304,183953,2,0,B|32:300|32:300|-8:308,2,53.3333333333333
128,252,184328,5,0,0:0:0:0:
152,184,184453,1,0,0:0:0:0:
128,116,184578,1,0,0:0:0:0:
80,176,184703,1,0,0:0:0:0:
152,184,184828,1,0,0:0:0:0:
200,132,184953,1,0,0:0:0:0:
232,68,185078,6,0,L|288:64,1,53.3333333333333
416,128,185328,1,0,0:0:0:0:
360,176,185453,2,0,L|296:176,1,53.3333333333333
384,64,185703,1,0,0:0:0:0:
432,116,185828,2,0,L|444:184,2,53.3333333333333
312,88,186203,2,0,P|308:64|316:32,1,53.3333333333333
360,176,186453,1,0,0:0:0:0:
304,216,186578,6,0,P|264:220|240:216,1,53.3333333333333
128,140,186828,1,0,0:0:0:0:
184,96,186953,2,0,P|212:92|240:96,1,53.3333333333333
144,212,187203,1,0,0:0:0:0:
76,192,187328,6,0,L|52:164,2,26.6666666666667
88,264,187578,1,0,0:0:0:0:
128,140,187703,2,0,L|104:104,2,26.6666666666667
160,288,187953,1,0,0:0:0:0:
224,324,188078,6,0,P|264:328|288:320,1,53.3333333333333
408,224,188328,1,0,0:0:0:0:
344,188,188453,2,0,P|304:184|280:192,1,53.3333333333333
160,288,188703,1,0,0:0:0:0:
96,316,188828,2,0,P|56:312|28:296,1,53.3333333333333
24,236,189078,1,0,0:0:0:0:
228,256,189203,2,0,P|232:304|224:332,1,53.3333333333333
164,208,189453,1,0,0:0:0:0:
172,136,189578,6,0,L|236:120,1,53.3333333333333
236,116,189765,1,0,0:0:0:0:
236,116,189828,1,0,0:0:0:0:
340,200,189953,6,0,L|276:184,1,53.3333333333333
276,180,190140,1,0,0:0:0:0:
276,180,190203,1,0,0:0:0:0:
428,168,190328,2,0,P|436:208|428:240,1,53.3333333333333
412,288,190578,1,0,0:0:0:0:
360,112,190703,2,0,P|359:85|366:59,1,53.3333333333333
428,168,190953,1,0,0:0:0:0:
340,200,191078,6,0,P|296:208|244:188,1,80
180,128,191378,2,0,P|141:119|102:127,1,80
335,344,191678,5,0,0:0:0:0:
358,312,191753,1,0,0:0:0:0:
368,274,191828,1,0,0:0:0:0:
361,234,191903,1,0,0:0:0:0:
340,200,191978,1,0,0:0:0:0:
316,167,192053,1,0,0:0:0:0:
307,129,192128,1,0,0:0:0:0:
313,89,192203,1,0,0:0:0:0:
334,55,192278,2,0,P|380:48|440:68,1,80
216,168,192578,2,0,P|170:175|110:155,1,80
379,119,192878,6,0,P|403:119|427:127,1,40
340,200,193028,2,0,P|316:200|292:192,1,40
432,200,193178,1,0,0:0:0:0:
447,236,193253,1,0,0:0:0:0:
444,275,193328,1,0,0:0:0:0:
423,309,193403,1,0,0:0:0:0:
388,329,193478,6,0,L|296:324,1,80
112,272,193778,1,0,0:0:0:0:
88,240,193853,1,0,0:0:0:0:
84,200,193928,2,0,P|84:172|88:152,1,40
240,100,194078,1,0,0:0:0:0:
234,139,194153,1,0,0:0:0:0:
208,170,194228,2,0,P|188:189|171:201,1,40
180,32,194378,1,0,0:0:0:0:
215,14,194453,1,0,0:0:0:0:
255,12,194528,1,0,0:0:0:0:
292,27,194603,1,0,0:0:0:0:
320,55,194678,6,0,L|400:52,2,53.3333333333333
180,32,194978,2,0,L|126:34,2,53.3333333333333
208,170,195278,5,0,0:0:0:0:
208,170,195728,6,0,B|204:216|204:216|208:272,1,80
348,324,196028,1,0,0:0:0:0:
248,104,196178,2,0,P|212:96|148:112,1,80
368,224,196478,5,0,0:0:0:0:
414,240,196553,1,0,0:0:0:0:
461,225,196628,1,0,0:0:0:0:
491,187,196703,1,0,0:0:0:0:
493,137,196778,1,0,0:0:0:0:
466,96,196853,1,0,0:0:0:0:
420,79,196928,1,0,0:0:0:0:
372,92,197003,1,0,0:0:0:0:
341,130,197078,5,0,0:0:0:0:
296,148,197153,1,0,0:0:0:0:
248,140,197228,2,0,P|224:136|200:116,1,40
76,40,197378,5,0,0:0:0:0:
38,72,197453,1,0,0:0:0:0:
23,118,197529,2,0,P|16:136|16:156,1,40
68,308,197678,1,0,0:0:0:0:
98,346,197753,1,0,0:0:0:0:
146,358,197828,1,0,0:0:0:0:
191,339,197903,1,0,0:0:0:0:
215,296,197978,1,0,0:0:0:0:
239,253,198053,1,0,0:0:0:0:
284,234,198128,1,0,0:0:0:0:
332,246,198203,1,0,0:0:0:0:
362,284,198278,6,0,L|376:372,1,80
140,264,198578,2,0,L|152:184,1,80
356,132,198878,1,0,0:0:0:0:
132,176,199028,1,0,0:0:0:0:
376,120,199178,1,0,0:0:0:0:
112,168,199328,6,0,P|104:132|204:56,1,160
328,208,199778,2,0,P|280:212|228:172,1,80
36,24,200078,5,0,0:0:0:0:
412,112,200528,6,0,B|420:160|420:160|404:212|404:212|416:272,1,160
336,148,200978,2,0,B|300:140|300:140|252:152,1,80
140,260,201278,1,0,0:0:0:0:
120,100,201428,1,0,0:0:0:0:
296,224,201578,1,0,0:0:0:0:
56,164,201728,6,0,P|36:92|100:0,1,160
216,224,202178,2,0,P|220:268|200:332,1,80
12,320,202478,1,0,0:0:0:0:
152,180,202628,1,0,0:0:0:0:
20,328,202778,1,0,0:0:0:0:
156,104,202928,6,0,B|236:68|236:140|320:104,1,160
376,60,203303,1,0,0:0:0:0:
376,60,203378,1,0,0:0:0:0:
416,252,203528,1,0,0:0:0:0:
416,252,203603,1,0,0:0:0:0:
416,252,203678,2,0,P|380:260|308:240,1,80
264,220,203903,1,0,0:0:0:0:
264,220,203978,1,0,0:0:0:0:
492,208,204128,6,0,L|504:368,1,160
188,212,204578,1,0,0:0:0:0:
188,212,204878,5,0,0:0:0:0:
150,179,204953,1,0,0:0:0:0:
136,132,205028,1,0,0:0:0:0:
149,85,205103,1,0,0:0:0:0:
186,52,205178,1,0,0:0:0:0:
234,44,205253,1,0,0:0:0:0:
280,64,205328,1,0,0:0:0:0:
307,105,205403,1,0,0:0:0:0:
308,154,205478,2,0,L|304:200,1,40
190,92,205628,2,0,L|185:52,1,40
380,112,205778,5,0,0:0:0:0:
418,140,205853,1,0,0:0:0:0:
429,188,205928,1,0,0:0:0:0:
407,232,206003,1,0,0:0:0:0:
362,251,206078,5,0,0:0:0:0:
313,249,206153,1,0,0:0:0:0:
276,280,206228,1,0,0:0:0:0:
270,329,206303,1,0,0:0:0:0:
300,368,206378,1,0,0:0:0:0:
307,320,206453,1,0,0:0:0:0:
276,280,206528,1,0,0:0:0:0:
229,272,206603,1,0,0:0:0:0:
195,304,206678,2,0,P|163:303|138:291,1,40
40,204,206828,2,0,P|58:197|78:196,1,40
192,216,206978,5,0,0:0:0:0:
239,206,207053,1,0,0:0:0:0:
263,164,207128,1,0,0:0:0:0:
246,119,207203,1,0,0:0:0:0:
201,102,207278,5,0,0:0:0:0:
154,90,207353,1,0,0:0:0:0:
136,45,207428,1,0,0:0:0:0:
162,4,207503,1,0,0:0:0:0:
209,1,207578,1,0,0:0:0:0:
248,32,207653,1,0,0:0:0:0:
292,48,207728,1,0,0:0:0:0:
340,40,207803,1,0,0:0:0:0:
380,12,207878,1,0,0:0:0:0:
430,24,207953,1,0,0:0:0:0:
466,63,208028,1,0,0:0:0:0:
476,114,208103,1,0,0:0:0:0:
456,163,208178,1,0,0:0:0:0:
413,193,208253,1,0,0:0:0:0:
361,196,208328,1,0,0:0:0:0:
320,168,208403,1,0,0:0:0:0:
272,152,208478,6,0,L|76:136,2,191.999994140625
272,152,209678,6,0,P|272:128|284:88,2,53.3333333333333
336,236,209978,2,0,P|342:261|342:288,2,53.3333333333333
236,268,210278,1,0,0:0:0:0:
236,268,210378,2,0,L|168:268,1,53.3333333333333
80,140,210578,1,0,0:0:0:0:
80,140,210678,2,0,L|148:140,1,53.3333333333333
272,172,210878,1,0,0:0:0:0:
308,132,210978,1,0,0:0:0:0:
308,80,211078,1,0,0:0:0:0:
272,44,211178,6,0,B|244:36|244:36|212:40,2,53.3333333333333
376,112,211478,2,0,B|404:120|404:120|436:116,2,53.3333333333333
236,116,211778,1,0,0:0:0:0:
228,132,211878,2,0,L|224:196,1,53.3333333333333
344,264,212078,1,0,0:0:0:0:
352,248,212178,2,0,L|356:184,1,53.3333333333333
272,40,212378,1,0,0:0:0:0:
208,40,212478,1,0,0:0:0:0:
144,40,212578,1,0,0:0:0:0:
80,40,212678,5,0,0:0:0:0:
68,64,212778,2,0,L|64:132,1,53.3333333333333
176,248,212978,1,0,0:0:0:0:
192,216,213078,2,0,L|188:144,1,53.3333333333333
0,96,213278,1,0,0:0:0:0:
4,144,213378,2,0,L|24:204,1,53.3333333333333
256,160,213578,1,0,0:0:0:0:
228,108,213678,2,0,L|172:64,1,53.3333333333333
8,272,213878,5,0,0:0:0:0:
72,296,213978,2,0,L|136:296,1,53.3333333333333
336,152,214178,1,0,0:0:0:0:
256,160,214278,2,0,L|192:176,1,53.3333333333333
336,316,214478,5,0,0:0:0:0:
416,312,214578,1,0,0:0:0:0:
496,308,214678,1,0,0:0:0:0:
452,240,214778,1,0,0:0:0:0:
408,176,214878,1,0,0:0:0:0:
368,244,214978,1,0,0:0:0:0:
336,316,215078,6,0,P|284:324|224:284,1,106.666666666667
132,176,215378,1,0,0:0:0:0:
188,128,215478,1,0,0:0:0:0:
260,140,215578,1,0,0:0:0:0:
320,96,215678,2,0,L|484:96,1,160
336,316,216278,5,0,0:0:0:0:
336,316,216378,1,0,0:0:0:0:
336,316,216478,1,0,0:0:0:0:
336,316,216578,5,0,0:0:0:0:
260,312,216678,1,0,0:0:0:0:
184,308,216778,1,0,0:0:0:0:
108,300,216878,2,0,B|96:256|96:256|104:136,1,160
112,68,217278,1,0,0:0:0:0:
184,44,217378,1,0,0:0:0:0:
248,84,217478,6,0,L|240:136,4,40
352,44,217928,1,0,0:0:0:0:
272,208,218078,2,0,P|228:216|172:176,1,80
384,132,218378,1,0,0:0:0:0:
380,292,218528,1,0,0:0:0:0:
248,84,218678,5,0,0:0:0:0:
248,84,218778,1,0,0:0:0:0:
248,84,218878,1,0,0:0:0:0:
248,84,218978,2,0,L|172:80,2,53.3333333333333
384,132,219278,5,0,0:0:0:0:
384,132,219378,1,0,0:0:0:0:
384,132,219478,1,0,0:0:0:0:
384,132,219578,2,0,L|460:128,2,53.3333333333333
272,232,219878,6,0,P|264:280|276:336,1,80
424,352,220178,1,0,0:0:0:0:
312,156,220328,2,0,P|256:148|204:168,1,80
120,320,220628,1,0,0:0:0:0:
120,320,220703,1,0,0:0:0:0:
120,320,220778,2,0,P|80:300|48:248,1,80
108,60,221078,5,0,0:0:0:0:
108,60,221153,1,0,0:0:0:0:
108,60,221228,2,0,P|140:56|184:68,1,40
233,152,221378,2,0,P|201:156|157:144,1,40
260,52,221528,2,0,B|300:52|300:52|372:76,1,80
420,256,221828,1,0,0:0:0:0:
420,256,221903,1,0,0:0:0:0:
420,256,221978,2,0,B|380:256|380:256|308:232,1,80
124,128,222278,6,0,B|96:128|96:128|52:140,2,53.3333333333333
233,152,222578,2,0,B|261:152|261:152|305:140,2,53.3333333333333
152,232,222878,1,0,0:0:0:0:
188,272,222978,1,0,0:0:0:0:
240,284,223078,1,0,0:0:0:0:
288,264,223178,1,0,0:0:0:0:
336,244,223278,1,0,0:0:0:0:
388,252,223378,1,0,0:0:0:0:
420,288,223478,6,0,B|444:212|380:212|416:120,3,160
264,320,225078,6,0,B|216:336|216:336|84:312,2,160
411,132,226728,1,0,0:0:0:0:
411,132,226803,1,0,0:0:0:0:
411,132,226878,2,0,P|355:116|287:148,1,120
196,200,227478,5,0,0:0:0:0:
152,104,227631,1,0,0:0:0:0:
84,188,227785,1,0,0:0:0:0:
164,116,227939,1,0,0:0:0:0:
96,200,228093,1,0,0:0:0:0:
128,96,228247,1,0,0:0:0:0:
152,248,228401,2,0,L|144:336,2,53.3333333333333
56,172,228862,2,0,L|64:84,2,53.3333333333333
97,355,229324,6,0,P|137:371|221:327,1,106.666666666667
256,268,229785,1,0,0:0:0:0:
304,364,229939,1,0,0:0:0:0:
196,356,230093,1,0,0:0:0:0:
256,220,230247,2,0,B|300:212|300:212|376:224,1,106.666666666667
472,328,230708,1,0,0:0:0:0:
472,328,230785,1,0,0:0:0:0:
472,328,230862,1,0,0:0:0:0:
500,184,231016,1,0,0:0:0:0:
361,221,231170,6,0,P|349:189|345:145,1,53.3333333333333
364,64,231478,1,0,0:0:0:0:
268,104,231631,2,0,P|240:104|200:88,1,53.3333333333333
128,36,231939,1,0,0:0:0:0:
132,144,232093,2,0,L|132:264,1,106.666666666667
68,336,232554,1,0,0:0:0:0:
48,232,232708,1,0,0:0:0:0:
100,368,232862,1,0,0:0:0:0:
20,200,233016,6,0,P|16:180|20:128,1,53.3333333333333
124,88,233324,1,0,0:0:0:0:
124,88,233478,2,0,P|128:68|124:16,1,53.3333333333333
28,68,233785,1,0,0:0:0:0:
124,168,233939,2,0,L|196:152,1,53.3333333333333
192,152,234170,1,0,0:0:0:0:
192,152,234247,1,0,0:0:0:0:
256,268,234401,1,0,0:0:0:0:
328,156,234554,1,0,0:0:0:0:
396,272,234708,1,0,0:0:0:0:
260,116,234862,6,0,P|264:60|316:20,1,106.666666666667
276,200,235324,2,0,P|220:196|180:144,1,106.666666666667
360,184,235785,2,0,P|356:240|304:280,1,106.666666666667
344,96,236247,2,0,P|396:98|434:134,1,106.666666666667
276,200,236708,6,0,L|212:200,1,53.3333333333333
128,128,237016,2,0,L|192:128,1,53.3333333333333
240,276,237324,6,0,L|180:276,1,53.3333333333333
152,56,237631,1,0,0:0:0:0:
68,252,237939,1,0,0:0:0:0:
276,200,238247,1,0,0:0:0:0:
40,36,238554,6,0,B|28:80|28:80|32:160,1,106.666666666667
120,240,239016,2,0,P|164:236|184:224,1,53.3333333333333
248,156,239324,1,0,0:0:0:0:
48,212,239478,2,0,P|44:252|48:280,1,53.3333333333333
174,285,239785,2,0,P|175:258|171:232,1,53.3333333333333
112,96,240093,1,0,0:0:0:0:
112,96,240401,6,0,P|168:112|220:88,1,106.666666666667
292,28,240862,2,0,P|340:12|408:40,1,106.666666666667
460,112,241324,1,0,0:0:0:0:
360,300,241631,1,0,0:0:0:0:
244,120,241939,1,0,0:0:0:0:
28,368,242247,5,0,0:0:0:0:
212,292,242397,1,0,0:0:0:0:
64,156,242547,1,0,0:0:0:0:
188,368,242697,1,0,0:0:0:0:
188,368,242772,1,0,0:0:0:0:
188,368,242847,2,0,L|200:276,1,80
52,160,243147,2,0,L|62:239,1,80
272,308,243447,6,0,B|280:272|280:272|264:192,1,80
112,116,243747,2,0,B|104:80|104:80|112:37,1,80
304,88,244047,2,0,B|312:130|312:130|304:166,1,80
112,320,244347,5,0,0:0:0:0:
56,336,244447,5,0,0:0:0:0:
16,292,244547,5,0,0:0:0:0:
72,280,244647,6,0,B|108:300|152:272|152:272|196:288|196:288|236:256|312:296,1,240
484,364,245247,5,0,0:0:0:0:
448,168,245397,1,0,0:0:0:0:
298,289,245547,1,0,0:0:0:0:
512,204,245697,1,0,0:0:0:0:
512,204,245772,1,0,0:0:0:0:
512,204,245847,2,0,P|516:168|496:100,1,80
301,210,246147,2,0,P|293:249|297:288,1,80
412,124,246447,6,0,P|389:95|327:61,1,80
240,236,246747,2,0,P|273:213|298:183,1,80
152,48,247047,2,0,P|177:78|210:100,1,80
416,176,247347,5,0,0:0:0:0:
460,216,247447,5,0,0:0:0:0:
456,276,247547,5,0,0:0:0:0:
416,316,247647,6,0,P|360:332|284:304,2,106.666666666667
200,80,248247,6,0,L|204:128,1,40
280,120,248981,6,0,L|284:168,1,40
360,168,249429,6,0,L|366:227,1,40
292,244,250108,6,0,L|296:296,1,40
400,132,250488,5,0,0:0:0:0:
400,132,250573,1,0,0:0:0:0:
400,132,250656,1,0,0:0:0:0:
356,328,250806,1,0,0:0:0:0:
328,88,250956,1,0,0:0:0:0:
284,284,251106,1,0,0:0:0:0:
260,44,251256,1,0,0:0:0:0:
216,240,251406,1,0,0:0:0:0:
472,180,251556,1,0,0:0:0:0:
272,156,251706,1,0,0:0:0:0:
356,340,251856,6,0,B|396:352|396:352|436:344|436:344|488:360,2,120
172,184,252456,1,0,0:0:0:0:
160,192,252531,1,0,0:0:0:0:
144,212,252606,1,0,0:0:0:0:
132,240,252681,1,0,0:0:0:0:
132,280,252756,1,0,0:0:0:0:
156,320,252831,1,0,0:0:0:0:
208,336,252906,1,0,0:0:0:0:
268,316,252981,1,0,0:0:0:0:
312,260,253056,6,0,B|368:240|368:240|484:260,2,143.999995605469
60,284,253656,2,0,B|40:244|40:244|48:192|48:192|32:144,1,140
8,60,254256,6,0,P|64:44|128:68,1,95.9999970703126
296,188,254556,1,0,0:0:0:0:
296,188,254631,1,0,0:0:0:0:
296,188,254706,2,0,P|240:204|176:176,1,95.9999970703126
384,72,255006,1,0,0:0:0:0:
424,97,255081,1,0,0:0:0:0:
452,136,255156,1,0,0:0:0:0:
464,182,255231,1,0,0:0:0:0:
459,230,255306,1,0,0:0:0:0:
438,272,255381,1,0,0:0:0:0:
402,304,255456,6,0,L|292:316,1,95.9999970703126
108,185,255756,1,0,0:0:0:0:
108,185,255831,1,0,0:0:0:0:
108,185,255906,2,0,L|218:196,1,95.9999970703126
252,196,256131,1,0,0:0:0:0:
296,176,256206,1,0,0:0:0:0:
320,136,256281,1,0,0:0:0:0:
316,88,256356,1,0,0:0:0:0:
288,48,256431,1,0,0:0:0:0:
240,40,256506,1,0,0:0:0:0:
196,56,256581,1,0,0:0:0:0:
164,92,256656,6,0,P|116:72|88:20,1,95.9999970703126
356,20,256956,1,0,0:0:0:0:
356,20,257031,1,0,0:0:0:0:
356,20,257106,2,0,P|388:68|388:128,1,95.9999970703126
276,316,257406,1,0,0:0:0:0:
237,343,257481,1,0,0:0:0:0:
191,337,257556,1,0,0:0:0:0:
160,302,257631,1,0,0:0:0:0:
162,255,257706,1,0,0:0:0:0:
404,252,257856,5,0,0:0:0:0:
288,48,258006,1,0,0:0:0:0:
162,255,258156,1,0,0:0:0:0:
162,255,258231,1,0,0:0:0:0:
162,255,258306,1,0,0:0:0:0:
372,136,258456,1,0,0:0:0:0:
380,132,258531,1,0,0:0:0:0:
388,128,258606,1,0,0:0:0:0:
418,163,258681,1,0,0:0:0:0:
418,210,258756,1,0,0:0:0:0:
388,246,258831,1,0,0:0:0:0:
341,253,258906,1,0,0:0:0:0:
301,229,258981,1,0,0:0:0:0:
287,184,259056,5,0,0:0:0:0:
276,137,259131,1,0,0:0:0:0:
251,97,259206,1,0,0:0:0:0:
212,68,259281,1,0,0:0:0:0:
167,55,259356,1,0,0:0:0:0:
119,58,259431,1,0,0:0:0:0:
75,77,259506,1,0,0:0:0:0:
41,110,259581,1,0,0:0:0:0:
21,153,259656,1,0,0:0:0:0:
16,201,259731,1,0,0:0:0:0:
29,247,259806,1,0,0:0:0:0:
57,286,259881,1,0,0:0:0:0:
96,313,259956,1,0,0:0:0:0:
143,324,260031,1,0,0:0:0:0:
190,319,260106,1,0,0:0:0:0:
233,297,260181,1,0,0:0:0:0:
265,262,260256,5,0,0:0:0:0:
286,221,260331,1,0,0:0:0:0:
330,204,260406,1,0,0:0:0:0:
374,221,260481,1,0,0:0:0:0:
395,263,260556,1,0,0:0:0:0:
382,308,260631,1,0,0:0:0:0:
342,333,260706,1,0,0:0:0:0:
296,324,260781,1,0,0:0:0:0:
268,284,260856,1,0,0:0:0:0:
262,236,260931,1,0,0:0:0:0:
231,201,261006,1,0,0:0:0:0:
186,190,261081,1,0,0:0:0:0:
142,207,261156,1,0,0:0:0:0:
115,246,261231,1,0,0:0:0:0:
116,293,261306,1,0,0:0:0:0:
144,331,261381,1,0,0:0:0:0:
189,346,261456,6,0,L|252:348,1,47.9999985351563
68,352,261606,2,0,L|20:351,1,47.9999985351563
192,268,261756,1,0,0:0:0:0:
223,232,261831,1,0,0:0:0:0:
234,186,261906,1,0,0:0:0:0:
220,141,261981,1,0,0:0:0:0:
186,108,262056,1,0,0:0:0:0:
226,133,262131,1,0,0:0:0:0:
273,129,262206,1,0,0:0:0:0:
307,96,262281,1,0,0:0:0:0:
313,49,262356,1,0,0:0:0:0:
289,9,262431,1,0,0:0:0:0:
244,0,262506,1,0,0:0:0:0:
200,7,262581,1,0,0:0:0:0:
174,47,262656,6,0,L|168:160,1,95.9999970703126
380,268,262956,2,0,L|374:172,1,95.9999970703126
88,160,263256,1,0,0:0:0:0:
88,160,263331,1,0,0:0:0:0:
88,160,263406,2,0,P|84:196|88:224,1,47.9999985351563
305,178,263556,1,0,0:0:0:0:
272,144,263631,1,0,0:0:0:0:
226,133,263706,1,0,0:0:0:0:
182,150,263781,1,0,0:0:0:0:
153,188,263856,6,0,P|148:256|152:304,1,95.9999970703126
374,172,264156,1,0,0:0:0:0:
374,172,264231,1,0,0:0:0:0:
374,172,264306,2,0,P|375:124|370:76,1,95.9999970703126
276,296,264606,1,0,0:0:0:0:
320,313,264681,1,0,0:0:0:0:
365,330,264756,1,0,0:0:0:0:
410,317,264831,1,0,0:0:0:0:
456,301,264906,1,0,0:0:0:0:
247,186,265056,6,0,B|207:178|207:178|139:190,1,95.9999970703126
365,330,265356,1,0,0:0:0:0:
365,330,265431,1,0,0:0:0:0:
365,330,265506,1,0,0:0:0:0:
440,124,265656,1,0,0:0:0:0:
402,95,265731,1,0,0:0:0:0:
355,97,265806,1,0,0:0:0:0:
321,128,265881,1,0,0:0:0:0:
315,175,265956,1,0,0:0:0:0:
309,221,266031,1,0,0:0:0:0:
274,253,266106,1,0,0:0:0:0:
227,255,266181,1,0,0:0:0:0:
190,226,266256,6,0,P|176:180|180:108,1,95.9999970703126
383,164,266556,1,0,0:0:0:0:
383,164,266631,1,0,0:0:0:0:
383,164,266706,1,0,0:0:0:0:
184,296,266856,1,0,0:0:0:0:
192,56,267006,1,0,0:0:0:0:
228,26,267081,1,0,0:0:0:0:
275,15,267156,1,0,0:0:0:0:
321,26,267231,1,0,0:0:0:0:
358,56,267306,2,0,L|372:112,1,47.9999985351563
175,132,267456,5,0,0:0:0:0:
340,228,267606,1,0,0:0:0:0:
104,172,267756,2,0,L|100:120,1,47.9999985351563
308,160,267906,1,0,0:0:0:0:
218,330,268056,1,0,0:0:0:0:
181,360,268131,1,0,0:0:0:0:
135,370,268206,1,0,0:0:0:0:
88,359,268281,1,0,0:0:0:0:
52,328,268356,1,0,0:0:0:0:
34,284,268431,1,0,0:0:0:0:
38,237,268506,1,0,0:0:0:0:
62,196,268581,1,0,0:0:0:0:
103,171,268656,6,0,L|216:164,1,95.9999970703126
360,264,268956,2,0,L|420:260,1,47.9999985351563
276,136,269106,1,0,0:0:0:0:
396,332,269256,2,0,L|456:328,1,47.9999985351563
316,200,269406,1,0,0:0:0:0:
496,264,269556,1,0,0:0:0:0:
460,76,269706,1,0,0:0:0:0:
256,256,269856,6,0,B|252:308|252:308|264:360,1,95.9999970703126
454,170,270156,1,0,0:0:0:0:
454,170,270231,1,0,0:0:0:0:
454,170,270306,2,0,B|463:127|463:127|459:75,1,95.9999970703126
380,20,270531,1,0,0:0:0:0:
380,20,270606,2,0,B|332:12|332:12|272:24,1,95.9999970703126
204,68,270831,1,0,0:0:0:0:
204,68,270906,1,0,0:0:0:0:
328,212,271056,5,0,0:0:0:0:
312,256,271131,1,0,0:0:0:0:
271,278,271206,1,0,0:0:0:0:
226,266,271281,1,0,0:0:0:0:
200,227,271356,1,0,0:0:0:0:
174,187,271431,1,0,0:0:0:0:
129,175,271506,1,0,0:0:0:0:
88,198,271581,1,0,0:0:0:0:
72,242,271656,5,0,0:0:0:0:
98,282,271731,1,0,0:0:0:0:
143,294,271806,1,0,0:0:0:0:
184,271,271881,1,0,0:0:0:0:
200,227,271956,1,0,0:0:0:0:
180,184,272031,1,0,0:0:0:0:
192,139,272106,1,0,0:0:0:0:
233,115,272181,1,0,0:0:0:0:
279,125,272256,6,0,B|284:152|284:152|292:172|292:172|296:192,2,63.9999980468751
380,64,272556,2,0,B|375:91|375:91|367:111|367:111|363:131,2,63.9999980468751
488,144,272856,1,0,0:0:0:0:
448,352,273056,1,0,0:0:0:0:
384,360,273156,1,0,0:0:0:0:
336,320,273256,1,0,0:0:0:0:
344,256,273356,1,0,0:0:0:0:
384,208,273456,6,0,P|396:128|356:96,1,133.333333333333
312,80,273756,2,0,L|256:88,1,53.3333333333333
68,252,274056,2,0,B|116:252|116:252|148:268|148:268|208:268,1,133.333333333333
252,272,274356,2,0,P|260:248|256:216,1,53.3333333333333
39,65,274656,6,0,L|23:201,1,133.333333333333
14,252,274956,2,0,L|82:252,1,53.3333333333333
268,128,275206,2,0,P|332:116|396:152,1,133.333333333333
432,260,275556,1,0,0:0:0:0:
380,272,275656,1,0,0:0:0:0:
332,248,275756,1,0,0:0:0:0:
320,196,275856,6,0,L|336:80,1,106.666666666667
176,40,276156,2,0,L|180:100,2,53.3333333333333
40,40,276456,1,0,0:0:0:0:
64,248,276656,1,0,0:0:0:0:
56,252,276756,2,0,L|60:312,2,53.3333333333333
216,196,277056,5,0,0:0:0:0:
268,192,277156,1,0,0:0:0:0:
308,228,277256,1,0,0:0:0:0:
308,280,277356,1,0,0:0:0:0:
344,320,277456,1,0,0:0:0:0:
396,328,277556,1,0,0:0:0:0:
444,304,277656,5,0,0:0:0:0:
444,252,277756,1,0,0:0:0:0:
444,200,277856,1,0,0:0:0:0:
444,148,277956,1,0,0:0:0:0:
396,168,278056,1,0,0:0:0:0:
344,152,278156,1,0,0:0:0:0:
328,100,278256,6,0,B|264:72|264:72|196:72,1,133.333333333333
152,100,278556,2,0,B|144:128|144:128|144:160,1,53.3333333333333
316,352,278856,2,0,P|276:312|188:336,1,133.333333333333
164,356,279156,2,0,P|148:324|148:296,1,53.3333333333333
328,100,279456,6,0,B|336:144|336:144|328:184|328:184|340:232,1,133.333333333333
356,284,279756,2,0,L|416:284,1,53.3333333333333
264,152,280056,6,0,P|212:136|156:160,1,106.666666666667
120,252,280356,2,0,P|70:268|20:252,1,106.666666666667
80,88,280656,5,0,0:0:0:0:
180,40,280789,1,0,0:0:0:0:
164,152,280922,1,0,0:0:0:0:
88,68,281056,1,0,0:0:0:0:
200,48,281189,1,0,0:0:0:0:
156,152,281322,1,0,0:0:0:0:
268,12,281456,2,0,P|308:8|336:12,1,53.3333333333333
408,116,281722,2,0,P|368:120|340:116,1,53.3333333333333
488,28,281989,2,0,L|496:116,1,80
500,160,282256,5,0,0:0:0:0:
404,112,282389,1,0,0:0:0:0:
404,220,282522,1,0,0:0:0:0:
504,184,282656,1,0,0:0:0:0:
396,192,282789,1,0,0:0:0:0:
452,284,282922,1,0,0:0:0:0:
404,112,283056,2,0,P|356:120|336:136,1,53.3333333333333
296,212,283322,1,0,0:0:0:0:
204,268,283456,2,0,P|164:268|136:252,1,53.3333333333333
76,188,283722,1,0,0:0:0:0:
296,212,283856,6,0,B|316:276|272:343|272:343|296:308|356:308,1,213.333333333333
344,312,284456,1,0,0:0:0:0:
352,316,284522,1,0,0:0:0:0:
360,320,284589,1,0,0:0:0:0:
368,324,284656,2,0,B|420:216|324:216|376:108,1,213.333333333333
232,172,285456,6,0,P|156:176|232:108,1,240
416,240,286256,6,0,P|420:316|352:240,1,240
256,192,287056,12,0,290256,2:0:0:0:
176,68,290606,6,0,P|252:48|292:124,1,160,0|0,2:0|2:0,2:0:0:0:
112,208,291488,2,0,L|104:40,1,160,0|0,2:0|2:0,2:0:0:0:
304,208,292150,2,0,L|324:228,2,26.6666666666667,0|0|0,2:0|2:0|2:0,2:0:0:0:
266,230,292370,6,0,B|210:237|210:237|106:205,1,160,0|0,2:0|2:0,2:0:0:0:
368,164,293253,2,0,P|396:220|344:304,1,160,0|0,2:0|2:0,2:0:0:0:
140,96,294135,6,0,B|216:64|216:156|304:104,1,160,0|0,2:0|2:0,2:0:0:0:
456,32,295030,2,0,B|480:64|480:64|488:140,2,106.666666666667,0|0|0,2:0|2:0|2:0,2:0:0:0:
292,112,295926,2,0,L|284:280,1,160,0|0,2:0|2:0,2:0:0:0:
429,120,296808,2,0,P|381:84|285:120,1,160,0|0,2:0|2:0,2:0:0:0:
176,208,297525,2,0,L|164:232,2,20,0|0|0,2:0|2:0|2:0,2:0:0:0:
148,176,297692,6,0,B|156:96|156:96|212:32,1,160,0|0,2:0|2:0,2:0:0:0:
288,24,298284,1,0,2:0:0:0:
360,60,298432,1,0,2:0:0:0:
292,104,298580,2,0,P|280:164|388:196,1,160,0|0,2:0|2:0,2:0:0:0:
496,324,299469,6,0,L|312:320,1,160,0|0,2:0|2:0,2:0:0:0:
112,212,300358,5,0,2:0:0:0:
76,284,300506,1,0,2:0:0:0:
156,284,300654,1,0,2:0:0:0:
28,220,300803,1,0,2:0:0:0:
16,228,300877,1,0,2:0:0:0:
8,240,300951,1,0,2:0:0:0:
4,252,301025,1,0,2:0:0:0:
0,264,301099,1,0,2:0:0:0:
0,276,301173,1,0,2:0:0:0:
0,288,301247,6,0,P|21:342|124:344,1,160,0|0,2:0|2:0,2:0:0:0:
268,200,301918,2,0,L|184:212,1,80,0|0,2:0|2:0,2:0:0:0:
308,276,302366,2,0,L|396:284,1,80,0|0,2:0|2:0,2:0:0:0:
240,132,302814,2,0,L|156:144,1,80,0|0,2:0|2:0,2:0:0:0:
344,204,303261,2,0,L|432:212,1,80,0|0,2:0|2:0,2:0:0:0:
208,64,303709,2,0,L|124:76,1,80,0|0,2:0|2:0,2:0:0:0:
384,132,304157,2,0,L|472:140,1,80,0|0,2:0|2:0,2:0:0:0:
244,152,304605,1,0,2:0:0:0:
148,248,304829,6,0,P|136:300|180:368,2,120,0|0|0,2:0|2:0|2:0,2:0:0:0:
304,196,305799,2,0,P|316:152|280:80,2,106.666666666667,0|0|0,2:0|2:0|2:0,2:0:0:0:
160,160,306620,5,0,2:0:0:0:
232,128,306771,1,0,2:0:0:0:
228,208,306923,1,0,2:0:0:0:
171,136,307074,5,0,2:0:0:0:
249,123,307226,1,0,2:0:0:0:
224,200,307377,1,0,2:0:0:0:
188,116,307529,5,0,2:0:0:0:
267,124,307680,1,0,2:0:0:0:
223,191,307832,1,0,2:0:0:0:
210,101,307983,5,0,2:0:0:0:
291,134,308135,1,0,2:0:0:0:
224,183,308286,1,0,2:0:0:0:
204,24,308441,5,0,2:0:0:0:
280,48,308591,1,0,2:0:0:0:
352,84,308741,1,0,2:0:0:0:
224,183,308892,5,0,2:0:0:0:
212,104,309042,1,0,2:0:0:0:
204,24,309192,1,0,2:0:0:0:
352,84,309343,5,0,2:0:0:0:
291,134,309493,1,0,2:0:0:0:
224,183,309644,1,0,2:0:0:0:
280,48,309794,5,0,2:0:0:0:
360,48,309944,1,0,2:0:0:0:
440,52,310095,1,0,2:0:0:0:
392,176,310245,6,0,P|388:144|392:116,1,53.3333333333333,0|0,2:0|2:0,2:0:0:0:
400,112,310468,1,0,2:0:0:0:
400,112,310543,1,0,2:0:0:0:
424,244,310692,2,0,P|392:252|364:244,1,53.3333333333333,0|0,2:0|2:0,2:0:0:0:
360,244,310916,1,0,2:0:0:0:
360,244,310991,1,0,2:0:0:0:
212,268,311140,5,0,2:0:0:0:
200,274,311214,1,0,2:0:0:0:
187,277,311289,1,0,2:0:0:0:
174,277,311363,1,0,2:0:0:0:
161,272,311438,1,0,2:0:0:0:
151,265,311513,1,0,2:0:0:0:
143,254,311587,1,0,2:0:0:0:
138,242,311662,1,0,2:0:0:0:
137,228,311737,1,0,2:0:0:0:
141,215,311811,1,0,2:0:0:0:
147,204,311886,1,0,2:0:0:0:
157,195,311960,1,0,2:0:0:0:
169,189,312035,5,0,2:0:0:0:
232,240,312188,1,0,2:0:0:0:
244,160,312341,1,0,2:0:0:0:
304,212,312494,1,0,2:0:0:0:
324,136,312646,1,0,2:0:0:0:
384,192,312799,1,0,2:0:0:0:
400,112,312952,5,0,2:0:0:0:
324,136,313104,1,0,2:0:0:0:
340,56,313257,1,0,2:0:0:0:
264,80,313410,1,0,2:0:0:0:
276,0,313562,1,0,2:0:0:0:
200,28,313715,1,0,2:0:0:0:
340,56,313868,6,0,P|368:56|392:48,3,40,0|0|0|0,2:0|2:0|2:0|2:0,2:0:0:0:
192,112,314315,2,0,P|164:112|132:104,3,40,0|0|0|0,2:0|2:0|2:0|2:0,2:0:0:0:
304,160,314763,6,0,P|320:172|336:200,3,40,0|0|0|0,2:0|2:0|2:0|2:0,2:0:0:0:
228,220,315211,2,0,P|224:200|227:180,3,40,0|0|0|0,2:0|2:0|2:0|2:0,2:0:0:0:
296,280,315659,6,0,P|248:312|144:264,1,160,0|0,2:0|2:0,2:0:0:0:
124,212,316265,1,0,2:0:0:0:
124,212,316416,1,0,2:0:0:0:
368,244,316568,2,0,P|376:276|368:316,1,53.3333333333333,0|0,2:0|2:0,2:0:0:0:
280,204,316871,2,0,P|279:177|286:151,1,53.3333333333333,0|0,2:0|2:0,2:0:0:0:
392,264,317174,2,0,P|391:296|373:333,1,53.3333333333333,0|0,2:0|2:0,2:0:0:0:
224,116,317477,6,0,P|260:84|356:136,1,160,0|0,2:0|2:0,2:0:0:0:
364,204,318083,1,0,2:0:0:0:
424,152,318234,1,0,2:0:0:0:
436,232,318386,2,0,L|452:284,1,53.3333333333333,0|0,2:0|2:0,2:0:0:0:
276,256,318689,1,0,2:0:0:0:
276,256,318840,2,0,L|284:188,1,53.3333333333333,0|0,2:0|2:0,2:0:0:0:
352,332,319143,1,0,2:0:0:0:
352,332,319295,6,0,P|264:356|176:296,1,160,0|0,2:0|2:0,2:0:0:0:
147,273,319902,1,0,2:0:0:0:
147,193,320053,1,0,2:0:0:0:
203,136,320205,2,0,P|275:108|375:160,1,160,0|0,2:0|2:0,2:0:0:0:
436,260,320886,5,0,2:0:0:0:
440,268,320962,1,0,2:0:0:0:
444,276,321038,1,0,2:0:0:0:
448,284,321114,2,0,P|408:292|356:192,1,160,0|0,2:0|2:0,2:0:0:0:
161,205,322023,2,0,P|139:277|64:284,1,160,0|0,2:0|2:0,2:0:0:0:
180,72,322932,6,0,B|256:40|256:40|340:80,1,160,0|0,2:0|2:0,2:0:0:0:
412,224,323701,1,0,2:0:0:0:
412,224,323778,1,0,2:0:0:0:
412,224,323855,2,0,L|296:232,2,106.666666666667,0|0|0,2:0|2:0|2:0,2:0:0:0:
324,76,324778,6,0,L|152:56,1,160,0|0,2:0|2:0,2:0:0:0:
41,113,325598,1,0,2:0:0:0:
41,113,325673,2,0,P|77:125|165:37,1,160,0|0,2:0|2:0,2:0:0:0:
84,44,326270,1,0,2:0:0:0:
41,113,326419,5,0,2:0:0:0:
41,113,326494,1,0,2:0:0:0:
41,113,326569,2,0,L|61:285,1,160,0|0,2:0|2:0,2:0:0:0:
352,328,327344,2,0,L|376:348,2,20,0|0|0,2:0|2:0|2:0,2:0:0:0:
332,304,327499,2,0,L|368:128,1,160,0|0,2:0|2:0,2:0:0:0:
384,72,328119,1,0,2:0:0:0:
384,72,328274,1,0,2:0:0:0:
280,148,328429,6,0,P|216:156|156:72,1,160,0|0,2:0|2:0,2:0:0:0:
476,136,329429,6,0,L|488:304,1,160,0|0,2:0|2:0,2:0:0:0:
236,92,330467,6,0,L|208:80,2,20,0|0|0,2:0|2:0|2:0,2:0:0:0:
256,192,330739,12,0,335634,2:0:0:0:
