osu file format v14

[General]
AudioFilename: audio.mp3
AudioLeadIn: 0
PreviewTime: 105361
Countdown: 0
SampleSet: None
StackLeniency: 0.2
Mode: 0
LetterboxInBreaks: 0
WidescreenStoryboard: 1

[Editor]
DistanceSpacing: 1
BeatDivisor: 8
GridSize: 4
TimelineZoom: 3.199999

[Metadata]
Title:THE ONE
TitleUnicode:THE ONE
Artist:BABYMETAL
ArtistUnicode:BABYMETAL
Creator:Hysteria
Version:Yoyo kagirinaku
Source:
Tags:j-pop kawaii heavy metal resistance Su-metal Yuimetal Moametal
BeatmapID:1139633
BeatmapSetID:528883

[Difficulty]
HPDrainRate:6.9
CircleSize:4
OverallDifficulty:9
ApproachRate:9.3
SliderMultiplier:1.7
SliderTickRate:2

[Events]
//Background and Video events
0,0,"BG_THE_ONE.jpg",0,0
//Break Periods
2,137002,141786
//Storyboard Layer 0 (Background)
//Storyboard Layer 1 (Fail)
//Storyboard Layer 2 (Pass)
//Storyboard Layer 3 (Foreground)
//Storyboard Sound Samples

[TimingPoints]
187,307.692307692308,3,3,1,65,1,0
187,-200,3,3,1,65,0,0
340,-200,3,2,10,15,0,0
956,-200,3,3,1,65,0,0
1110,-200,3,3,4,65,0,0
1263,-200,3,2,10,15,0,0
1571,-200,3,3,4,65,0,0
2033,-200,3,3,2,65,0,0
2187,-200,3,2,10,15,0,0
2802,-200,3,3,2,65,0,0
2956,-200,3,3,2,65,0,0
3263,-200,3,3,11,65,0,0
3571,-200,3,3,10,65,0,0
3879,-200,3,3,3,65,0,0
4033,-200,3,2,10,15,0,0
4340,-200,3,3,3,65,0,0
4494,-200,3,3,3,65,0,0
4802,-200,3,3,2,65,0,0
4956,-200,3,2,10,15,0,0
5571,-200,3,3,2,65,0,0
5725,-200,3,3,1,65,0,0
5956,-200,3,3,12,65,0,0
6187,-200,3,3,11,65,0,0
6494,-200,3,3,10,65,0,0
6648,-133.333333333333,3,3,2,65,0,0
6879,-133.333333333333,3,3,1,65,0,0
7571,-200,3,3,1,65,0,0
7725,-200,3,2,10,15,0,0
8340,-200,3,3,1,65,0,0
8494,-200,3,3,4,65,0,0
8725,-200,3,3,4,5,0,0
8802,-200,3,3,11,65,0,0
9033,-200,3,3,11,5,0,0
9110,-200,3,3,10,65,0,0
9340,-200,3,3,10,5,0,0
9417,-200,3,3,2,65,0,0
9571,-200,3,2,10,15,0,0
10648,-200,3,3,2,65,0,0
10802,-200,3,3,3,65,0,0
11263,-133.333333333333,3,3,1,65,0,0
11417,-133.333333333333,3,3,12,65,0,0
11571,-133.333333333333,3,3,1,65,0,0
11725,-133.333333333333,3,3,12,65,0,0
11879,-133.333333333333,3,3,1,65,0,0
12033,-133.333333333333,3,3,11,65,0,0
12187,-133.333333333333,3,3,1,65,0,0
12340,-133.333333333333,3,3,11,65,0,0
12494,-133.333333333333,3,3,1,65,0,0
12648,-133.333333333333,3,3,10,65,0,0
12802,-133.333333333333,3,3,1,65,0,0
12956,-133.333333333333,3,3,10,65,0,0
13110,-133.333333333333,3,3,1,65,0,0
13263,-133.333333333333,3,3,10,65,0,0
13571,-133.333333333333,3,3,2,65,0,0
13725,-133.333333333333,3,3,10,65,0,0
14033,-100,3,3,1,65,0,0
14110,-100,3,3,12,65,0,0
14187,-100,3,3,1,65,0,0
14263,-100,3,3,11,65,0,0
14340,-100,3,3,1,65,0,0
14494,-111.111111111111,3,3,4,65,0,0
14879,-111.111111111111,3,3,4,5,0,0
14956,-100,3,3,1,65,0,0
15263,-100,3,3,6,65,0,0
15571,-100,3,3,4,65,0,0
15879,-100,3,3,2,65,0,0
16187,-100,3,3,6,65,0,0
16494,-100,3,3,4,65,0,0
16802,-100,3,3,6,65,0,0
17110,-100,3,3,6,65,0,0
17417,-100,3,3,4,65,0,0
17725,-100,3,3,1,65,0,0
17956,-100,3,3,1,5,0,0
18033,-100,3,3,2,65,0,0
18263,-100,3,3,2,5,0,0
18340,-100,3,3,3,65,0,0
18571,-100,3,3,3,5,0,0
18648,-100,3,3,1,65,0,0
18956,-100,3,3,6,65,0,0
19263,-100,3,3,4,65,0,0
19571,-100,3,3,2,65,0,0
19879,-100,3,3,6,65,0,0
20187,-100,3,3,4,65,0,0
20494,-100,3,3,6,65,0,0
21110,-100,3,3,4,65,0,0
21417,-100,3,3,3,65,0,0
21648,-100,3,3,12,65,0,0
21879,-100,3,3,11,65,0,0
22187,-100,3,3,10,65,0,0
22340,-100,3,3,1,65,0,0
22648,-100,3,3,6,65,0,0
22956,-100,3,3,4,65,0,0
23263,-100,3,3,2,65,0,0
23571,-100,3,3,6,65,0,0
23802,-100,3,3,11,65,0,0
23879,-100,3,3,4,65,0,0
24187,-100,3,3,6,65,0,0
24802,-100,3,3,4,65,0,0
25110,-100,3,3,1,65,0,0
25340,-100,3,3,1,5,0,0
25417,-100,3,3,2,65,0,0
25648,-100,3,3,2,5,0,0
25725,-100,3,3,3,65,0,0
25956,-100,3,3,3,5,0,0
26033,-100,3,3,1,65,0,0
26340,-100,3,3,6,65,0,0
26648,-100,3,3,4,65,0,0
26956,-100,3,3,2,65,0,0
27263,-100,3,3,6,65,0,0
27571,-100,3,3,4,65,0,0
27879,-100,3,3,6,65,0,0
28494,-100,3,3,4,65,0,0
28802,-100,3,3,3,65,0,0
28956,-100,3,3,12,65,0,0
29110,-100,3,3,1,65,0,0
29148,-100,3,3,11,65,0,0
29263,-100,3,3,1,65,0,0
29302,-100,3,3,11,65,0,0
29417,-100,3,3,1,65,0,0
29456,-100,3,3,10,65,0,0
29571,-100,3,3,1,65,0,0
29610,-100,3,3,10,65,0,0
29725,-100,3,3,1,65,0,0
30033,-100,3,3,6,65,0,0
30340,-100,3,3,4,65,0,0
30648,-100,3,3,2,65,0,0
30879,-100,3,3,2,5,0,0
30956,-100,3,3,3,65,0,0
31187,-100,3,3,3,5,0,0
31263,-100,3,3,2,65,0,0
31494,-100,3,3,2,5,0,0
31571,-100,3,3,1,65,0,0
31879,-100,3,3,6,65,0,0
32187,-100,3,3,4,65,0,0
32494,-100,3,3,2,65,0,0
32725,-100,3,3,2,5,0,0
32802,-100,3,3,3,65,0,0
33033,-100,3,3,3,5,0,0
33110,-100,3,3,2,65,0,0
33340,-100,3,3,2,5,0,0
33417,-100,3,3,1,65,0,0
33725,-100,3,3,6,65,0,0
34033,-100,3,3,4,65,0,0
34340,-100,3,3,2,65,0,0
34648,-100,3,3,6,65,0,0
34956,-100,3,3,4,65,0,0
35263,-100,3,3,6,65,0,0
35879,-100,3,3,4,65,0,0
36187,-100,3,3,3,65,0,0
36340,-100,3,3,12,65,0,0
36494,-100,3,3,11,65,0,0
36648,-100,3,3,2,65,0,0
36802,-100,3,3,2,65,0,0
36879,-100,3,3,10,65,0,0
37110,-100,3,3,1,65,0,0
37417,-100,3,3,6,65,0,0
37725,-100,3,3,4,65,0,0
38033,-100,3,3,2,65,0,0
38263,-100,3,3,2,5,0,0
38340,-100,3,3,3,65,0,0
38571,-100,3,3,3,5,0,0
38648,-100,3,3,2,65,0,0
38879,-100,3,3,2,5,0,0
38956,-100,3,3,1,65,0,0
39263,-100,3,3,6,65,0,0
39571,-100,3,3,4,65,0,0
39879,-100,3,3,2,65,0,0
40110,-100,3,3,2,5,0,0
40187,-100,3,3,3,65,0,0
40417,-100,3,3,3,5,0,0
40494,-100,3,3,2,65,0,0
40725,-100,3,3,2,5,0,0
40802,-100,3,3,1,65,0,0
41110,-100,3,3,6,65,0,0
41417,-100,3,3,4,65,0,0
41725,-100,3,3,2,65,0,0
42033,-100,3,3,12,65,0,0
42187,-100,3,3,11,65,0,0
42392,-100,3,3,10,65,0,0
42648,-100,3,3,1,65,0,0
43187,-100,3,3,12,65,0,0
43417,-100,3,3,3,65,0,0
43725,-100,3,3,11,65,0,0
43879,-100,3,3,1,65,0,0
44033,-100,3,3,10,65,0,0
44187,-100,3,3,1,65,0,0
44494,-200,3,3,1,65,0,0
44648,-200,3,2,10,15,0,0
46340,-200,3,3,2,65,0,0
46494,-133.333333333333,3,2,10,30,0,0
48187,-133.333333333333,3,3,3,30,0,0
48340,-133.333333333333,3,2,10,15,0,0
48648,-133.333333333333,3,2,10,30,0,0
49110,-133.333333333333,3,3,4,30,0,0
49263,-133.333333333333,3,2,10,30,0,0
49417,-133.333333333333,3,3,4,30,0,0
49571,-133.333333333333,3,2,10,30,0,0
49725,-133.333333333333,3,3,7,30,0,0
49879,-133.333333333333,3,2,10,30,0,0
50033,-133.333333333333,3,3,2,30,0,0
50187,-133.333333333333,3,2,10,15,0,0
50494,-133.333333333333,3,2,10,30,0,0
51110,-133.333333333333,3,2,10,15,0,0
51263,-133.333333333333,3,2,10,30,0,0
51571,-133.333333333333,3,2,10,15,0,0
51725,-133.333333333333,3,2,10,30,0,0
51879,-166.666666666667,3,3,1,30,0,0
52033,-166.666666666667,3,2,10,15,0,0
52648,-133.333333333333,3,2,10,30,0,0
52956,-133.333333333333,3,2,10,15,0,0
53571,-133.333333333333,3,2,10,30,0,0
53725,-133.333333333333,3,3,3,30,0,0
53879,-133.333333333333,3,2,10,30,0,0
55571,-133.333333333333,3,3,2,30,0,0
55725,-133.333333333333,3,2,10,15,0,0
56033,-133.333333333333,3,2,10,30,0,0
56494,-133.333333333333,3,3,4,30,0,0
56648,-133.333333333333,3,2,10,30,0,0
56802,-133.333333333333,3,3,4,30,0,0
56956,-133.333333333333,3,2,10,30,0,0
57110,-133.333333333333,3,3,7,30,0,0
57263,-133.333333333333,3,2,10,30,0,0
57417,-133.333333333333,3,3,1,30,0,0
57571,-133.333333333333,3,2,10,15,0,0
58187,-133.333333333333,3,2,10,30,0,0
58494,-133.333333333333,3,2,10,15,0,0
58648,-133.333333333333,3,2,10,30,0,0
58956,-133.333333333333,3,2,10,15,0,0
59110,-133.333333333333,3,2,10,30,0,0
59263,-133.333333333333,3,3,2,30,0,0
59417,-133.333333333333,3,2,10,15,0,0
60033,-133.333333333333,3,2,10,30,0,0
60187,-166.666666666667,3,2,10,30,0,0
60340,-133.333333333333,3,2,10,15,0,0
60956,-133.333333333333,3,2,10,30,0,0
61110,-133.333333333333,3,3,3,30,0,0
61263,-133.333333333333,3,2,10,30,0,0
61571,-133.333333333333,3,3,5,30,0,0
61725,-133.333333333333,3,2,10,30,0,0
61879,-133.333333333333,3,3,5,30,0,0
62033,-133.333333333333,3,3,7,30,0,0
62187,-133.333333333333,3,2,10,30,0,0
62956,-133.333333333333,3,3,2,30,0,0
63110,-133.333333333333,3,2,10,30,0,0
63417,-133.333333333333,3,3,5,30,0,0
63571,-133.333333333333,3,2,10,30,0,0
63725,-133.333333333333,3,3,5,30,0,0
63879,-133.333333333333,3,3,7,30,0,0
64033,-133.333333333333,3,2,10,30,0,0
64802,-133.333333333333,3,3,1,30,0,0
64956,-133.333333333333,3,2,10,30,0,0
65263,-133.333333333333,3,3,17,30,0,0
65417,-133.333333333333,3,3,1,30,0,0
65571,-133.333333333333,3,3,5,30,0,0
65725,-133.333333333333,3,3,7,30,0,0
65879,-133.333333333333,3,2,10,30,0,0
66648,-133.333333333333,3,3,3,30,0,0
66802,-133.333333333333,3,2,10,30,0,0
67110,-133.333333333333,3,3,5,30,0,0
67263,-133.333333333333,3,2,10,30,0,0
67417,-133.333333333333,3,3,5,30,0,0
67571,-133.333333333333,3,3,7,30,0,0
67725,-133.333333333333,3,2,10,30,0,0
68494,-133.333333333333,3,3,1,30,0,0
68648,-133.333333333333,3,2,10,30,0,0
68956,-133.333333333333,3,3,17,30,0,0
69110,-133.333333333333,3,3,1,30,0,0
69263,-133.333333333333,3,3,5,30,0,0
69417,-133.333333333333,3,3,7,30,0,0
69571,-133.333333333333,3,2,10,30,0,0
70340,-133.333333333333,3,3,2,30,0,0
70494,-133.333333333333,3,2,10,30,0,0
70802,-133.333333333333,3,3,5,30,0,0
70956,-133.333333333333,3,2,10,30,0,0
71110,-133.333333333333,3,3,5,30,0,0
71263,-133.333333333333,3,3,7,30,0,0
71417,-133.333333333333,3,3,5,30,0,0
71571,-133.333333333333,3,3,5,30,0,0
71725,-133.333333333333,3,3,4,30,0,0
71879,-133.333333333333,3,3,16,30,0,0
72033,-133.333333333333,3,3,7,30,0,0
72187,-133.333333333333,3,3,2,30,0,0
72340,-133.333333333333,3,3,17,30,0,0
72956,-133.333333333333,3,3,4,30,0,0
73110,-133.333333333333,3,3,7,30,0,0
73263,-133.333333333333,3,3,16,30,0,0
73417,-133.333333333333,3,3,4,30,0,0
73725,-133.333333333333,3,3,16,30,0,0
73879,-133.333333333333,3,3,5,30,0,0
74033,-133.333333333333,3,3,3,30,0,0
74187,-133.333333333333,3,3,17,30,0,0
74494,-133.333333333333,3,3,16,30,0,0
74648,-133.333333333333,3,3,1,30,0,0
74802,-133.333333333333,3,3,4,30,0,0
74956,-133.333333333333,3,3,7,30,0,0
75110,-149.253731343284,3,3,4,30,0,0
75263,-133.333333333333,3,3,17,30,0,0
75417,-133.333333333333,3,3,16,30,0,0
75571,-133.333333333333,3,2,10,30,0,0
75879,-100,3,3,1,55,0,0
76187,-100,3,3,16,55,0,0
76340,-100,3,3,1,55,0,0
76494,-100,3,3,4,55,0,0
76802,-100,3,3,2,55,0,0
77110,-100,3,3,4,55,0,0
78340,-100,3,3,7,55,0,0
78648,-100,3,3,3,55,0,0
78956,-100,3,3,4,55,0,0
79263,-100,3,3,10,55,0,0
79571,-100,3,3,1,55,0,0
79879,-100,3,3,16,55,0,0
80033,-100,3,3,1,55,0,0
80187,-100,3,3,4,55,0,0
80494,-100,3,3,2,55,0,0
80802,-100,3,3,4,55,0,0
81725,-100,3,3,7,55,0,0
82033,-100,3,3,4,55,0,0
82340,-100,3,3,3,55,0,0
82494,-100,3,3,11,55,0,0
82648,-100,3,3,1,55,0,0
83571,-100,3,3,16,55,0,0
83725,-100,3,3,1,55,0,0
83879,-100,3,3,4,55,0,0
84187,-100,3,3,2,55,0,0
85110,-100,3,3,3,55,0,0
85417,-100,3,3,4,55,0,0
86033,-100,3,3,2,55,0,0
86340,-100,3,3,4,55,0,0
86956,-90.9090909090909,3,3,1,55,0,0
87263,-90.9090909090909,3,3,16,55,0,0
87417,-100,3,3,4,55,0,0
87879,-100,3,3,2,55,0,0
88187,-100,3,3,4,55,0,0
88802,-100,3,3,3,55,0,0
88956,-100,3,3,12,55,0,0
89263,-100,3,3,1,55,0,0
89417,-100,3,3,11,55,0,0
89725,-100,3,3,1,55,0,0
89879,-100,3,3,10,55,0,0
90187,-100,3,3,2,55,0,0
90648,-100,3,3,1,55,0,0
90956,-100,3,3,4,55,0,0
91571,-100,3,3,2,55,0,0
91879,-100,3,3,4,55,0,0
92802,-100,3,3,7,55,0,0
93110,-100,3,3,4,55,0,0
93417,-100,3,3,3,55,0,0
93725,-100,3,3,4,55,0,0
94263,-100,3,3,4,5,0,0
94340,-100,3,3,1,55,0,0
94648,-100,3,3,16,55,0,0
94802,-100,3,3,1,55,0,0
94956,-100,3,3,4,55,0,0
95263,-100,3,3,2,55,0,0
95571,-100,3,3,4,55,0,0
96494,-100,3,3,7,55,0,0
96802,-100,3,3,4,55,0,0
97110,-100,3,3,3,55,0,0
97340,-100,3,3,12,55,0,0
97417,-100,3,3,1,55,0,0
97571,-100,3,3,11,55,0,0
97879,-100,3,3,10,55,0,0
98033,-100,3,3,1,55,0,0
98340,-100,3,3,16,55,0,0
98494,-100,3,3,1,55,0,0
98648,-100,3,3,4,55,0,0
98956,-100,3,3,2,55,0,0
99263,-100,3,3,4,55,0,0
99879,-100,3,3,3,55,0,0
100187,-100,3,3,5,55,0,0
100340,-100,3,3,4,55,0,0
100648,-100,3,3,5,55,0,0
100802,-100,3,3,2,55,0,0
101110,-100,3,3,5,55,0,0
101263,-100,3,3,7,55,0,0
101571,-100,3,3,5,55,0,0
101725,-100,3,3,1,55,0,0
102033,-100,3,3,2,55,0,0
102263,-100,3,3,12,55,0,0
102648,-100,3,3,3,55,0,0
102802,-100,3,3,11,55,0,0
103110,-100,3,3,1,55,0,0
103263,-100,3,3,10,55,0,0
103571,-100,3,3,1,55,0,0
103725,-100,3,3,12,55,0,0
104033,-100,3,3,2,55,0,0
104187,-100,3,3,12,55,0,0
104340,-100,3,3,11,55,0,0
104494,-100,3,3,1,55,0,0
104571,-100,3,3,1,55,0,0
104648,-100,3,3,10,55,0,0
104802,-100,3,3,1,55,0,0
104956,-66.6666666666667,3,3,3,65,0,0
105417,-80,3,3,9,65,0,1
105571,-80,3,3,6,65,0,1
106033,-80,3,3,4,65,0,1
106340,-80,3,3,2,65,0,1
106571,-80,3,3,2,5,0,1
106648,-80,3,3,6,65,0,1
106879,-80,3,3,6,5,0,1
106956,-80,3,3,4,65,0,1
107187,-80,3,3,4,5,0,1
107263,-80,3,3,6,65,0,1
107879,-80,3,3,4,65,0,1
108187,-80,3,3,1,65,0,1
108417,-80,3,3,1,5,0,1
108494,-80,3,3,2,65,0,1
108725,-80,3,3,2,5,0,1
108802,-80,3,3,3,65,0,1
109033,-80,3,3,3,5,0,1
109110,-80,3,3,1,65,0,1
109417,-80,3,3,6,65,0,1
109725,-80,3,3,4,65,0,1
110033,-80,3,3,2,65,0,1
110340,-80,3,3,6,65,0,1
110648,-80,3,3,4,65,0,1
110956,-80,3,3,6,65,0,1
111571,-80,3,3,4,65,0,1
111879,-80,3,3,3,65,0,1
112187,-80,3,3,1,65,0,1
112340,-80,3,3,11,65,0,1
112494,-80,3,3,10,65,0,1
112725,-80,3,3,0,65,0,0
112802,-80,3,3,1,65,0,1
113110,-80,3,3,6,65,0,1
113417,-80,3,3,4,65,0,1
113725,-80,3,3,2,65,0,1
113956,-80,3,3,2,5,0,1
114033,-80,3,3,6,65,0,1
114263,-80,3,3,6,5,0,1
114340,-80,3,3,4,65,0,1
114571,-80,3,3,4,5,0,1
114648,-80,3,3,6,65,0,1
115263,-80,3,3,4,65,0,1
115571,-80,3,3,1,65,0,1
115802,-80,3,3,1,5,0,1
115879,-80,3,3,2,65,0,1
116110,-80,3,3,2,5,0,1
116187,-80,3,3,3,65,0,1
116417,-80,3,3,3,5,0,1
116494,-80,3,3,1,65,0,1
116802,-80,3,3,6,65,0,1
117110,-80,3,3,4,65,0,1
117417,-80,3,3,2,65,0,1
117725,-80,3,3,6,65,0,1
118033,-80,3,3,4,65,0,1
118340,-80,3,3,6,65,0,1
118956,-80,3,3,4,65,0,1
119263,-80,3,3,3,65,0,1
119494,-80,3,3,10,65,0,1
119725,-80,3,3,4,65,0,1
120110,-80,3,3,0,65,0,0
120187,-80,3,3,1,65,0,1
120494,-80,3,3,6,65,0,1
120802,-80,3,3,4,65,0,1
121110,-80,3,3,1,65,0,1
121340,-80,3,3,1,5,0,1
121417,-80,3,3,3,65,0,1
121648,-80,3,3,3,5,0,1
121725,-80,3,3,2,65,0,1
121956,-80,3,3,2,5,0,1
122033,-80,3,3,1,65,0,1
122340,-80,3,3,6,65,0,1
122648,-80,3,3,4,65,0,1
122956,-80,3,3,1,65,0,1
123187,-80,3,3,1,5,0,1
123263,-80,3,3,2,65,0,1
123494,-80,3,3,2,5,0,1
123571,-80,3,3,3,65,0,1
123802,-80,3,3,3,5,0,1
123879,-80,3,3,1,65,0,1
124187,-80,3,3,6,65,0,1
124494,-80,3,3,4,65,0,1
124802,-80,3,3,2,65,0,1
125110,-80,3,3,6,65,0,1
125417,-80,3,3,4,65,0,1
125725,-80,3,3,6,65,0,1
126340,-80,3,3,4,65,0,1
126648,-80,3,3,3,65,0,1
126802,-80,3,3,12,65,0,1
126956,-80,3,3,11,65,0,1
127110,-80,3,3,2,65,0,1
127263,-80,3,3,11,65,0,1
127340,-80,3,3,12,65,0,1
127494,-80,3,3,0,65,0,0
127571,-80,3,3,1,65,0,1
127879,-80,3,3,6,65,0,1
128187,-80,3,3,4,65,0,1
128494,-80,3,3,1,65,0,1
128725,-80,3,3,1,5,0,1
128802,-80,3,3,3,65,0,1
129033,-80,3,3,3,5,0,1
129110,-80,3,3,2,65,0,1
129340,-80,3,3,2,5,0,1
129417,-80,3,3,1,65,0,1
129725,-80,3,3,6,65,0,1
130033,-80,3,3,4,65,0,1
130340,-80,3,3,1,65,0,1
130571,-80,3,3,1,5,0,1
130648,-80,3,3,2,65,0,1
130879,-80,3,3,2,5,0,1
130956,-80,3,3,3,65,0,1
131187,-80,3,3,3,5,0,1
131263,-80,3,3,1,65,0,1
131571,-80,3,3,6,65,0,1
131879,-80,3,3,4,65,0,1
132187,-76.9230769230769,3,3,2,65,0,1
132494,-80,3,3,3,65,0,1
132802,-80,3,3,2,65,0,1
133110,-80,3,3,12,65,0,1
133494,-80,3,3,12,5,0,1
133571,-80,3,3,12,65,0,1
133802,-80,3,3,12,5,0,1
133879,-80,3,3,12,65,0,1
134033,-80,3,3,11,65,0,1
134494,-80,3,3,10,65,0,1
134802,-80,3,3,1,65,0,1
134956,-300,3,3,1,65,0,0
135110,-300,3,2,10,15,0,0
136802,-300,3,3,1,65,0,0
142340,-133.333333333333,3,2,10,30,0,0
143725,-133.333333333333,3,2,10,15,0,0
143879,-133.333333333333,3,2,10,30,0,0
144340,-133.333333333333,3,2,10,15,0,0
144648,-133.333333333333,3,2,10,30,0,0
145110,-133.333333333333,3,3,4,30,0,0
145263,-133.333333333333,3,2,10,30,0,0
145417,-133.333333333333,3,3,4,30,0,0
145571,-133.333333333333,3,2,10,30,0,0
145725,-133.333333333333,3,3,7,30,0,0
145879,-133.333333333333,3,2,10,30,0,0
146187,-133.333333333333,3,2,10,15,0,0
146494,-133.333333333333,3,2,10,30,0,0
147110,-133.333333333333,3,2,10,15,0,0
147263,-133.333333333333,3,2,10,30,0,0
147571,-133.333333333333,3,2,10,15,0,0
147725,-133.333333333333,3,2,10,30,0,0
147879,-166.666666666667,3,2,10,30,0,0
148033,-133.333333333333,3,2,10,15,0,0
148648,-133.333333333333,3,2,10,30,0,0
148956,-133.333333333333,3,2,10,15,0,0
149571,-133.333333333333,3,2,10,30,0,0
151110,-133.333333333333,3,2,10,15,0,0
151263,-133.333333333333,3,2,10,30,0,0
151725,-133.333333333333,3,2,10,15,0,0
152033,-133.333333333333,3,2,10,30,0,0
152494,-133.333333333333,3,3,4,30,0,0
152648,-133.333333333333,3,2,10,30,0,0
152802,-133.333333333333,3,3,4,30,0,0
152956,-133.333333333333,3,2,10,30,0,0
153110,-133.333333333333,3,3,7,30,0,0
153263,-133.333333333333,3,2,10,30,0,0
153571,-133.333333333333,3,2,10,15,0,0
153879,-133.333333333333,3,2,10,30,0,0
154494,-133.333333333333,3,2,10,15,0,0
154648,-133.333333333333,3,2,10,30,0,0
154956,-133.333333333333,3,2,10,15,0,0
155110,-133.333333333333,3,2,10,30,0,0
155263,-166.666666666667,3,2,10,30,0,0
155417,-133.333333333333,3,2,10,15,0,0
156033,-133.333333333333,3,2,10,30,0,0
156187,-166.666666666667,3,2,10,30,0,0
156340,-133.333333333333,3,2,10,15,0,0
156956,-133.333333333333,3,2,10,30,0,0
157110,-133.333333333333,3,3,4,30,0,0
157263,-133.333333333333,3,2,10,30,0,0
157879,-133.333333333333,3,3,5,30,0,0
158033,-133.333333333333,3,3,7,30,0,0
158187,-133.333333333333,3,2,10,30,0,0
158956,-133.333333333333,3,3,4,30,0,0
159110,-133.333333333333,3,2,10,30,0,0
159725,-133.333333333333,3,3,5,30,0,0
159879,-133.333333333333,3,3,7,30,0,0
160033,-133.333333333333,3,2,10,30,0,0
160802,-133.333333333333,3,3,4,30,0,0
160956,-133.333333333333,3,2,10,30,0,0
161571,-133.333333333333,3,3,5,30,0,0
161725,-133.333333333333,3,3,7,30,0,0
161879,-133.333333333333,3,2,10,30,0,0
162648,-133.333333333333,3,3,4,30,0,0
162802,-133.333333333333,3,2,10,30,0,0
163417,-133.333333333333,3,3,5,30,0,0
163571,-133.333333333333,3,3,7,30,0,0
163725,-133.333333333333,3,2,10,30,0,0
164494,-133.333333333333,3,3,4,45,0,0
164648,-133.333333333333,3,3,16,45,0,0
164956,-133.333333333333,3,3,1,45,0,0
165417,-133.333333333333,3,3,7,45,0,0
165879,-133.333333333333,3,3,4,45,0,0
166340,-133.333333333333,3,3,5,45,0,0
166802,-133.333333333333,3,3,3,45,0,0
167263,-133.333333333333,3,3,7,45,0,0
167725,-133.333333333333,3,3,4,45,0,0
168187,-133.333333333333,3,3,5,45,0,0
168648,-133.333333333333,3,3,2,45,0,0
169110,-133.333333333333,3,3,7,45,0,0
169571,-83.3333333333333,3,3,8,65,0,0
169956,-83.3333333333333,3,3,8,5,0,0
170033,-100,3,3,1,65,0,0
170263,-133.333333333333,3,3,1,65,0,0
170956,-133.333333333333,3,3,4,65,0,0
171110,-133.333333333333,3,3,12,65,0,0
171263,-133.333333333333,3,3,11,65,0,0
171571,-133.333333333333,3,3,10,65,0,0
171879,-120.481927710843,3,3,1,65,0,0
172340,-100,3,3,7,65,0,0
172802,-100,3,3,4,65,0,0
173263,-100,3,3,7,65,0,0
173725,-100,3,3,4,65,0,0
174187,-100,3,3,7,65,0,0
174648,-100,3,3,1,65,0,0
174879,-100,3,3,1,5,0,0
174956,-100,3,3,2,65,0,0
175187,-100,3,3,2,5,0,0
175263,-100,3,3,3,65,0,0
175494,-100,3,3,3,5,0,0
175571,-100,3,3,1,65,0,0
176033,-100,3,3,7,65,0,0
176494,-100,3,3,2,65,0,0
176725,-100,3,3,11,65,0,0
176956,-100,3,3,7,65,0,0
177417,-100,3,3,3,65,0,0
177879,-100,3,3,7,65,0,0
178340,-100,3,3,2,65,0,0
178494,-100,3,3,12,65,0,0
178648,-100,3,3,11,65,0,0
178956,-100,3,3,10,65,0,0
179263,-97.0873786407767,3,3,1,65,0,0
179725,-100,3,3,7,65,0,0
180417,-100,3,3,7,5,0,0
180494,-100,3,3,7,65,0,0
180725,-100,3,3,7,5,0,0
180802,-100,3,3,7,65,0,0
181033,-100,3,3,7,5,0,0
181110,-100,3,3,3,65,0,0
181571,-100,3,3,7,65,0,0
182033,-100,3,3,1,65,0,0
182263,-100,3,3,1,5,0,0
182340,-100,3,3,2,65,0,0
182571,-100,3,3,2,5,0,0
182648,-100,3,3,3,65,0,0
182879,-100,3,3,3,5,0,0
182956,-100,3,3,1,65,0,0
183263,-100,3,3,6,65,0,0
183571,-100,3,3,7,65,0,0
184340,-100,3,3,12,65,0,0
184494,-100,3,3,11,65,0,0
184648,-100,3,3,10,65,0,0
184802,-100,3,3,1,65,0,0
184879,-100,3,3,12,65,0,0
184956,-100,3,3,12,65,0,0
185033,-100,3,3,12,65,0,0
185110,-100,3,3,1,65,0,0
185340,-100,3,3,11,65,0,0
185417,-100,3,3,1,65,0,0
185494,-100,3,3,11,65,0,0
185571,-100,3,3,1,65,0,0
185802,-100,3,3,12,65,0,0
185879,-100,3,3,1,65,0,0
185956,-100,3,3,12,65,0,0
186033,-100,3,3,1,65,0,0
186417,-100,3,3,1,65,0,0
187110,-100,3,3,4,65,0,0
187571,-100,3,3,7,65,0,0
188033,-100,3,3,4,65,0,0
188494,-100,3,3,7,65,0,0
188956,-100,3,3,4,65,0,0
189340,-100,3,3,4,5,0,0
189417,-100,3,3,7,65,0,0
189879,-100,3,3,2,65,0,0
190033,-100,3,3,12,65,0,0
190340,-100,3,3,1,65,0,0
190802,-100,3,3,4,65,0,0
191187,-100,3,3,4,5,0,0
191263,-100,3,3,7,65,0,0
191725,-100,3,3,4,65,0,0
192187,-100,3,3,7,65,0,0
192648,-100,3,3,2,65,0,0
193033,-100,3,3,2,5,0,0
193110,-100,3,3,2,65,0,0
193263,-100,3,3,12,65,0,0
193417,-100,3,3,11,65,0,0
193725,-100,3,3,12,65,0,0
194033,-100,3,3,1,65,0,0
194187,-100,3,3,6,65,0,0
194956,-100,3,3,1,65,0,0
195263,-100,3,3,2,65,0,0
195571,-100,3,3,3,65,0,0
195879,-100,3,3,2,65,0,0
196340,-100,3,3,1,65,0,0
196494,-100,3,3,6,65,0,0
197725,-100,3,3,1,65,0,0
198033,-100,3,3,6,65,0,0
198340,-100,3,3,4,65,0,0
198648,-100,3,3,2,65,0,0
198802,-100,3,3,12,65,0,0
198956,-100,3,3,11,65,0,0
199263,-100,3,3,10,65,0,0
199571,-100,3,3,1,65,0,0
199648,-100,3,3,12,65,0,0
199725,-100,3,3,1,65,0,0
199802,-100,3,3,12,65,0,0
199879,-100,3,3,1,65,0,0
200033,-100,3,3,2,65,0,0
200110,-100,3,3,11,65,0,0
200187,-100,3,3,1,65,0,0
200263,-100,3,3,11,65,0,0
200340,-100,3,3,1,65,0,0
200505,285.714285714286,3,3,3,65,1,0
200505,-100,3,3,3,65,0,0
200576,-100,3,3,10,65,0,0
200647,333.333333333333,3,3,1,65,1,0
200647,-100,3,3,1,65,0,0
200730,-100,3,3,10,65,0,0
200813,314.13612565445,3,3,1,65,1,0
200813,-100,3,3,1,65,0,0
200970,-100,3,3,2,65,0,0
201048,-100,3,3,12,65,0,0
201127,290.556900726392,3,3,11,65,1,0
201127,-100,3,3,11,65,0,0
201272,-100,3,3,10,65,0,0
201417,346.820809248555,4,3,1,65,1,0
201417,-133.333333333333,4,3,1,65,0,0
201648,-133.333333333333,4,3,4,65,0,0
202110,-133.333333333333,4,3,7,65,0,0
202341,-133.333333333333,4,3,4,65,0,0
202804,348.837209302326,4,3,4,65,1,0
202804,-133.333333333333,4,3,4,65,0,0
202978,-133.333333333333,4,3,4,5,0,0
203036,-133.333333333333,4,3,4,65,0,0
203327,-133.333333333333,4,3,4,5,0,0
203385,-133.333333333333,4,3,4,65,0,0
203501,-133.333333333333,4,3,7,65,0,0
203734,-133.333333333333,4,3,11,65,0,0
203966,-133.333333333333,4,3,10,65,0,0
204199,342.857142857143,4,3,1,65,1,0
204199,-133.333333333333,4,3,1,65,0,0
204427,-133.333333333333,4,3,6,65,0,0
204770,-133.333333333333,4,3,4,65,0,0
204884,-133.333333333333,4,3,2,65,0,0
205113,-133.333333333333,4,3,12,65,0,0
205170,-133.333333333333,4,3,11,65,0,0
205284,-133.333333333333,4,3,10,65,0,0
205574,464.396284829721,4,3,1,65,1,0
205574,-100,4,3,1,65,0,0
205960,-100,4,3,1,5,0,0
206038,-117.647058823529,4,3,2,65,0,0
206425,-117.647058823529,4,3,2,5,0,0
206502,-142.857142857143,4,3,3,65,0,0
206889,-142.857142857143,4,3,3,5,0,0
206967,-181.818181818182,4,3,2,65,0,0
207354,-181.818181818182,4,3,2,5,0,0
207431,345.323741007194,4,3,1,65,1,0
207431,-133.333333333333,4,3,1,65,0,0
207661,-133.333333333333,4,3,4,65,0,0
208121,-133.333333333333,4,3,7,65,0,0
208351,-133.333333333333,4,3,4,65,0,0
208812,345.821325648415,4,3,4,65,1,0
208812,-133.333333333333,4,3,4,65,0,0
208984,-133.333333333333,4,3,4,5,0,0
209042,-133.333333333333,4,3,4,65,0,0
209330,-133.333333333333,4,3,4,5,0,0
209388,-133.333333333333,4,3,4,65,0,0
210195,-133.333333333333,4,3,1,65,0,0
210425,-133.333333333333,4,3,6,65,0,0
210771,-133.333333333333,4,3,4,65,0,0
210886,-133.333333333333,4,3,2,65,0,0
211117,-133.333333333333,4,3,3,65,0,0
211348,-133.333333333333,4,3,2,65,0,0
211561,461.538461538462,4,3,1,65,1,0
211561,-100,4,3,1,65,0,0
211945,-100,4,3,1,5,0,0
212022,-117.647058823529,4,3,12,65,0,0
212253,-117.647058823529,4,3,1,65,0,0
212484,-142.857142857143,4,3,11,65,0,0
212714,-142.857142857143,4,3,1,65,0,0
212945,-181.818181818182,4,3,2,65,0,0
213176,-181.818181818182,4,3,10,65,0,0
213424,346.820809248555,4,3,1,65,1,0
213424,-100,4,3,1,65,0,0
213655,-100,4,3,4,65,0,0
214117,-100,4,3,2,65,0,0
214348,-100,4,3,4,65,0,0
214984,-100,4,3,4,5,0,0
215042,-100,4,3,4,65,0,0
215331,-100,4,3,4,5,0,0
215389,-100,4,3,4,65,0,0
215736,-100,4,3,11,65,0,0
215967,-100,4,3,10,65,0,0
216198,-100,4,3,1,65,0,0
216314,-100,4,3,12,65,0,0
216429,-100,4,3,1,65,0,0
216545,-100,4,3,6,65,0,0
216776,-100,4,3,4,65,0,0
216892,-100,4,3,2,65,0,0
217007,-100,4,3,3,65,0,0
217123,307.692307692308,4,3,12,65,1,0
217123,-100,4,3,12,65,0,0
217276,-100,4,3,11,65,0,0
217430,-100,4,3,10,65,0,0
217585,306.122448979592,3,3,1,65,1,0
217585,-133.333333333333,3,3,1,65,0,0
218044,-133.333333333333,3,3,4,65,0,0
218579,-133.333333333333,3,3,12,65,0,0
218809,-133.333333333333,3,3,11,65,0,0
219115,-133.333333333333,3,3,10,65,0,0
219421,307.692307692308,3,3,1,65,1,0
219421,-192.307692307692,3,3,1,65,0,0
219574,-192.307692307692,3,2,10,15,0,0
220344,-192.307692307692,3,3,4,65,0,0
221267,-192.307692307692,3,3,2,65,0,0
221421,-192.307692307692,3,2,10,15,0,0
222036,-192.307692307692,3,3,2,65,0,0
222651,-192.307692307692,3,3,3,65,0,0
223113,-192.307692307692,3,3,2,65,0,0
223267,-192.307692307692,3,2,10,15,0,0
224036,-192.307692307692,3,3,3,65,0,0
224344,-192.307692307692,3,3,2,65,0,0
224651,-192.307692307692,3,3,1,65,0,0
224959,-192.307692307692,3,3,2,65,0,0
225421,-192.307692307692,3,3,3,65,0,0
226036,-192.307692307692,3,3,12,65,0,0
226190,-192.307692307692,3,3,1,65,0,0
226344,-192.307692307692,3,3,11,65,0,0
226497,-192.307692307692,3,3,10,65,0,0
226805,-192.307692307692,3,3,1,65,0,0
226959,-192.307692307692,3,2,10,15,0,0
227267,-192.307692307692,3,3,4,65,0,0
227779,-192.307692307692,3,3,11,65,0,0
227831,-192.307692307692,3,3,12,65,0,0
228036,-192.307692307692,3,3,11,65,0,0
228344,-192.307692307692,3,3,10,65,0,0
228651,-192.307692307692,3,3,2,65,0,0
229113,-192.307692307692,3,3,3,65,0,0
230190,-192.307692307692,3,3,11,65,0,0
230344,-192.307692307692,3,3,10,65,0,0
230497,-192.307692307692,3,3,2,65,0,0
230651,-192.307692307692,3,2,10,15,0,0
231421,-192.307692307692,3,3,12,65,0,0
231728,-192.307692307692,3,3,11,65,0,0
232036,-192.307692307692,3,3,10,65,0,0
232344,-192.307692307692,3,3,1,65,0,0
232497,-192.307692307692,3,2,10,15,0,0
232805,-192.307692307692,3,3,2,65,0,0
233728,-192.307692307692,3,3,12,65,0,0
233882,-192.307692307692,3,3,11,65,0,0
234036,-192.307692307692,3,3,10,65,0,0
234190,-100,3,3,1,65,0,0
234497,-100,3,3,4,65,0,0
235113,-100,3,3,2,65,0,0
235421,-100,3,3,4,65,0,0
236344,-100,3,3,7,65,0,0
236651,-100,3,3,4,65,0,0
236959,-100,3,3,3,65,0,0
237267,-100,3,3,4,65,0,0
237882,-100,3,3,1,65,0,0
238190,-100,3,3,16,65,0,0
238344,-100,3,3,1,65,0,0
238497,-100,3,3,4,65,0,0
238805,-100,3,3,2,65,0,0
239113,-100,3,3,4,65,0,0
240036,-100,3,3,7,65,0,0
240344,-100,3,3,4,65,0,0
241113,-100,3,3,12,65,0,0
241267,-100,3,3,11,65,0,0
241421,-100,3,3,10,65,0,0
241574,-100,3,3,1,65,0,0
241882,-100,3,3,16,65,0,0
242036,-100,3,3,1,65,0,0
242190,-100,3,3,4,65,0,0
242497,-100,3,3,2,65,0,0
242805,-100,3,3,4,65,0,0
243421,-100,3,3,1,65,0,0
243882,-100,3,3,2,65,0,0
244344,-100,3,3,3,65,0,0
244805,-100,3,3,2,65,0,0
245267,-100,3,3,1,65,0,0
245882,-100,3,3,11,65,0,0
246036,-100,3,3,12,65,0,0
246190,-100,3,3,1,65,0,0
247113,-100,3,3,2,65,0,0
247728,-100,3,3,11,65,0,0
247882,-100,3,3,12,65,0,0
248036,-100,3,3,1,65,0,0
248267,-100,3,3,1,5,0,0
248344,-100,3,3,1,65,0,0
248959,309.278350515464,3,3,1,65,1,0
248959,-100,3,3,1,65,0,0
249886,-100,3,3,6,65,0,0
250505,-100,3,3,4,65,0,0
250814,322.58064516129,3,3,1,65,1,0
250814,-94.3396226415094,4,3,1,65,0,0
250975,-94.3396226415094,4,2,10,15,0,0
251297,-94.3396226415094,4,3,1,5,0,0
251459,314.13612565445,3,3,2,65,1,0
251459,-107.52688172043,4,3,2,65,0,0
251616,-107.52688172043,4,2,10,15,0,0
251930,-107.52688172043,4,3,2,5,0,0
252087,456.273764258555,4,3,3,65,1,0
252087,-133.333333333333,4,3,3,65,0,0
252315,-133.333333333333,4,2,10,15,0,0
252885,-133.333333333333,4,3,3,5,0,0
252999,-156.25,4,3,2,65,0,0
253227,-156.25,4,2,10,15,0,0
253798,-156.25,4,3,2,5,0,0
253912,307.692307692308,3,3,1,65,1,0
253912,-329,3,3,1,65,0,0
254065,-329,3,2,10,15,0,0
255604,-329,3,3,1,5,0,0
255758,-329,3,3,1,65,0,0
255912,-329,3,2,10,15,0,0
257450,-329,3,3,1,5,0,0
257604,-225,3,3,2,65,0,0
257758,-225,3,2,10,15,0,0
258373,-225,3,3,2,5,0,0
258527,-181.818181818182,3,3,1,65,0,0
258681,-181.818181818182,3,2,10,15,0,0
259296,-181.818181818182,3,3,1,5,0,0
259450,-133.333333333333,3,3,3,65,0,0
260527,-133.333333333333,3,3,12,65,0,0
260681,-133.333333333333,3,3,11,65,0,0
260988,-133.333333333333,3,3,10,65,0,0
261296,-200,3,3,1,65,0,0
261450,-200,3,2,10,15,0,0
262065,-200,3,3,1,65,0,0
262450,-200,3,3,1,5,0,0
262527,-200,3,3,1,65,0,0
262758,-200,3,3,15,5,0,0
262835,-200,3,3,1,65,0,0
263142,-133.333333333333,3,3,1,65,0,0
264373,-133.333333333333,3,3,10,65,0,0
264527,-133.333333333333,3,3,1,65,0,0
264681,-133.333333333333,3,3,10,65,0,0
264835,-133.333333333333,3,3,1,65,0,0
264988,-100,3,3,1,65,0,0
265296,-100,3,3,12,65,0,0
265450,-133.333333333333,3,3,12,65,0,0
265604,-133.333333333333,3,3,11,65,0,0
265758,-133.333333333333,3,3,10,65,0,0
265912,-133.333333333333,3,3,1,65,0,0
266835,-133.333333333333,3,3,3,65,0,0
267296,-133.333333333333,3,3,2,65,0,0
267758,-100,3,3,1,65,0,0
267835,-100,3,3,11,65,0,0
267912,-100,3,3,1,65,0,0
267988,-100,3,3,12,65,0,0
268065,-100,3,3,1,65,0,0
268219,-66.6666666666667,3,3,3,65,0,0
268681,-80,3,3,9,65,0,1
268835,-80,3,3,1,65,0,1
268988,-80,3,3,6,65,0,1
269296,-80,3,3,4,65,0,1
269604,-80,3,3,2,65,0,1
269835,-80,3,3,2,5,0,1
269912,-80,3,3,6,65,0,1
270142,-80,3,3,6,5,0,1
270219,-80,3,3,4,65,0,1
270450,-80,3,3,4,5,0,1
270527,-80,3,3,6,65,0,1
271142,-80,3,3,4,65,0,1
271450,-80,3,3,1,65,0,1
271681,-80,3,3,1,5,0,1
271758,-80,3,3,2,65,0,1
271988,-80,3,3,2,5,0,1
272065,-80,3,3,3,65,0,1
272296,-80,3,3,3,5,0,1
272373,-80,3,3,1,65,0,1
272681,-80,3,3,6,65,0,1
272988,-80,3,3,4,65,0,1
273296,-80,3,3,2,65,0,1
273604,-80,3,3,6,65,0,1
273912,-80,3,3,4,65,0,1
274219,-80,3,3,3,65,0,1
274527,-80,3,3,6,65,0,1
274835,-80,3,3,4,65,0,1
275142,-80,3,3,2,65,0,1
275604,-80,3,3,12,65,0,1
275758,-80,3,3,11,65,0,1
275912,-80,3,3,10,65,0,1
275988,-80,3,3,0,65,0,0
276065,-80,3,3,1,65,0,1
276373,-80,3,3,6,65,0,1
276681,-80,3,3,4,65,0,1
276988,-80,3,3,2,65,0,1
277219,-80,3,3,2,5,0,1
277296,-80,3,3,6,65,0,1
277527,-80,3,3,6,5,0,1
277604,-80,3,3,4,65,0,1
277835,-80,3,3,4,5,0,1
277912,-80,3,3,6,65,0,1
278527,-80,3,3,4,65,0,1
278835,-80,3,3,1,65,0,1
279065,-80,3,3,1,5,0,1
279142,-80,3,3,2,65,0,1
279373,-80,3,3,2,5,0,1
279450,-80,3,3,3,65,0,1
279681,-80,3,3,3,5,0,1
279758,-80,3,3,1,65,0,1
280065,-80,3,3,6,65,0,1
280373,-80,3,3,4,65,0,1
280681,-80,3,3,2,65,0,1
280988,-80,3,3,6,65,0,1
281296,-80,3,3,4,65,0,1
281604,-80,3,3,6,65,0,1
282988,-80,3,3,4,65,0,1
283373,-80,3,3,0,65,0,0
283450,-80,3,3,1,65,0,1
283758,-80,3,3,6,65,0,1
284065,-80,3,3,4,65,0,1
284373,-80,3,3,2,65,0,1
284604,-80,3,3,2,5,0,1
284681,-80,3,3,6,65,0,1
284912,-80,3,3,6,5,0,1
284988,-80,3,3,4,65,0,1
285219,-80,3,3,4,5,0,1
285296,-80,3,3,6,65,0,1
285912,-80,3,3,4,65,0,1
286219,-80,3,3,1,65,0,1
286450,-80,3,3,1,5,0,1
286527,-80,3,3,2,65,0,1
286758,-80,3,3,2,5,0,1
286835,-80,3,3,3,65,0,1
287065,-80,3,3,3,5,0,1
287142,-80,3,3,1,65,0,1
287450,-80,3,3,6,65,0,1
287758,-80,3,3,4,65,0,1
288065,-80,3,3,2,65,0,1
288373,-80,3,3,6,65,0,1
288681,-80,3,3,4,65,0,1
288988,-80,3,3,3,65,0,1
289604,-80,3,3,6,65,0,1
289912,-80,3,3,2,65,0,1
290373,-80,3,3,12,65,0,1
290527,-80,3,3,11,65,0,1
290681,-80,3,3,10,65,0,1
290758,-80,3,3,0,65,0,0
290835,-80,3,3,1,65,0,1
291142,-80,3,3,6,65,0,1
291450,-80,3,3,4,65,0,1
291758,-80,3,3,2,65,0,1
291988,-80,3,3,2,5,0,1
292065,-80,3,3,6,65,0,1
292296,-80,3,3,6,5,0,1
292373,-80,3,3,4,65,0,1
292604,-80,3,3,4,5,0,1
292681,-80,3,3,6,65,0,1
293296,-80,3,3,4,65,0,1
293604,-80,3,3,1,65,0,1
293835,-80,3,3,1,5,0,1
293912,-80,3,3,2,65,0,1
294142,-80,3,3,2,5,0,1
294219,-80,3,3,3,65,0,1
294450,-80,3,3,3,5,0,1
294527,-80,3,3,1,65,0,1
294835,-80,3,3,6,65,0,1
295142,-80,3,3,4,65,0,1
295450,-80,3,3,2,65,0,1
295758,-80,3,3,6,65,0,1
296065,-80,3,3,4,65,0,1
296373,-80,3,3,6,65,0,1
296988,-80,3,3,4,65,0,1
298142,-80,3,3,0,65,0,0
298219,-80,3,3,1,65,0,1
298527,-80,3,3,6,65,0,1
298835,-80,3,3,4,65,0,1
299142,-80,3,3,2,65,0,0
299373,-80,3,3,2,5,0,0
299450,-80,3,3,6,65,0,0
299681,-80,3,3,6,5,0,0
299758,-80,3,3,4,65,0,0
299988,-80,3,3,4,5,0,0
300065,-80,3,3,6,65,0,0
300681,-80,3,3,4,65,0,0
300988,-80,3,3,1,65,0,0
301296,-80,3,3,2,65,0,0
301604,-80,3,3,3,65,0,0
301835,-80,3,3,3,5,0,0
301912,-80,3,3,1,65,0,0
302219,-80,3,3,6,65,0,0
302527,-80,3,3,4,65,0,0
302835,-80,3,3,2,65,0,0
303065,-80,3,3,2,5,0,0
303142,-80,3,3,6,65,0,0
303373,-80,3,3,6,5,0,0
303450,-80,3,3,4,65,0,0
303681,-80,3,3,4,5,0,0
303758,-80,3,3,3,65,0,0
304065,-80,3,3,6,65,0,0
304373,-80,3,3,4,65,0,0
304681,-80,3,3,2,65,0,0
304835,-80,3,3,12,65,0,0
304988,-80,3,3,11,65,0,0
305296,-80,3,3,10,65,0,0
305604,-80,3,3,1,65,0,0
305912,-80,3,3,6,65,0,0
306219,-80,3,3,4,65,0,0
306527,-80,3,3,2,65,0,0
306758,-80,3,3,2,5,0,0
306835,-80,3,3,6,65,0,0
307065,-80,3,3,6,5,0,0
307142,-80,3,3,4,65,0,0
307373,-80,3,3,4,5,0,0
307450,-80,3,3,6,65,0,0
308065,-80,3,3,4,65,0,0
308373,-80,3,3,1,65,0,0
308681,-80,3,3,2,65,0,0
308988,-80,3,3,3,65,0,0
309219,-80,3,3,3,5,0,0
309296,-80,3,3,1,65,0,0
309604,-80,3,3,6,65,0,0
309912,-80,3,3,4,65,0,0
310219,-80,3,3,2,65,0,0
310450,-80,3,3,2,5,0,0
310527,-80,3,3,6,65,0,0
310758,-80,3,3,6,5,0,0
310835,-80,3,3,4,65,0,0
311065,-80,3,3,4,5,0,0
311142,-80,3,3,6,65,0,0
311450,-80,3,3,19,65,0,0
311604,-80,3,3,1,65,0,0
311758,-80,3,3,6,65,0,0
311912,-80,3,3,4,65,0,0
312065,-80,3,3,3,65,0,0
312373,-80,3,3,12,65,0,0
312988,-80,3,3,9,80,0,1
313142,-80,3,3,1,80,0,1
313450,-80,3,3,2,80,0,1
313604,-80,3,3,3,80,0,1
313758,-100,3,3,2,80,0,1
313911,-76.9230769230769,3,3,1,80,0,1
314142,-76.9230769230769,3,3,1,5,0,1
314219,-76.9230769230769,3,3,2,80,0,1
314450,-76.9230769230769,3,3,2,5,0,1
314527,-76.9230769230769,3,3,3,80,0,1
314758,-76.9230769230769,3,3,3,5,0,1
314834,-76.9230769230769,3,3,1,80,0,1
315142,-76.9230769230769,3,3,6,80,0,1
315450,-76.9230769230769,3,3,4,80,0,1
315758,-76.9230769230769,3,3,2,80,0,1
315988,-76.9230769230769,3,3,2,5,0,1
316065,-76.9230769230769,3,3,3,80,0,1
316296,-76.9230769230769,3,3,3,5,0,1
316373,-76.9230769230769,3,3,2,80,0,1
316604,-76.9230769230769,3,3,2,5,0,1
316681,-76.9230769230769,3,3,1,80,0,1
316988,-76.9230769230769,3,3,6,80,0,1
317296,-76.9230769230769,3,3,4,80,0,1
317604,-76.9230769230769,3,3,2,80,0,1
317911,-76.9230769230769,3,3,6,80,0,1
318219,-76.9230769230769,3,3,4,80,0,1
318527,-76.9230769230769,3,3,1,80,0,1
318834,-76.9230769230769,3,3,6,80,0,1
318988,-76.9230769230769,3,3,2,80,0,1
319142,-76.9230769230769,3,3,4,80,0,1
319450,-76.9230769230769,3,3,3,80,0,1
319604,-76.9230769230769,3,3,12,80,0,1
319758,-76.9230769230769,3,3,11,80,0,1
319911,-76.9230769230769,3,3,2,80,0,1
320065,-76.9230769230769,3,3,11,80,0,1
320142,-76.9230769230769,3,3,10,80,0,1
320296,-76.9230769230769,3,3,0,80,0,0
320373,-76.9230769230769,3,3,9,80,0,1
320527,-76.9230769230769,3,3,1,80,0,1
320834,-76.9230769230769,3,3,2,80,0,1
320988,-76.9230769230769,3,3,3,80,0,1
321142,-76.9230769230769,3,3,2,80,0,1
321296,-76.9230769230769,3,3,1,80,0,1
321527,-76.9230769230769,3,3,1,5,0,1
321604,-76.9230769230769,3,3,2,80,0,1
321835,-76.9230769230769,3,3,2,5,0,1
321911,-76.9230769230769,3,3,3,80,0,1
322142,-76.9230769230769,3,3,3,5,0,1
322219,-76.9230769230769,3,3,1,80,0,1
322527,-76.9230769230769,3,3,6,80,0,1
322834,-76.9230769230769,3,3,4,80,0,1
323142,-76.9230769230769,3,3,2,80,0,1
323373,-76.9230769230769,3,3,2,5,0,1
323450,-76.9230769230769,3,3,3,80,0,1
323681,-76.9230769230769,3,3,3,5,0,1
323758,-76.9230769230769,3,3,2,80,0,1
323988,-76.9230769230769,3,3,2,5,0,1
324065,-76.9230769230769,3,3,1,80,0,1
324373,-76.9230769230769,3,3,6,80,0,1
324681,-76.9230769230769,3,3,4,80,0,1
324988,-76.9230769230769,3,3,2,80,0,1
325296,-76.9230769230769,3,3,6,80,0,1
325604,-76.9230769230769,3,3,4,80,0,1
325911,-76.9230769230769,3,3,1,80,0,1
326373,-76.9230769230769,3,3,2,80,0,1
326834,-76.9230769230769,3,3,3,80,0,1
327296,-76.9230769230769,3,3,2,80,0,1
327681,-76.9230769230769,3,3,0,80,0,0
327758,-80,3,3,9,80,0,1
327911,-80,3,3,1,80,0,1
328219,-76.9230769230769,3,3,2,80,0,1
328373,-76.9230769230769,3,3,3,80,0,1
328527,-76.9230769230769,3,3,2,80,0,1
328681,-80,3,3,1,80,0,1
328912,-80,3,3,1,5,0,1
328988,-80,3,3,2,80,0,1
329219,-80,3,3,2,5,0,1
329296,-80,3,3,3,80,0,1
329527,-80,3,3,3,5,0,1
329604,-80,3,3,1,80,0,1
329835,-80,3,3,1,5,0,1
329911,-80,3,3,6,80,0,1
330219,-80,3,3,4,80,0,1
330527,-80,3,3,2,80,0,1
330758,-80,3,3,2,5,0,1
330834,-80,3,3,3,80,0,1
331142,-80,3,3,2,80,0,1
331450,-80,3,3,1,80,0,1
331758,-80,3,3,6,80,0,1
332065,-80,3,3,4,80,0,1
332373,-80,3,3,2,80,0,1
332681,-80,3,3,6,80,0,1
332988,-80,3,3,4,80,0,1
333296,-80,3,3,1,80,0,1
333604,-80,3,3,6,80,0,1
333758,-80,3,3,2,80,0,1
333911,-80,3,3,4,80,0,1
334219,-80,3,3,3,80,0,1
334681,-80,3,3,2,80,0,1
335065,-80,3,3,0,80,0,0
335142,-80,3,3,9,80,0,1
335296,-80,3,3,1,80,0,1
335604,-80,3,3,2,80,0,1
335758,-80,3,3,3,80,0,1
335911,-80,3,3,2,80,0,1
336065,-80,3,3,1,80,0,1
336296,-80,3,3,1,5,0,1
336373,-80,3,3,2,80,0,1
336604,-80,3,3,2,5,0,1
336681,-80,3,3,3,80,0,1
336912,-80,3,3,3,5,0,1
336988,-80,3,3,1,80,0,1
337219,-80,3,3,1,5,0,1
337296,-80,3,3,6,80,0,1
337604,-80,3,3,4,80,0,1
337911,-80,3,3,2,80,0,1
338142,-80,3,3,2,5,0,1
338219,-80,3,3,3,80,0,1
338527,-80,3,3,2,80,0,1
338834,-80,3,3,1,80,0,1
339142,-80,3,3,6,80,0,1
339450,-80,3,3,4,80,0,1
339758,-80,3,3,2,80,0,1
340065,-80,3,3,6,80,0,1
340373,-80,3,3,4,80,0,1
340681,-80,3,3,3,80,0,1
341142,-80,3,3,2,80,0,1
341604,-80,3,3,3,80,0,1
342065,-80,3,3,12,80,0,1
342219,-80,3,3,11,80,0,1
342373,-80,3,3,10,80,0,1
342450,-80,3,3,0,80,0,0
342527,-80,3,3,9,80,0,1
342681,-80,3,3,1,80,0,1
342988,-80,3,3,2,80,0,1
343142,-80,3,3,3,80,0,1
343296,-80,3,3,2,80,0,1
343450,-83.3333333333333,3,3,1,80,0,1
343681,-83.3333333333333,3,3,1,5,0,1
343758,-83.3333333333333,3,3,2,80,0,1
343988,-83.3333333333333,3,3,2,5,0,1
344065,-83.3333333333333,3,3,3,80,0,1
344296,-83.3333333333333,3,3,3,5,0,1
344373,-83.3333333333333,3,3,1,80,0,1
344604,-83.3333333333333,3,3,1,5,0,1
344681,-83.3333333333333,3,3,6,80,0,1
344988,-83.3333333333333,3,3,4,80,0,1
345296,-83.3333333333333,3,3,2,80,0,1
345527,-83.3333333333333,3,3,2,5,0,1
345604,-83.3333333333333,3,3,3,80,0,1
345911,-83.3333333333333,3,3,2,80,0,1
346219,-83.3333333333333,3,3,1,80,0,1
346527,-83.3333333333333,3,3,6,80,0,1
346834,-83.3333333333333,3,3,4,80,0,1
347142,-83.3333333333333,3,3,2,80,0,1
347450,-83.3333333333333,3,3,6,80,0,1
347758,-83.3333333333333,3,3,4,80,0,1
348065,-83.3333333333333,3,3,1,80,0,1
348373,-83.3333333333333,3,3,4,80,0,1
348527,-83.3333333333333,3,3,2,80,0,1
348681,-83.3333333333333,3,3,4,80,0,1
348988,-83.3333333333333,3,3,3,80,0,1
349142,-83.3333333333333,3,3,12,80,0,1
349296,-83.3333333333333,3,3,11,80,0,1
349450,-83.3333333333333,3,3,2,80,0,1
349604,-83.3333333333333,3,3,10,80,0,1
349835,-83.3333333333333,3,3,0,80,0,0
349912,-83.3333333333333,3,3,9,80,0,1
350065,-83.3333333333333,3,3,1,80,0,1
350373,-83.3333333333333,3,3,2,80,0,1
350527,-83.3333333333333,3,3,3,80,0,1
350681,-83.3333333333333,3,3,2,80,0,1
350834,-83.3333333333333,3,3,1,80,0,1
351065,-83.3333333333333,3,3,1,5,0,1
351142,-83.3333333333333,3,3,2,80,0,1
351373,-83.3333333333333,3,3,2,5,0,1
351450,-83.3333333333333,3,3,3,80,0,1
351681,-83.3333333333333,3,3,3,5,0,1
351758,-83.3333333333333,3,3,1,80,0,1
351988,-83.3333333333333,3,3,1,5,0,1
352065,-83.3333333333333,3,3,6,80,0,1
352373,-83.3333333333333,3,3,4,80,0,1
352681,-83.3333333333333,3,3,2,80,0,1
352912,-83.3333333333333,3,3,2,5,0,1
352988,-83.3333333333333,3,3,3,80,0,1
353296,-83.3333333333333,3,3,2,80,0,1
353604,-83.3333333333333,3,3,1,80,0,1
353911,-83.3333333333333,3,3,6,80,0,1
354219,-83.3333333333333,3,3,4,80,0,1
354527,-83.3333333333333,3,3,2,80,0,1
354834,-83.3333333333333,3,3,6,80,0,1
355142,-83.3333333333333,3,3,4,80,0,1
355450,300,3,3,1,80,1,1
355450,-133.333333333333,3,3,1,80,0,1
355525,-133.333333333333,3,3,12,80,0,1
355600,-133.333333333333,3,3,1,80,0,1
355675,-133.333333333333,3,3,12,80,0,1
355750,-133.333333333333,3,3,1,80,0,1
355900,-100,3,3,2,80,0,1
355975,-100,3,3,11,80,0,1
356050,-100,3,3,1,80,0,1
356125,-100,3,3,11,80,0,1
356200,-100,3,3,1,80,0,1
356350,307.692307692308,3,3,3,80,1,1
356350,-80,3,3,3,80,0,1
356426,-80,3,3,10,80,0,1
356503,-80,3,3,1,80,0,1
356580,-80,3,3,10,80,0,1
356657,-80,3,3,1,80,0,1
356811,352.941176470588,3,3,2,80,1,1
356811,-74.0740740740741,3,3,2,80,0,1
356899,-74.0740740740741,3,3,12,80,0,1
356986,310.077519379845,3,3,11,80,1,1
356986,-74.0740740740741,3,3,11,80,0,1
357141,-74.0740740740741,3,3,10,80,0,1
357296,307.692307692308,3,3,9,80,1,1
357296,-80,3,3,9,80,0,1
357450,-80,3,3,1,65,0,1
357604,-80,3,3,6,65,0,1
357758,-80,3,3,1,60,0,1
357911,-80,3,3,4,60,0,1
358219,-86.9565217391304,3,3,6,60,0,1
358834,-86.9565217391304,3,3,4,60,0,1
359142,-86.9565217391304,3,3,6,60,0,1
359604,-86.9565217391304,3,3,1,55,0,1
359758,-86.9565217391304,3,3,4,55,0,1
360065,-86.9565217391304,3,3,6,55,0,1
360681,-86.9565217391304,3,3,4,55,0,1
360988,-86.9565217391304,3,3,1,55,0,1
361296,-86.9565217391304,3,3,6,55,0,1
361450,-86.9565217391304,3,3,2,50,0,1
361604,-86.9565217391304,3,3,4,50,0,1
361911,-86.9565217391304,3,3,6,50,0,1
362373,-86.9565217391304,3,3,1,47,0,1
362527,-86.9565217391304,3,3,4,47,0,1
362834,-86.9565217391304,3,3,3,47,0,1
363142,-86.9565217391304,3,3,6,47,0,1
363296,-86.9565217391304,3,3,2,45,0,1
363450,-86.9565217391304,3,3,4,45,0,1
363758,-86.9565217391304,3,3,3,45,0,1
363911,-86.9565217391304,3,3,12,45,0,1
364065,-86.9565217391304,3,3,11,45,0,1
364219,-86.9565217391304,3,3,10,42,0,1
364373,-86.9565217391304,3,3,1,42,0,1
364681,-90.9090909090909,3,3,1,42,0,1
364988,-90.9090909090909,3,3,6,42,0,1
365142,-90.9090909090909,3,3,2,40,0,1
365296,-90.9090909090909,3,3,4,40,0,1
365604,-90.9090909090909,3,3,6,40,0,1
366065,-90.9090909090909,3,3,1,37,0,1
366219,-90.9090909090909,3,3,4,37,0,1
366527,-90.9090909090909,3,3,6,37,0,1
366988,-90.9090909090909,3,3,1,35,0,1
367142,-90.9090909090909,3,3,4,35,0,1
367450,-90.9090909090909,3,3,6,35,0,1
367912,-90.9090909090909,3,3,1,32,0,1
368065,-90.9090909090909,3,3,4,32,0,1
368373,-95.2380952380952,3,3,1,32,0,1
368681,-95.2380952380952,3,3,6,32,0,1
368834,-95.2380952380952,3,3,2,30,0,1
368988,-95.2380952380952,3,3,4,30,0,1
369296,-95.2380952380952,3,3,6,30,0,1
369758,-95.2380952380952,3,3,3,27,0,1
370065,-95.2380952380952,3,3,4,27,0,1
370219,-95.2380952380952,3,3,1,27,0,1
370527,-95.2380952380952,3,3,6,27,0,1
370681,-95.2380952380952,3,3,2,25,0,1
370834,-95.2380952380952,3,3,4,25,0,1
371142,-95.2380952380952,3,3,3,25,0,1
371604,-95.2380952380952,3,3,2,22,0,1
372065,-100,3,3,1,22,0,0
372373,-100,3,3,6,22,0,0
372527,-100,3,3,2,20,0,0
372681,-100,3,3,4,20,0,0
372988,-100,3,3,6,20,0,0
373450,-100,3,3,1,17,0,0
373604,-100,3,3,4,17,0,0
373911,-100,3,3,6,17,0,0
374373,-100,3,3,1,15,0,0
374527,-100,3,3,4,15,0,0
374834,-100,3,3,6,15,0,0
375296,-100,3,3,1,12,0,0
375450,-100,3,3,4,12,0,0
375758,-105.263157894737,3,3,1,12,0,0
376065,-105.263157894737,3,3,6,12,0,0
376219,-105.263157894737,3,3,2,10,0,0
376373,-105.263157894737,3,3,4,10,0,0
376681,-105.263157894737,3,3,6,10,0,0
377142,-105.263157894737,3,3,1,7,0,0
377296,-105.263157894737,3,3,4,7,0,0
377604,-105.263157894737,3,3,1,7,0,0
377911,-105.263157894737,3,3,6,7,0,0
378065,-105.263157894737,3,3,1,5,0,0
378219,-105.263157894737,3,3,4,5,0,0
378527,-105.263157894737,3,3,2,5,0,0
378681,-105.263157894737,3,3,12,5,0,0
378834,-105.263157894737,3,3,11,5,0,0
379142,-105.263157894737,3,3,10,5,0,0
379450,-111.111111111111,3,3,1,5,0,0
384065,-111.111111111111,3,3,1,5,0,0

[Colours]
Combo1 : 233,233,233
Combo2 : 159,159,159
Combo3 : 97,38,10
Combo4 : 234,21,21
Combo5 : 234,181,21

[HitObjects]
116,204,187,6,0,B|162:199|188:160|188:160|231:157|231:157|250:123|300:117,1,212.5,6|0,0:0|0:0,0:0:0:0:
302,204,1110,54,0,B|306:252|306:252|327:284|327:284|334:324,1,127.5,2|0,0:0|0:0,0:0:0:0:
384,224,1725,2,0,L|430:211,1,42.5
252,316,2033,6,0,B|148:368|144:264|40:316,1,212.5,2|0,0:0|0:0,0:0:0:0:
200,236,2956,54,0,L|206:212,1,14.1666666666667,8|8,0:0|0:0,0:0:0:0:
114,203,3263,2,0,L|110:189,1,14.1666666666667,8|4,0:0|0:0,0:0:0:0:
200,151,3571,2,0,L|203:137,1,14.1666666666667,8|4,0:0|0:0,0:0:0:0:
114,118,3879,6,0,B|90:75|90:75|90:37|90:37|73:0,1,127.5,6|0,0:0|0:0,0:0:0:0:
12,56,4494,1,4,0:0:0:0:
12,56,4648,1,4,0:0:0:0:
172,52,4802,54,0,B|196:52|220:60|220:60|256:40|256:40|316:60|376:28,1,212.5,10|0,0:0|0:0,0:0:0:0:
268,124,5725,5,14,0:0:0:0:
243,216,5956,54,0,L|220:228,1,21.25,8|4,0:0|0:0,0:0:0:0:
268,308,6187,5,8,0:0:0:0:
175,148,6340,1,4,0:0:0:0:
336,241,6494,1,8,0:0:0:0:
200,55,6648,54,0,L|134:37,1,63.7500024318696,14|0,0:0|0:0,0:0:0:0:
132,40,6879,1,8,0:0:0:0:
126,42,6956,1,8,0:0:0:0:
268,124,7110,6,0,L|333:106,1,63.7500024318696,8|8,0:0|0:0,0:0:0:0:
336,241,7418,1,8,0:0:0:0:
200,193,7571,54,0,B|88:159|102:262|-8:229,1,212.5,14|0,0:0|0:0,0:0:0:0:
159,274,8494,6,0,P|158:306|142:335,1,63.75,2|0,0:0|0:0,0:0:0:0:
200,193,8802,54,0,P|228:209|245:237,1,63.75,8|0,0:0|0:0,0:0:0:0:
150,115,9110,6,0,P|179:99|213:98,1,63.75,8|0,0:0|0:0,0:0:0:0:
328,81,9417,54,0,B|265:65|209:98|209:98|177:78|177:78|152:86|152:86|120:65|120:65|72:97|9:80,1,340,6|0,0:0|0:0,0:0:0:0:
120,65,10802,2,0,L|141:147,1,85,2|0,0:0|0:0,0:0:0:0:
255,243,11263,5,8,0:0:0:0:
238,215,11339,1,4,0:0:0:0:
232,184,11416,1,8,0:0:0:0:
236,153,11493,1,8,0:0:0:0:
241,122,11571,1,4,0:0:0:0:
235,91,11648,1,4,0:0:0:0:
219,64,11725,54,0,L|165:39,1,31.8750012159348,4|4,0:0|0:0,0:0:0:0:
316,184,11879,1,4,0:0:0:0:
345,195,11955,1,4,0:0:0:0:
377,199,12032,1,8,0:0:0:0:
408,196,12109,1,8,0:0:0:0:
438,184,12187,6,0,L|491:159,1,31.8750012159348,4|4,0:0|0:0,0:0:0:0:
376,80,12340,2,0,L|400:26,1,31.8750012159348,4|4,0:0|0:0,0:0:0:0:
252,9,12494,2,0,L|261:40,1,31.8750012159348,4|4,0:0|0:0,0:0:0:0:
164,124,12648,2,0,L|155:154,1,31.8750012159348,8|8,0:0|0:0,0:0:0:0:
252,238,12802,2,0,L|261:269,1,31.8750012159348,4|4,0:0|0:0,0:0:0:0:
163,352,12956,2,0,L|155:383,1,31.8750012159348,4|4,0:0|0:0,0:0:0:0:
307,373,13110,53,14,0:0:0:0:
374,281,13263,1,4,0:0:0:0:
327,176,13417,1,4,0:0:0:0:
423,383,13571,5,14,0:0:0:0:
499,277,13724,1,8,0:0:0:0:
445,156,13879,1,8,0:0:0:0:
261,269,14033,53,8,0:0:0:0:
232,237,14109,1,8,0:0:0:0:
217,197,14186,1,8,0:0:0:0:
218,155,14263,1,8,0:0:0:0:
233,116,14340,1,4,0:0:0:0:
261,84,14417,1,4,0:0:0:0:
299,65,14494,38,0,B|322:61|344:48|344:48|380:64|380:64|432:28|504:56,1,191.249994163513,10|0,0:0|0:0,0:0:0:0:
445,155,14956,54,0,L|455:240,1,85,6|0,0:0|0:0,0:0:0:0:
364,365,15263,2,0,L|373:280,1,85,6|0,0:0|0:0,0:0:0:0:
455,240,15571,1,2,0:0:0:0:
295,314,15725,1,4,0:0:0:0:
445,156,15879,22,0,B|434:74|373:95|363:13,1,170,10|2,0:0|0:0,0:0:0:0:
356,160,16340,1,0,0:0:0:0:
352,164,16417,1,0,0:0:0:0:
348,168,16494,1,2,0:0:0:0:
261,85,16648,1,4,0:0:0:0:
445,156,16802,54,0,P|436:200|396:240,1,85,6|0,0:0|0:0,0:0:0:0:
233,202,17110,1,2,0:0:0:0:
412,230,17263,1,4,0:0:0:0:
198,316,17417,1,2,0:0:0:0:
412,230,17571,1,4,0:0:0:0:
261,85,17725,54,0,L|124:73,1,127.5,14|0,0:0|0:0,0:0:0:0:
233,202,18033,2,0,L|360:190,1,127.5,6|0,0:0|0:0,0:0:0:0:
198,316,18340,2,0,L|70:304,1,127.5,6|0,0:0|0:0,0:0:0:0:
233,202,18648,22,0,P|308:272|300:372,1,170,6|2,0:0|0:0,0:0:0:0:
198,316,19110,1,0,0:0:0:0:
117,229,19263,1,2,0:0:0:0:
359,190,19417,1,4,0:0:0:0:
121,110,19571,53,10,0:0:0:0:
124,20,19725,1,0,0:0:0:0:
233,202,19879,1,2,0:0:0:0:
230,112,20033,1,0,0:0:0:0:
339,294,20186,1,2,0:0:0:0:
342,204,20340,1,4,0:0:0:0:
459,376,20494,54,0,L|456:292,1,85,6|0,0:0|0:0,0:0:0:0:
345,114,20802,1,2,0:0:0:0:
451,206,20956,1,4,0:0:0:0:
230,112,21110,2,0,L|140:119,1,85,2|4,0:0|0:0,0:0:0:0:
236,292,21417,22,0,L|326:299,1,85,14|0,0:0|0:0,0:0:0:0:
368,229,21648,1,8,0:0:0:0:
368,229,21725,1,4,0:0:0:0:
330,152,21879,1,8,0:0:0:0:
244,146,22033,1,4,0:0:0:0:
195,217,22187,1,8,0:0:0:0:
415,157,22340,54,0,P|408:116|376:80,1,85,6|0,0:0|0:0,0:0:0:0:
210,72,22648,2,0,P|217:113|249:149,1,85,2|0,0:0|0:0,0:0:0:0:
460,90,22956,1,2,0:0:0:0:
290,79,23110,1,4,0:0:0:0:
449,229,23263,54,0,B|453:311|389:301|393:384,1,170,14|2,0:0|0:0,0:0:0:0:
359,240,23725,1,0,0:0:0:0:
355,236,23802,1,8,0:0:0:0:
351,233,23879,1,6,0:0:0:0:
496,380,24033,1,4,0:0:0:0:
290,379,24187,22,0,L|174:347,1,85,6|0,0:0|0:0,0:0:0:0:
195,217,24494,1,2,0:0:0:0:
321,274,24648,1,4,0:0:0:0:
208,356,24802,1,2,0:0:0:0:
308,137,24956,1,4,0:0:0:0:
81,297,25110,54,0,B|36:256|36:256|36:176,1,127.5,14|0,0:0|0:0,0:0:0:0:
160,288,25417,2,0,B|146:347|146:347|89:380,1,127.5,6|0,0:0|0:0,0:0:0:0:
113,225,25725,2,0,B|171:206|171:206|228:239,1,127.5,6|0,0:0|0:0,0:0:0:0:
290,379,26033,54,0,P|359:328|294:272,1,170,6|2,0:0|0:0,0:0:0:0:
160,288,26494,1,0,0:0:0:0:
89,380,26648,1,2,0:0:0:0:
304,326,26802,1,4,0:0:0:0:
44,272,26956,21,14,0:0:0:0:
36,180,27110,1,0,0:0:0:0:
160,288,27263,1,2,0:0:0:0:
168,196,27417,1,0,0:0:0:0:
292,272,27571,1,2,0:0:0:0:
284,180,27725,1,4,0:0:0:0:
408,288,27879,54,0,L|415:203,1,85,6|4,0:0|0:0,0:0:0:0:
424,200,28110,1,0,0:0:0:0:
432,196,28187,1,2,0:0:0:0:
300,357,28340,2,0,L|292:272,1,85,4|2,0:0|0:0,0:0:0:0:
284,269,28571,1,0,0:0:0:0:
276,265,28648,1,4,0:0:0:0:
401,373,28802,54,0,P|442:365|484:328,1,85,14|8,0:0|0:0,0:0:0:0:
483,258,29033,1,4,0:0:0:0:
483,258,29110,2,8,L|484:224,1,21.25
417,211,29263,2,8,L|386:193,1,21.25,8|4,0:0|0:0,0:0:0:0:
342,245,29417,2,8,L|311:262,1,21.25
334,327,29571,2,8,L|333:361,1,21.25,8|4,0:0|0:0,0:0:0:0:
473,167,29725,22,0,L|481:71,1,85,14|0,0:0|0:0,0:0:0:0:
335,160,30033,2,0,L|342:244,1,85,2|0,0:0|0:0,0:0:0:0:
483,258,30340,1,6,0:0:0:0:
265,207,30494,1,4,0:0:0:0:
480,82,30648,54,0,B|468:8|392:8,1,127.5,14|0,0:0|0:0,0:0:0:0:
335,160,30956,2,0,B|400:88|400:88|368:84,1,127.5,6|0,0:0|0:0,0:0:0:0:
265,207,31263,2,0,B|294:299|294:299|336:247,1,127.5,6|0,0:0|0:0,0:0:0:0:
258,123,31571,54,0,B|200:99|200:99|154:103|154:103|97:80,1,170,6|2,0:0|0:0,0:0:0:0:
168,16,32033,1,4,0:0:0:0:
265,207,32187,1,2,0:0:0:0:
50,196,32340,1,4,0:0:0:0:
314,275,32494,22,0,P|344:219|332:157,1,127.5,14|0,0:0|0:0,0:0:0:0:
286,8,32802,2,0,P|258:43|262:131,1,127.5,6|0,0:0|0:0,0:0:0:0:
474,95,33110,2,0,L|346:83,1,127.5,6|0,0:0|0:0,0:0:0:0:
138,219,33417,54,0,B|265:207|265:207|225:253,1,170,6|2,0:0|0:0,0:0:0:0:
170,314,33879,1,0,0:0:0:0:
72,295,34033,1,6,0:0:0:0:
40,200,34187,1,4,0:0:0:0:
204,105,34340,53,10,0:0:0:0:
106,124,34494,1,0,0:0:0:0:
237,239,34648,1,2,0:0:0:0:
139,220,34801,1,0,0:0:0:0:
256,365,34955,1,6,0:0:0:0:
170,314,35109,1,4,0:0:0:0:
336,143,35263,22,0,P|364:176|376:216,1,85,6|0,0:0|0:0,0:0:0:0:
256,365,35571,1,2,0:0:0:0:
240,132,35725,2,0,P|254:92|282:62,1,85,4|2,0:0|0:0,0:0:0:0:
472,90,36033,1,4,0:0:0:0:
415,288,36187,54,0,L|423:383,1,85,14|8,0:0|0:0,0:0:0:0:
500,328,36417,1,4,0:0:0:0:
500,328,36494,1,8,0:0:0:0:
484,239,36648,1,14,0:0:0:0:
408,204,36802,2,0,L|412:144,1,42.5,4|8,0:0|0:0,0:0:0:0:
339,253,36956,1,4,0:0:0:0:
512,135,37110,54,0,L|520:48,1,85,6|0,0:0|0:0,0:0:0:0:
324,83,37417,2,0,L|331:167,1,85,2|0,0:0|0:0,0:0:0:0:
346,337,37725,1,6,0:0:0:0:
408,204,37879,1,4,0:0:0:0:
269,301,38033,22,0,B|208:300|208:300|148:264,1,127.5,14|0,0:0|0:0,0:0:0:0:
232,172,38340,2,0,B|202:118|202:118|203:48,1,127.5,6|0,0:0|0:0,0:0:0:0:
324,83,38648,2,0,B|356:31|356:31|418:0,1,127.5,6|0,0:0|0:0,0:0:0:0:
408,204,38956,54,0,B|404:286|468:276|464:359,1,170,6|2,0:0|0:0,0:0:0:0:
373,347,39417,1,4,0:0:0:0:
505,211,39571,1,2,0:0:0:0:
295,303,39725,1,4,0:0:0:0:
462,123,39879,54,0,P|400:108|324:152,1,127.5,14|0,0:0|0:0,0:0:0:0:
185,211,40187,2,0,P|247:226|323:182,1,127.5,6|0,0:0|0:0,0:0:0:0:
229,0,40494,2,0,L|241:128,1,127.5,6|0,0:0|0:0,0:0:0:0:
394,334,40802,22,0,B|406:207|406:207|368:232,1,170,6|2,0:0|0:0,0:0:0:0:
496,366,41263,1,0,0:0:0:0:
476,260,41417,1,6,0:0:0:0:
295,304,41571,1,0,0:0:0:0:
495,156,41725,53,14,0:0:0:0:
470,51,41879,1,0,0:0:0:0:
371,230,42033,2,0,L|361:195,1,28.3333333333333,8|4,0:0|0:0,0:0:0:0:
395,125,42187,1,8,0:0:0:0:
295,304,42340,2,0,L|304:269,1,28.3333333333333,4|8,0:0|0:0,0:0:0:0:
270,200,42494,1,4,0:0:0:0:
170,378,42648,53,8,0:0:0:0:
172,373,42725,1,0,0:0:0:0:
174,368,42802,1,8,0:0:0:0:
396,331,42956,1,12,0:0:0:0:
195,273,43110,1,8,0:0:0:0:
193,268,43187,1,8,0:0:0:0:
191,263,43263,1,8,0:0:0:0:
371,230,43417,1,4,0:0:0:0:
99,311,43571,22,0,P|91:269|101:228,1,85,6|8,0:0|0:0,0:0:0:0:
106,226,43802,1,4,0:0:0:0:
111,224,43879,1,8,0:0:0:0:
295,304,44033,1,8,0:0:0:0:
103,145,44187,1,8,0:0:0:0:
371,230,44340,1,8,0:0:0:0:
105,62,44494,54,0,B|42:59|-12:120|4:216|75:228|101:228|101:228|97:243|97:243|104:260|104:260|100:276|100:276|104:292|104:292|99:312|99:312|140:272|211:280|243:328,1,510,14|2,0:0|0:0,0:0:0:0:
164,384,46494,21,0,0:0:0:0:
164,384,46648,2,0,L|157:312,1,63.7500024318696
103,145,46956,2,0,L|97:208,1,63.7500024318696
242,326,47263,6,0,P|270:309|287:280,1,63.7500024318696
381,314,47571,2,0,P|388:282|380:250,1,63.7500024318696
471,207,47879,2,0,P|454:178|425:161,1,63.7500024318696
458,67,48187,54,0,B|364:48|368:120|269:100,1,191.250007295609,2|0,0:0|0:0,0:0:0:0:
429,163,48802,2,0,B|432:196|432:196|420:224,1,63.7500024318696
286,283,49110,6,0,B|313:263|313:263|343:260,1,63.7500024318696,2|0,0:0|0:0,0:0:0:0:
461,347,49417,2,0,B|430:333|430:333|412:308,1,63.7500024318696,2|0,0:0|0:0,0:0:0:0:
429,163,49725,2,0,L|492:168,1,63.7500024318696,2|0,0:0|0:0,0:0:0:0:
286,283,50033,54,0,B|192:302|196:230|103:248,1,191.250007295609,2|0,0:0|0:0,0:0:0:0:
257,186,50648,2,0,B|260:153|260:153|248:125,1,63.7500024318696
36,200,50956,6,0,P|20:240|56:316,1,127.500004863739
112,164,51417,2,0,P|85:130|1:123,1,127.500004863739
105,247,51879,54,0,B|169:246|191:188|191:188|230:183|230:183|251:125|316:124,1,255.000009727478,2|0,0:0|0:0,0:0:0:0:
112,164,52802,6,0,P|35:290|160:310,1,318.750012159348
308,208,53725,54,0,B|340:212|340:212|368:228,1,63.7500024318696,2|0,0:0|0:0,0:0:0:0:
308,125,54033,2,0,B|295:95|295:95|295:63,1,63.7500024318696
236,166,54340,2,0,B|216:191|216:191|188:207,1,63.7500024318696
155,314,54648,6,0,P|192:320|232:312,1,63.7500024318696
296,384,54956,2,0,P|314:351|320:310,1,63.7500024318696
410,275,55263,2,0,P|385:246|349:227,1,63.7500024318696
346,129,55571,54,0,B|254:151|288:215|195:238,1,191.250007295609,2|0,0:0|0:0,0:0:0:0:
175,70,56187,2,0,L|180:133,1,63.7500024318696
44,235,56494,6,0,L|96:198,1,63.7500024318696,2|0,0:0|0:0,0:0:0:0:
253,265,56802,2,0,L|195:238,1,63.7500024318696,2|0,0:0|0:0,0:0:0:0:
363,232,57110,2,0,P|370:264|358:306,1,63.7500024318696,2|0,0:0|0:0,0:0:0:0:
346,129,57417,54,0,P|438:44|418:170,1,318.750012159348,2|0,0:0|0:0,0:0:0:0:
262,91,58340,6,0,P|200:92|152:136,1,127.500004863739
236,184,58802,2,0,P|205:238|219:301,1,127.500004863739
302,252,59263,54,0,P|414:336|473:210,1,318.750012159348,2|0,0:0|0:0,0:0:0:0:
252,56,60187,2,0,B|257:112|317:128|317:128|325:166|325:166|385:183|391:247,1,255.000009727478
303,253,61110,6,0,B|270:251|270:251|244:228,1,63.7500024318696,2|0,0:0|0:0,0:0:0:0:
391,247,61417,2,0,B|405:275|405:275|398:310,1,63.7500024318696,0|2,0:0|0:0,0:0:0:0:
341,173,61725,2,0,B|358:146|358:146|392:134,1,63.7500024318696,0|2,0:0|0:0,0:0:0:0:
247,231,62033,54,0,P|232:200|236:152,1,63.7500024318696,2|0,0:0|0:0,0:0:0:0:
176,88,62340,2,0,P|207:73|255:77,1,63.7500024318696
319,17,62648,2,0,P|334:48|330:96,1,63.7500024318696
131,176,62956,6,0,B|80:257|150:278|97:364,1,191.250007295609,2|2,0:0|0:0,0:0:0:0:
16,297,63571,1,0,0:0:0:0:
212,239,63725,2,0,L|228:177,1,63.7500024318696,2|2,0:0|0:0,0:0:0:0:
0,236,64033,2,0,L|16:297,1,63.7500024318696
131,176,64340,54,0,P|148:120|224:80,1,127.500004863739
228,177,64802,2,0,B|267:137|319:133|345:162|345:163|346:163|364:188|420:203|466:163,1,255.000009727478,2|0,0:0|0:0,0:0:0:0:
406,104,65571,1,2,0:0:0:0:
295,228,65725,6,0,P|323:284|379:312,1,127.500004863739,2|0,0:0|0:0,0:0:0:0:
406,104,66187,2,0,P|377:47|321:19,1,127.500004863739
320,228,66648,54,0,P|380:248|440:228,1,127.500004863739,2|0,0:0|0:0,0:0:0:0:
381,103,67110,2,0,P|321:83|261:102,1,127.500004863739,2|2,0:0|0:0,0:0:0:0:
256,288,67571,6,0,P|270:260|270:228,1,63.7500024318696,2|0,0:0|0:0,0:0:0:0:
437,111,67879,2,0,P|422:139|422:170,1,63.7500024318696
442,348,68187,2,0,P|456:319|456:288,1,63.7500024318696
211,151,68494,54,0,B|162:179|172:240|172:240|141:264|141:264|151:325|96:358,1,255.000009727478,2|0,0:0|0:0,0:0:0:0:
58,280,69263,1,2,0:0:0:0:
270,228,69417,2,0,L|333:233,1,63.7500024318696,2|0,0:0|0:0,0:0:0:0:
497,285,69725,6,0,P|465:289|433:281,1,63.7500024318696
384,368,70033,2,0,P|358:348|341:319,1,63.7500024318696
244,347,70340,54,0,B|226:255|298:259|279:165,1,191.250007295609,2|2,0:0|0:0,0:0:0:0:
176,42,70956,1,0,0:0:0:0:
120,193,71110,2,0,B|153:201|153:201|182:192,1,63.7500024318696,2|2,0:0|0:0,0:0:0:0:
341,164,71417,2,0,B|309:156|309:156|279:165,1,63.7500024318696,2|2,0:0|0:0,0:0:0:0:
22,218,71725,6,0,P|25:155|66:107,1,127.500004863739,2|2,0:0|0:0,0:0:0:0:
120,193,72187,2,0,P|148:48|-4:32,1,318.750012159348,2|2,0:0|0:0,0:0:0:0:
92,290,73110,54,0,P|156:288|208:240,1,127.500004863739,2|2,0:0|0:0,0:0:0:0:
390,124,73571,2,0,P|326:126|274:174,1,127.500004863739,2|2,3:0|3:0,3:0:0:0:
446,264,74033,6,0,B|482:220|451:166|451:166|472:133|472:133|442:79|482:29,1,255.000009727478,2|0,0:0|0:0,0:0:0:0:
390,212,74802,2,0,P|358:216|326:196,1,63.7500024318696,2|2,0:0|0:0,0:0:0:0:
125,208,75110,54,0,P|191:226|95:254,1,256.274987877617,2|0,0:0|0:0,0:0:0:0:
148,255,75879,38,0,B|191:250|219:274|219:274|235:254|235:254|255:258|255:258|271:242|271:242|363:282|363:202|459:242,1,340,6|6,0:0|0:0,0:0:0:0:
411,322,76648,1,4,0:0:0:0:
319,162,76802,54,0,L|327:78,1,85,10|0,0:0|0:0,0:0:0:0:
224,126,77110,2,0,L|216:42,1,85,2|0,0:0|0:0,0:0:0:0:
241,227,77417,2,0,P|196:228|140:180,1,85,6|0,0:0|0:0,0:0:0:0:
337,263,77725,22,0,B|418:247|417:312|498:296,1,170,6|2,0:0|0:0,0:0:0:0:
360,352,78187,2,0,P|304:352|276:328,1,85,4|2,0:0|0:0,0:0:0:0:
476,208,78494,1,4,0:0:0:0:
241,226,78648,54,0,B|160:242|161:177|80:193,1,170,10|6,0:0|0:0,0:0:0:0:
104,284,79110,1,10,0:0:0:0:
104,284,79263,1,8,0:0:0:0:
220,136,79417,1,4,0:0:0:0:
128,375,79571,54,0,P|188:244|20:240,1,340,6|6,0:0|0:0,0:0:0:0:
104,284,80340,1,4,0:0:0:0:
220,136,80494,22,0,L|316:110,1,85,10|0,0:0|0:0,0:0:0:0:
324,31,80802,2,0,L|394:101,1,85,2|0,0:0|0:0,0:0:0:0:
466,68,81110,2,0,L|440:164,1,85,6|0,0:0|0:0,0:0:0:0:
504,209,81417,54,0,B|392:240|392:240|448:280,1,170,6|2,0:0|0:0,0:0:0:0:
330,203,81879,2,0,P|319:248|339:288,1,85,4|2,0:0|0:0,0:0:0:0:
444,150,82187,1,4,0:0:0:0:
440,140,82263,1,4,0:0:0:0:
436,130,82340,53,10,0:0:0:0:
322,79,82494,2,0,L|344:24,1,42.5,8|4,0:0|0:0,0:0:0:0:
220,152,82648,1,8,0:0:0:0:
232,276,82802,1,8,0:0:0:0:
346,327,82956,1,8,0:0:0:0:
447,255,83110,1,8,0:0:0:0:
240,72,83263,22,0,B|184:58|150:110|150:110|111:105|111:105|75:156|13:141,1,255.000009727478,6|0,0:0|0:0,0:0:0:0:
220,152,83879,2,0,P|220:188|184:248,1,85,2|4,0:0|0:0,0:0:0:0:
96,332,84187,54,0,P|96:296|132:236,1,85,10|0,0:0|0:0,0:0:0:0:
52,176,84494,2,0,P|83:158|153:159,1,85,4|0,0:0|0:0,0:0:0:0:
165,59,84802,2,0,P|196:77|230:138,1,85,4|0,0:0|0:0,0:0:0:0:
322,98,85110,54,0,B|335:179|270:176|283:257,1,170,6|2,0:0|0:0,0:0:0:0:
368,236,85571,1,4,0:0:0:0:
224,116,85725,1,2,0:0:0:0:
180,324,85879,1,4,0:0:0:0:
322,98,86033,22,0,P|280:32|164:36,1,170,10|6,0:0|0:0,0:0:0:0:
185,191,86494,2,0,L|225:115,1,85,8|6,0:0|0:0,0:0:0:0:
322,98,86802,1,0,0:0:0:0:
181,323,86956,54,0,P|85:245|209:209,1,280.500008560181,6|4,0:0|0:0,0:0:0:0:
295,261,87571,1,2,0:0:0:0:
156,256,87725,1,4,0:0:0:0:
322,98,87879,2,0,L|407:120,1,85,10|0,0:0|0:0,0:0:0:0:
224,117,88187,54,0,P|224:72|259:23,1,85,6|0,0:0|0:0,0:0:0:0:
388,242,88494,2,0,P|388:287|353:336,1,85,6|0,0:0|0:0,0:0:0:0:
208,283,88802,22,0,L|291:262,1,85,10|8,0:0|0:0,0:0:0:0:
292,256,89007,1,8,0:0:0:0:
292,249,89058,2,0,L|288:211,2,28.3333333333333,8|4|4,0:0|0:0|0:0,0:0:0:0:
370,322,89263,54,0,L|412:248,1,85,4|8,0:0|0:0,0:0:0:0:
408,243,89468,1,8,0:0:0:0:
404,238,89520,2,0,L|374:213,2,28.3333333333333,8|4|4,0:0|0:0|0:0,0:0:0:0:
510,234,89725,54,8,L|488:151,1,85,4|8,0:0|0:0,0:0:0:0:
481,152,89930,1,8,0:0:0:0:
475,151,89981,2,0,L|437:154,2,28.3333333333333,8|4|4,0:0|0:0|0:0,0:0:0:0:
224,117,90187,22,0,B|200:120|176:108|176:108|148:124|148:124|104:104|60:128,1,170,10|0,0:0|0:0,0:0:0:0:
63,308,90648,54,0,B|109:192|109:192|65:206,1,170,6|2,0:0|0:0,0:0:0:0:
155,264,91110,1,0,0:0:0:0:
63,126,91263,2,0,B|22:140|22:140|-5:171,1,85,6|0,0:0|0:0,0:0:0:0:
150,360,91571,54,0,P|192:352|228:324,1,85,10|0,0:0|0:0,0:0:0:0:
312,380,91879,2,0,P|326:339|319:294,1,85,2|0,0:0|0:0,0:0:0:0:
410,249,92187,2,0,P|382:216|339:199,1,85,6|0,0:0|0:0,0:0:0:0:
345,98,92494,22,0,B|262:97|275:161|193:161,1,170,6|2,0:0|0:0,0:0:0:0:
152,3,92956,2,0,B|188:28|188:28|200:68,1,85,4|2,0:0|0:0,0:0:0:0:
186,255,93263,1,4,0:0:0:0:
345,98,93417,54,0,B|404:84|404:84|453:96|453:96|511:85,1,170,10|2,0:0|0:0,0:0:0:0:
404,188,93879,1,10,0:0:0:0:
242,106,94033,2,0,P|254:47|314:-1,1,127.5,6|0,0:0|0:0,0:0:0:0:
345,98,94340,54,0,B|290:70|242:106|242:106|206:90|206:90|158:126|105:98,1,255,6|0,0:0|0:0,0:0:0:0:
299,173,94956,2,0,L|306:257,1,85,6|0,0:0|0:0,0:0:0:0:
143,321,95263,22,0,P|104:306|75:276,1,85,10|0,0:0|0:0,0:0:0:0:
165,219,95571,2,0,P|148:181|149:139,1,85,2|0,0:0|0:0,0:0:0:0:
253,157,95879,2,0,P|269:117|300:89,1,85,6|0,0:0|0:0,0:0:0:0:
450,172,96187,54,0,B|417:154|365:170|365:170|405:137|403:84,1,170,6|2,0:0|0:0,0:0:0:0:
278,7,96648,2,0,L|300:90,1,85,4|2,0:0|0:0,0:0:0:0:
405,269,96956,1,4,0:0:0:0:
401,279,97033,1,4,0:0:0:0:
397,289,97110,54,0,L|248:304,1,127.5,10|8,0:0|0:0,0:0:0:0:
266,311,97417,1,8,0:0:0:0:
323,203,97571,1,8,0:0:0:0:
215,146,97725,1,4,0:0:0:0:
158,254,97879,1,8,0:0:0:0:
319,80,98033,22,0,P|444:137|324:203,1,340,6|6,0:0|0:0,0:0:0:0:
368,140,98802,1,0,0:0:0:0:
266,311,98956,54,0,P|228:284|208:240,1,85,10|0,0:0|0:0,0:0:0:0:
108,244,99263,2,0,P|120:199|154:165,1,85,6|0,0:0|0:0,0:0:0:0:
116,72,99571,2,0,P|162:68|206:89,1,85,6|0,0:0|0:0,0:0:0:0:
280,20,99879,54,0,B|327:87|267:113|315:180,1,170,6|2,0:0|0:0,0:0:0:0:
512,99,100340,2,0,B|400:121|400:121|444:156,1,170,6|2,0:0|0:0,0:0:0:0:
241,96,100802,22,0,B|316:181|316:181|324:126,1,170,10|2,0:0|0:0,0:0:0:0:
372,332,101263,2,0,B|408:224|408:224|356:244,1,170,6|2,0:0|0:0,0:0:0:0:
181,303,101725,54,0,L|266:311,1,85,6|0,0:0|0:0,0:0:0:0:
108,244,102033,2,0,P|88:300|120:376,1,127.5,6|8,0:0|0:0,0:0:0:0:
116,366,102340,1,4,0:0:0:0:
5,303,102494,1,8,0:0:0:0:
230,233,102648,53,10,0:0:0:0:
161,134,102802,1,8,0:0:0:0:
108,244,102956,1,4,0:0:0:0:
282,124,103110,1,4,0:0:0:0:
281,111,103187,1,4,0:0:0:0:
280,98,103263,1,8,0:0:0:0:
191,13,103417,1,4,0:0:0:0:
230,233,103571,22,0,P|272:244|316:240,1,85,6|8,0:0|0:0,0:0:0:0:
419,140,103879,1,4,0:0:0:0:
404,350,104033,2,0,P|434:319|453:279,1,85,10|8,0:0|0:0,0:0:0:0:
423,144,104263,1,4,0:0:0:0:
423,144,104340,2,0,L|485:127,1,42.5,8|4,0:0|0:0,0:0:0:0:
264,308,104494,53,8,0:0:0:0:
253,315,104571,1,4,0:0:0:0:
242,322,104648,2,0,L|187:307,1,42.5,8|4,0:0|0:0,0:0:0:0:
161,134,104802,1,4,0:0:0:0:
172,141,104878,1,4,0:0:0:0:
183,148,104956,54,0,B|244:167|283:134|283:134|315:159|315:159|364:124|424:142,1,255.000009727478,6|0,0:0|0:0,0:0:0:0:
393,345,105417,22,0,L|384:240,1,106.25,6|2,0:0|0:0,0:0:0:0:
283,134,105725,2,0,L|274:239,1,106.25,2|0,0:0|0:0,0:0:0:0:
470,298,106033,1,2,0:0:0:0:
418,140,106187,1,0,0:0:0:0:
264,345,106340,54,0,P|205:321|173:217,1,159.375,10|0,0:0|0:0,0:0:0:0:
66,227,106648,2,0,P|90:168|194:136,1,159.375,2|0,0:0|0:0,0:0:0:0:
184,29,106956,2,0,P|243:53|275:157,1,159.375,2|0,0:0|0:0,0:0:0:0:
377,177,107263,54,0,P|346:219|299:243,1,106.25,6|0,0:0|0:0,0:0:0:0:
278,137,107571,1,2,0:0:0:0:
363,72,107725,1,4,0:0:0:0:
365,320,107879,1,2,0:0:0:0:
191,215,108033,1,4,0:0:0:0:
377,177,108187,22,0,P|401:247|358:326,1,159.375,10|0,0:0|0:0,0:0:0:0:
191,215,108494,2,0,B|299:243|299:243|261:272,1,159.375,6|0,0:0|0:0,0:0:0:0:
88,218,108802,2,0,B|58:110|58:110|102:128,1,159.375,6|0,0:0|0:0,0:0:0:0:
141,291,109110,54,0,L|88:384,1,106.25,6|0,0:0|0:0,0:0:0:0:
247,362,109417,1,0,0:0:0:0:
88,218,109571,1,0,0:0:0:0:
261,272,109725,1,2,0:0:0:0:
102,128,109879,1,0,0:0:0:0:
247,362,110033,54,0,B|299:351|299:351|332:309,1,106.25,10|0,0:0|0:0,0:0:0:0:
426,357,110340,2,0,B|442:306|442:306|422:256,1,106.25,2|0,0:0|0:0,0:0:0:0:
512,198,110648,2,0,B|476:157|476:157|423:149,1,106.25,2|0,0:0|0:0,0:0:0:0:
420,42,110956,22,0,B|367:52|367:52|334:94|334:94|212:114,1,212.5,6|2,0:0|0:0,0:0:0:0:
88,218,111417,2,0,L|187:256,1,106.25,4|2,0:0|0:0,0:0:0:0:
314,207,111725,1,4,0:0:0:0:
104,322,111879,54,0,P|136:349|212:360,1,106.25,10|8,0:0|0:0,0:0:0:0:
212,348,112110,1,8,0:0:0:0:
226,333,112187,1,8,0:0:0:0:
187,256,112340,1,4,0:0:0:0:
226,179,112494,1,8,0:0:0:0:
187,102,112648,1,4,0:0:0:0:
353,284,112802,54,0,P|400:216|288:124,1,212.5,6|2,0:0|0:0,0:0:0:0:
314,207,113263,1,0,0:0:0:0:
483,185,113417,1,2,0:0:0:0:
250,149,113571,1,0,0:0:0:0:
335,369,113725,22,0,P|400:356|436:264,1,159.375,10|0,0:0|0:0,0:0:0:0:
250,149,114033,2,0,P|228:211|290:288,1,159.375,2|0,0:0|0:0,0:0:0:0:
483,185,114340,2,0,P|439:135|341:150,1,159.375,6|0,0:0|0:0,0:0:0:0:
146,239,114648,54,0,L|6:201,1,106.25,6|0,0:0|0:0,0:1:0:0:
118,135,114956,1,2,0:0:0:0:
71,314,115110,1,4,0:0:0:0:
250,149,115263,1,2,0:0:0:0:
174,342,115417,1,4,0:0:0:0:
43,211,115571,54,0,P|16:164|52:52,1,159.375,10|0,0:0|0:0,0:0:0:0:
250,149,115879,2,0,B|118:136|118:136|132:112,1,159.375,6|0,0:0|0:0,0:0:0:0:
325,74,116187,2,0,P|352:121|316:233,1,159.375,6|0,0:0|0:0,0:0:0:0:
229,379,116494,22,0,L|352:367,1,106.25,6|0,0:0|0:0,0:0:0:0:
460,288,116802,1,2,0:0:0:0:
330,219,116956,1,0,0:0:0:0:
335,369,117110,1,2,0:0:0:0:
454,140,117263,1,0,0:0:0:0:
200,150,117417,54,0,L|77:138,1,106.25,10|0,0:0|0:0,0:0:0:0:
155,52,117725,1,2,0:0:0:0:
242,246,117879,1,0,0:0:0:0:
263,64,118033,1,2,0:0:0:0:
138,236,118187,1,0,0:0:0:0:
306,162,118340,54,0,L|429:150,1,106.25,6|4,0:0|0:0,0:0:0:0:
431,153,118571,1,0,0:0:0:0:
450,155,118648,2,0,L|478:192,1,35.4166666666667,2|0,0:0|0:0,0:0:0:0:
244,248,118802,2,0,L|349:258,1,106.25,4|2,0:0|0:0,0:0:0:0:
369,256,119033,1,0,0:0:0:0:
388,254,119110,2,0,L|409:225,1,35.4166666666667,4|0,0:0|0:0,0:0:0:0:
352,68,119263,22,0,L|182:84,1,159.375,10|8,0:0|0:0,0:0:0:0:
186,103,119571,1,4,0:0:0:0:
182,335,119725,2,0,L|296:346,1,106.25,6|8,0:0|0:0,0:0:0:0:
344,208,120033,1,8,0:0:0:0:
137,237,120187,54,0,P|89:305|185:333,1,212.5,6|2,0:0|0:0,0:0:0:0:
244,248,120648,1,0,0:0:0:0:
30,226,120802,1,6,0:0:0:0:
288,345,120956,1,0,0:0:0:0:
200,149,121110,54,0,B|263:61|263:61|275:139,1,159.375,2|0,0:0|0:0,0:0:0:0:
137,237,121417,2,0,B|30:226|30:226|91:176,1,159.375,2|0,0:0|0:0,0:0:0:0:
244,248,121725,2,0,B|288:345|288:345|204:315,1,159.375,2|0,0:0|0:0,0:0:0:0:
385,199,122033,22,0,B|514:189|514:189,1,106.25,6|0,0:0|0:0,0:0:0:0:
431,103,122340,1,2,0:0:0:0:
337,293,122494,1,4,0:0:0:0:
324,111,122648,1,2,0:0:0:0:
444,285,122802,1,4,0:0:0:0:
217,119,122956,54,0,P|144:156|136:256,1,159.375,10|0,0:0|0:0,0:0:0:0:
306,162,123263,2,0,P|308:79|216:20,1,159.375,2|0,0:0|0:0,0:0:0:0:
223,217,123571,2,0,P|291:261|382:226,1,159.375,2|0,0:0|0:0,0:0:0:0:
446,127,123879,54,0,L|426:22,1,106.25,6|0,0:0|0:0,0:0:0:0:
257,28,124187,1,2,0:0:0:0:
446,127,124340,1,0,0:0:0:0:
241,123,124494,1,6,0:0:0:0:
426,22,124648,1,0,0:0:0:0:
223,217,124802,22,0,B|216:272|216:272|248:340,1,106.25,10|0,0:0|0:0,0:0:0:0:
392,199,125110,2,0,B|340:220|340:220|297:282,1,106.25,2|0,0:0|0:0,0:0:0:0:
492,336,125417,2,0,B|447:302|447:302|372:296,1,106.25,6|0,0:0|0:0,0:0:0:0:
136,283,125725,54,0,P|139:189|227:230,1,212.5,6|2,0:0|0:0,0:0:0:0:
141,383,126187,2,0,L|256:372,1,106.25,4|2,0:0|0:0,0:0:0:0:
397,298,126494,1,4,0:0:0:0:
170,236,126648,54,0,L|159:112,1,106.25,10|8,0:0|0:0,0:0:0:0:
175,116,126879,1,4,0:0:0:0:
189,102,126956,1,8,0:0:0:0:
266,141,127110,1,10,0:0:0:0:
343,102,127263,2,0,L|351:22,1,53.125,4|8,0:0|0:0,0:0:0:0:
420,141,127417,1,4,0:0:0:0:
113,63,127571,22,0,P|116:150|188:101,1,212.5,6|2,0:0|0:0,0:0:0:0:
170,236,128033,1,0,0:0:0:0:
185,17,128187,1,6,0:0:0:0:
185,17,128340,1,4,0:0:0:0:
92,274,128494,54,0,P|148:320|236:292,1,159.375,10|0,0:0|0:0,0:0:0:0:
287,382,128802,2,0,P|334:320|313:246,1,159.375,6|0,0:0|0:0,0:0:0:0:
395,186,129110,2,0,P|339:140|251:168,1,159.375,6|0,0:0|0:0,0:0:0:0:
198,77,129417,54,0,P|162:118|156:174,1,106.25,6|0,0:0|0:0,0:0:0:0:
314,247,129725,1,2,0:0:0:0:
260,159,129879,1,4,0:0:0:0:
227,301,130033,1,2,0:0:0:0:
395,186,130187,1,4,0:0:0:0:
198,77,130340,22,0,L|10:60,1,159.375,10|0,0:0|0:0,0:0:0:0:
155,168,130648,2,0,L|342:151,1,159.375,6|0,0:0|0:0,0:0:0:0:
212,252,130956,2,0,L|24:235,1,159.375,6|0,0:0|0:0,0:0:0:0:
166,348,131263,54,0,L|305:336,1,106.25,6|0,0:0|0:0,0:0:0:0:
317,243,131571,1,2,0:0:0:0:
378,330,131725,1,0,0:0:0:0:
155,168,131879,1,6,0:0:0:0:
198,77,132033,1,0,0:0:0:0:
272,339,132187,54,0,P|228:300|212:243,1,110.499994941712,10|0,0:0|0:0,0:0:0:0:
252,158,132494,1,6,0:0:0:0:
166,348,132648,1,0,0:0:0:0:
378,330,132802,1,6,0:0:0:0:
112,267,132956,1,0,0:0:0:0:
422,233,133110,21,8,0:0:0:0:
422,233,133263,2,0,P|476:288|476:372,1,159.375,4|0,0:0|0:0,0:0:0:0:
272,339,133571,2,0,B|378:330|378:330|344:372,1,159.375,4|0,0:0|0:0,0:0:0:0:
332,384,133879,1,4,0:0:0:0:
255,157,134033,53,8,0:0:0:0:
422,233,134187,1,0,0:0:0:0:
265,303,134340,1,4,0:0:0:0:
289,168,134493,1,4,0:0:0:0:
394,256,134647,1,4,0:0:0:0:
267,277,134802,1,4,0:0:0:0:
312,184,134956,54,0,P|192:160|313:132,1,340,6|0,0:0|0:0,0:0:0:0:
255,157,142340,53,0,0:0:0:0:
255,157,142494,2,0,L|248:77,1,63.7500024318696
135,167,142802,1,0,0:0:0:0:
204,266,142956,54,0,P|234:275|266:276,1,63.7500024318696
324,364,143263,2,0,P|347:342|363:315,1,63.7500024318696
468,309,143571,2,0,P|460:278|376:212,1,127.500004863739
363,315,144033,1,0,0:0:0:0:
510,196,144187,6,0,B|529:102|457:106|477:7,1,191.250007295609
412,168,144802,2,0,B|379:172|379:172|350:161,1,63.7500024318696
292,248,145110,54,0,B|265:227|265:227|253:199,1,63.7500024318696,2|0,0:0|0:0,0:0:0:0:
150,219,145417,2,0,B|146:185|146:185|157:156,1,63.7500024318696,2|0,0:0|0:0,0:0:0:0:
70,98,145725,2,0,B|90:71|118:59,1,63.7500024318696,2|0,0:0|0:0,0:0:0:0:
388,100,146033,6,0,B|407:194|335:190|353:283,1,191.250007295609
292,129,146648,2,0,B|259:126|259:126|231:138,1,63.7500024318696
306,350,146956,54,0,P|346:366|422:330,1,127.500004863739
270,274,147417,2,0,P|236:301|229:385,1,127.500004863739
353,282,147879,6,0,B|352:218|294:196|294:196|289:157|289:157|231:136|230:71,1,255.000009727478
270,274,148802,54,0,P|396:351|416:226,1,318.750012159348
314,78,149725,5,0,0:0:0:0:
314,78,149879,2,0,B|319:10,1,63.7500024318696
231,136,150187,53,0,0:0:0:0:
331,178,150340,2,0,P|312:208|284:232,1,63.7500024318696
296,332,150648,2,0,P|260:327|227:312,1,63.7500024318696
140,364,150956,2,0,P|129:303|155:246,1,127.500004863739
235,317,151417,1,0,0:0:0:0:
46,292,151571,6,0,B|27:198|99:202|79:103,1,191.250007295609
132,260,152187,2,0,L|223:268,1,63.7500024318696
309,355,152494,2,0,L|270:272,1,63.7500024318696,2|0,0:0|0:0,0:0:0:0:
303,154,152802,2,0,L|250:228,1,63.7500024318696,2|0,0:0|0:0,0:0:0:0:
96,329,153110,2,0,P|72:308|56:264,1,63.7500024318696,2|0,0:0|0:0,0:0:0:0:
266,206,153417,54,0,P|218:282|132:260,1,191.250007295609
245,349,154033,2,0,L|189:381,1,63.7500024318696
77,206,154340,6,0,P|135:182|190:211,1,127.500004863739
213,113,154802,2,0,P|264:140|292:208,1,127.500004863739
376,147,155263,54,0,B|407:192|402:243|372:268|368:268|344:284|317:331|352:384,1,255.000009727478
292,201,156187,6,0,B|242:172|195:212|195:212|160:197|160:197|111:236|55:204,1,255.000009727478
252,270,157110,54,0,B|254:303|254:303|240:332,1,63.7500024318696,2|0,0:0|0:0,0:0:0:0:
292,201,157417,2,0,B|320:182|320:182|351:180,1,63.7500024318696
213,201,157725,2,0,B|182:185|182:185|165:159,1,63.7500024318696,0|2,0:0|0:0,0:0:0:0:
64,172,158033,2,0,B|61:138|61:138|74:111,1,63.7500024318696,2|0,0:0|0:0,0:0:0:0:
14,28,158340,6,0,P|40:12|73:7,1,63.7500024318696
224,37,158648,2,0,P|197:53|164:58,1,63.7500024318696
375,67,158956,2,0,B|426:148|356:169|409:255,1,191.250007295609,2|0,0:0|0:0,0:0:0:0:
483,190,159571,1,0,0:0:0:0:
294,130,159725,2,0,L|230:124,1,63.7500024318696,2|2,0:0|0:0,0:0:0:0:
149,206,160033,2,0,L|240:197,1,63.7500024318696
248,48,160340,54,0,P|204:52|152:128,1,127.500004863739
60,61,160802,2,0,B|36:105|40:157|69:178|70:178|70:179|92:197|116:245|92:301,1,255.000009727478,2|0,0:0|0:0,0:0:0:0:
0,256,161571,1,2,0:0:0:0:
153,112,161725,6,0,P|164:48|128:-20,1,127.500004863739,2|0,0:0|0:0,0:0:0:0:
188,220,162187,2,0,P|241:182|263:108,1,127.500004863739
136,321,162648,54,0,P|200:332|268:296,1,127.500004863739,2|0,0:0|0:0,0:0:0:0:
450,199,163110,2,0,P|385:188|317:224,1,127.500004863739,0|2,0:0|0:0,0:0:0:0:
404,358,163571,6,0,P|407:326|399:295,1,63.7500024318696,2|0,0:0|0:0,0:0:0:0:
184,158,163879,2,0,P|180:189|188:220,1,63.7500024318696
495,242,164187,2,0,P|476:216|449:198,1,63.7500024318696
93,272,164494,54,0,P|171:302|188:219,1,191.250007295609,6|6,0:0|0:0,0:0:0:0:
100,161,165417,1,6,0:0:0:0:
93,273,165879,1,6,0:0:0:0:
188,219,166340,5,6,0:0:0:0:
0,210,166802,1,6,0:0:0:0:
186,328,167263,1,6,0:0:0:0:
196,115,167725,1,6,0:0:0:0:
93,273,168187,53,6,0:0:0:0:
188,219,168648,1,6,0:0:0:0:
100,161,169110,1,6,0:0:0:0:
292,206,169571,38,0,B|325:252|385:236|385:236|411:265|411:265|471:250|509:301,1,255.000009727478,14|0,0:0|0:0,0:0:0:0:
508,316,170033,53,10,0:0:0:0:
358,159,170187,1,0,0:0:0:0:
358,159,170263,1,8,0:0:0:0:
358,159,170340,1,8,0:0:0:0:
292,206,170494,1,8,0:0:0:0:
299,286,170648,1,8,0:0:0:0:
372,319,170802,1,8,0:0:0:0:
284,125,170956,21,6,0:0:0:0:
160,299,171110,1,8,0:0:0:0:
161,314,171187,1,4,0:0:0:0:
162,330,171264,1,8,0:0:0:0:
226,252,171417,1,4,0:0:0:0:
190,157,171571,1,8,0:0:0:0:
89,140,171725,1,4,0:0:0:0:
261,346,171879,54,0,P|324:272|267:158,1,211.650003068047,6|2,0:0|0:0,0:0:0:0:
424,283,172494,1,4,0:0:0:0:
424,283,172648,1,4,0:0:0:0:
261,346,172802,54,0,B|215:377|164:372|140:342|140:338|124:314|77:287|24:322,1,255.000009727478,10|6,0:0|0:0,0:0:0:0:
204,268,173725,22,0,B|235:212|195:164|195:164|211:127|211:127|171:80|204:24,1,255,6|2,0:0|0:0,0:0:0:0:
268,72,174340,1,4,0:0:0:0:
268,72,174494,1,4,0:0:0:0:
136,220,174648,54,0,P|124:276|164:340,1,127.5,10|0,0:0|0:0,0:0:0:0:
204,268,174956,2,0,P|246:306|321:303,1,127.5,6|0,0:0|0:0,0:0:0:0:
279,233,175263,2,0,P|333:215|368:148,1,127.5,6|0,0:0|0:0,0:0:0:0:
267,71,175571,54,0,P|265:113|286:150,1,85,6|0,0:0|0:0,0:0:0:0:
450,164,175879,1,0,0:0:0:0:
212,186,176033,1,2,0:0:0:0:
415,89,176187,1,4,0:0:0:0:
415,89,176340,1,4,0:0:0:0:
204,268,176494,22,0,P|144:232|132:168,1,127.5,10|8,0:0|0:0,0:0:0:0:
140,172,176802,1,4,0:0:0:0:
313,307,176956,1,6,0:0:0:0:
267,71,177110,1,0,0:0:0:0:
98,280,177263,1,4,0:0:0:0:
450,164,177417,54,0,P|496:96|452:16,1,170,6|0,0:0|0:0,0:0:0:0:
415,89,177879,1,2,0:0:0:0:
485,239,178033,1,4,0:0:0:0:
485,239,178187,1,4,0:0:0:0:
212,186,178340,54,0,L|125:201,1,85,10|8,0:0|0:0,0:0:0:0:
98,280,178571,1,4,0:0:0:0:
98,280,178648,1,8,0:0:0:0:
152,344,178802,1,4,0:0:0:0:
236,330,178956,1,8,0:0:0:0:
264,249,179110,1,4,0:0:0:0:
68,358,179263,22,0,P|19:254|132:202,1,262.649997795754,6|2,0:0|0:0,0:0:0:0:
98,280,179879,1,4,0:0:0:0:
98,280,180033,1,4,0:0:0:0:
157,122,180187,54,0,P|204:166|197:250,1,127.5,10|0,0:0|0:0,0:0:0:0:
76,136,180494,2,0,P|92:72|171:40,1,127.5,6|0,0:0|0:0,0:0:0:0:
129,201,180802,2,0,P|63:220|-1:167,1,127.5,6|0,0:0|0:0,0:0:0:0:
272,131,181110,54,0,B|318:94|379:113|385:139|386:143|408:183|460:185|508:148,1,255,6|6,0:0|0:0,0:0:0:0:
449,89,181725,1,4,0:0:0:0:
324,195,181879,1,4,0:0:0:0:
449,89,182033,22,0,B|440:0|440:0|412:28,1,127.5,10|0,0:0|0:0,0:0:0:0:
324,195,182340,2,0,B|405:231|405:231|395:193,1,127.5,2|0,0:0|0:0,0:0:0:0:
295,34,182648,2,0,B|222:86|222:86|260:96,1,127.5,2|0,0:0|0:0,0:0:0:0:
142,41,182956,54,0,P|140:124|216:180,1,170,6|2,0:0|0:0,0:0:0:0:
223,86,183417,1,4,0:0:0:0:
223,86,183571,2,0,L|221:1,1,85,6|0,0:0|0:0,0:0:0:0:
53,160,183879,54,0,L|42:279,1,85,8|0,0:0|0:0,0:0:0:0:
114,292,184110,1,8,0:0:0:0:
114,292,184187,1,8,0:0:0:0:
191,256,184340,1,0,0:0:0:0:
198,171,184494,1,8,0:0:0:0:
128,122,184648,1,8,0:0:0:0:
184,340,184802,21,8,0:0:0:0:
225,332,184878,1,8,0:0:0:0:
257,305,184956,1,8,0:0:0:0:
272,265,185033,1,4,0:0:0:0:
270,225,185110,2,0,L|244:184,1,42.5,4|4,0:0|0:0,0:0:0:0:
128,122,185263,53,8,0:0:0:0:
87,130,185339,1,8,0:0:0:0:
55,157,185417,1,8,0:0:0:0:
39,196,185494,1,4,0:0:0:0:
42,237,185571,2,0,L|68:278,1,42.5,4|4,0:0|0:0,0:0:0:0:
383,288,185725,54,0,L|444:297,1,42.5,8|8,0:0|0:0,0:0:0:0:
457,203,185879,2,0,L|496:154,1,42.5,8|4,0:0|0:0,0:0:0:0:
420,96,186033,2,0,L|397:38,1,42.5,4|4,0:0|0:0,0:0:0:0:
308,74,186187,22,0,L|184:56,1,85,8|8,0:0|0:0,0:0:0:0:
170,127,186417,1,8,0:0:0:0:
170,127,186494,1,8,0:0:0:0:
299,300,186648,38,0,L|423:282,1,85,6|4,0:0|0:0,0:0:0:0:
457,203,186956,1,4,0:0:0:0:
140,48,187110,2,0,P|84:116|116:192,1,170,10|0,0:0|0:0,0:0:0:0:
170,127,187571,1,6,0:0:0:0:
47,244,187725,1,4,0:0:0:0:
48,259,187802,1,4,0:0:0:0:
49,275,187879,1,4,0:0:0:0:
299,300,188033,21,10,0:0:0:0:
299,300,188187,2,0,B|380:318|380:252|461:270,1,170,4|6,0:0|0:0,0:0:0:0:
436,363,188648,1,4,0:0:0:0:
436,363,188802,1,4,0:0:0:0:
324,208,188956,54,0,B|312:150|343:117|343:117|326:87|326:87|353:53|341:8,1,212.5,10|0,0:0|0:0,0:0:0:0:
415,180,189417,2,0,P|437:144|437:102,1,85,6|4,0:0|0:0,0:0:0:0:
424,96,189648,1,4,0:0:0:0:
411,89,189725,1,4,0:0:0:0:
252,32,189879,1,10,0:0:0:0:
324,208,190033,2,0,P|324:249|302:285,1,85,8|4,0:0|0:0,0:0:0:0:
150,196,190340,54,0,L|231:223,1,85,6|4,0:0|0:0,0:0:0:0:
375,349,190648,1,4,0:0:0:0:
265,135,190802,2,0,B|240:124|214:130|214:130|180:100|180:100|128:108|76:56,1,212.5,10|0,0:0|0:0,0:0:0:0:
150,196,191263,2,0,P|156:238|149:280,1,85,6|4,0:0|0:0,0:0:0:0:
136,287,191494,1,4,0:0:0:0:
123,296,191571,1,4,0:0:0:0:
299,180,191725,21,10,0:0:0:0:
299,180,191879,2,0,P|305:138|298:96,1,85,4|0,0:0|0:0,0:0:0:0:
155,15,192187,1,6,0:0:0:0:
156,98,192340,1,4,0:0:0:0:
227,139,192494,1,4,0:0:0:0:
450,134,192648,2,0,B|490:202|450:238|450:242|410:278|450:334,1,212.5,10|0,0:0|0:0,0:0:0:0:
384,188,193110,54,0,L|288:179,1,85,6|8,0:0|0:0,0:0:0:0:
250,249,193340,1,4,0:0:0:0:
250,249,193417,1,8,0:0:0:0:
285,326,193571,1,4,0:0:0:0:
369,333,193725,2,0,L|424:254,1,85,8|4,0:0|0:0,0:0:0:0:
201,318,194033,54,0,P|176:288|172:216,1,85,6|6,0:0|0:0,0:0:0:0:
250,249,194340,1,4,0:0:0:0:
417,263,194494,2,0,P|442:233|446:161,1,85,10|6,0:0|0:0,0:0:0:0:
367,194,194801,1,4,0:0:0:0:
120,311,194956,22,0,L|28:302,1,85,10|4,0:0|0:0,0:0:0:0:
48,156,195263,2,0,L|84:234,1,85,10|4,0:0|0:0,0:0:0:0:
132,164,195571,2,0,L|184:88,1,85,10|4,0:0|0:0,0:0:0:0:
301,177,195879,2,0,L|217:170,1,85,10|4,0:0|0:0,0:0:0:0:
96,87,196187,1,4,0:0:0:0:
385,185,196340,54,0,P|368:228|324:260,1,85,10|6,0:0|0:0,0:0:0:0:
301,177,196648,1,4,0:0:0:0:
377,329,196802,2,0,P|331:335|281:313,1,85,6|4,0:0|0:0,0:0:0:0:
265,103,197110,2,0,P|293:139|299:193,1,85,6|12,0:0|0:0,0:0:0:0:
125,312,197417,2,0,P|142:269|186:236,1,85,6|4,0:0|0:0,0:0:0:0:
385,185,197725,54,0,L|390:117,1,42.5,6|0,0:0|0:0,0:0:0:0:
444,100,197879,2,0,L|388:60,1,42.5,4|0,0:0|0:0,0:0:0:0:
399,6,198033,2,0,L|337:34,1,42.5
296,0,198187,2,0,L|290:67,1,42.5,8|0,0:0|0:0,0:0:0:0:
237,85,198340,2,0,L|292:124,1,42.5,6|0,0:0|0:0,0:0:0:0:
283,178,198494,2,0,L|344:149,1,42.5,4|0,0:0|0:0,0:0:0:0:
341,92,198648,21,10,0:0:0:0:
133,78,198802,1,4,0:0:0:0:
123,89,198879,1,8,0:0:0:0:
113,100,198956,1,8,0:0:0:0:
130,287,199110,1,4,0:0:0:0:
283,178,199263,1,8,0:0:0:0:
103,111,199417,1,4,0:0:0:0:
300,365,199571,53,10,0:0:0:0:
342,360,199648,1,8,0:0:0:0:
384,356,199725,1,8,0:0:0:0:
426,351,199802,1,4,0:0:0:0:
468,347,199879,2,0,L|523:351,1,42.5,4|4,0:0|0:0,0:0:0:0:
325,253,200033,53,10,0:0:0:0:
282,248,200110,1,8,0:0:0:0:
241,244,200187,1,8,0:0:0:0:
199,239,200263,1,4,0:0:0:0:
157,235,200340,2,0,L|95:239,1,42.5,4|4,0:0|0:0,0:0:0:0:
351,219,200505,22,0,L|314:269,1,42.5,6|8,0:0|0:0,0:0:0:0:
433,213,200647,2,0,L|452:253,1,42.5,8|4,0:0|0:0,0:0:0:0:
468,134,200813,2,0,L|513:138,1,42.5,4|4,0:0|0:0,0:0:0:0:
418,64,200970,54,0,L|449:19,1,42.5,6|4,0:0|0:0,0:0:0:0:
333,72,201127,2,0,L|309:21,1,42.5,8|4,0:0|0:0,0:0:0:0:
300,151,201272,2,0,L|243:146,1,42.5,8|4,0:0|0:0,0:0:0:0:
351,219,201417,22,0,L|288:303,2,85.0000032424928,6|6|6,0:0|0:0|0:0,0:0:0:0:
189,40,202110,1,10,0:0:0:0:
130,153,202341,1,6,0:0:0:0:
258,147,202573,1,6,0:0:0:0:
62,45,202804,6,0,L|-12:69,1,63.7500024318696,6|0,0:0|0:0,0:0:0:0:
0,80,203036,1,6,0:0:0:0:
196,112,203152,2,0,L|272:136,1,63.7500024318696,6|0,0:0|0:0,0:0:0:0:
258,147,203385,1,4,0:0:0:0:
62,249,203501,53,10,0:0:0:0:
22,263,203617,1,4,0:0:0:0:
14,304,203734,1,8,0:0:0:0:
44,331,203850,1,4,0:0:0:0:
82,317,203966,1,8,0:0:0:0:
88,277,204083,1,4,0:0:0:0:
62,249,204199,6,0,L|72:146,1,85.0000032424928,6|6,0:0|0:0,0:0:0:0:
250,62,204541,2,0,L|257:146,1,85.0000032424928,6|6,0:0|0:0,0:0:0:0:
240,354,204884,1,10,0:0:0:0:
22,264,205113,2,0,L|-9:266,3,21.2500008106232,4|8|4|8,0:0|0:0|0:0|0:0,0:0:0:0:
12,283,205341,1,4,0:0:0:0:
281,370,205574,54,0,B|337:380|351:363|366:346|420:357,1,141.666666666667,6|0,0:0|0:0,0:0:0:0:
311,285,206038,2,0,B|292:244|301:226|311:209|290:167,1,120.416668963432,6|0,0:0|0:0,0:0:0:0:
388,241,206502,2,0,B|430:237|436:227|442:217|483:215,1,99.1666636403403,6|0,0:0|0:0,0:0:0:0:
390,152,206967,2,0,B|374:132|376:114|378:96|364:78,1,77.9166690444947,6|0,0:0|0:0,0:0:0:0:
456,104,207431,5,6,0:0:0:0:
313,153,207661,1,6,0:0:0:0:
342,4,207891,1,6,0:0:0:0:
310,277,208121,1,10,0:0:0:0:
435,219,208351,1,6,0:0:0:0:
423,355,208582,1,6,0:0:0:0:
313,153,208812,54,0,L|236:141,1,63.7500024318696,6|0,0:0|0:0,0:0:0:0:
241,156,209042,1,6,0:0:0:0:
435,219,209157,2,0,L|510:207,1,63.7500024318696,4|0,0:0|0:0,0:0:0:0:
507,222,209388,1,4,0:0:0:0:
323,298,209503,5,8,0:0:0:0:
288,220,209618,1,4,0:0:0:0:
370,228,209734,1,8,0:0:0:0:
407,306,209849,1,8,0:0:0:0:
358,376,209964,1,8,0:0:0:0:
273,368,210080,1,4,0:0:0:0:
238,290,210195,54,0,L|145:281,1,85.0000032424928,6|6,0:0|0:0,0:0:0:0:
336,153,210541,2,0,L|427:144,1,85.0000032424928,6|6,0:0|0:0,0:0:0:0:
444,384,210886,5,10,0:0:0:0:
444,384,211002,1,4,0:0:0:0:
323,298,211117,53,10,0:0:0:0:
323,298,211232,1,4,0:0:0:0:
494,313,211348,5,10,0:0:0:0:
494,313,211463,1,0,0:0:0:0:
273,227,211561,54,0,P|236:284|268:365,1,141.666666666667,6|0,0:0|0:0,0:0:0:0:
395,304,212022,2,0,L|324:298,1,72.2500013780594,8|4,0:0|0:0,0:0:0:0:
83,279,212484,2,0,L|160:272,1,59.4999981842042,8|4,0:0|0:0,0:0:0:0:
147,283,212830,1,4,0:0:0:0:
152,292,212945,1,10,0:0:0:0:
29,195,213176,1,8,0:0:0:0:
336,153,213424,38,0,L|382:209,1,56.6666666666667,6|0,0:0|0:0,0:0:0:0:
480,208,213655,2,0,L|455:277,1,56.6666666666667,6|0,0:0|0:0,0:0:0:0:
504,360,213886,2,0,L|433:372,1,56.6666666666667,6|0,0:0|0:0,0:0:0:0:
435,108,214117,54,0,L|388:52,1,56.6666666666667,10|0,0:0|0:0,0:0:0:0:
336,153,214348,2,0,L|264:165,1,56.6666666666667,6|0,0:0|0:0,0:0:0:0:
325,261,214580,2,0,L|300:329,1,56.6666666666667,6|0,0:0|0:0,0:0:0:0:
290,54,214811,22,0,L|184:44,1,85,6|0,0:0|0:0,0:0:0:0:
192,62,215042,1,6,0:0:0:0:
325,261,215158,2,0,L|432:251,1,85,4|2,0:0|0:0,0:0:0:0:
423,269,215389,1,4,0:0:0:0:
189,359,215504,53,8,0:0:0:0:
132,354,215620,1,4,0:0:0:0:
108,302,215736,1,8,0:0:0:0:
141,256,215851,1,4,0:0:0:0:
197,261,215967,1,8,0:0:0:0:
221,312,216082,1,4,0:0:0:0:
246,364,216198,54,0,L|312:370,1,56.6666666666667,6|8,0:0|0:0,0:0:0:0:
367,275,216429,2,0,L|339:214,1,56.6666666666667,4|6,0:0|0:0,0:0:0:0:
230,215,216660,2,0,L|191:269,1,56.6666666666667,0|6,0:0|0:0,0:0:0:0:
472,298,216892,22,0,P|480:271|472:241,1,56.6666666666667,14|6,0:0|0:0,0:0:0:0:
374,49,217123,2,0,L|376:6,2,42.5,8|4|8,0:0|0:0|0:0,0:0:0:0:
340,181,217353,2,0,L|344:241,2,42.5,4|8|4,0:0|0:0|0:0,0:0:0:0:
242,86,217585,54,0,B|191:69|178:80|165:91|112:74,1,127.500004863739,14|4,0:0|0:0,0:0:0:0:
200,160,218044,2,0,P|205:192|194:224,1,63.7500024318696,10|0,0:0|0:0,0:0:0:0:
102,182,218350,2,0,L|124:184,1,21.2500008106232,0|8,0:0|0:0,0:0:0:0:
300,253,218503,2,0,L|268:258,1,31.8750012159348,4|8,0:0|0:0,0:0:0:0:
201,304,218656,53,4,0:0:0:0:
126,268,218809,21,8,0:0:0:0:
123,184,218962,53,4,0:0:0:0:
195,139,219115,53,8,0:0:0:0:
269,177,219268,21,4,0:0:0:0:
133,351,219421,6,0,P|43:265|131:184,1,265.199998381348,6|2,0:0|0:0,0:0:0:0:
126,268,221267,6,0,B|190:300|233:268|282:236|342:268,1,220.999998651123,6|4,0:0|0:0,0:0:0:0:
344,280,222113,1,4,0:0:0:0:
347,291,222190,54,0,L|356:315,1,14.7333332434082,8|8,0:0|0:0,0:0:0:0:
176,172,222344,1,4,0:0:0:0:
176,172,222497,1,4,0:0:0:0:
292,368,222651,1,10,0:0:0:0:
292,368,223113,6,0,P|413:358|436:268,1,220.999998651123,6|10,0:0|0:0,0:0:0:0:
347,292,224036,1,10,0:0:0:0:
347,292,224344,1,10,0:0:0:0:
347,292,224651,1,10,0:0:0:0:
334,207,224959,54,0,P|331:250|348:294,1,88.3999994604492,6|4,0:0|0:0,0:0:0:0:
188,256,225421,2,0,P|191:212|175:171,1,88.3999994604492,10|4,0:0|0:0,0:0:0:0:
157,161,225805,1,8,0:0:0:0:
137,154,225882,5,8,0:0:0:0:
200,340,226036,1,4,0:0:0:0:
333,234,226190,1,8,0:0:0:0:
175,171,226344,1,4,0:0:0:0:
188,256,226497,1,8,0:0:0:0:
256,203,226651,1,4,0:0:0:0:
94,139,226805,54,0,B|78:187|94:203|110:218|94:272,1,132.599999190674,6|2,0:0|0:0,0:0:0:0:
175,171,227574,1,4,0:0:0:0:
188,166,227651,1,4,0:0:0:0:
201,161,227728,6,0,L|220:160,2,14.7333332434082,8|8|8,0:0|0:0|0:0,0:0:0:0:
321,151,228036,1,8,3:0:0:0:
331,271,228344,1,8,3:0:0:0:
211,281,228651,54,0,L|104:271,1,88.3999994604492,6|0,0:0|0:0,0:0:0:0:
160,353,229113,1,2,0:0:0:0:
160,353,229574,5,8,0:0:0:0:
247,361,229728,1,8,0:0:0:0:
297,289,229882,1,8,0:0:0:0:
259,209,230036,1,8,0:0:0:0:
170,201,230190,1,8,0:0:0:0:
123,273,230344,1,8,0:0:0:0:
334,368,230497,54,0,B|389:341|383:276|383:276|416:254|416:254|408:192|469:160,1,265.199998381348,6|8,0:0|0:0,0:0:0:0:
452,156,231497,1,8,0:0:0:0:
435,95,231574,5,4,0:0:0:0:
421,101,231651,1,4,0:0:0:0:
359,86,231728,53,8,0:0:0:0:
357,100,231805,1,8,0:0:0:0:
313,146,231882,5,4,0:0:0:0:
324,154,231959,1,4,0:0:0:0:
341,215,232036,53,8,0:0:0:0:
354,209,232113,1,8,0:0:0:0:
415,224,232190,5,4,0:0:0:0:
416,210,232267,1,4,0:0:0:0:
452,156,232344,54,0,B|405:133|388:154|372:175|316:151,1,132.599999190674,6|2,0:0|0:0,0:0:0:0:
324,154,233267,37,8,0:0:0:0:
465,325,233421,1,8,3:0:0:0:
247,361,233574,1,8,0:0:0:0:
394,239,233728,1,8,0:0:0:0:
285,257,233882,1,8,0:0:0:0:
355,343,234036,1,8,3:0:0:0:
214,171,234190,54,0,B|190:174|166:162|166:162|138:178|138:178|94:158|49:182,1,170,6|2,0:0|0:0,0:0:0:0:
83,344,234651,1,0,0:0:0:0:
83,344,234805,2,0,P|99:305|98:262,1,85,6|0,0:0|0:0,0:0:0:0:
67,99,235113,22,0,P|51:138|52:180,1,85,10|0,0:0|0:0,0:0:0:0:
200,264,235421,2,0,L|285:257,1,85,2|0,0:0|0:0,0:0:0:0:
228,162,235728,2,0,L|144:155,1,85,6|0,0:0|0:0,0:0:0:0:
376,282,236036,54,0,B|395:201|330:200|349:120,1,170,6|2,0:0|0:0,0:0:0:0:
285,257,236497,2,0,P|284:304|308:348,1,85,4|2,0:0|0:0,0:0:0:0:
440,144,236805,1,4,0:0:0:0:
192,85,236959,54,0,B|111:66|110:131|29:112,1,170,10|2,0:0|0:0,0:0:0:0:
57,28,237421,1,8,0:0:0:0:
164,169,237574,2,0,P|165:216|141:260,1,85,6|0,0:0|0:0,0:0:0:0:
156,5,237882,22,0,P|279:81|164:169,1,340,6|6,0:0|0:0,0:0:0:0:
192,85,238651,1,0,0:0:0:0:
349,119,238805,54,0,L|410:192,1,85,10|0,3:0|3:0,3:0:0:0:
487,169,239113,2,0,L|454:259,1,85,2|0,3:0|3:0,3:0:0:0:
511,313,239421,2,0,L|416:329,1,85,6|0,3:0|3:0,3:0:0:0:
185,319,239728,54,0,B|299:338|299:338|248:383,1,170,6|2,0:0|0:0,0:0:0:0:
356,294,240190,2,0,P|371:337|355:379,1,85,4|2,0:0|0:0,0:0:0:0:
110,264,240497,1,4,0:0:0:0:
112,248,240574,1,4,0:0:0:0:
114,232,240651,21,8,0:0:0:0:
201,161,240805,1,8,0:0:0:0:
305,200,240959,1,8,0:0:0:0:
323,309,241113,1,8,0:0:0:0:
237,379,241267,1,8,0:0:0:0:
133,339,241421,1,8,0:0:0:0:
272,130,241574,54,0,B|325:107|366:153|366:153|404:142|404:142|448:187|506:162,1,255.000009727478,6|0,0:0|0:0,0:0:0:0:
468,90,242190,1,6,0:0:0:0:
468,90,242344,1,0,0:0:0:0:
305,199,242497,54,0,P|263:206|224:191,1,85,10|0,0:0|0:0,0:0:0:0:
129,222,242805,2,0,P|122:181|165:117,1,85,6|0,0:0|0:0,0:0:0:0:
107,46,243113,2,0,P|147:39|212:82,1,85,6|0,0:0|0:0,0:0:0:0:
283,23,243421,22,0,B|293:49|287:64|290:76|275:105|275:105|320:92|356:124,1,170,6|0,0:0|0:0,0:0:0:0:
314,314,243882,2,0,B|305:200|305:200|351:233,1,170,6|0,0:0|0:0,0:0:0:0:
512,320,244344,2,0,B|418:385|418:385|423:329,1,170,10|0,3:0|3:0,3:0:0:0:
419,146,244805,2,0,B|522:195|522:195|470:218,1,170,6|0,0:0|0:0,0:0:0:0:
314,314,245267,54,0,L|209:303,1,85,6|0,0:0|0:0,0:0:0:0:
44,230,245574,2,0,L|129:222,1,85,6|0,0:0|0:0,0:0:0:0:
278,235,245882,1,8,0:0:0:0:
180,375,246036,1,8,0:0:0:0:
79,152,246190,53,8,0:0:0:0:
328,166,246344,1,4,0:0:0:0:
129,222,246497,1,4,0:0:0:0:
364,244,246651,1,8,0:0:0:0:
165,144,246805,1,4,0:0:0:0:
278,235,246959,1,4,0:0:0:0:
116,74,247113,22,0,P|148:60|212:72,1,85,10|4,0:0|0:0,0:0:0:0:
327,305,247421,2,0,P|295:319|231:307,1,85,10|4,0:0|0:0,0:0:0:0:
165,144,247728,1,8,0:0:0:0:
93,300,247882,1,8,0:0:0:0:
328,166,248036,54,0,L|339:30,1,127.5,8|8,0:0|0:0,0:0:0:0:
348,32,248344,1,8,0:0:0:0:
443,111,248497,1,8,0:0:0:0:
433,237,248651,1,8,0:0:0:0:
318,290,248805,1,8,0:0:0:0:
214,216,248959,54,0,P|204:176|216:112,1,85,6|4,0:0|0:0,0:0:0:0:
328,166,249268,1,4,0:0:0:0:
94,83,249422,2,0,P|84:123|96:187,1,85,8|4,0:0|0:0,0:0:0:0:
208,133,249732,1,4,0:0:0:0:
100,0,249886,1,6,0:0:0:0:
82,249,250041,1,4,0:0:0:0:
88,264,250118,1,4,0:0:0:0:
93,278,250196,21,6,0:0:0:0:
214,216,250350,1,8,0:0:0:0:
13,203,250505,1,6,0:0:0:0:
128,376,250660,1,8,0:0:0:0:
202,50,250814,54,0,B|251:13|310:48|310:48|340:29|340:29|400:64|451:27,1,270.300000412445,6|0,0:0|0:0,0:0:0:0:
256,120,251459,54,0,B|226:190|265:231|266:235|306:280|272:349,1,237.150007418175,6|0,0:0|0:0,0:0:0:0:
24,332,252087,22,0,P|83:249|173:303,1,223.125008511544,6|0,0:0|0:0,0:0:0:0:
99,323,252999,54,0,B|102:299|97:278|97:278|122:245|122:245|105:190|147:144,1,190.4,6|0,0:0|0:0,0:0:0:0:
209,214,253912,22,0,B|256:224|256:224|312:192|312:192|335:139|335:139|391:107|391:107|449:118,1,284.156976744186,6|0,0:0|0:0,0:0:0:0:
238,122,255758,6,0,P|121:179|169:298,1,284.156976744186
309,359,257604,54,0,B|300:342|298:321|298:321|263:298|263:298|260:241|208:213,1,188.888888888889,6|0,0:0|0:0,0:0:0:0:
332,252,258527,6,0,B|410:165|330:127|411:35,1,233.750007133484
496,132,259450,54,0,L|486:236,1,95.6250036478044,6|8,0:0|0:0,0:0:0:0:
480,236,259758,1,8,0:0:0:0:
243,157,259912,1,8,0:0:0:0:
325,97,260065,1,8,0:0:0:0:
335,198,260219,1,8,0:0:0:0:
151,116,260373,5,8,0:0:0:0:
162,217,260527,2,0,L|168:276,1,31.8750012159348,0|4,0:0|0:0,0:0:0:0:
243,157,260681,1,8,0:0:0:0:
233,57,260835,1,4,0:0:0:0:
141,16,260988,1,8,3:0:0:0:
60,75,261142,1,4,0:0:0:0:
254,257,261296,54,0,B|330:345|373:250|449:336,1,212.5,6|0,0:0|0:0,0:0:0:0:
335,198,262219,6,0,P|352:171|382:155,1,63.75
254,257,262527,54,0,P|239:228|235:194,1,63.75
264,356,262835,6,0,P|232:354|195:337,1,63.75
345,297,263142,54,0,P|360:326|364:360,1,63.75,6|0,0:0|0:0,0:0:0:0:
504,170,263450,1,0,0:0:0:0:
452,252,263604,1,0,0:0:0:0:
362,80,263758,1,0,0:0:0:0:
407,166,263912,1,0,0:0:0:0:
213,157,264065,5,8,0:0:0:0:
459,85,264219,1,4,0:0:0:0:
356,248,264373,1,8,0:0:0:0:
310,161,264527,1,4,0:0:0:0:
362,80,264681,1,4,0:0:0:0:
459,85,264835,1,4,0:0:0:0:
258,245,264988,53,8,0:0:0:0:
217,255,265065,1,8,0:0:0:0:
175,248,265142,1,8,0:0:0:0:
140,224,265219,1,8,0:0:0:0:
119,188,265296,1,8,0:0:0:0:
115,146,265373,1,4,0:0:0:0:
93,109,265450,6,0,L|43:75,1,31.8750012159348,8|4,0:0|0:0,0:0:0:0:
2,237,265604,2,0,L|-2:298,1,31.8750012159348,8|4,0:0|0:0,0:0:0:0:
146,334,265758,2,0,L|200:307,1,31.8750012159348,8|4,0:0|0:0,0:0:0:0:
213,157,265912,53,4,0:0:0:0:
243,147,265988,1,4,0:0:0:0:
274,147,266065,1,4,0:0:0:0:
304,157,266142,1,4,0:0:0:0:
329,177,266219,1,4,0:0:0:0:
347,203,266296,1,4,0:0:0:0:
355,234,266373,5,8,0:0:0:0:
258,245,266527,1,8,0:0:0:0:
304,157,266681,1,8,0:0:0:0:
406,311,266835,53,6,0:0:0:0:
350,69,266988,1,4,0:0:0:0:
161,256,267142,1,4,0:0:0:0:
355,234,267296,5,10,0:0:0:0:
114,152,267450,1,4,0:0:0:0:
314,317,267604,1,4,0:0:0:0:
15,148,267758,53,8,0:0:0:0:
24,107,267835,1,8,0:0:0:0:
51,73,267912,1,8,0:0:0:0:
88,54,267988,1,4,0:0:0:0:
130,52,268065,1,4,0:0:0:0:
169,68,268142,1,4,0:0:0:0:
198,99,268219,38,0,P|308:144|382:50,1,255.000009727478,14|0,0:0|0:0,0:0:0:0:
332,233,268681,54,0,L|341:344,1,106.25,6|0,0:0|0:0,0:0:0:0:
453,224,268989,2,0,L|462:118,1,106.25,2|0,0:0|0:0,0:0:0:0:
283,47,269296,1,6,0:0:0:0:
469,12,269450,1,0,0:0:0:0:
292,153,269604,22,0,B|236:143|236:143|204:113|204:113|146:102,1,159.375,10|0,0:0|0:0,0:0:0:0:
256,228,269912,2,0,B|200:218|200:218|168:188|168:188|110:177,1,159.375,6|0,0:0|0:0,0:0:0:0:
220,303,270219,2,0,B|164:293|164:293|132:263|132:263|74:252,1,159.375,6|0,0:0|0:0,0:0:0:0:
184,378,270527,54,0,P|236:384|292:344,1,106.25,6|0,0:0|0:0,0:0:0:0:
256,228,270835,1,2,0:0:0:0:
74,252,270988,1,4,0:0:0:0:
323,284,271142,1,2,0:0:0:0:
111,178,271296,1,4,0:0:0:0:
367,358,271450,54,0,P|408:300|360:208,1,159.375,10|0,0:0|0:0,0:0:0:0:
213,204,271758,2,0,P|242:268|346:272,1,159.375,6|0,0:0|0:0,0:0:0:0:
423,146,272065,2,0,P|352:139|296:227,1,159.375,6|0,0:0|0:0,0:0:0:0:
491,302,272373,22,0,L|501:182,1,106.25,6|0,0:0|0:0,0:0:0:0:
423,146,272681,1,2,0:0:0:0:
491,302,272835,1,0,0:0:0:0:
298,200,272988,1,6,0:0:0:0:
398,360,273142,1,0,0:0:0:0:
197,338,273296,54,0,B|150:311|150:311|132:261,1,106.25,14|0,0:0|0:0,0:0:0:0:
29,276,273604,2,0,B|29:222|29:222|64:180,1,106.25,6|0,0:0|0:0,0:0:0:0:
1,107,273912,2,0,B|47:80|47:80|100:88,1,106.25,6|0,0:0|0:0,0:0:0:0:
126,0,274219,54,0,B|172:23|172:23|191:73|191:73|301:130,1,212.5,6|6,0:0|0:0,0:0:0:0:
403,241,274681,2,8,L|298:294,1,106.25,8|2,0:0|0:0,0:0:0:0:
151,226,274988,1,4,0:0:0:0:
401,351,275142,2,0,P|451:340|511:252,1,159.375,10|8,0:0|0:0,0:0:0:0:
500,240,275450,21,8,0:0:0:0:
464,160,275604,1,8,0:0:0:0:
500,80,275758,1,8,0:0:0:0:
465,0,275912,1,8,0:0:0:0:
403,241,276065,54,0,B|326:279|299:250|272:220|198:257,1,212.5,6|2,0:0|0:0,0:0:0:0:
257,352,276527,1,0,0:0:0:0:
344,146,276681,1,6,0:0:0:0:
453,325,276835,1,0,0:0:0:0:
146,355,276988,54,0,P|96:296|112:192,1,159.375,10|0,0:0|0:0,0:0:0:0:
0,160,277296,2,0,P|59:110|163:126,1,159.375,6|0,0:0|0:0,0:0:0:0:
195,14,277604,2,0,P|245:73|229:177,1,159.375,6|0,0:0|0:0,0:0:0:0:
341,209,277912,22,0,P|304:248|232:264,1,106.25,6|0,0:0|0:0,0:0:0:0:
244,152,278219,1,2,0:0:0:0:
439,267,278373,1,4,0:0:0:0:
150,218,278527,1,2,0:0:0:0:
441,154,278681,1,4,0:0:0:0:
163,332,278835,54,0,P|224:343|252:258,1,159.375,10|0,0:0|0:0,0:0:0:0:
140,104,279142,2,0,P|99:151|159:218,1,159.375,6|0,0:0|0:0,0:0:0:0:
347,196,279450,2,0,P|326:137|240:160,1,159.375,6|0,0:0|0:0,0:0:0:0:
441,154,279758,54,0,L|468:49,1,106.25,6|0,0:0|0:0,0:0:0:0:
365,79,280065,1,2,0:0:0:0:
431,257,280219,1,0,0:0:0:0:
263,51,280373,1,6,0:0:0:0:
347,196,280527,1,0,0:0:0:0:
150,218,280681,22,0,L|42:227,1,106.25,10|0,0:0|0:0,0:0:0:0:
105,314,280988,1,6,0:0:0:0:
210,304,281142,1,0,0:0:0:0:
88,130,281296,1,6,0:0:0:0:
255,208,281450,1,0,0:0:0:0:
45,34,281604,54,0,P|0:76|-16:128,1,106.25,6|4,0:0|0:0,0:0:0:0:
0,129,281835,1,0,0:0:0:0:
16,139,281912,1,2,0:0:0:0:
105,314,282065,2,0,P|150:272|166:220,1,106.25,4|2,0:0|0:0,0:0:0:0:
150,219,282296,1,0,0:0:0:0:
135,208,282373,1,4,0:0:0:0:
231,299,282527,54,0,L|406:314,1,159.375,8|8,0:0|0:0,0:0:0:0:
404,300,282835,1,8,0:0:0:0:
301,111,282988,2,0,L|157:123,1,106.25,6|8,0:0|0:0,0:0:0:0:
165,231,283296,1,8,0:0:0:0:
362,198,283450,22,0,P|405:109|325:7,1,212.5,6|2,0:0|0:0,0:0:0:0:
301,111,283912,1,0,0:0:0:0:
511,98,284065,1,6,0:0:0:0:
423,285,284219,1,0,0:0:0:0:
240,24,284373,54,0,B|124:13|124:13|145:51,1,159.375,10|0,0:0|0:0,0:0:0:0:
301,111,284681,2,0,B|416:100|416:100|395:138,1,159.375,6|0,0:0|0:0,0:0:0:0:
240,198,284988,2,0,B|124:187|124:187|145:225,1,159.375,6|0,0:0|0:0,0:0:0:0:
301,285,285296,54,0,L|447:272,1,106.25,6|0,0:0|0:0,0:0:0:0:
346,189,285604,1,2,0:0:0:0:
361,371,285758,1,4,0:0:0:0:
240,198,285912,1,2,0:0:0:0:
467,362,286065,1,4,0:0:0:0:
195,294,286219,22,0,P|141:237|141:159,1,159.375,10|0,0:0|0:0,0:0:0:0:
350,176,286527,2,0,B|240:198|240:198|277:229,1,159.375,6|0,0:0|0:0,0:0:0:0:
450,181,286835,2,0,B|485:74|485:74|440:90,1,159.375,6|0,0:0|0:0,0:0:0:0:
394,266,287142,54,0,L|464:345,1,106.25,6|0,0:0|0:0,0:0:0:0:
498,244,287450,1,2,0:0:0:0:
360,368,287604,1,0,0:0:0:0:
450,181,287758,1,6,0:0:0:0:
312,305,287912,1,0,0:0:0:0:
402,118,288065,54,0,L|391:0,1,106.25,10|0,0:0|0:0,0:0:0:0:
298,179,288373,2,0,L|306:73,1,106.25,6|0,0:0|0:0,0:0:0:0:
211,239,288681,2,0,L|202:134,1,106.25,6|0,0:0|0:0,0:0:0:0:
239,320,288988,22,0,P|165:380|181:288,1,212.5,6|4,0:0|0:0,0:0:0:0:
319,285,289450,2,0,L|437:263,1,106.25,8|2,0:0|0:0,0:0:0:0:
387,365,289758,1,4,0:0:0:0:
355,185,289912,54,0,L|366:61,1,106.25,10|4,0:0|0:0,0:0:0:0:
350,65,290142,1,8,0:0:0:0:
336,51,290219,1,8,0:0:0:0:
259,90,290373,1,8,0:0:0:0:
182,51,290527,1,8,0:0:0:0:
105,90,290681,1,8,0:0:0:0:
414,12,290835,54,0,P|412:98|338:40,1,212.5,6|6,0:0|0:0,0:0:0:0:
355,185,291296,1,0,0:0:0:0:
259,90,291450,1,6,0:0:0:0:
486,150,291604,1,0,0:0:0:0:
320,316,291758,22,0,P|256:322|179:245,1,159.375,10|0,0:0|0:0,0:0:0:0:
125,346,292065,2,0,P|87:294|115:189,1,159.375,6|0,0:0|0:0,0:0:0:0:
1,193,292373,2,0,P|27:134|132:106,1,159.375,6|0,0:0|0:0,0:0:0:0:
71,9,292681,54,0,P|124:1|173:20,1,106.25,6|0,0:0|0:0,0:0:0:0:
255,79,292988,1,2,0:0:0:0:
112,102,293142,1,4,0:0:0:0:
195,193,293296,1,2,0:0:0:0:
172,19,293450,1,4,0:0:0:0:
1,193,293604,54,0,L|15:356,1,159.375,10|0,0:0|0:0,0:0:0:0:
99,261,293912,2,0,L|112:102,1,159.375,6|0,0:0|0:0,0:0:0:0:
195,193,294219,2,0,L|208:351,1,159.375,6|0,0:0|0:0,0:0:0:0:
292,260,294527,22,0,L|304:112,1,106.25,6|0,0:0|0:0,0:0:0:0:
387,214,294835,1,2,0:0:0:0:
195,193,294988,1,0,0:0:0:0:
395,109,295142,1,6,0:0:0:0:
379,320,295296,1,0,0:0:0:0:
214,83,295450,54,0,P|152:92|104:136,1,106.25,10|0,0:0|0:0,0:0:0:0:
195,193,295758,1,6,0:0:0:0:
135,16,295912,1,0,0:0:0:0:
90,221,296065,1,6,0:0:0:0:
300,165,296219,1,0,0:0:0:0:
14,145,296373,54,0,P|-16:192|8:276,1,106.25,6|4,0:0|0:0,0:0:0:0:
2,250,296604,1,0,0:0:0:0:
18,258,296681,1,2,0:0:0:0:
195,193,296835,2,0,P|169:143|84:122,1,106.25,4|2,0:0|0:0,0:0:0:0:
111,130,297065,1,4,0:0:0:0:
96,140,297142,1,4,0:0:0:0:
62,325,297296,2,0,P|117:327|178:264,1,106.25,8|0,0:0|0:0,0:0:0:0:
158,282,297527,1,8,0:0:0:0:
156,264,297604,21,8,0:0:0:0:
18,258,297758,1,6,0:0:0:0:
96,140,297912,1,8,0:0:0:0:
158,282,298065,1,8,0:0:0:0:
0,248,298219,54,0,B|-24:165|9:144|43:122|19:43,1,212.5,6|2,0:0|0:0,0:0:0:0:
19,43,298681,1,0,0:0:0:0:
108,204,298835,1,6,0:0:0:0:
203,47,298988,1,0,0:0:0:0:
0,248,299142,54,0,B|20:292|20:292|124:336,1,159.375,10|0,0:0|0:0,0:0:0:0:
203,200,299450,2,0,P|161:150|118:228,1,159.375,6|0,0:0|0:0,0:0:0:0:
280,338,299758,2,0,B|324:361|365:345|358:344|391:327|434:350,1,159.375,6|0,0:0|0:0,0:0:0:0:
328,244,300065,22,0,B|316:199|344:161|344:161|332:119|332:119|358:90|346:41,1,212.5,6|2,0:0|0:0,0:0:0:0:
272,71,300527,1,4,0:0:0:0:
402,215,300681,1,2,0:0:0:0:
256,156,300835,1,4,0:0:0:0:
418,130,300988,54,0,P|456:148|488:208,1,106.25,10|0,0:0|0:0,0:0:0:0:
386,300,301296,1,6,0:0:0:0:
190,99,301450,1,0,0:0:0:0:
190,99,301604,2,0,B|168:88|144:88|144:88|116:104|116:104|80:88|40:109,1,159.375,6|0,0:0|0:0,0:0:0:0:
31,271,301912,54,0,P|122:258|83:176,1,212.5,6|2,0:0|0:0,0:0:0:0:
3,180,302373,1,0,0:0:0:0:
190,99,302527,1,6,0:0:0:0:
60,362,302681,1,0,0:0:0:0:
60,362,302835,22,0,B|108:372|143:346|136:347|164:322|211:333,1,159.375,10|0,0:0|0:0,0:0:0:0:
81,258,303142,2,0,B|43:152|43:152|86:178,1,159.375,6|0,0:0|0:0,0:0:0:0:
213,333,303450,2,0,B|264:339|264:339|360:279,1,159.375,6|0,0:0|0:0,0:0:0:0:
319,129,303758,54,0,P|228:146|234:252,1,212.5,6|6,0:0|0:0,0:0:0:0:
467,314,304219,2,0,L|476:206,1,106.25,8|2,0:0|0:0,0:0:0:0:
284,196,304527,1,4,0:0:0:0:
284,196,304681,54,0,P|330:207|378:176,1,106.25,10|4,0:0|0:0,0:0:0:0:
409,88,304988,1,8,0:0:0:0:
346,15,305142,1,4,0:0:0:0:
251,33,305296,1,8,0:0:0:0:
219,124,305450,1,4,0:0:0:0:
473,161,305604,22,0,B|490:241|454:260|419:278|436:363,1,212.5,6|2,0:0|0:0,0:0:0:0:
512,322,306065,1,0,0:0:0:0:
384,199,306219,1,6,0:0:0:0:
342,372,306373,1,0,0:0:0:0:
473,161,306527,54,0,P|432:116|320:128,1,159.375,10|0,0:0|0:0,0:0:0:0:
344,16,306835,2,0,P|284:29|238:132,1,159.375,6|0,0:0|0:0,0:0:0:0:
153,55,307142,2,0,P|134:113|200:204,1,159.375,6|0,0:0|0:0,0:0:0:0:
91,239,307450,54,0,B|132:308|172:296|216:284|256:360,1,212.5,6|2,0:0|0:0,0:0:0:0:
180,194,307912,2,0,L|191:66,1,106.25,4|2,0:0|0:0,0:0:0:0:
93,133,308219,1,4,0:0:0:0:
355,196,308373,22,0,L|364:301,1,106.25,10|0,0:0|0:0,0:0:0:0:
267,255,308681,1,6,0:0:0:0:
443,137,308835,1,0,0:0:0:0:
443,137,308988,2,0,P|369:127|367:210,1,159.375,6|0,0:0|0:0,0:0:0:0:
384,40,309296,54,0,B|333:23|333:23|289:43|289:43|241:19|177:39,1,212.5,6|2,0:0|0:0,0:0:0:0:
93,133,309758,1,0,0:0:0:0:
210,165,309912,1,6,0:0:0:0:
6,219,310065,1,0,0:0:0:0:
240,283,310219,54,0,B|288:293|323:267|316:268|344:243|391:254,1,159.375,10|0,0:0|0:0,0:0:0:0:
262,366,310527,2,0,P|189:352|156:272,1,159.375,6|0,0:0|0:0,0:0:0:0:
264,196,310835,2,0,P|280:126|213:63,1,159.375,6|0,0:0|0:0,0:0:0:0:
0,128,311142,21,6,0:0:0:0:
0,128,311296,2,0,B|42:146|84:125|84:125|123:144|123:144|156:124|202:144,1,212.5,4|4,0:0|0:0,0:0:0:0:
160,217,311758,1,2,0:0:0:0:
40,52,311912,1,2,0:0:0:0:
244,216,312065,54,0,B|296:230|296:230|346:220|346:220|398:234,1,159.375,10|8,0:0|0:0,0:0:0:0:
410,221,312373,1,8,0:0:0:0:
456,148,312527,1,8,0:0:0:0:
410,75,312681,1,4,0:0:0:0:
456,2,312835,1,12,0:0:0:0:
496,224,312988,54,0,P|408:308|328:248,1,212.5,6|0,0:0|0:0,0:0:0:0:
370,0,313450,1,6,0:0:0:0:
198,145,313604,1,6,0:0:0:0:
410,221,313758,1,6,0:0:0:0:
152,72,313911,22,0,B|107:100|113:137|109:143|114:180|68:208,1,165.749992412568,10|0,0:0|0:0,0:0:0:0:
198,145,314219,2,0,B|244:132|244:132|360:152,1,165.749992412568,6|0,0:0|0:0,0:0:0:0:
255,335,314527,2,0,P|202:281|248:220,1,165.749992412568,6|0,0:0|0:0,0:0:0:0:
444,143,314834,54,0,L|453:31,1,110.499994941712,6|0,0:0|0:0,0:0:0:0:
354,80,315142,1,2,0:0:0:0:
345,190,315296,1,4,0:0:0:0:
453,33,315450,1,2,0:0:0:0:
254,127,315604,1,4,0:0:0:0:
436,253,315758,54,0,B|444:364|444:364|404:320,1,165.749992412568,10|0,0:0|0:0,0:0:0:0:
345,190,316065,2,0,B|437:127|437:127|419:184,1,165.749992412568,6|0,0:0|0:0,0:0:0:0:
336,301,316373,2,0,B|235:252|235:252|293:239,1,165.749992412568,6|0,0:0|0:0,0:0:0:0:
494,202,316681,22,0,P|513:249|475:320,1,110.499994941712,6|0,0:0|0:0,0:0:0:0:
436,253,316988,1,2,0:0:0:0:
494,100,317142,1,4,0:0:0:0:
287,240,317296,1,2,0:0:0:0:
345,87,317450,1,4,0:0:0:0:
238,339,317604,54,0,L|348:331,1,110.499994941712,10|0,0:0|0:0,0:0:0:0:
397,232,317911,1,6,0:0:0:0:
287,240,318065,1,0,0:0:0:0:
238,339,318219,1,6,0:0:0:0:
458,323,318373,1,0,0:0:0:0:
226,149,318527,53,10,0:0:0:0:
226,149,318681,2,0,L|104:138,1,110.499994941712,4|2,0:0|0:0,0:0:0:0:
347,42,318988,1,10,0:0:0:0:
347,42,319142,2,0,L|468:31,1,110.499994941712,6|4,0:0|0:0,0:0:0:0:
410,132,319450,21,10,0:0:0:0:
473,222,319604,2,0,L|400:216,1,55.2499974708558,8|4,0:0|0:0,0:0:0:0:
426,321,319758,1,8,0:0:0:0:
316,329,319911,1,10,0:0:0:0:
254,237,320065,2,0,L|309:232,1,55.2499974708558,4|8,0:0|0:0,0:0:0:0:
302,137,320219,1,4,0:0:0:0:
207,337,320373,54,0,B|140:369|107:326|99:325|63:282|-1:314,1,220.999989883423,6|8,0:0|0:0,0:0:0:0:
42,384,320834,1,6,0:0:0:0:
254,237,320988,1,6,0:0:0:0:
21,127,321142,1,6,0:0:0:0:
316,329,321296,54,0,P|360:268|320:148,1,165.749992412568,10|0,0:0|0:0,0:0:0:0:
144,135,321604,2,0,P|174:203|298:228,1,165.749992412568,6|0,0:0|0:0,0:0:0:0:
399,82,321911,2,0,P|324:74|240:169,1,165.749992412568,6|0,0:0|0:0,0:0:0:0:
460,173,322219,22,0,L|508:73,1,110.499994941712,6|0,0:0|0:0,0:0:0:0:
399,82,322527,1,2,0:0:0:0:
411,271,322681,1,4,0:0:0:0:
508,73,322835,1,2,0:0:0:0:
290,88,322988,1,4,0:0:0:0:
512,267,323142,54,0,P|476:348|396:372,1,165.749992412568,10|0,0:0|0:0,0:0:0:0:
352,179,323450,2,0,B|411:271|411:271|352:267,1,165.749992412568,6|0,0:0|0:0,0:0:0:0:
216,136,323758,2,0,B|266:38|266:38|292:92,1,165.749992412568,6|0,0:0|0:0,0:0:0:0:
244,277,324065,54,0,L|117:283,1,110.499994941712,6|0,0:0|0:0,0:0:0:0:
193,375,324373,1,2,0:0:0:0:
295,179,324527,1,4,0:0:0:0:
83,380,324681,1,6,0:0:0:0:
355,267,324834,1,4,0:0:0:0:
75,189,324988,22,0,L|24:287,1,110.499994941712,10|0,0:0|0:0,0:0:0:0:
83,380,325296,1,6,0:0:0:0:
134,282,325450,1,0,0:0:0:0:
75,189,325604,1,6,0:0:0:0:
244,277,325758,1,4,0:0:0:0:
23,91,325911,53,14,0:0:0:0:
23,91,326065,2,0,P|80:79|148:107,1,110.499994941712,4|4,0:0|0:0,0:0:0:0:
74,295,326373,1,10,0:0:0:0:
74,295,326527,2,0,P|61:238|89:170,1,110.499994941712,4|4,0:0|0:0,0:0:0:0:
275,246,326834,1,10,0:0:0:0:
275,246,326988,2,0,P|218:258|150:230,1,110.499994941712,4|4,0:0|0:0,0:0:0:0:
224,42,327296,53,10,0:0:0:0:
275,246,327450,1,8,0:0:0:0:
75,189,327604,1,8,0:0:0:0:
220,337,327758,22,0,B|296:368|321:336|346:306|425:338,1,212.5,6|8,0:0|0:0,0:0:0:0:
275,246,328219,1,6,0:0:0:0:
422,157,328373,1,6,0:0:0:0:
220,337,328527,1,6,0:0:0:0:
433,261,328681,54,0,B|512:184|512:184|512:236,1,159.375,10|0,0:0|0:0,0:0:0:0:
354,289,328988,2,0,B|352:232|352:232|424:156,1,159.375,6|0,0:0|0:0,0:0:0:0:
417,343,329296,2,0,P|344:372|272:296,1,159.375,6|0,0:0|0:0,0:0:0:0:
86,242,329604,54,0,P|159:213|231:289,1,159.375,6|0,0:0|0:0,0:0:0:0:
220,273,329911,1,2,0:0:0:0:
165,131,330065,1,4,0:0:0:0:
354,289,330219,1,2,0:0:0:0:
299,148,330373,1,4,0:0:0:0:
488,306,330527,22,0,B|480:256|480:256|440:220|440:220|430:143,1,159.375,10|0,0:0|0:0,0:0:0:0:
448,156,330834,1,6,0:0:0:0:
354,289,330988,1,0,0:0:0:0:
354,289,331142,2,0,L|200:301,1,106.25,6|0,0:0|0:0,0:0:0:0:
86,242,331450,54,0,L|191:250,1,106.25,6|0,0:0|0:0,0:0:0:0:
130,337,331758,1,2,0:0:0:0:
146,154,331911,1,4,0:0:0:0:
295,258,332065,1,6,0:0:0:0:
86,242,332219,1,4,0:0:0:0:
206,66,332373,54,0,L|321:76,1,106.25,10|0,0:0|0:0,0:0:0:0:
192,250,332681,2,0,L|258:154,1,106.25,6|0,0:0|0:0,0:0:0:0:
340,354,332988,2,0,L|290:248,1,106.25,6|0,0:0|0:0,0:0:0:0:
146,154,333296,21,10,0:0:0:0:
206,66,333450,1,4,0:0:0:0:
252,162,333604,1,6,0:0:0:0:
128,336,333758,1,10,0:0:0:0:
235,346,333911,1,6,0:0:0:0:
192,250,334065,1,4,0:0:0:0:
340,354,334219,54,0,L|471:342,1,106.25,10|4,0:0|0:0,0:0:0:0:
384,264,334527,1,4,0:0:0:0:
448,176,334681,1,10,0:0:0:0:
384,88,334834,1,4,0:0:0:0:
448,0,334988,1,4,0:0:0:0:
320,176,335142,54,0,B|243:214|216:185|189:155|115:192,1,212.5,6|8,0:0|0:0,0:0:0:0:
259,96,335604,1,6,0:0:0:0:
173,272,335758,1,6,0:0:0:0:
64,110,335911,1,6,0:0:0:0:
359,84,336065,22,0,B|412:140|412:140|412:228,1,159.375,10|0,0:0|0:0,0:0:0:0:
259,311,336373,2,0,B|317:253|317:253|320:176,1,159.375,6|0,0:0|0:0,0:0:0:0:
227,213,336681,2,0,B|171:266|171:266|89:266,1,159.375,6|0,0:0|0:0,0:0:0:0:
0,112,336988,54,0,B|57:170|57:170|135:173,1,159.375,6|0,0:0|0:0,0:0:0:0:
147,159,337296,1,2,0:0:0:0:
217,4,337450,1,4,0:0:0:0:
46,19,337604,1,2,0:0:0:0:
315,145,337758,1,4,0:0:0:0:
147,159,337911,54,0,L|132:330,1,159.375,10|0,0:0|0:0,0:0:0:0:
145,332,338219,1,6,0:0:0:0:
315,145,338373,1,0,0:0:0:0:
315,145,338527,2,0,L|301:-5,1,106.25,6|0,0:0|0:0,0:0:0:0:
305,251,338834,22,0,P|360:244|400:208,1,106.25,6|0,0:0|0:0,0:0:0:0:
415,107,339142,1,2,0:0:0:0:
218,100,339296,1,4,0:0:0:0:
488,281,339450,1,6,0:0:0:0:
305,251,339604,1,4,3:0:0:0:
512,59,339758,54,0,P|468:12|386:4,1,106.25,10|0,0:0|0:0,0:0:0:0:
415,107,340065,1,6,0:0:0:0:
498,175,340219,1,0,0:0:0:0:
430,0,340373,1,6,0:0:0:0:
430,0,340527,1,4,3:0:0:0:
315,145,340681,53,2,3:0:0:0:
498,175,340834,1,8,0:0:0:0:
498,175,340988,1,8,0:0:0:0:
211,107,341142,21,6,0:0:0:0:
512,59,341296,1,8,0:0:0:0:
512,59,341450,1,8,3:0:0:0:
109,147,341604,53,6,3:0:0:0:
479,280,341758,1,8,0:0:0:0:
479,280,341834,1,8,0:0:0:0:
479,280,341911,1,8,0:0:0:0:
379,316,342065,53,8,0:0:0:0:
298,247,342219,1,8,0:0:0:0:
313,147,342373,1,8,0:0:0:0:
125,38,342527,22,0,P|28:73|12:196,1,212.5,6|8,0:0|0:0,0:0:0:0:
117,361,342988,1,6,0:0:0:0:
298,247,343142,1,6,0:0:0:0:
109,147,343296,1,6,0:0:0:0:
398,211,343450,54,0,P|396:288|344:344,1,152.999995330811,10|0,0:0|0:0,0:0:0:0:
202,200,343758,2,0,B|298:247|298:247|298:179,1,152.999995330811,6|0,0:0|0:0,0:0:0:0:
109,147,344065,2,0,B|20:206|20:206|79:240,1,152.999995330811,6|0,0:0|0:0,0:0:0:0:
202,93,344373,54,0,B|194:-13|194:-13|135:20,1,152.999995330811,6|0,0:0|0:0,0:0:0:0:
143,24,344681,1,2,0:0:0:0:
268,0,344834,1,4,0:0:0:0:
260,162,344988,1,2,0:0:0:0:
384,138,345142,1,4,0:0:0:0:
376,300,345296,22,0,B|258:326|258:326|224:316,1,152.999995330811,10|0,0:0|0:0,0:0:0:0:
220,300,345604,1,6,0:0:0:0:
384,138,345758,1,0,0:0:0:0:
384,138,345911,2,0,L|374:30,1,101.999996887207,6|0,0:0|0:0,0:0:0:0:
260,162,346219,54,0,L|251:263,1,101.999996887207,6|0,0:0|0:0,0:0:0:0:
168,205,346527,1,2,0:0:0:0:
341,217,346681,1,4,0:0:0:0:
85,146,346835,1,6,0:0:0:0:
334,322,346988,1,4,0:0:0:0:
178,104,347142,54,0,P|212:72|284:64,1,101.999996887207,10|0,0:0|0:0,0:0:0:0:
260,162,347450,1,6,0:0:0:0:
168,205,347604,1,0,0:0:0:0:
265,61,347758,1,6,0:0:0:0:
341,217,347911,1,0,0:0:0:0:
85,146,348065,21,10,0:0:0:0:
85,146,348219,2,0,P|64:196|68:248,1,101.999996887207,4|2,0:0|0:0,0:0:0:0:
237,359,348527,1,10,0:0:0:0:
237,359,348681,2,0,P|252:312|240:256,1,101.999996887207,6|4,0:0|0:0,0:0:0:0:
162,212,348988,53,10,0:0:0:0:
159,305,349142,2,0,L|116:333,1,50.9999984436036,8|4,0:0|0:0,0:0:0:0:
237,359,349296,1,8,0:0:0:0:
322,318,349450,1,10,0:0:0:0:
328,223,349604,1,8,0:0:0:0:
248,170,349758,1,4,0:0:0:0:
407,359,349911,54,0,P|476:320|420:192,1,203.999993774414,6|8,0:0|0:0,0:0:0:0:
248,170,350373,1,6,0:0:0:0:
237,359,350527,1,6,0:0:0:0:
407,275,350681,1,6,0:0:0:0:
168,205,350834,22,0,P|176:120|232:84,1,152.999995330811,10|0,0:0|0:0,0:0:0:0:
368,230,351142,2,0,P|283:222|247:166,1,152.999995330811,6|0,0:0|0:0,0:0:0:0:
393,30,351450,2,0,P|385:115|329:151,1,152.999995330811,6|0,0:0|0:0,0:0:0:0:
193,5,351758,54,0,P|278:13|314:69,1,152.999995330811,6|0,0:0|0:0,0:0:0:0:
296,76,352065,1,2,0:0:0:0:
393,30,352219,1,4,0:0:0:0:
270,276,352373,1,2,0:0:0:0:
368,230,352527,1,4,0:0:0:0:
176,314,352681,54,0,B|78:268|78:268|78:321,1,152.999995330811,10|0,0:0|0:0,0:0:0:0:
88,328,352988,1,6,0:0:0:0:
139,149,353142,1,0,0:0:0:0:
139,149,353296,2,0,L|128:25,1,101.999996887207,6|0,0:0|0:0,0:0:0:0:
333,149,353604,22,0,L|324:250,1,101.999996887207,6|0,0:0|0:0,0:0:0:0:
417,207,353911,1,2,0:0:0:0:
425,105,354065,1,4,0:0:0:0:
324,251,354219,1,6,0:0:0:0:
501,267,354373,1,4,0:0:0:0:
341,47,354527,54,0,P|284:60|240:108,1,101.999996887207,10|0,0:0|0:0,0:0:0:0:
234,290,354834,2,0,P|284:281|324:250,1,101.999996887207,6|0,0:0|0:0,0:0:0:0:
333,149,355142,1,6,0:0:0:0:
333,149,355296,1,4,0:0:0:0:
144,329,355450,53,10,0:0:0:0:
112,326,355525,1,8,0:0:0:0:
82,314,355600,1,8,0:0:0:0:
58,294,355675,1,4,0:0:0:0:
41,267,355750,1,4,0:0:0:0:
33,236,355825,1,4,0:0:0:0:
36,205,355900,22,0,L|55:144,1,42.5,10|8,0:0|0:0,0:0:0:0:
173,153,356050,2,0,L|161:112,1,42.5,8|4,0:0|0:0,0:0:0:0:
205,27,356200,2,0,L|169:-2,1,42.5,4|4,0:3|0:0,0:0:0:0:
11,40,356350,53,6,0:0:0:0:
32,90,356426,1,8,0:0:0:0:
87,98,356503,1,8,0:0:0:0:
116,51,356580,1,4,0:0:0:0:
96,4,356657,1,4,0:0:0:0:
43,0,356734,1,4,0:0:0:0:
11,40,356811,54,0,P|13:64|54:99,1,57.3750002188683,10|4,0:0|0:0,0:0:0:0:
33,236,356986,2,0,P|54:246|105:228,1,57.3750002188683,8|4,0:0|0:0,0:0:0:0:
213,314,357141,2,0,P|232:300|242:247,1,57.3750002188683,8|4,0:0|0:0,0:0:0:0:
370,197,357296,22,0,P|364:140|332:100,1,106.25,6|4,0:0|0:0,0:0:0:0:
243,16,357604,1,6,0:0:0:0:
116,51,357758,2,0,L|133:116,1,53.125,8|0,0:0|0:0,0:0:0:0:
210,143,357911,2,0,L|192:208,1,53.125,6|0,0:0|0:0,0:0:0:0:
116,235,358065,2,0,L|133:300,1,53.125,4|0,0:0|0:0,0:0:0:0:
213,314,358219,54,0,L|312:322,1,97.7500018644333,6|4,0:0|0:0,0:0:0:0:
467,189,358527,1,6,0:0:0:0:
369,197,358681,1,8,0:0:0:0:
211,82,358834,1,6,0:0:0:0:
308,90,358988,1,4,0:0:0:0:
426,278,359142,54,0,P|372:296|300:268,1,97.7500018644333,6|4,0:0|0:0,0:0:0:0:
252,170,359450,1,6,0:0:0:0:
267,2,359604,2,0,P|288:-5|326:-6,1,48.8750009322167,8|0,0:0|0:0,0:0:0:0:
308,90,359758,2,0,P|324:104|344:137,1,48.8750009322167,6|0,0:0|0:0,0:0:0:0:
252,170,359911,2,0,P|247:191|229:225,1,48.8750009322167,4|0,0:0|0:0,0:0:0:0:
154,161,360065,21,6,0:0:0:0:
113,72,360219,1,4,0:0:0:0:
211,82,360373,1,6,0:0:0:0:
57,153,360527,2,0,L|112:273,1,97.7500018644333,8|6,0:0|0:0,0:0:0:0:
154,161,360834,1,4,0:0:0:0:
0,231,360988,54,0,L|55:351,1,97.7500018644333,6|4,0:0|0:0,0:0:0:0:
137,328,361296,1,6,0:0:0:0:
154,161,361450,2,0,L|188:84,1,48.8750009322167,10|0,0:0|0:0,0:0:0:0:
252,170,361604,2,0,L|272:215,1,48.8750009322167,6|0,0:0|0:0,0:0:0:0:
350,160,361758,2,0,L|370:116,1,48.8750009322167,4|0,0:0|0:0,0:0:0:0:
448,170,361911,54,0,L|494:274,1,97.7500018644333,6|4,0:0|0:0,0:0:0:0:
429,337,362219,1,6,0:0:0:0:
350,160,362373,2,0,P|368:111|416:75,1,97.7500018644333,8|6,0:0|0:0,0:0:0:0:
448,170,362681,1,4,0:0:0:0:
260,75,362835,22,0,L|148:84,1,97.7500018644333,6|4,0:0|0:0,0:0:0:0:
120,171,363142,1,6,0:0:0:0:
234,331,363296,2,0,P|255:338|293:339,1,48.8750009322167,10|0,0:0|0:0,0:0:0:0:
275,243,363450,2,0,P|291:228|311:195,1,48.8750009322167,6|0,0:0|0:0,0:0:0:0:
219,163,363604,2,0,P|214:141|196:107,1,48.8750009322167,4|0,0:0|0:0,0:0:0:0:
120,171,363758,53,6,0:0:0:0:
176,251,363911,2,0,L|171:299,1,48.8750009322167,8|4,0:0|0:0,0:0:0:0:
219,163,364065,1,8,0:0:0:0:
163,84,364219,1,8,0:0:0:0:
63,90,364373,1,4,0:0:0:0:
20,179,364527,1,4,0:0:0:0:
275,243,364681,54,0,L|378:233,1,93.5000028533936,6|4,0:0|0:0,0:0:0:0:
421,310,364988,1,6,0:0:0:0:
315,158,365142,2,0,L|339:107,1,46.7500014266968,10|0,0:0|0:0,0:0:0:0:
408,149,365296,2,0,L|455:146,1,46.7500014266968,6|0,0:0|0:0,0:0:0:0:
462,226,365450,2,0,L|488:264,1,46.7500014266968,4|0,0:0|0:0,0:0:0:0:
421,310,365604,22,0,P|371:328|315:312,1,93.5000028533936,6|4,0:0|0:0,0:0:0:0:
187,255,365911,1,6,0:0:0:0:
275,243,366065,1,8,0:0:0:0:
408,150,366219,1,6,0:0:0:0:
315,158,366373,1,4,0:0:0:0:
166,97,366527,54,0,L|269:83,1,93.5000028533936,6|4,0:0|0:0,0:0:0:0:
315,158,366834,1,6,0:0:0:0:
131,181,366988,2,0,L|76:174,1,46.7500014266968,8|0,0:0|0:0,0:0:0:0:
97,268,367142,2,0,L|50:273,1,46.7500014266968,6|0,0:0|0:0,0:0:0:0:
62,364,367296,2,0,L|16:359,1,46.7500014266968,4|0,0:0|0:0,0:0:0:0:
164,347,367450,53,6,0:0:0:0:
198,249,367604,1,4,0:0:0:0:
265,328,367758,1,6,0:0:0:0:
97,268,367911,2,0,L|84:168,1,93.5000028533936,8|6,0:0|0:0,0:0:0:0:
158,118,368219,1,4,0:0:0:0:
12,232,368373,22,0,L|0:323,1,89.2499972763062,2|4,0:0|0:0,0:0:0:0:
97,268,368681,1,6,0:0:0:0:
0,140,368835,2,0,P|6:127|38:96,1,44.6249986381531,10|0,0:0|0:0,0:0:0:0:
123,92,368988,2,0,P|135:98|167:130,1,44.6249986381531,6|0,0:0|0:0,0:0:0:0:
171,215,369142,2,0,P|164:227|133:259,1,44.6249986381531,4|0,0:0|0:0,0:0:0:0:
248,156,369296,54,0,L|336:148,1,89.2499972763062,6|4,0:0|0:0,0:0:0:0:
387,221,369604,1,6,0:0:0:0:
286,75,369758,2,0,L|194:66,1,89.2499972763062,10|4,0:0|0:0,0:0:0:0:
248,156,370065,1,6,0:0:0:0:
438,294,370219,54,0,P|464:260|472:208,1,89.2499972763062,6|4,0:0|0:0,0:0:0:0:
424,140,370527,1,6,0:0:0:0:
350,301,370681,2,0,L|290:295,1,44.6249986381531,10|0,0:0|0:0,0:0:0:0:
276,228,370835,2,0,L|231:231,1,44.6249986381531,6|0,0:0|0:0,0:0:0:0:
202,301,370988,2,0,L|157:297,1,44.6249986381531,4|0,0:0|0:0,0:0:0:0:
128,228,371142,22,4,L|0:240,1,89.2499972763062,10|0,0:0|0:0,0:0:0:0:
1,317,371373,1,8,0:0:0:0:
1,317,371450,1,12,0:0:0:0:
64,384,371604,1,8,0:0:0:0:
153,376,371758,1,8,0:0:0:0:
190,294,371911,1,8,0:0:0:0:
76,154,372065,6,0,L|86:38,1,85,6|4,0:0|0:0,0:0:0:0:
160,33,372373,1,6,0:0:0:0:
221,165,372527,2,0,P|224:185|220:207,1,42.5,14|0,0:0|0:0,0:0:0:0:
221,165,372681,2,0,P|236:151|256:145,1,42.5,6|0,0:0|0:0,0:0:0:0:
221,165,372835,2,0,P|201:158|185:144,1,42.5,4|0,0:0|0:0,0:0:0:0:
333,105,372988,6,0,P|340:148|304:212,1,85,6|4,0:0|0:0,0:0:0:0:
215,288,373296,2,0,P|208:245|244:181,1,85,6|8,0:0|0:0,0:0:0:0:
408,152,373604,2,0,L|503:160,1,85,6|4,0:0|0:0,0:0:0:0:
369,28,373911,54,0,L|273:36,1,85,6|4,0:0|0:0,0:0:0:0:
248,112,374219,1,6,0:0:0:0:
288,247,374373,2,0,P|307:240|323:226,1,42.5,8|0,0:0|0:0,0:0:0:0:
288,247,374527,2,0,P|284:267|288:289,1,42.5,6|0,0:0|0:0,0:0:0:0:
288,247,374681,2,0,P|272:233|252:226,1,42.5,4|0,0:0|0:0,0:0:0:0:
176,187,374834,6,0,P|169:230|205:294,1,85,6|4,0:0|0:0,0:0:0:0:
252,226,375142,1,6,0:0:0:0:
102,237,375296,2,0,L|19:258,1,85,8|6,0:0|0:0,0:0:0:0:
80,319,375604,1,4,0:0:0:0:
40,175,375758,54,0,L|60:95,1,80.7499978437424,6|4,0:0|0:0,0:0:0:0:
143,70,376065,1,6,0:0:0:0:
177,192,376219,2,0,P|165:208|148:220,1,40.3749989218712,10|0,0:0|0:0,0:0:0:0:
177,192,376373,2,0,P|197:193|215:202,1,40.3749989218712,6|0,0:0|0:0,0:0:0:0:
177,192,376527,2,0,P|167:173|166:153,1,40.3749989218712,4|0,0:0|0:0,0:0:0:0:
266,102,376681,6,0,L|373:111,1,80.7499978437424,6|4,0:0|0:0,0:0:0:0:
299,175,376988,1,6,0:0:0:0:
313,36,377142,2,0,L|420:45,1,80.7499978437424,8|6,0:0|0:0,0:0:0:0:
347,109,377450,1,4,0:0:0:0:
232,28,377604,54,0,P|200:56|184:112,1,80.7499978437424,6|4,0:0|0:0,0:0:0:0:
266,102,377911,1,6,0:0:0:0:
381,184,378065,2,0,P|376:203|364:219,1,40.3749989218712,8|0,0:0|0:0,0:0:0:0:
381,184,378219,2,0,P|400:178|420:180,1,40.3749989218712,6|0,0:0|0:0,0:0:0:0:
381,184,378373,2,0,P|366:170|358:151,1,40.3749989218712,4|0,0:0|0:0,0:0:0:0:
415,113,378527,5,10,0:0:0:0:
477,142,378681,2,0,L|515:119,1,40.3749989218712,8|4,0:0|0:0,0:0:0:0:
482,210,378834,1,8,0:0:0:0:
426,249,378988,1,4,0:0:0:0:
364,220,379142,1,8,0:0:0:0:
359,152,379296,1,4,0:0:0:0:
488,278,379450,54,0,L|480:361,1,76.4999976654053,6|0,0:0|0:0,0:0:0:0:
256,192,379758,12,0,384065,0:0:0:0:
