osu file format v14

[General]
AudioFilename: audio.mp3
AudioLeadIn: 0
PreviewTime: 139669
Countdown: 1
SampleSet: Drum
StackLeniency: 0.7
Mode: 0
LetterboxInBreaks: 0
WidescreenStoryboard: 1

[Editor]
Bookmarks: 8760,16260,29669,45124,59669,73306,88760,103306,114669,125124,139669,153306,156942,184215
DistanceSpacing: 1.8
BeatDivisor: 4
GridSize: 32
TimelineZoom: 1.7

[Metadata]
Title:Shanti Shanti Shanti
TitleUnicode:Shanti Shanti Shanti
Artist:BABYMETAL
ArtistUnicode:BABYMETAL
Creator:Jojajim
Version:Peace
Source:
Tags:METAL GALAXY heavy metal kawaii idol japanese
BeatmapID:2179686
BeatmapSetID:1042823

[Difficulty]
HPDrainRate:6
CircleSize:4
OverallDifficulty:9
ApproachRate:9.5
SliderMultiplier:2
SliderTickRate:1

[Events]
//Background and Video events
0,0,"Shanti.jpg",0,0
//Break Periods
2,103506,114144
//Storyboard Layer 0 (Background)
//Storyboard Layer 1 (Fail)
//Storyboard Layer 2 (Pass)
//Storyboard Layer 3 (Foreground)
//Storyboard Layer 4 (Overlay)
//Storyboard Sound Samples

[TimingPoints]
1488,454.545454545455,4,2,1,65,1,0
1488,-200,4,2,1,50,0,0
3306,-166.666666666667,4,2,1,50,0,0
5124,-142.857142857143,4,2,1,50,0,0
5806,-117.647058823529,4,2,1,50,0,0
6942,-100,4,2,1,50,0,0
10124,-83.3333333333333,4,2,1,55,0,0
12169,-76.9230769230769,4,2,1,55,0,0
13988,-66.6666666666667,4,2,1,55,0,0
16260,-83.3333333333333,4,2,1,55,0,0
29669,-55.5555555555556,4,2,1,60,0,1
36033,-83.3333333333333,4,2,1,60,0,1
38078,-55.5555555555556,4,2,1,60,0,1
43988,-71.4285714285714,4,2,1,60,0,0
44442,-55.5555555555556,4,2,1,60,0,0
45124,-76.9230769230769,4,3,1,60,0,0
48306,-133.333333333333,4,3,1,60,0,0
48760,-76.9230769230769,4,3,1,60,0,0
55578,-133.333333333333,4,3,1,60,0,0
56033,-76.9230769230769,4,3,1,60,0,0
59669,-76.9230769230769,4,3,1,60,0,0
61033,-76.9230769230769,4,2,1,60,0,0
61488,-100,4,2,1,60,0,0
62397,-133.333333333333,4,2,1,60,0,0
63306,-76.9230769230769,4,2,1,60,0,0
64669,-100,4,2,1,60,0,0
66033,-133.333333333333,4,2,1,60,0,0
66942,-76.9230769230769,4,2,1,60,0,0
68306,-100,4,2,1,60,0,0
69669,-133.333333333333,4,2,1,60,0,0
70578,-76.9230769230769,4,2,1,60,0,0
73306,-55.5555555555556,4,2,1,60,0,1
79669,-83.3333333333333,4,2,1,60,0,1
81488,-55.5555555555556,4,2,1,60,0,1
87397,-55.5555555555556,4,3,1,60,0,0
88760,-66.6666666666667,4,3,1,60,0,0
91942,-133.333333333333,4,3,1,60,0,0
92397,-66.6666666666667,4,3,1,60,0,0
99215,-133.333333333333,4,3,1,60,0,0
99669,-66.6666666666667,4,3,1,60,0,0
114669,-100,4,2,1,60,0,0
125806,-90.9090909090909,4,2,1,55,0,0
133078,-76.9230769230769,4,2,1,60,0,0
139669,-55.5555555555556,4,2,1,65,0,1
146033,-83.3333333333333,4,2,1,65,0,1
147851,-55.5555555555556,4,2,1,65,0,1
153306,-100,4,2,1,55,0,1
156715,-62.5,4,3,1,65,0,1
156942,-62.5,4,3,1,65,0,0
160124,-100,4,3,1,65,0,0
160578,-62.5,4,3,1,65,0,0
167397,-100,4,3,1,65,0,0
167851,-62.5,4,3,1,65,0,0
171488,-55.5555555555556,4,3,1,65,0,0
178760,-55.5555555555556,4,3,1,65,0,1
181942,-62.5,4,3,1,65,0,1
182397,-71.4285714285714,4,3,1,65,0,1
184215,-55.5555555555556,4,3,1,65,0,0

[Colours]
Combo1 : 255,255,255
Combo2 : 255,0,0
Combo3 : 255,128,0
Combo4 : 128,0,0

[HitObjects]
50,110,1488,6,0,P|75:225|245:226,1,300,2|0,0:0|0:0,0:0:0:0:
407,330,3078,1,2,0:0:0:0:
447,310,3192,1,2,0:0:0:0:
476,277,3306,2,0,P|453:162|254:207,1,359.999989013672,2|0,0:0|0:0,0:0:0:0:
376,317,4897,5,2,0:0:0:0:
349,246,5011,1,2,0:0:0:0:
299,303,5125,2,0,P|247:342|231:340,1,69.9999978637696,2|0,0:0|0:0,0:0:0:0:
205,276,5465,2,0,P|156:296|142:341,1,69.9999978637696,2|0,0:0|0:0,0:0:0:0:
53,322,5806,2,0,P|59:285|49:258,1,42.5000008106232,2|0,0:0|0:0,0:0:0:0:
132,215,6033,2,0,P|162:184|155:64,1,170.000003242493,2|0,0:0|0:0,0:0:0:0:
405,161,6715,5,2,0:0:0:0:
292,58,6942,2,0,P|263:92|262:200,1,150,2|0,0:0|0:0,0:0:0:0:
336,142,7397,1,2,0:0:0:0:
285,326,7624,1,2,0:0:0:0:
461,252,7851,2,0,P|426:195|356:148,1,150,2|0,0:0|0:0,0:0:0:0:
190,78,8306,2,0,P|225:135|294:182,1,150,2|0,0:0|0:0,0:0:0:0:
511,242,8760,6,0,P|497:175|459:98,1,150,10|2,3:1|0:0,0:0:0:0:
435,71,9215,1,2,0:0:0:0:
283,112,9442,1,2,0:0:0:0:
253,84,9556,1,2,0:0:0:0:
212,229,9783,1,2,0:0:0:0:
174,215,9897,1,2,0:0:0:0:
208,361,10124,1,2,0:0:0:0:
160,370,10238,1,2,0:0:0:0:
84,350,10351,5,2,0:0:0:0:
30,293,10465,1,2,0:0:0:0:
15,216,10578,2,0,P|45:119|136:70,1,179.999994506836,10|2,3:1|0:0,0:0:0:0:
150,68,11033,1,2,0:0:0:0:
185,225,11260,1,2,0:0:0:0:
215,187,11374,1,2,0:0:0:0:
391,226,11601,1,2,0:0:0:0:
360,188,11715,1,2,0:0:0:0:
470,79,11942,1,2,0:0:0:0:
423,67,12056,1,2,0:0:0:0:
339,54,12169,5,2,0:0:0:0:
254,65,12283,1,2,0:0:0:0:
170,53,12397,2,0,P|111:75|87:150,1,129.999994049073,10|0,3:1|0:0,0:0:0:0:
147,195,12738,2,0,P|93:219|17:193,1,129.999994049073,2|0,0:0|0:0,0:0:0:0:
214,138,13078,2,0,P|252:161|269:199,1,64.9999970245363,2|0,0:0|0:0,0:0:0:0:
160,288,13306,2,0,P|270:232|204:136,1,259.999988098145,10|0,3:1|0:0,0:0:0:0:
443,219,13988,6,0,P|448:255|468:287,1,75.0000028610231,2|0,0:0|0:0,0:0:0:0:
353,347,14215,2,0,P|280:294|220:282,1,150.000005722046,10|0,3:1|0:0,0:0:0:0:
85,343,14556,2,0,P|134:283|130:201,1,150.000005722046,2|0,0:0|0:0,0:0:0:0:
190,73,14897,2,0,P|160:93|137:139,1,75.0000028610231,2|0,0:0|0:0,0:0:0:0:
281,176,15124,2,0,B|332:156|382:194|441:154,1,150.000005722046,10|0,3:1|0:0,0:0:0:0:
297,85,15465,2,0,P|195:191|311:268,1,300.000011444092,2|0,0:0|0:0,0:0:0:0:
358,273,16033,1,2,3:3:0:0:
170,39,16260,5,2,0:0:0:0:
273,225,16488,1,2,0:0:0:0:
287,195,16601,1,2,0:0:0:0:
134,42,16828,2,0,P|25:77|157:138,1,299.999990844727,2|0,0:0|0:0,0:0:0:0:
283,374,17624,5,2,0:0:0:0:
277,283,17738,1,2,0:0:0:0:
357,322,17851,1,10,3:2:0:0:
391,134,18078,1,2,0:0:0:0:
311,176,18192,1,2,0:0:0:0:
459,276,18419,5,2,0:0:0:0:
373,247,18533,1,2,0:0:0:0:
311,176,18647,1,2,0:0:0:0:
303,85,18760,2,0,L|312:15,1,59.9999981689454,2|0,0:0|0:0,0:0:0:0:
405,73,18988,2,0,L|437:152,1,59.9999981689454,2|0,0:0|0:0,0:0:0:0:
284,258,19215,2,0,L|227:285,3,59.9999981689454,2|0|0|0,0:0|0:0|0:0|0:0,0:0:0:0:
211,293,19669,1,10,3:2:0:0:
70,219,19897,21,2,0:0:0:0:
274,70,20125,1,2,0:0:0:0:
274,70,20238,1,2,0:0:0:0:
12,284,20465,2,0,P|28:131|179:105,1,299.999990844727,2|0,0:0|0:0,0:0:0:0:
216,310,21260,5,2,0:0:0:0:
309,256,21374,1,2,0:0:0:0:
192,326,21488,2,0,L|136:354,1,59.9999981689454,10|0,3:2|0:0,0:0:0:0:
258,174,21715,1,2,0:0:0:0:
142,161,21828,2,0,L|57:151,1,59.9999981689454,2|0,0:0|0:0,0:0:0:0:
274,61,22056,1,2,0:0:0:0:
149,26,22169,2,0,L|90:10,1,59.9999981689454,2|0,0:0|0:0,0:0:0:0:
298,69,22397,6,0,L|355:87,1,59.9999981689454,2|0,0:0|0:0,0:0:0:0:
363,238,22624,2,0,L|398:179,1,59.9999981689454,2|0,0:0|0:0,0:0:0:0:
470,109,22851,2,0,L|234:178,1,239.999992675781,2|8,0:0|3:2,0:0:0:0:
70,219,23533,21,2,0:0:0:0:
271,316,23761,1,2,0:0:0:0:
234,299,23874,1,2,0:0:0:0:
448,216,24101,2,0,B|400:114|291:160|261:62,1,239.999992675781,2|0,0:0|0:0,0:0:0:0:
258,45,24670,1,2,0:0:0:0:
90,159,24897,5,2,0:0:0:0:
110,264,25010,1,2,0:0:0:0:
209,307,25124,1,10,3:2:0:0:
147,67,25351,1,2,0:0:0:0:
90,159,25465,1,2,0:0:0:0:
297,235,25692,5,2,0:0:0:0:
325,131,25805,1,2,0:0:0:0:
221,159,25919,1,2,0:0:0:0:
394,199,26033,2,0,P|441:207|466:196,1,59.9999981689454,2|0,0:0|0:0,0:0:0:0:
211,144,26260,2,0,P|164:136|139:147,1,59.9999981689454,2|0,0:0|0:0,0:0:0:0:
405,216,26488,2,0,P|472:219|500:70,1,239.999992675781,2|8,0:0|3:2,0:0:0:0:
278,59,27169,21,2,0:0:0:0:
405,282,27397,1,2,0:0:0:0:
405,282,27510,1,2,0:0:0:0:
200,259,27737,2,0,B|291:310|325:156|454:223,1,239.999992675781,2|0,0:0|0:0,0:0:0:0:
453,218,28306,1,0,0:0:0:0:
472,238,28419,1,0,0:0:0:0:
481,263,28533,1,0,0:0:0:0:
479,286,28647,1,0,0:0:0:0:
167,53,29669,5,2,3:3:0:0:
247,252,29896,1,2,1:3:0:0:
172,330,30010,1,2,1:3:0:0:
135,228,30124,2,0,L|115:164,2,44.999998626709,2|2|2,1:3|1:3|1:3,0:0:0:0:
268,343,30351,2,0,P|305:361|355:349,1,89.9999972534181,8|0,1:0|0:0,0:0:0:0:
402,258,30578,6,0,P|360:244|320:260,1,89.9999972534181,6|0,3:1|0:0,0:0:0:0:
53,211,30806,1,2,1:2:0:0:
170,149,30919,1,2,1:2:0:0:
291,88,31033,2,0,L|424:19,1,89.9999972534181,14|0,1:0|0:0,0:0:0:0:
409,272,31260,1,2,1:2:0:0:
291,210,31373,1,2,1:2:0:0:
170,149,31488,2,0,L|37:80,1,89.9999972534181,14|0,1:0|0:0,0:0:0:0:
52,355,31715,5,2,1:2:0:0:
117,284,31828,1,2,1:2:0:0:
221,233,31942,2,0,P|274:237|316:258,1,89.9999972534181,10|0,3:0|0:0,0:0:0:0:
429,364,32169,2,0,P|376:360|334:339,2,89.9999972534181,0|0|4,3:3|3:3|1:1,0:0:0:0:
308,98,32624,5,2,1:2:0:0:
189,31,32738,1,2,1:2:0:0:
189,165,32851,2,0,L|189:262,1,89.9999972534181,14|0,1:0|0:0,0:0:0:0:
331,337,33078,1,2,1:2:0:0:
450,272,33192,1,2,1:2:0:0:
364,167,33305,2,0,L|298:86,1,89.9999972534181,14|0,1:0|0:0,0:0:0:0:
156,197,33533,5,2,1:2:0:0:
55,157,33647,1,2,1:2:0:0:
82,53,33760,2,0,P|126:24|184:34,1,89.9999972534181,10|0,3:0|0:0,0:0:0:0:
314,46,33988,2,0,P|269:74|212:65,2,89.9999972534181,0|0|4,3:3|3:3|1:1,0:0:0:0:
484,266,34442,5,2,1:2:0:0:
382,176,34556,1,2,1:2:0:0:
248,191,34669,2,0,L|156:245,1,89.9999972534181,14|0,1:0|0:0,0:0:0:0:
22,357,34897,1,2,1:2:0:0:
156,378,35011,1,2,1:2:0:0:
276,318,35124,2,0,L|367:263,1,89.9999972534181,14|0,1:0|0:0,0:0:0:0:
379,138,35351,5,2,1:2:0:0:
268,95,35465,1,2,1:2:0:0:
177,186,35578,2,0,P|210:233|259:262,1,89.9999972534181,10|0,3:0|0:0,0:0:0:0:
353,271,35806,2,0,P|320:224|271:195,1,89.9999972534181,0|0,3:3|3:3,0:0:0:0:
37,91,36033,5,10,1:3:0:0:
75,195,36147,1,0,0:0:0:0:
151,119,36260,2,0,L|213:94,1,59.9999981689454,0|0,1:0|0:0,0:0:0:0:
167,200,36488,5,10,1:3:0:0:
286,280,36602,1,0,0:0:0:0:
307,142,36715,2,0,P|344:96|357:80,1,59.9999981689454,0|0,1:0|0:0,0:0:0:0:
210,273,36942,5,10,1:3:0:0:
408,196,37056,1,0,0:0:0:0:
256,49,37169,2,0,L|181:26,1,59.9999981689454,0|0,1:0|0:0,0:0:0:0:
326,339,37397,5,10,3:0:0:0:
405,71,37510,1,2,1:3:0:0:
331,326,37624,1,2,1:3:0:0:
410,58,37738,2,0,P|352:38|303:53,1,59.9999981689454,2|0,1:3|0:0,0:0:0:0:
51,125,38078,5,2,1:2:0:0:
19,256,38192,1,2,1:2:0:0:
120,345,38306,2,0,L|213:364,1,89.9999972534181,14|0,1:0|0:0,0:0:0:0:
178,65,38532,1,2,1:2:0:0:
61,134,38646,1,2,1:2:0:0:
70,269,38761,2,0,L|122:348,1,89.9999972534181,14|0,1:0|0:0,0:0:0:0:
320,104,38987,5,2,1:2:0:0:
192,65,39101,1,2,1:2:0:0:
269,161,39216,2,0,P|300:197|307:255,1,89.9999972534181,10|0,3:0|0:0,0:0:0:0:
266,384,39442,2,0,P|236:350|226:307,2,89.9999972534181,0|0|4,3:3|3:3|1:1,0:0:0:0:
497,124,39897,5,2,1:2:0:0:
397,277,40010,1,2,1:2:0:0:
414,92,40124,2,0,P|473:41|520:38,1,89.9999972534181,14|0,1:0|0:0,0:0:0:0:
224,170,40351,1,2,1:2:0:0:
325,15,40464,1,2,1:2:0:0:
307,202,40578,2,0,P|248:253|201:256,1,89.9999972534181,14|0,1:0|0:0,0:0:0:0:
124,177,40806,5,2,1:2:0:0:
8,239,40919,1,2,1:2:0:0:
14,105,41033,2,0,P|73:54|120:51,1,89.9999972534181,10|0,3:0|0:0,0:0:0:0:
244,35,41260,2,0,P|185:86|138:89,2,89.9999972534181,0|0|4,3:3|3:3|1:1,0:0:0:0:
375,369,41715,5,2,1:2:0:0:
327,244,41828,1,2,1:2:0:0:
277,118,41942,2,0,L|221:-21,1,89.9999972534181,14|0,1:0|0:0,0:0:0:0:
249,349,42169,1,2,1:2:0:0:
327,244,42283,1,2,1:2:0:0:
405,134,42396,2,0,L|492:12,1,89.9999972534181,14|0,1:0|0:0,0:0:0:0:
457,290,42624,5,2,1:2:0:0:
327,244,42738,1,2,1:2:0:0:
190,223,42851,2,0,P|140:232|92:272,1,89.9999972534181,10|0,3:0|0:0,0:0:0:0:
284,126,43078,2,0,P|253:85|197:59,1,89.9999972534181,0|0,3:3|0:0,0:0:0:0:
0,120,43306,1,10,3:3:0:0:
325,218,43988,6,0,P|302:267|256:288,1,69.9999978637696,8|0,1:0|0:0,0:0:0:0:
262,136,44215,2,0,P|285:87|320:64,1,69.9999978637696,8|0,1:0|0:0,0:0:0:0:
136,211,44442,2,0,P|112:185|158:177,1,89.9999972534181,10|0,3:3|0:0,0:0:0:0:
476,170,44669,2,0,P|500:196|454:204,1,89.9999972534181,10|0,3:3|0:0,0:0:0:0:
372,255,44897,2,0,P|372:299|416:319,1,89.9999972534181,8|0,1:0|0:0,0:0:0:0:
368,150,45124,6,0,P|362:94|418:33,1,129.999994049073,6|0,1:2|0:0,0:0:0:0:
444,221,45465,1,10,0:1:0:0:
487,125,45578,1,8,0:1:0:0:
242,188,45806,1,2,0:2:0:0:
242,188,46033,2,0,P|191:123|304:60,1,194.999991073609,2|8,1:2|0:1,0:0:0:0:
368,132,46488,1,8,0:1:0:0:
145,352,46715,5,2,0:2:0:0:
179,247,46828,1,2,0:2:0:0:
67,268,46942,2,0,P|27:216|27:148,1,129.999994049073,2|0,1:0|0:0,0:0:0:0:
179,247,47283,2,0,P|193:182|245:139,1,129.999994049073,10|0,0:1|0:0,0:0:0:0:
303,229,47624,1,2,0:2:0:0:
376,154,47738,1,0,0:0:0:0:
218,313,47851,2,0,P|272:355|333:343,1,129.999994049073,2|0,0:2|0:0,0:0:0:0:
410,271,48192,1,8,0:1:0:0:
197,162,48306,6,0,B|150:154|150:154|126:124|126:124|85:106,1,112.500004291535,8|0,1:1|0:0,0:1:0:0:
336,30,48760,6,0,B|312:78|372:150|318:181,1,129.999994049073,6|0,1:2|0:0,0:0:0:0:
230,94,49101,1,8,0:1:0:0:
230,94,49215,1,10,0:1:0:0:
470,151,49442,1,2,0:2:0:0:
219,221,49669,2,0,P|243:304|319:283,1,129.999994049073,2|0,0:1|0:0,0:0:0:0:
333,190,50010,1,8,0:1:0:0:
337,195,50124,1,8,0:1:0:0:
137,361,50351,1,0,0:0:0:0:
43,118,50578,6,0,P|67:189|97:204,1,64.9999970245363,2|0,1:2|0:0,0:0:0:0:
176,188,50806,1,2,0:2:0:0:
119,86,50919,1,8,0:1:0:0:
216,20,51033,2,0,P|242:12|330:33,1,64.9999970245363,10|0,0:1|0:0,0:0:0:0:
434,61,51260,2,0,P|384:76|346:73,1,64.9999970245363,2|0,0:2|0:0,0:0:0:0:
252,157,51488,2,0,P|278:159|331:186,1,64.9999970245363,10|0,0:1|0:0,0:0:0:0:
417,299,51715,1,2,1:2:0:0:
417,299,51772,1,0,1:2:0:0:
417,299,51828,2,0,P|389:324|355:371,1,64.9999970245363,2|8,1:1|1:1,0:0:0:0:
207,336,52056,1,10,1:1:0:0:
207,336,52113,1,0,1:2:0:0:
207,336,52169,2,0,L|269:264,1,64.9999970245363,8|8,1:0|1:0,0:0:0:0:
222,124,52397,6,0,P|151:106|149:190,1,129.999994049073,6|0,1:2|0:0,0:0:0:0:
181,242,52738,1,10,0:1:0:0:
126,337,52851,1,8,0:1:0:0:
310,215,53078,1,2,0:2:0:0:
310,215,53306,2,0,P|367:218|476:109,1,194.999991073609,2|8,1:0|0:1,0:0:0:0:
488,32,53760,1,8,0:1:0:0:
171,81,53988,5,2,0:2:0:0:
139,186,54101,1,2,0:2:0:0:
123,27,54215,2,0,P|175:12|252:98,1,129.999994049073,2|0,0:1|0:0,0:0:0:0:
191,239,54556,2,0,P|139:254|62:168,1,129.999994049073,10|0,1:1|0:0,0:0:0:0:
216,315,54897,1,2,0:2:0:0:
107,324,55010,1,0,0:0:0:0:
17,269,55124,2,0,P|-3:193|19:99,1,129.999994049073,2|0,0:1|0:0,0:0:0:0:
74,58,55465,1,8,1:1:0:0:
343,162,55578,6,2,B|381:189|381:189|390:227|390:227|419:261,1,112.500004291535,8|0,1:1|0:1,0:1:0:0:
251,253,56033,6,0,P|226:324|294:347,1,129.999994049073,6|0,1:2|0:0,0:0:0:0:
150,343,56374,1,8,0:1:0:0:
150,343,56488,1,10,0:1:0:0:
320,203,56715,1,2,0:2:0:0:
134,85,56942,2,0,P|109:156|177:179,1,129.999994049073,2|0,0:1|0:0,0:0:0:0:
33,175,57283,1,10,0:1:0:0:
33,175,57397,1,8,0:1:0:0:
203,35,57624,1,2,0:2:0:0:
256,238,57851,5,8,0:0:0:0:
287,106,57965,1,2,0:0:0:0:
484,279,58192,1,2,0:0:0:0:
220,314,58419,1,8,0:0:0:0:
189,182,58533,1,8,0:0:0:0:
392,342,58760,1,2,1:3:0:0:
256,238,58988,5,2,0:0:0:0:
231,101,59102,1,2,0:0:0:0:
364,146,59215,1,8,0:0:0:0:
139,216,59328,1,8,0:0:0:0:
373,307,59442,1,8,0:0:0:0:
281,377,59669,5,8,3:0:0:0:
360,198,59783,1,8,3:0:0:0:
212,331,60010,1,8,3:0:0:0:
242,136,60124,1,8,3:0:0:0:
138,322,60351,1,8,3:0:0:0:
116,126,60465,1,8,3:0:0:0:
72,350,60692,1,8,3:0:0:0:
0,166,60806,1,8,3:0:0:0:
115,44,61033,5,0,3:2:0:0:
206,11,61147,1,0,3:2:0:0:
286,36,61260,1,2,3:2:0:0:
342,81,61374,1,2,3:2:0:0:
371,130,61488,6,0,P|383:165|410:196,1,50,2|0,0:0|0:0,0:0:0:0:
417,316,61715,1,2,0:0:0:0:
397,310,61828,2,0,P|328:327|303:381,1,100,2|0,0:0|0:0,0:0:0:0:
193,287,62169,1,2,0:0:0:0:
202,305,62283,1,0,0:0:0:0:
208,326,62396,2,0,P|211:357|204:380,1,50,2|0,0:0|0:0,0:0:0:0:
106,294,62624,2,0,P|102:262|108:238,1,37.5000014305115,2|0,0:0|0:0,0:0:0:0:
182,176,62851,2,0,P|228:186|264:224,1,75.0000028610231,2|0,0:0|0:0,0:0:0:0:
458,100,63306,5,8,3:0:0:0:
444,325,63420,1,8,3:0:0:0:
374,109,63647,1,8,3:0:0:0:
305,324,63761,1,8,3:0:0:0:
259,29,63988,1,8,3:0:0:0:
179,271,64102,1,8,3:0:0:0:
262,36,64329,1,8,3:0:0:0:
83,171,64443,1,8,3:0:0:0:
147,37,64669,5,0,3:2:0:0:
175,130,64783,1,0,3:2:0:0:
243,178,64896,1,2,3:2:0:0:
313,196,65010,1,2,3:2:0:0:
360,196,65124,6,0,P|395:187|428:162,1,50,2|0,0:0|0:0,0:0:0:0:
285,28,65351,1,2,0:0:0:0:
267,30,65465,2,0,P|222:42|187:104,1,100,2|0,0:0|0:0,0:0:0:0:
293,225,65806,1,2,0:0:0:0:
264,225,65919,1,0,0:0:0:0:
230,222,66033,2,0,P|207:218|163:199,1,37.5000014305115,2|0,0:0|0:0,0:0:0:0:
26,168,66260,2,0,P|47:170|92:190,1,37.5000014305115,2|0,0:0|0:0,0:0:0:0:
132,336,66488,2,0,P|194:349|230:342,1,75.0000028610231,2|0,0:0|0:0,0:0:0:0:
361,320,66942,5,8,3:0:0:0:
392,41,67056,1,8,3:0:0:0:
361,320,67283,1,8,3:0:0:0:
169,120,67397,1,8,3:0:0:0:
361,320,67624,1,8,3:0:0:0:
512,150,67738,1,8,3:0:0:0:
361,320,67965,1,8,3:0:0:0:
183,41,68079,1,8,3:0:0:0:
356,178,68306,5,0,3:2:0:0:
311,262,68420,1,0,3:2:0:0:
240,299,68533,1,2,3:2:0:0:
167,304,68647,1,2,3:2:0:0:
119,302,68761,6,0,P|84:317|56:346,1,50,2|0,0:0|0:0,0:0:0:0:
70,158,68988,1,2,0:0:0:0:
54,178,69101,2,0,P|25:233|17:291,1,100,2|0,0:0|0:0,0:0:0:0:
215,344,69442,1,2,0:0:0:0:
237,324,69556,1,0,0:0:0:0:
256,303,69669,2,0,P|272:267|272:239,1,37.5000014305115,2|0,0:0|0:0,0:0:0:0:
227,118,69897,2,0,P|211:154|211:182,1,37.5000014305115,2|0,0:0|0:0,0:0:0:0:
348,307,70124,2,0,P|370:268|362:204,1,75.0000028610231,2|0,0:0|0:0,0:0:0:0:
248,88,70578,5,8,3:0:0:0:
179,241,70692,1,8,3:0:0:0:
319,36,70919,1,8,3:0:0:0:
97,300,71033,1,8,3:0:0:0:
313,45,71260,1,8,3:0:0:0:
91,309,71374,1,8,3:0:0:0:
121,67,71601,1,8,3:0:0:0:
346,370,71715,1,8,3:0:0:0:
184,157,71942,6,0,P|166:164|156:173,1,32.4999985122681,8|8,3:0|3:0,3:0:0:0:
233,197,72056,2,0,P|248:209|261:212,1,32.4999985122681,8|8,3:0|3:0,3:0:0:0:
240,132,72169,2,0,P|242:112|239:99,1,32.4999985122681,8|8,3:0|3:0,3:0:0:0:
211,66,72283,1,8,3:0:0:0:
168,53,73306,5,2,3:3:0:0:
248,252,73533,1,2,1:3:0:0:
322,180,73647,1,2,1:3:0:0:
352,281,73760,2,0,L|391:339,2,44.999998626709,2|2|2,1:3|1:3|1:3,0:0:0:0:
257,124,73988,2,0,P|290:94|334:93,1,89.9999972534181,8|0,1:0|0:0,0:0:0:0:
272,349,74215,1,6,3:1:0:0:
114,65,74442,5,2,1:2:0:0:
257,124,74556,1,2,1:2:0:0:
136,218,74670,2,0,P|94:235|50:232,1,89.9999972534181,14|0,1:0|0:0,0:0:0:0:
346,68,74897,1,2,1:2:0:0:
417,205,75011,1,2,1:2:0:0:
264,199,75125,2,0,P|221:186|188:155,1,89.9999972534181,14|0,1:0|0:0,0:0:0:0:
362,301,75351,5,2,1:2:0:0:
229,331,75465,1,2,1:2:0:0:
401,293,75578,2,0,P|445:291|497:311,1,89.9999972534181,10|0,3:0|0:0,0:0:0:0:
200,338,75806,2,0,P|156:340|52:284,2,89.9999972534181,0|0|4,3:3|3:3|1:1,0:0:0:0:
364,121,76260,5,2,1:2:0:0:
228,190,76374,1,2,1:2:0:0:
432,88,76488,2,0,L|545:30,1,89.9999972534181,14|0,1:0|0:0,0:0:0:0:
158,223,76715,1,2,1:2:0:0:
294,292,76829,1,2,1:2:0:0:
90,190,76943,2,0,L|-23:132,1,89.9999972534181,14|0,1:0|0:0,0:0:0:0:
367,126,77169,5,2,1:2:0:0:
439,220,77283,1,2,1:2:0:0:
367,328,77397,2,0,P|315:365|254:356,1,89.9999972534181,10|0,3:0|0:0,0:0:0:0:
159,297,77624,2,0,P|134:259|132:215,2,89.9999972534181,0|0|4,3:3|3:3|1:1,0:0:0:0:
458,311,78078,5,2,1:2:0:0:
370,185,78192,1,2,1:2:0:0:
300,321,78306,2,0,L|181:320,1,89.9999972534181,14|0,1:0|0:0,0:0:0:0:
16,246,78533,1,2,1:2:0:0:
104,372,78647,1,2,1:2:0:0:
174,236,78761,2,0,L|293:237,1,89.9999972534181,14|0,1:0|0:0,0:0:0:0:
453,96,78988,5,2,1:2:0:0:
489,207,79101,1,2,1:2:0:0:
482,30,79215,2,0,P|430:29|380:82,1,89.9999972534181,10|0,3:0|0:0,0:0:0:0:
286,171,79442,2,0,P|338:172|388:119,1,89.9999972534181,0|0,3:3|3:3,0:0:0:0:
164,37,79669,5,10,1:3:0:0:
102,118,79783,1,0,0:0:0:0:
55,26,79897,2,0,L|86:88,1,59.9999981689454,0|0,1:0|0:0,0:0:0:0:
348,347,80124,5,10,1:3:0:0:
410,266,80238,1,0,0:0:0:0:
457,358,80352,2,0,L|430:304,1,59.9999981689454,0|0,1:0|0:0,0:0:0:0:
348,37,80578,5,10,1:3:0:0:
410,118,80692,1,0,0:0:0:0:
457,26,80806,2,0,L|430:79,1,59.9999981689454,0|0,1:0|0:0,0:0:0:0:
193,357,81033,5,10,3:0:0:0:
13,167,81147,1,2,1:3:0:0:
191,342,81260,1,2,1:3:0:0:
11,152,81374,2,0,L|83:186,1,59.9999981689454,2|0,1:3|0:0,0:0:0:0:
440,292,81715,5,2,1:2:0:0:
366,158,81828,1,2,1:2:0:0:
473,132,81942,2,0,P|416:219|371:232,1,89.9999972534181,14|0,1:0|0:0,0:0:0:0:
257,117,82169,1,2,1:2:0:0:
331,251,82282,1,2,1:2:0:0:
224,277,82397,2,0,P|281:190|326:177,1,89.9999972534181,14|0,1:0|0:0,0:0:0:0:
352,315,82624,5,2,1:2:0:0:
211,349,82738,1,2,1:2:0:0:
167,217,82851,2,0,P|224:130|269:117,1,89.9999972534181,10|0,3:0|0:0,0:0:0:0:
416,72,83078,2,0,P|359:159|314:172,2,89.9999972534181,0|0|4,3:3|3:3|1:1,0:0:0:0:
261,291,83533,5,2,1:2:0:0:
134,204,83647,1,2,1:2:0:0:
144,52,83760,2,0,P|228:7|265:20,1,89.9999972534181,14|0,1:0|0:0,0:0:0:0:
353,162,83988,1,2,1:2:0:0:
259,284,84101,1,2,1:2:0:0:
108,266,84215,2,0,P|67:179|82:143,1,89.9999972534181,14|0,1:0|0:0,0:0:0:0:
163,99,84442,5,2,1:2:0:0:
390,64,84556,1,2,1:2:0:0:
228,87,84669,2,0,L|337:72,1,89.9999972534181,10|0,3:0|0:0,0:0:0:0:
474,103,84897,2,0,L|518:8,2,89.9999972534181,0|0|4,3:3|3:3|1:1,0:0:0:0:
381,355,85351,5,2,1:2:0:0:
246,301,85465,1,2,1:2:0:0:
106,332,85578,2,0,P|32:271|55:222,1,89.9999972534181,14|0,1:0|0:0,0:0:0:0:
81,151,85806,1,2,1:2:0:0:
216,97,85920,1,2,1:2:0:0:
356,128,86033,2,0,P|430:67|407:18,1,89.9999972534181,14|0,1:0|0:0,0:0:0:0:
310,0,86260,5,2,1:2:0:0:
216,97,86374,1,2,1:2:0:0:
232,240,86488,2,0,P|264:286|321:304,1,89.9999972534181,10|0,3:0|0:0,0:0:0:0:
437,297,86715,2,0,P|405:251|348:233,1,89.9999972534181,0|0,3:3|0:0,0:0:0:0:
128,256,86942,1,14,3:3:0:0:
81,315,87624,6,0,P|122:330|163:313,1,89.9999972534181,8|0,1:0|0:0,0:0:0:0:
126,174,87851,2,0,P|168:159|214:182,1,89.9999972534181,8|0,1:0|0:0,0:0:0:0:
363,371,88078,1,10,3:3:0:0:
324,75,88306,2,0,P|345:113|270:128,1,89.9999972534181,10|0,3:3|0:0,0:0:0:0:
131,75,88533,2,0,P|155:39|202:100,1,89.9999972534181,8|0,1:0|0:0,0:0:0:0:
34,208,88760,6,0,P|28:264|89:330,1,150.000005722046,6|0,1:2|0:0,0:0:0:0:
157,222,89101,1,10,0:1:0:0:
233,324,89215,1,8,0:1:0:0:
149,63,89442,1,2,0:2:0:0:
149,63,89669,2,0,B|208:172|279:75|344:153,1,225.000008583069,2|8,1:2|0:1,0:0:0:0:
224,205,90124,1,8,0:1:0:0:
332,22,90351,5,2,0:2:0:0:
344,161,90465,1,2,0:2:0:0:
408,41,90578,2,0,L|423:213,1,150.000005722046,2|0,1:0|0:0,0:0:0:0:
321,270,90919,1,10,0:1:0:0:
249,132,91033,2,0,P|247:204|300:252,1,75.0000028610231,8|0,0:1|0:0,0:0:0:0:
191,343,91260,1,2,0:2:0:0:
162,260,91374,1,0,0:0:0:0:
295,346,91488,2,0,P|342:349|406:268,1,150.000005722046,2|0,0:2|0:0,0:0:0:0:
390,177,91828,1,8,0:1:0:0:
77,74,91942,6,0,B|124:82|124:82|148:112|148:112|189:130,1,112.500004291535,8|0,1:1|0:0,0:0:0:0:
295,346,92397,6,0,B|294:279|368:251|340:173,1,150.000005722046,6|0,1:2|0:0,0:0:0:0:
270,66,92738,1,8,0:1:0:0:
165,190,92851,1,10,0:1:0:0:
457,85,93078,1,2,0:2:0:0:
457,85,93306,2,0,P|501:169|452:236,1,150.000005722046,2|0,0:1|0:0,0:0:0:0:
384,296,93647,1,8,0:1:0:0:
384,296,93761,1,8,0:1:0:0:
245,82,93988,1,0,0:0:0:0:
106,311,94215,6,0,P|149:291|175:249,1,75.0000028610231,2|0,1:2|0:0,0:0:0:0:
212,151,94442,1,2,0:2:0:0:
338,130,94556,1,8,0:1:0:0:
142,196,94669,2,0,P|99:216|73:258,1,75.0000028610231,10|0,0:1|0:0,0:0:0:0:
272,256,94897,2,0,P|315:236|341:194,1,75.0000028610231,2|0,0:2|0:0,0:0:0:0:
71,158,95124,2,0,P|28:178|2:220,1,75.0000028610231,10|0,0:1|0:0,0:0:0:0:
273,333,95351,1,2,1:2:0:0:
273,333,95408,1,0,1:2:0:0:
273,333,95465,2,0,P|316:313|342:271,1,75.0000028610231,2|8,1:1|1:1,0:0:0:0:
492,136,95692,1,10,1:1:0:0:
492,136,95749,1,0,2:1:0:0:
492,136,95806,2,0,P|449:156|423:198,1,75.0000028610231,8|8,1:0|1:0,0:0:0:0:
304,166,96033,6,0,L|144:142,1,150.000005722046,6|0,1:2|0:0,0:0:0:0:
274,91,96374,1,10,0:1:0:0:
215,224,96488,1,8,0:1:0:0:
457,301,96715,1,2,0:2:0:0:
457,301,96942,2,0,P|389:251|363:360,1,225.000008583069,2|8,1:2|0:1,0:0:0:0:
512,370,97397,1,8,0:1:0:0:
271,175,97624,5,2,0:2:0:0:
183,268,97738,1,2,0:2:0:0:
137,149,97851,2,0,P|164:95|265:116,1,150.000005722046,2|0,0:1|0:0,0:0:0:0:
208,343,98192,2,0,P|147:342|122:242,1,150.000005722046,8|0,0:1|0:0,0:0:0:0:
236,241,98533,1,2,0:2:0:0:
315,320,98647,1,0,0:0:0:0:
364,203,98760,2,0,L|473:99,1,150.000005722046,2|0,0:2|0:0,0:0:0:0:
351,57,99101,1,8,0:1:0:0:
78,173,99215,6,0,B|125:165|125:165|149:135|149:135|190:117,1,112.500004291535,8|0,1:1|0:0,0:0:0:0:
425,181,99669,6,0,P|401:263|341:299,1,150.000005722046,2|0,1:1|0:0,0:0:0:0:
477,111,100010,1,8,0:1:0:0:
477,111,100124,1,8,0:1:0:0:
267,293,100351,1,2,0:2:0:0:
78,74,100578,6,0,B|106:138|180:113|217:206,1,150.000005722046,2|0,0:1|0:0,0:0:0:0:
267,293,100919,1,8,0:1:0:0:
267,293,101033,2,0,L|296:219,1,75.0000028610231,8|0,0:1|0:0,0:0:0:0:
356,49,101260,2,0,L|381:131,1,75.0000028610231
430,263,101488,5,8,0:0:0:0:
475,121,101601,1,2,0:0:0:0:
257,63,101828,1,2,0:0:0:0:
82,263,102056,1,8,0:0:0:0:
37,121,102169,1,8,0:0:0:0:
255,327,102397,1,2,0:0:0:0:
197,124,102624,5,0,0:0:0:0:
315,161,102738,1,2,0:0:0:0:
119,152,102851,1,2,0:0:0:0:
393,133,102965,1,2,0:0:0:0:
394,343,103078,1,8,0:0:0:0:
121,341,103192,1,8,0:0:0:0:
120,58,103306,1,8,0:0:0:0:
60,112,114669,6,0,P|76:136|126:163,1,50,10|0,3:2|0:0,0:0:0:0:
293,164,114897,2,0,P|277:188|227:215,1,50,2|0,0:0|0:0,0:0:0:0:
75,276,115124,2,0,P|91:252|141:225,1,50,10|0,3:2|0:0,0:0:0:0:
272,353,115351,2,0,P|248:337|221:287,1,50,2|0,0:0|0:0,0:0:0:0:
380,183,115578,1,10,3:2:0:0:
410,282,115692,1,2,0:0:0:0:
409,179,115806,1,2,0:0:0:0:
441,277,115919,1,2,0:0:0:0:
79,85,116033,6,0,P|91:111|136:145,1,50,10|0,3:2|0:0,0:0:0:0:
301,172,116261,2,0,P|281:193|227:212,1,50,2|0,0:0|0:0,0:0:0:0:
68,250,116488,2,0,P|87:228|141:209,1,50,10|0,3:2|0:0,0:0:0:0:
251,356,116715,2,0,P|229:336|210:282,1,50,2|0,0:0|0:0,0:0:0:0:
384,205,116942,1,10,3:2:0:0:
397,308,117056,1,2,0:0:0:0:
408,110,117170,1,2,0:0:0:0:
429,208,117283,1,2,0:0:0:0:
120,47,117397,6,0,P|124:75|159:120,1,50,10|0,3:2|0:0,0:0:0:0:
312,190,117625,2,0,P|287:205|230:209,1,50,2|0,0:0|0:0,0:0:0:0:
67,204,117852,2,0,P|91:188|148:184,1,50,10|0,3:2|0:0,0:0:0:0:
216,354,118079,2,0,P|200:329|196:272,1,50,2|0,0:0|0:0,0:0:0:0:
384,242,118306,1,10,3:2:0:0:
416,350,118420,1,2,0:0:0:0:
420,248,118534,1,2,0:0:0:0:
371,345,118647,1,2,0:0:0:0:
170,23,118760,6,0,P|167:51|189:104,1,50,10|0,3:2|0:0,0:0:0:0:
318,209,118988,2,0,P|290:217|234:207,1,50,2|0,0:0|0:0,0:0:0:0:
78,160,119215,2,0,P|105:151|161:161,1,50,10|0,3:2|0:0,0:0:0:0:
183,343,119442,2,0,P|174:315|184:259,1,50,2|0,0:0|0:0,0:0:0:0:
374,279,119669,1,10,3:2:0:0:
335,375,119783,1,2,0:0:0:0:
407,290,119897,1,2,0:0:0:0:
437,192,120010,1,2,0:0:0:0:
381,95,120124,6,0,P|350:87|320:94,1,50,10|0,3:2|0:0,0:0:0:0:
135,126,120351,2,0,P|166:134|196:127,1,50,2|0,0:0|0:0,0:0:0:0:
411,80,120578,2,0,P|380:72|350:79,1,50,10|0,3:2|0:0,0:0:0:0:
106,144,120805,2,0,P|137:152|167:145,1,50,2|0,0:0|0:0,0:0:0:0:
351,200,121033,1,10,3:2:0:0:
270,264,121147,1,2,0:0:0:0:
442,232,121260,1,2,0:0:0:0:
186,217,121374,1,2,0:0:0:0:
381,127,121488,6,0,P|353:111|322:110,1,50,10|0,3:2|0:0,0:0:0:0:
135,93,121715,2,0,P|163:109|194:110,1,50,2|0,0:0|0:0,0:0:0:0:
413,120,121942,2,0,P|386:104|355:103,1,50,10|0,3:2|0:0,0:0:0:0:
102,103,122169,2,0,P|130:119|161:120,1,50,2|0,0:0|0:0,0:0:0:0:
337,233,122397,1,10,3:2:0:0:
162,221,122511,1,2,0:0:0:0:
423,251,122624,1,2,0:0:0:0:
238,266,122738,1,2,0:0:0:0:
372,158,122851,6,0,P|349:136|320:127,1,50,10|0,3:2|0:0,0:0:0:0:
144,62,123078,2,0,P|166:84|196:93,1,50,2|0,0:0|0:0,0:0:0:0:
406,160,123306,2,0,P|383:138|353:129,1,50,10|0,3:2|0:0,0:0:0:0:
110,63,123533,2,0,P|132:85|172:93,1,50,2|0,0:0|0:0,0:0:0:0:
134,182,123760,1,10,3:2:0:0:
195,244,123874,1,2,0:0:0:0:
322,261,123988,1,2,0:0:0:0:
400,302,124101,1,2,0:0:0:0:
356,186,124215,6,0,P|340:158|314:142,1,50,10|0,3:2|0:0,0:0:0:0:
160,34,124442,2,0,P|176:62|203:78,1,50,2|0,0:0|0:0,0:0:0:0:
388,197,124669,2,0,P|372:169|345:153,1,50,10|0,3:2|0:0,0:0:0:0:
127,26,124896,2,0,P|143:54|169:70,1,50,2|0,0:0|0:0,0:0:0:0:
273,201,125124,1,10,3:2:0:0:
121,220,125238,1,2,0:0:0:0:
211,313,125351,2,0,P|167:357|73:331,1,150,2|0,0:0|0:0,0:0:0:0:
131,144,125806,5,2,0:0:0:0:
208,205,125919,1,2,0:0:0:0:
224,106,126033,2,0,P|231:73|247:46,1,55.0000016784668,2|0,1:2|0:0,0:0:0:0:
363,213,126260,1,2,0:0:0:0:
409,124,126374,2,0,P|425:94|446:73,1,55.0000016784668,2|0,0:0|1:0,0:0:0:0:
306,304,126601,1,2,0:0:0:0:
260,215,126715,2,0,P|243:185|223:163,1,55.0000016784668,2|0,0:0|0:0,0:0:0:0:
149,93,126942,5,8,1:1:0:0:
68,297,127169,1,8,0:1:0:0:
155,78,127397,1,8,0:1:0:0:
309,57,127624,5,2,0:0:0:0:
357,144,127738,1,2,0:0:0:0:
410,60,127851,2,0,L|456:30,1,55.0000016784668,2|0,1:2|0:0,0:0:0:0:
438,240,128078,1,2,0:0:0:0:
338,255,128192,2,0,P|300:252|265:241,1,55.0000016784668,2|0,0:0|1:0,0:0:0:0:
80,200,128419,1,2,0:0:0:0:
180,185,128533,2,0,P|218:188|254:203,1,55.0000016784668,2|0,0:0|0:0,0:0:0:0:
372,154,128760,2,0,P|401:95|327:44,1,165.000005035401,2|0,1:2|0:0,0:0:0:0:
306,52,129215,1,0,3:3:0:0:
96,89,129442,5,2,0:0:0:0:
192,117,129556,1,2,0:0:0:0:
222,209,129669,2,0,P|226:249|215:280,1,55.0000016784668,2|0,1:2|0:0,0:0:0:0:
359,263,129897,1,2,0:0:0:0:
321,169,130010,2,0,P|353:140|381:128,1,55.0000016784668,2|0,0:0|1:2,0:0:0:0:
457,248,130238,1,2,0:0:0:0:
456,348,130351,2,0,P|418:369|387:374,1,55.0000016784668,2|0,0:0|0:0,0:0:0:0:
294,328,130578,5,8,1:1:0:0:
163,150,130805,1,8,1:1:0:0:
300,341,131033,1,8,1:1:0:0:
53,215,131260,5,2,0:0:0:0:
117,288,131374,1,2,0:0:0:0:
146,194,131488,2,0,P|172:179|222:176,1,55.0000016784668,2|0,1:2|0:0,0:0:0:0:
380,66,131715,1,2,0:0:0:0:
317,143,131828,2,0,P|281:158|242:160,1,55.0000016784668,2|0,0:0|1:2,0:0:0:0:
102,120,132056,1,2,0:0:0:0:
196,87,132169,2,0,P|225:80|266:90,1,55.0000016784668,2|0,0:0|0:0,0:0:0:0:
351,172,132397,2,0,P|398:205|452:202,2,110.000003356934,2|0|0,3:2|3:3|3:3,0:0:0:0:
127,69,133078,5,2,0:0:0:0:
165,179,133192,1,2,0:0:0:0:
247,262,133306,2,0,P|271:281|318:297,1,64.9999970245363,2|0,1:2|0:0,0:0:0:0:
418,276,133533,1,2,0:0:0:0:
466,169,133647,2,0,P|466:134|443:104,1,64.9999970245363,2|0,0:0|1:0,0:0:0:0:
335,83,133874,1,2,0:0:0:0:
242,155,133988,2,0,P|215:164|177:161,1,64.9999970245363,2|0,0:0|0:0,0:0:0:0:
89,86,134215,2,0,P|116:77|159:79,1,64.9999970245363,2|0,1:2|0:0,0:0:0:0:
269,76,134442,5,8,0:1:0:0:
57,226,134669,1,8,0:1:0:0:
282,349,134897,5,2,0:0:0:0:
393,317,135010,1,2,0:0:0:0:
465,224,135124,2,0,P|486:181|481:153,1,64.9999970245363,2|0,1:2|0:0,0:0:0:0:
420,66,135351,1,2,0:0:0:0:
304,45,135465,2,0,P|264:51|227:74,1,64.9999970245363,2|0,0:0|1:2,0:0:0:0:
196,169,135692,1,2,0:0:0:0:
83,203,135806,2,0,P|38:208|0:203,1,64.9999970245363,2|0,0:0|0:0,0:0:0:0:
108,99,136033,2,0,P|153:94|183:95,8,64.9999970245363,2|0|0|0|0|0|0|0|0,1:2|0:0|0:0|0:0|1:2|0:0|0:0|0:0|0:0,0:0:0:0:
335,72,139669,5,2,3:3:0:0:
94,183,139896,1,2,1:3:0:0:
169,105,140010,1,2,1:3:0:0:
206,207,140124,2,0,L|225:260,2,44.999998626709,2|2|2,1:3|1:3|1:3,0:0:0:0:
386,249,140351,2,0,P|341:239|299:254,1,89.9999972534181,8|0,1:0|0:0,0:0:0:0:
257,319,140578,2,0,P|302:329|344:314,1,89.9999972534181,6|0,3:1|0:0,0:0:0:0:
416,178,140806,5,2,1:2:0:0:
314,77,140919,1,2,1:2:0:0:
171,53,141033,2,0,P|149:60|90:110,1,89.9999972534181,14|0,1:0|0:0,0:0:0:0:
181,217,141260,1,2,1:2:0:0:
117,345,141373,1,2,1:2:0:0:
20,237,141488,2,0,P|18:200|81:208,1,89.9999972534181,14|0,1:0|0:0,0:0:0:0:
187,233,141715,5,2,1:2:0:0:
176,310,141828,1,2,1:2:0:0:
241,181,141942,2,0,P|200:163|155:166,1,89.9999972534181,10|0,3:0|0:0,0:0:0:0:
123,358,142169,2,0,P|163:375|208:372,2,89.9999972534181,0|0|4,3:3|3:3|1:1,0:0:0:0:
89,71,142624,5,2,1:2:0:0:
231,45,142738,1,2,1:2:0:0:
364,95,142851,2,0,L|433:152,1,89.9999972534181,14|0,1:0|0:0,0:0:0:0:
432,296,143078,1,2,1:2:0:0:
349,177,143192,1,2,1:2:0:0:
281,303,143305,2,0,L|183:222,1,89.9999972534181,14|0,1:0|0:0,0:0:0:0:
40,113,143533,5,2,1:2:0:0:
58,212,143647,1,2,1:2:0:0:
134,149,143760,2,0,P|193:128|254:137,1,89.9999972534181,10|0,3:0|0:0,0:0:0:0:
385,185,143988,2,0,P|326:206|265:197,2,89.9999972534181,0|0|4,3:3|3:3|1:1,0:0:0:0:
430,17,144442,5,2,1:2:0:0:
286,0,144556,1,2,1:2:0:0:
156,61,144669,2,0,P|120:93|103:138,1,89.9999972534181,14|0,1:0|0:0,0:0:0:0:
235,354,144897,1,2,1:2:0:0:
213,212,145010,1,2,1:2:0:0:
295,93,145124,2,0,P|357:148|334:193,1,89.9999972534181,14|0,1:0|0:0,0:0:0:0:
337,279,145351,5,2,1:2:0:0:
260,156,145465,1,2,1:2:0:0:
411,226,145578,2,0,P|458:203|486:148,1,89.9999972534181,10|0,3:0|0:0,0:0:0:0:
475,40,145806,2,0,P|430:36|389:54,1,89.9999972534181,0|0,3:3|0:0,0:0:0:0:
276,147,146033,5,10,1:3:0:0:
289,275,146147,1,0,0:0:0:0:
394,200,146260,2,0,L|371:136,1,59.9999981689454,0|0,1:0|0:0,0:0:0:0:
193,102,146488,5,10,1:3:0:0:
46,216,146601,1,0,0:0:0:0:
214,307,146715,2,0,L|274:253,1,59.9999981689454,0|0,1:0|0:0,0:0:0:0:
250,11,146942,5,10,1:3:0:0:
29,15,147056,1,0,0:0:0:0:
120,234,147169,2,0,L|185:242,1,59.9999981689454,0|0,1:0|0:0,0:0:0:0:
417,247,147397,5,10,3:0:0:0:
390,6,147510,1,2,1:3:0:0:
326,265,147624,1,2,1:3:0:0:
467,50,147738,2,0,P|450:104|418:133,1,59.9999981689454,2|0,1:3|0:0,0:0:0:0:
153,247,148078,5,2,1:2:0:0:
284,188,148192,1,2,1:2:0:0:
424,219,148306,2,0,P|444:263|380:311,1,89.9999972534181,14|0,1:0|0:0,0:0:0:0:
332,123,148533,1,2,1:2:0:0:
201,182,148647,1,2,1:2:0:0:
61,151,148761,2,0,P|41:107|105:59,1,89.9999972534181,14|0,1:0|0:0,0:0:0:0:
221,50,148988,5,2,1:2:0:0:
322,52,149101,1,2,1:2:0:0:
187,50,149215,2,0,L|97:50,1,89.9999972534181,10|0,3:0|0:0,0:0:0:0:
353,51,149442,2,0,L|443:51,2,89.9999972534181,0|0|4,3:3|3:3|1:1,0:0:0:0:
291,319,149897,5,2,1:2:0:0:
393,218,150010,1,2,1:2:0:0:
314,96,150124,2,0,P|285:69|190:50,1,89.9999972534181,14|0,1:0|0:0,0:0:0:0:
184,220,150351,1,2,1:2:0:0:
21,271,150464,1,2,1:2:0:0:
170,176,150578,2,0,P|205:159|302:170,1,89.9999972534181,14|0,1:0|0:0,0:0:0:0:
372,248,150806,5,2,1:2:0:0:
251,289,150919,1,2,1:2:0:0:
265,160,151033,2,0,P|278:115|260:60,1,89.9999972534181,10|0,3:0|0:0,0:0:0:0:
141,168,151260,2,0,P|128:213|146:268,2,89.9999972534181,0|0|4,3:3|3:3|1:1,0:0:0:0:
429,49,151715,5,2,1:2:0:0:
282,102,151828,1,2,1:2:0:0:
126,151,151942,2,0,P|82:170|43:201,1,89.9999972534181,14|0,1:0|0:0,0:0:0:0:
429,155,152169,1,2,1:2:0:0:
282,102,152282,1,2,1:2:0:0:
126,49,152396,2,0,P|81:32|23:42,1,89.9999972534181,14|0,1:0|0:0,0:0:0:0:
0,143,152624,5,2,3:0:0:0:
0,143,152681,1,2,3:0:0:0:
0,143,152738,1,2,3:0:0:0:
131,236,152851,1,0,3:0:0:0:
32,229,152965,1,2,3:0:0:0:
32,229,153022,1,2,3:0:0:0:
32,229,153078,1,2,3:0:0:0:
183,146,153192,1,0,3:0:0:0:
231,234,153306,6,0,L|297:257,5,50,8|0|0|8|0|8,0:1|0:1|0:1|0:1|0:1|0:1,0:1:0:0:
423,208,153988,2,0,L|357:185,1,50,8|0,0:1|0:1,0:1:0:0:
238,91,154215,2,0,L|172:67,3,50,8|0|0|8,0:1|0:1|0:1|0:1,0:1:0:0:
122,188,154669,1,0,0:1:0:0:
228,220,154783,1,8,0:1:0:0:
201,159,154897,5,0,0:1:0:0:
318,194,155010,1,0,0:1:0:0:
332,309,155124,2,0,P|310:321|286:327,2,50,8|0|0,0:1|0:1|0:0,0:0:0:0:
393,181,155465,2,0,P|388:156|392:132,2,50,8|0|8,0:1|0:1|0:1,0:0:0:0:
473,310,155806,2,0,P|495:323|512:342,1,50,0|8,0:1|0:1,0:0:0:0:
133,62,156715,5,2,0:2:0:0:
275,18,156828,1,2,0:2:0:0:
385,119,156942,2,0,P|391:165|306:253,1,160,6|0,1:2|0:0,0:0:0:0:
420,284,157283,1,10,0:1:0:0:
288,155,157397,1,8,0:1:0:0:
59,353,157624,1,2,0:2:0:0:
59,353,157852,2,0,B|137:251|10:187|126:101,1,240,2|8,1:2|0:1,0:0:0:0:
278,54,158306,1,8,0:1:0:0:
176,329,158533,5,2,0:2:0:0:
306,203,158647,1,2,0:2:0:0:
157,344,158760,2,0,P|115:350|83:250,1,160,2|0,1:0|0:0,0:0:0:0:
312,193,159101,2,0,P|366:158|303:90,1,160,10|0,0:1|0:0,0:0:0:0:
155,108,159442,1,2,0:2:0:0:
409,37,159556,1,0,0:0:0:0:
209,185,159669,2,0,P|234:266|324:289,1,160,2|0,0:2|0:0,0:0:0:0:
256,103,160010,1,8,0:1:0:0:
489,348,160124,6,0,B|459:288|459:288|429:281|429:281|386:213,1,150,8|0,1:1|0:0,0:0:0:0:
239,201,160578,6,0,P|179:282|91:289,1,160,6|0,1:2|0:0,0:0:0:0:
157,158,160919,1,8,0:1:0:0:
303,276,161033,1,10,0:1:0:0:
81,102,161260,1,2,0:2:0:0:
309,282,161488,2,0,P|386:265|393:189,1,160,2|0,0:1|0:0,0:0:0:0:
174,277,161828,1,8,0:1:0:0:
279,361,161942,1,8,0:1:0:0:
148,122,162169,1,0,0:0:0:0:
414,84,162397,6,0,P|369:102|315:102,1,80,2|0,1:2|0:0,0:0:0:0:
164,78,162624,1,2,0:2:0:0:
251,39,162738,1,8,0:2:0:0:
126,252,162851,2,0,P|144:209|201:146,1,80,10|0,0:1|0:0,0:0:0:0:
291,341,163078,2,0,P|273:297|269:213,1,80,2|0,0:2|0:0,0:0:0:0:
473,319,163306,2,0,P|430:301|367:244,1,80,10|0,0:1|0:0,0:0:0:0:
325,136,163533,1,2,1:2:0:0:
325,136,163590,1,0,1:2:0:0:
325,136,163647,2,0,P|284:84|204:63,1,80,2|8,1:1|1:1,0:0:0:0:
58,53,163874,1,10,1:1:0:0:
58,53,163931,1,0,2:1:0:0:
58,53,163988,2,0,P|99:105|179:126,1,80,8|8,0:1|0:1,0:0:0:0:
242,247,164215,6,0,P|205:284|149:214,1,160,6|0,1:2|0:0,0:0:0:0:
236,87,164556,1,10,0:1:0:0:
374,165,164669,1,8,0:1:0:0:
52,165,164897,1,2,0:2:0:0:
52,165,165124,2,0,P|151:164|178:43,1,240,2|8,1:2|0:1,0:0:0:0:
37,29,165578,1,8,0:1:0:0:
141,288,165806,5,2,0:2:0:0:
246,306,165919,1,2,0:2:0:0:
215,205,166033,2,0,P|224:142|285:183,1,160,2|0,1:0|0:0,0:0:0:0:
138,123,166374,2,0,P|190:75|285:68,1,160,10|0,0:1|0:0,0:0:0:0:
397,133,166715,1,2,0:2:0:0:
455,257,166828,1,0,0:0:0:0:
418,64,166942,2,0,P|341:91|337:182,1,160,2|0,0:2|0:0,0:0:0:0:
487,167,167283,1,8,0:1:0:0:
209,348,167397,6,0,B|257:322|257:322|276:276|276:276|332:240,1,150,8|0,1:1|0:0,0:0:0:0:
283,93,167851,6,0,L|95:50,1,160,6|0,1:2|0:0,0:0:0:0:
208,195,168192,1,8,0:1:0:0:
320,80,168306,1,10,0:1:0:0:
27,167,168533,1,2,0:2:0:0:
27,167,168760,2,0,P|41:246|144:301,1,160,2|0,0:1|0:0,0:0:0:0:
236,209,169101,1,8,0:1:0:0:
101,327,169215,1,8,0:1:0:0:
413,258,169442,1,0,0:0:0:0:
218,44,169669,6,0,P|261:60|298:103,1,80,2|0,1:2|0:0,0:0:0:0:
292,244,169897,1,2,2:0:0:0:
402,111,170010,1,8,0:1:0:0:
424,270,170124,2,0,P|412:318|364:353,1,80,10|0,0:1|0:0,0:0:0:0:
243,125,170351,2,0,P|290:111|344:135,1,80,2|0,0:2|0:0,0:0:0:0:
206,351,170578,2,0,P|170:316|164:257,1,80,10|0,0:1|0:0,0:0:0:0:
126,120,170806,1,2,1:2:0:0:
126,120,170863,1,0,1:2:0:0:
126,120,170919,2,0,L|108:36,1,80,2|8,1:1|1:1,0:0:0:0:
325,2,171147,1,10,1:1:0:0:
325,2,171204,1,0,2:1:0:0:
325,2,171260,2,0,L|307:86,1,80,8|8,1:0|1:0,0:0:0:0:
124,241,171488,6,0,P|182:334|296:277,1,179.999994506836,6|0,1:2|0:0,0:0:0:0:
296,162,171828,1,10,0:1:0:0:
473,196,171942,1,8,0:1:0:0:
119,127,172169,1,2,0:2:0:0:
119,127,172397,2,0,B|219:151|249:37|377:84,1,269.999991760254,2|8,1:2|0:1,0:0:0:0:
399,97,172851,1,8,0:1:0:0:
180,5,173078,5,2,0:2:0:0:
41,120,173192,1,2,0:2:0:0:
221,127,173306,2,0,P|294:102|397:126,1,179.999994506836,2|0,1:0|0:0,0:0:0:0:
206,155,173647,2,0,P|278:129|381:153,1,179.999994506836,10|0,0:1|0:0,0:0:0:0:
452,324,173988,1,2,0:2:0:0:
315,208,174101,1,0,0:0:0:0:
492,240,174215,2,0,P|501:183|466:127,1,89.9999972534181,2|0,0:2|0:0,0:0:0:0:
350,30,174442,2,0,P|341:87|376:143,1,89.9999972534181,2|8,0:2|0:1,0:0:0:0:
446,237,174669,2,0,P|455:180|420:124,1,89.9999972534181,10|0,0:1|0:0,0:0:0:0:
304,27,174897,2,0,P|295:84|330:140,1,89.9999972534181,2|0,0:2|0:0,0:0:0:0:
294,294,175124,6,0,P|245:319|119:286,1,179.999994506836,6|0,1:2|0:0,0:0:0:0:
61,125,175465,1,8,0:1:0:0:
217,38,175578,1,10,0:1:0:0:
24,343,175806,1,2,0:2:0:0:
24,343,176033,2,0,P|43:239|144:204,1,179.999994506836,2|0,0:1|0:0,0:0:0:0:
277,241,176374,1,8,0:1:0:0:
258,63,176487,1,8,0:1:0:0:
290,354,176714,1,0,0:0:0:0:
436,178,176942,6,0,L|414:74,1,89.9999972534181,2|0,1:2|0:0,0:0:0:0:
389,268,177169,1,2,0:2:0:0:
351,148,177283,1,8,0:1:0:0:
190,217,177397,2,0,L|222:115,1,89.9999972534181,10|0,0:1|0:0,0:0:0:0:
121,288,177624,2,0,L|158:181,1,89.9999972534181,2|0,0:2|0:0,0:0:0:0:
45,371,177851,2,0,L|87:260,1,89.9999972534181,10|0,0:1|0:0,0:0:0:0:
65,106,178078,1,2,1:2:0:0:
65,106,178135,1,0,1:2:0:0:
65,106,178192,2,0,P|97:59|161:52,1,89.9999972534181,2|8,1:1|1:1,0:0:0:0:
352,8,178419,1,10,1:1:0:0:
352,8,178476,1,0,2:1:0:0:
352,8,178533,2,0,P|320:55|256:62,1,89.9999972534181,8|8,1:0|1:0,0:0:0:0:
99,229,178760,6,0,P|116:304|247:262,1,179.999994506836,6|0,1:2|0:0,0:0:0:0:
160,144,179101,1,10,0:1:0:0:
16,253,179215,1,8,0:1:0:0:
364,339,179442,1,2,0:2:0:0:
364,339,179669,2,0,B|467:237|311:201|411:89,1,269.999991760254,2|8,1:2|0:1,0:0:0:0:
473,166,180124,1,8,0:1:0:0:
130,58,180351,5,2,0:0:0:0:
120,238,180465,1,2,0:2:0:0:
218,87,180578,2,0,L|120:252,1,179.999994506836,2|0,0:1|0:0,0:0:0:0:
309,213,180919,1,10,0:1:0:0:
145,359,181033,2,0,L|232:222,1,89.9999972534181,8|0,0:1|0:0,0:0:0:0:
309,141,181260,6,0,P|361:164|379:228,1,89.9999972534181,2|0,0:2|0:0,0:0:0:0:
418,356,181488,2,0,P|366:333|348:269,1,89.9999972534181,2|0,0:2|0:0,0:0:0:0:
189,15,181715,2,0,P|230:29|256:65,1,89.9999972534181,2|8,0:2|0:1,0:0:0:0:
297,229,181943,2,0,P|255:214|231:180,1,80,10|0,0:1|0:0,0:0:0:0:
422,115,182169,2,0,P|456:143|466:184,1,80,2|0,0:2|0:0,0:0:0:0:
361,314,182397,6,0,P|293:337|212:322,1,139.999995727539,6|0,1:2|0:0,0:0:0:0:
148,237,182738,1,8,0:1:0:0:
99,344,182851,1,10,0:1:0:0:
222,88,183078,1,2,0:2:0:0:
222,88,183306,2,0,P|304:62|375:87,1,139.999995727539,2|0,0:1|0:0,0:0:0:0:
377,86,183590,1,0,0:0:0:0:
398,107,183647,2,0,P|420:145|428:190,1,69.9999978637696,8|8,0:1|0:1,0:0:0:0:
283,364,183875,1,0,0:0:0:0:
283,364,183931,1,0,0:0:0:0:
283,364,183988,2,0,P|261:326|253:281,1,69.9999978637696,0|8,0:0|1:1,0:0:0:0:
