osu file format v14

[General]
AudioFilename: BABYMETAL - Road of ResistanceRoad of RRoad To Victory600BPM.mp3
AudioLeadIn: 0
PreviewTime: 124459
Countdown: 0
SampleSet: None
StackLeniency: 0.5
Mode: 0
LetterboxInBreaks: 0
WidescreenStoryboard: 1

[Editor]
DistanceSpacing: 0.9
BeatDivisor: 16
GridSize: 4
TimelineZoom: 3.399999

[Metadata]
Title:Road of Resistance Speed up ver
TitleUnicode:Road of Resistance Speed up ver
Artist:BABYMETAL
ArtistUnicode:BABYMETAL
Creator:NO PLEASEGOD NO
Version:Road To Victory600BPM
Source:
Tags:
BeatmapID:1814720
BeatmapSetID:865171

[Difficulty]
HPDrainRate:6.5
CircleSize:5
OverallDifficulty:9.4
ApproachRate:9.7
SliderMultiplier:1.3
SliderTickRate:1

[Events]
//Background and Video events
0,0,"remi.jpg",0,0
//Break Periods
2,16310,17965
2,100859,101972
2,102667,105196
//Storyboard Layer 0 (Background)
//Storyboard Layer 1 (Fail)
//Storyboard Layer 2 (Pass)
//Storyboard Layer 3 (Foreground)
//Storyboard Sound Samples

[TimingPoints]
13210,100,4,3,1,70,1,0
13210,-71.42857,4,3,1,70,0,0
13610,-62.5,4,3,1,50,0,0
14213,-83.33334,4,3,1,50,0,0
14323,-83.33334,4,3,1,50,0,0
14460,100,4,3,1,50,1,0
15660,-100,4,3,1,50,0,0
15760,-100,4,3,1,40,0,0
15860,-100,4,3,1,30,0,0
15960,-100,4,3,1,20,0,0
16060,-100,4,3,1,10,0,0
16110,-100,4,3,1,30,0,0
18460,-100,4,3,1,25,0,0
18560,-100,4,3,1,35,0,0
18660,-100,4,3,1,45,0,0
18760,-100,4,3,1,55,0,0
18810,-100,4,3,1,10,0,0
18861,-55.55556,4,3,1,70,0,0
19660,-62.5,4,3,1,85,0,1
26060,-55.55556,4,3,1,75,0,0
32460,-62.5,4,3,1,75,0,0
35260,-55.55556,4,3,0,70,0,0
35285,-55.55556,4,3,1,75,0,0
38760,-55.55556,4,1,5,70,0,0
38860,-55.55556,4,3,1,75,0,0
42260,-55.55556,4,3,0,70,0,0
42285,-55.55556,4,3,1,70,0,0
42460,-55.55556,4,3,0,70,0,0
42660,-55.55556,4,3,1,70,0,0
42860,-55.55556,4,3,2,85,0,1
54060,-100,4,3,1,70,0,1
54860,-55.55556,4,2,0,60,0,1
55060,-55.55556,4,1,5,40,0,1
55260,-55.55556,4,3,2,50,0,1
55660,-55.55556,4,3,2,70,0,0
58860,-55.55556,4,3,2,85,0,1
60460,-55.55556,4,3,2,90,0,1
61260,-50,4,3,2,70,0,1
61860,-50,4,3,0,70,0,1
61911,-50,4,3,2,70,0,1
61960,-50,4,3,0,70,0,1
62010,-50,4,3,2,70,0,1
62060,-83.33334,4,1,6,70,0,0
62435,-83.33334,4,2,6,5,0,0
62460,-78.125,4,1,6,70,0,0
62835,-78.125,4,2,6,5,0,0
62860,-83.33334,4,1,6,70,0,0
63235,-83.33334,4,2,6,5,0,0
63260,-83.33334,4,1,6,70,0,0
64035,-83.33334,4,2,6,5,0,0
64060,-83.33334,4,1,6,70,0,0
64085,-83.33334,4,1,6,40,0,0
64460,-83.33334,4,1,6,70,0,0
64485,-83.33334,4,1,6,40,0,0
64860,-83.33334,4,3,1,85,0,0
64885,-83.33334,4,3,1,70,0,0
65260,-62.5,4,3,2,60,0,0
66860,-58.82353,4,3,2,70,0,0
68460,-58.82353,4,3,2,80,0,0
71660,-55.55556,4,3,2,80,0,0
77860,-55.55556,4,1,5,70,0,0
77885,-55.55556,4,3,2,80,0,0
81260,-55.55556,4,3,2,65,0,0
83660,-55.55556,4,3,2,70,0,0
84461,-55.55556,4,3,2,80,0,0
87660,-55.55556,4,3,2,80,0,1
88360,-41.66667,4,3,2,80,0,1
88460,-35.71429,4,3,2,90,0,1
89160,-50,4,3,2,90,0,1
89260,-133.3333,4,2,6,70,0,0
90060,-117.6471,4,2,6,70,0,0
90460,-125,4,3,1,70,0,0
90660,-100,4,3,1,70,0,0
90860,-83.33334,4,3,1,70,0,0
91260,-66.66666,4,3,1,70,0,0
91460,-57.14286,4,3,2,70,0,0
92060,-57.14286,4,3,0,70,0,0
92086,-57.14286,4,3,2,70,0,0
92460,-50,4,3,2,85,0,1
94860,-41.66667,4,3,2,85,0,1
97160,-55.55556,4,3,2,85,0,1
97260,-41.66667,4,3,2,85,0,1
97560,-55.55556,4,3,2,85,0,1
97661,-41.66667,4,3,2,85,0,1
98360,-45.45454,4,3,0,85,0,1
98460,-50,4,3,2,80,0,1
98660,-50,4,3,0,80,0,1
98686,-50,4,3,2,80,0,1
98760,-55.55556,4,3,2,80,0,1
98860,-62.5,4,3,2,80,0,1
99960,-55.55556,4,3,0,70,0,1
100060,-66.66666,4,3,0,70,0,1
100110,-55.55556,4,3,2,70,0,1
100260,-62.5,4,3,1,70,0,1
100360,-76.92308,4,3,1,70,0,1
100460,-125,4,1,5,70,0,0
100660,-111.1111,4,3,2,70,0,0
100695,-111.1111,4,3,2,70,0,0
102476,-111.1111,4,3,2,70,0,1
105692,-100,4,3,1,100,0,0

[HitObjects]
19,41,13210,6,0,P|104:20|168:80,1,182
256,192,13360,1,2,0:0:0:0:
256,192,13385,1,0,0:0:0:0:
256,192,13410,1,8,0:0:0:0:
256,96,13460,1,2,0:0:0:0:
338,239,13510,1,0,0:0:0:0:
171,239,13560,1,0,0:0:0:0:
375,137,13610,6,0,L|446:212,1,104
416,318,13710,1,8,0:0:0:0:
137,137,13760,6,0,L|65:212,1,104
96,318,13860,1,8,0:0:0:0:
321,367,13910,6,0,P|338:318|321:270,1,104
256,80,14010,1,8,0:0:0:0:
191,367,14060,6,0,P|173:318|190:270,1,104
256,56,14160,1,8,0:0:0:0:
436,192,14213,6,0,L|465:92,1,78
54,117,14323,6,0,L|76:192,1,78
256,320,14460,5,12,0:0:0:0:
256,192,14485,12,0,16110,0:0:0:0:
256,192,18460,12,0,18810,0:0:0:0:
123,127,18861,5,2,0:0:0:0:
89,144,18885,1,0,0:0:0:0:
67,174,18910,1,0,0:0:0:0:
61,211,18935,1,0,0:0:0:0:
73,247,18960,1,8,0:0:0:0:
233,315,19010,1,2,0:0:0:0:
235,277,19035,1,0,0:0:0:0:
220,243,19060,1,0,0:0:0:0:
191,219,19085,1,0,0:0:0:0:
154,211,19110,1,8,0:0:0:0:
17,317,19160,2,0,P|76:336|128:312,1,117
275,181,19260,6,0,L|255:127,3,58.5
362,263,19360,2,0,L|382:317,3,58.5
390,147,19460,2,0,L|370:93,3,58.5
477,229,19560,2,0,L|497:283,3,58.5
275,181,19660,6,0,L|143:158,1,104
225,277,19760,1,8,0:0:0:0:
172,163,19810,1,2,0:0:0:0:
136,367,19860,1,0,0:0:0:0:
45,177,19910,1,2,0:0:0:0:
225,277,19960,1,8,0:0:0:0:
22,301,20010,1,0,0:0:0:0:
225,366,20060,6,0,L|357:343,1,104
120,258,20160,1,8,0:0:0:0:
324,222,20210,1,2,0:0:0:0:
225,366,20260,1,8,0:0:0:0:
190,162,20310,1,2,0:0:0:0:
388,283,20360,1,8,0:0:0:0:
120,258,20410,1,0,0:0:0:0:
393,94,20460,6,0,L|416:226,1,104
327,348,20560,1,8,0:0:0:0:
512,244,20610,1,2,0:0:0:0:
304,106,20660,1,0,0:0:0:0:
269,100,20685,1,0,0:0:0:0:
234,108,20710,1,2,0:0:0:0:
205,129,20735,1,0,0:0:0:0:
189,162,20760,1,8,0:0:0:0:
131,307,20810,1,0,0:0:0:0:
100,132,20860,6,0,L|77:0,1,104
274,192,20960,1,8,0:0:0:0:
28,235,21010,2,0,L|10:337,1,104
0,99,21110,1,2,0:0:0:0:
131,307,21160,1,8,0:0:0:0:
189,162,21210,1,0,0:0:0:0:
391,327,21260,5,2,0:0:0:0:
420,308,21285,1,0,0:0:0:0:
436,275,21310,1,0,0:0:0:0:
431,240,21335,1,0,0:0:0:0:
409,211,21361,1,8,0:0:0:0:
376,200,21385,1,0,0:0:0:0:
341,208,21410,1,8,0:0:0:0:
316,234,21435,1,0,0:0:0:0:
309,268,21460,5,2,0:0:0:0:
342,259,21485,1,0,0:0:0:0:
368,234,21510,1,0,0:0:0:0:
376,200,21535,1,0,0:0:0:0:
364,165,21560,1,8,0:0:0:0:
336,143,21585,1,0,0:0:0:0:
301,140,21610,1,8,0:0:0:0:
267,155,21635,1,0,0:0:0:0:
249,187,21660,5,2,0:0:0:0:
231,219,21685,1,0,0:0:0:0:
197,234,21710,1,0,0:0:0:0:
162,231,21735,1,0,0:0:0:0:
134,209,21760,1,8,0:0:0:0:
122,174,21785,1,0,0:0:0:0:
130,140,21810,1,8,0:0:0:0:
156,115,21835,1,0,0:0:0:0:
189,106,21860,5,2,0:0:0:0:
182,140,21885,1,0,0:0:0:0:
157,166,21910,1,0,0:0:0:0:
122,174,21936,1,0,0:0:0:0:
89,163,21960,1,8,0:0:0:0:
67,134,21985,1,0,0:0:0:0:
62,99,22010,1,8,0:0:0:0:
78,66,22035,1,0,0:0:0:0:
107,47,22060,6,0,P|132:40|166:45,1,52
230,0,22110,2,0,P|252:12|273:40,1,52
350,53,22160,2,0,P|356:78|352:112,1,52
397,175,22210,2,0,P|384:197|356:218,1,52
201,175,22260,6,0,P|213:197|241:218,1,52
254,295,22310,2,0,P|279:301|313:297,1,52
377,342,22360,2,0,P|399:329|420:301,1,52
496,289,22410,2,0,P|503:264|498:230,1,52
497,74,22460,5,10,0:0:0:0:
459,37,22485,1,0,0:0:0:0:
408,24,22510,1,0,0:0:0:0:
359,41,22535,1,0,0:0:0:0:
323,79,22560,1,10,0:0:0:0:
313,129,22585,1,0,0:0:0:0:
328,179,22610,1,0,0:0:0:0:
363,216,22635,1,0,0:0:0:0:
376,265,22660,1,10,0:0:0:0:
365,315,22685,1,0,0:0:0:0:
329,353,22710,1,0,0:0:0:0:
279,368,22735,1,0,0:0:0:0:
227,355,22760,1,10,0:0:0:0:
189,318,22785,1,0,0:0:0:0:
173,268,22810,1,0,0:0:0:0:
186,217,22835,1,0,0:0:0:0:
222,180,22860,5,4,0:0:0:0:
62,218,22910,2,0,L|83:319,1,104
83,319,22985,1,0,0:0:0:0:
83,319,23010,1,2,0:0:0:0:
138,95,23060,1,8,0:0:0:0:
279,248,23110,1,0,0:0:0:0:
253,40,23160,1,8,0:0:0:0:
153,222,23210,1,0,0:0:0:0:
168,10,23260,5,4,0:0:0:0:
279,247,23310,2,0,L|380:226,1,104
380,226,23385,1,0,0:0:0:0:
380,226,23411,1,2,0:0:0:0:
239,342,23460,1,8,0:0:0:0:
340,132,23510,1,0,0:0:0:0:
363,323,23560,1,8,0:0:0:0:
153,222,23610,1,0,0:0:0:0:
441,144,23660,5,4,0:0:0:0:
252,39,23710,2,0,L|234:142,1,104
234,142,23785,1,0,0:0:0:0:
234,142,23810,1,2,0:0:0:0:
465,57,23860,1,8,0:0:0:0:
420,55,23885,1,0,0:0:0:0:
380,76,23910,1,0,0:0:0:0:
355,114,23935,1,0,0:0:0:0:
353,159,23960,1,8,0:0:0:0:
424,354,24010,1,0,0:0:0:0:
441,144,24060,5,4,0:0:0:0:
304,301,24110,1,8,0:0:0:0:
506,255,24160,1,0,0:0:0:0:
231,252,24210,2,0,P|214:300|229:349,1,104
398,244,24310,1,2,0:0:0:0:
123,241,24360,1,8,0:0:0:0:
304,301,24410,1,0,0:0:0:0:
48,304,24460,5,8,0:0:0:0:
27,273,24485,1,0,0:0:0:0:
20,236,24510,1,0,0:0:0:0:
29,201,24535,1,0,0:0:0:0:
49,171,24560,1,0,0:0:0:0:
69,140,24585,1,0,0:0:0:0:
78,105,24610,1,2,0:0:0:0:
71,68,24635,1,0,0:0:0:0:
47,42,24660,5,8,0:0:0:0:
39,77,24685,1,0,0:0:0:0:
47,112,24710,1,8,0:0:0:0:
69,140,24735,1,0,0:0:0:0:
102,155,24760,1,2,0:0:0:0:
138,154,24785,1,0,0:0:0:0:
170,138,24810,1,2,0:0:0:0:
192,109,24835,1,0,0:0:0:0:
202,73,24860,5,8,0:0:0:0:
217,76,24885,1,0,0:0:0:0:
232,79,24910,1,2,0:0:0:0:
247,83,24935,1,0,0:0:0:0:
275,109,24960,5,0,0:0:0:0:
290,105,24985,1,0,0:0:0:0:
305,102,25011,1,8,0:0:0:0:
320,99,25035,1,0,0:0:0:0:
345,73,25060,5,0,0:0:0:0:
360,76,25085,1,0,0:0:0:0:
375,79,25110,1,2,0:0:0:0:
390,83,25135,1,0,0:0:0:0:
418,109,25160,5,8,0:0:0:0:
433,105,25185,1,0,0:0:0:0:
448,102,25210,1,2,0:0:0:0:
463,99,25235,1,0,0:0:0:0:
478,96,25260,5,8,0:0:0:0:
294,307,25310,1,2,0:0:0:0:
475,260,25360,1,2,0:0:0:0:
193,147,25410,5,8,0:0:0:0:
375,193,25461,1,2,0:0:0:0:
92,305,25510,1,2,0:0:0:0:
286,71,25560,5,8,0:0:0:0:
241,372,25610,1,8,0:0:0:0:
90,95,25660,5,2,0:0:0:0:
96,80,25685,1,0,0:0:0:0:
102,65,25710,1,0,0:0:0:0:
108,50,25735,1,0,0:0:0:0:
114,35,25760,5,8,0:0:0:0:
122,70,25785,1,0,0:0:0:0:
130,105,25810,1,0,0:0:0:0:
139,140,25835,1,0,0:0:0:0:
148,175,25860,5,4,0:0:0:0:
181,133,25885,1,0,0:0:0:0:
231,121,25910,1,0,0:0:0:0:
280,136,25935,1,0,0:0:0:0:
315,173,25960,1,0,0:0:0:0:
350,211,25985,1,0,0:0:0:0:
399,226,26010,1,0,0:0:0:0:
449,212,26036,1,0,0:0:0:0:
480,171,26060,6,0,P|381:179|342:310,1,234
512,341,26210,1,2,0:0:0:0:
288,384,26260,1,8,0:0:0:0:
438,267,26310,1,2,0:0:0:0:
214,310,26360,1,8,0:0:0:0:
364,193,26410,1,2,0:0:0:0:
142,365,26460,6,0,P|123:310|142:255,1,117
301,119,26560,1,2,0:0:0:0:
329,327,26610,2,0,L|214:310,1,117
76,158,26710,1,2,0:0:0:0:
261,222,26760,1,8,0:0:0:0:
56,345,26810,1,2,0:0:0:0:
0,132,26860,6,0,B|80:119|80:119|148:144|148:144|227:132,1,234
404,103,27010,1,2,0:0:0:0:
164,20,27061,1,8,0:0:0:0:
261,222,27110,1,2,0:0:0:0:
348,31,27160,1,8,0:0:0:0:
167,207,27210,1,2,0:0:0:0:
468,157,27260,6,0,P|486:102|467:48,1,117
295,310,27360,1,2,0:0:0:0:
460,256,27410,2,0,P|411:227|354:233,1,117
200,297,27511,1,2,0:0:0:0:
390,323,27560,1,8,0:0:0:0:
227,131,27610,1,2,0:0:0:0:
162,372,27660,5,8,0:0:0:0:
203,383,27685,1,0,0:0:0:0:
245,371,27710,1,2,0:0:0:0:
276,340,27735,1,0,0:0:0:0:
286,299,27760,2,0,P|281:265|261:234,1,58.5
133,113,27810,5,2,0:0:0:0:
200,297,27860,1,0,0:0:0:0:
386,228,27910,1,2,0:0:0:0:
259,170,27960,1,8,0:0:0:0:
328,354,28010,1,8,0:0:0:0:
444,102,28060,5,12,0:0:0:0:
444,102,28086,1,0,0:0:0:0:
444,102,28110,2,0,L|468:177,1,58.5
368,283,28160,2,0,L|385:227,1,58.5
317,58,28210,2,0,L|341:133,1,58.5
241,239,28260,1,0,0:0:0:0:
241,239,28285,1,0,0:0:0:0:
241,239,28310,2,0,L|258:183,1,58.5
190,14,28360,2,0,L|207:69,1,58.5
114,195,28410,2,0,L|131:139,1,58.5
57,15,28460,5,4,0:0:0:0:
64,37,28485,1,0,0:0:0:0:
71,60,28510,1,0,0:0:0:0:
78,82,28536,1,0,0:0:0:0:
85,105,28560,1,8,0:0:0:0:
93,128,28585,1,0,0:0:0:0:
100,150,28610,1,0,0:0:0:0:
107,173,28635,1,0,0:0:0:0:
114,195,28660,1,8,0:0:0:0:
121,218,28685,1,0,0:0:0:0:
128,240,28710,1,0,0:0:0:0:
135,262,28735,1,0,0:0:0:0:
142,285,28760,2,0,P|115:299|78:294,1,58.5
204,170,28810,2,0,P|232:169|258:182,1,58.5
435,376,28860,5,4,0:0:0:0:
464,339,28885,1,0,0:0:0:0:
475,294,28910,1,2,0:0:0:0:
465,249,28935,1,0,0:0:0:0:
437,212,28960,1,0,0:0:0:0:
409,175,28985,1,0,0:0:0:0:
399,130,29010,1,8,0:0:0:0:
410,85,29035,1,0,0:0:0:0:
439,49,29060,6,0,L|358:74,1,58.5
314,165,29111,2,0,L|233:190,1,58.5
460,55,29160,2,0,L|379:80,1,58.5
335,171,29210,2,0,L|254:196,1,58.5
127,331,29260,6,0,B|113:248|113:248|78:201|78:201|63:111,1,234
227,359,29410,1,2,0:0:0:0:
29,286,29460,1,8,0:0:0:0:
301,286,29510,1,2,0:0:0:0:
159,96,29561,1,8,0:0:0:0:
127,331,29610,1,2,0:0:0:0:
381,321,29660,6,0,P|384:262|353:213,1,117
256,72,29760,1,2,0:0:0:0:
192,264,29810,2,0,P|242:291|300:286,1,117
452,109,29910,1,2,0:0:0:0:
261,203,29960,1,8,0:0:0:0:
489,192,30010,1,2,0:0:0:0:
256,72,30060,6,0,P|139:59|86:155,1,234
189,151,30210,1,2,0:0:0:0:
3,87,30260,1,8,0:0:0:0:
256,72,30310,1,2,0:0:0:0:
196,259,30360,1,8,0:0:0:0:
181,6,30410,1,2,0:0:0:0:
407,119,30460,6,0,P|427:168|407:241,1,117
283,361,30560,1,2,0:0:0:0:
222,162,30610,2,0,L|338:179,1,117
106,249,30710,1,2,0:0:0:0:
256,72,30760,1,8,0:0:0:0:
275,262,30810,1,2,0:0:0:0:
64,322,30860,5,8,0:0:0:0:
33,290,30885,1,0,0:0:0:0:
23,248,30910,1,2,0:0:0:0:
34,206,30935,1,0,0:0:0:0:
64,175,30960,1,0,0:0:0:0:
173,380,31010,1,8,0:0:0:0:
173,380,31035,1,0,0:0:0:0:
173,380,31060,1,0,0:0:0:0:
222,162,31110,1,2,0:0:0:0:
277,345,31161,1,8,0:0:0:0:
318,331,31185,1,8,0:0:0:0:
347,299,31210,1,8,0:0:0:0:
358,258,31235,1,0,0:0:0:0:
348,216,31260,5,8,0:0:0:0:
256,72,31310,1,2,0:0:0:0:
275,262,31360,1,0,0:0:0:0:
378,74,31410,1,2,0:0:0:0:
170,176,31460,1,0,0:0:0:0:
438,213,31510,1,2,0:0:0:0:
318,12,31560,1,0,0:0:0:0:
180,271,31611,1,2,0:0:0:0:
477,115,31660,5,10,0:0:0:0:
448,108,31685,1,0,0:0:0:0:
419,109,31710,1,0,0:0:0:0:
391,118,31735,1,0,0:0:0:0:
367,135,31760,1,0,0:0:0:0:
349,157,31785,1,0,0:0:0:0:
337,184,31810,5,2,0:0:0:0:
377,205,31835,1,0,0:0:0:0:
395,247,31860,1,0,0:0:0:0:
382,291,31885,1,0,0:0:0:0:
344,317,31910,1,0,0:0:0:0:
298,312,31935,1,0,0:0:0:0:
266,280,31960,2,0,P|260:252|267:224,1,58.5
472,232,32010,2,0,P|478:260|471:288,1,58.5
213,379,32060,5,8,0:0:0:0:
167,370,32085,1,0,0:0:0:0:
131,341,32110,1,0,0:0:0:0:
113,298,32135,1,0,0:0:0:0:
116,252,32160,1,2,0:0:0:0:
141,213,32186,1,0,0:0:0:0:
182,190,32210,1,8,0:0:0:0:
207,151,32235,1,0,0:0:0:0:
210,105,32260,1,0,0:0:0:0:
192,62,32285,1,0,0:0:0:0:
155,33,32310,2,0,P|125:28|81:49,1,58.5
72,165,32360,2,0,P|91:142|99:114,1,58.5
0,26,32410,2,0,P|9:54|30:74,1,58.5
207,151,32460,6,0,P|255:166|304:151,1,104
427,14,32560,2,0,L|466:123,1,104
256,360,32660,2,0,L|256:248,1,104
85,14,32760,2,0,L|46:123,1,104
339,216,32860,6,0,P|255:165|172:219,1,208
119,347,33010,1,8,0:0:0:0:
28,211,33060,1,0,0:0:0:0:
256,256,33110,1,2,0:0:0:0:
39,201,33160,1,10,0:0:0:0:
130,337,33211,1,0,0:0:0:0:
112,55,33260,6,0,B|167:32|167:32|314:95,1,208
333,308,33410,1,2,0:0:0:0:
463,177,33460,2,0,L|343:193,1,104
130,337,33560,2,0,L|233:350,1,104
512,140,33661,6,0,L|303:167,1,208
459,275,33810,1,8,0:0:0:0:
432,68,33860,1,0,0:0:0:0:
333,308,33910,1,2,0:0:0:0:
234,68,33960,1,8,0:0:0:0:
234,68,33985,1,0,0:0:0:0:
234,68,34010,1,8,0:0:0:0:
234,68,34035,1,8,0:0:0:0:
234,68,34060,6,0,P|182:74|144:115,1,104
91,57,34135,1,0,0:0:0:0:
91,57,34160,2,0,P|71:103|83:153,1,104
9,175,34236,1,0,0:0:0:0:
9,175,34260,2,0,P|40:217|94:229,1,104
70,305,34335,1,0,0:0:0:0:
70,305,34360,2,0,P|120:299|157:263,1,104
256,351,34460,5,2,0:0:0:0:
267,345,34485,1,0,0:0:0:0:
279,341,34510,1,0,0:0:0:0:
292,338,34535,1,0,0:0:0:0:
305,338,34560,1,0,0:0:0:0:
318,339,34585,1,0,0:0:0:0:
331,341,34610,1,0,0:0:0:0:
343,346,34635,1,0,0:0:0:0:
354,352,34660,5,8,0:0:0:0:
371,362,34686,1,0,0:0:0:0:
389,369,34710,1,0,0:0:0:0:
408,373,34735,1,0,0:0:0:0:
428,374,34760,1,8,0:0:0:0:
447,373,34785,1,0,0:0:0:0:
466,368,34810,1,0,0:0:0:0:
484,361,34835,1,0,0:0:0:0:
501,351,34860,5,8,0:0:0:0:
462,337,34885,1,0,0:0:0:0:
432,308,34910,1,0,0:0:0:0:
415,270,34935,1,0,0:0:0:0:
415,229,34960,1,0,0:0:0:0:
430,191,34985,1,0,0:0:0:0:
460,162,35010,1,2,0:0:0:0:
481,127,35035,1,0,0:0:0:0:
483,86,35060,1,0,0:0:0:0:
464,49,35085,1,0,0:0:0:0:
430,25,35110,1,8,0:0:0:0:
389,21,35135,1,0,0:0:0:0:
352,38,35160,1,2,0:0:0:0:
326,71,35185,1,0,0:0:0:0:
320,111,35210,1,0,0:0:0:0:
333,151,35235,1,0,0:0:0:0:
366,177,35261,6,0,P|391:157|398:118,1,58.5
226,94,35310,2,0,P|196:82|158:95,1,58.5
222,250,35360,2,0,P|226:281|257:307,3,58.5
99,292,35460,2,0,P|125:309|164:307,3,58.5
53,382,35560,1,4,0:0:0:0:
458,53,35660,5,2,0:0:0:0:
172,88,35711,1,0,0:0:0:0:
419,193,35760,5,8,0:0:0:0:
153,81,35810,1,0,0:0:0:0:
308,303,35860,5,8,0:0:0:0:
133,73,35910,1,0,0:0:0:0:
458,53,35960,2,0,P|467:79|461:119,1,58.5
419,193,36010,2,0,P|402:218|367:235,1,58.5
152,311,36060,5,2,0:0:0:0:
287,96,36110,1,0,0:0:0:0:
41,201,36160,5,8,0:0:0:0:
307,89,36210,1,0,0:0:0:0:
40,44,36260,5,8,0:0:0:0:
327,81,36310,1,0,0:0:0:0:
152,311,36360,2,0,P|124:306|93:281,1,58.5
41,201,36410,2,0,P|27:174|30:135,1,58.5
40,44,36460,6,0,L|107:64,3,58.5
197,139,36560,2,0,L|141:156,3,58.5
242,43,36660,2,0,L|309:63,3,58.5
397,134,36760,2,0,L|340:150,3,58.5
448,13,36860,5,2,0:0:0:0:
414,45,36885,1,0,0:0:0:0:
396,88,36910,1,0,0:0:0:0:
397,134,36935,1,0,0:0:0:0:
415,177,36960,1,8,0:0:0:0:
448,209,36985,1,0,0:0:0:0:
466,252,37010,1,0,0:0:0:0:
467,298,37035,1,0,0:0:0:0:
449,341,37060,1,2,0:0:0:0:
414,370,37085,1,0,0:0:0:0:
369,384,37110,1,0,0:0:0:0:
323,379,37135,1,0,0:0:0:0:
282,355,37160,2,0,P|263:333|256:305,1,58.5
226,196,37210,2,0,P|254:191|282:199,1,58.5
362,275,37260,5,2,0:0:0:0:
80,207,37311,1,0,0:0:0:0:
350,123,37360,5,8,0:0:0:0:
150,335,37410,1,0,0:0:0:0:
173,26,37460,5,8,0:0:0:0:
256,305,37510,1,0,0:0:0:0:
331,67,37560,2,0,L|350:122,1,58.5
413,302,37610,2,0,L|432:246,1,58.5
488,64,37660,5,2,0:0:0:0:
236,175,37710,1,0,0:0:0:0:
477,345,37761,2,0,B|397:345|397:345|337:305|337:305|255:305,1,234
507,194,37910,1,0,0:0:0:0:
310,384,37960,1,0,0:0:0:0:
350,122,38010,1,0,0:0:0:0:
158,313,38060,6,0,P|186:236|336:250,1,234
255,305,38210,1,8,0:0:0:0:
168,121,38260,1,2,0:0:0:0:
61,321,38310,1,0,0:0:0:0:
321,232,38360,1,8,0:0:0:0:
60,143,38410,1,0,0:0:0:0:
255,305,38460,5,4,0:0:0:0:
265,306,38485,1,0,0:0:0:0:
276,307,38510,1,0,0:0:0:0:
287,310,38535,1,0,0:0:0:0:
326,330,38560,5,8,0:0:0:0:
337,331,38585,1,0,0:0:0:0:
348,334,38610,1,0,0:0:0:0:
358,335,38635,1,0,0:0:0:0:
397,355,38660,5,2,0:0:0:0:
408,357,38685,1,0,0:0:0:0:
419,359,38710,1,0,0:0:0:0:
430,361,38735,1,0,0:0:0:0:
468,381,38760,5,6,0:0:0:0:
64,76,38860,5,4,0:0:0:0:
255,305,38910,1,0,0:0:0:0:
38,245,38960,5,8,0:0:0:0:
335,272,39010,1,0,0:0:0:0:
140,384,39060,5,8,0:0:0:0:
369,193,39110,1,0,0:0:0:0:
468,381,39160,2,0,L|467:322,1,58.5
368,134,39210,2,0,L|368:227,1,58.5
370,384,39260,5,4,0:0:0:0:
141,193,39310,1,0,0:0:0:0:
471,245,39361,5,8,0:0:0:0:
174,272,39410,1,0,0:0:0:0:
446,76,39460,5,8,0:0:0:0:
255,305,39510,1,0,0:0:0:0:
77,138,39560,1,8,0:0:0:0:
100,120,39585,1,0,0:0:0:0:
127,110,39610,1,0,0:0:0:0:
156,110,39635,1,0,0:0:0:0:
184,120,39660,6,0,P|243:132|298:96,1,117
62,0,39760,1,8,0:0:0:0:
141,193,39811,1,0,0:0:0:0:
141,193,39835,1,0,0:0:0:0:
141,193,39860,1,8,0:0:0:0:
228,49,39910,1,0,0:0:0:0:
0,124,39960,1,8,0:0:0:0:
7,144,39985,1,0,0:0:0:0:
16,165,40010,1,0,0:0:0:0:
24,187,40035,1,0,0:0:0:0:
34,207,40060,6,0,P|87:180|150:199,1,117
290,273,40160,1,2,0:0:0:0:
290,105,40210,1,8,0:0:0:0:
96,260,40260,1,0,0:0:0:0:
96,260,40285,1,0,0:0:0:0:
96,260,40310,1,2,0:0:0:0:
359,350,40360,1,8,0:0:0:0:
381,356,40386,1,0,0:0:0:0:
403,362,40410,1,0,0:0:0:0:
425,368,40435,1,0,0:0:0:0:
446,373,40460,5,4,0:0:0:0:
418,344,40485,1,0,0:0:0:0:
400,308,40510,1,0,0:0:0:0:
394,267,40535,1,0,0:0:0:0:
400,226,40560,1,2,0:0:0:0:
419,189,40585,1,0,0:0:0:0:
446,158,40610,1,8,0:0:0:0:
475,130,40635,1,0,0:0:0:0:
479,89,40660,1,0,0:0:0:0:
458,53,40685,1,0,0:0:0:0:
419,40,40710,1,2,0:0:0:0:
380,53,40735,1,0,0:0:0:0:
359,88,40760,2,0,P|362:127|382:152,3,58.5
256,192,40860,5,12,0:0:0:0:
211,204,40885,1,0,0:0:0:0:
164,192,40910,1,0,0:0:0:0:
130,161,40935,1,0,0:0:0:0:
116,117,40960,1,2,0:0:0:0:
124,72,40985,1,0,0:0:0:0:
154,36,41010,5,8,0:0:0:0:
168,80,41035,1,0,0:0:0:0:
160,125,41060,1,0,0:0:0:0:
130,161,41085,1,0,0:0:0:0:
100,197,41110,1,2,0:0:0:0:
92,242,41135,1,0,0:0:0:0:
106,286,41160,2,0,L|137:363,3,58.5
256,352,41260,5,4,0:0:0:0:
306,381,41285,1,0,0:0:0:0:
363,371,41310,1,0,0:0:0:0:
399,325,41335,1,0,0:0:0:0:
395,266,41360,1,8,0:0:0:0:
353,225,41385,1,0,0:0:0:0:
293,222,41411,1,0,0:0:0:0:
251,181,41435,1,0,0:0:0:0:
247,122,41460,1,8,0:0:0:0:
283,76,41485,1,0,0:0:0:0:
340,66,41510,1,0,0:0:0:0:
390,95,41535,1,0,0:0:0:0:
414,149,41560,1,4,0:0:0:0:
472,155,41585,1,0,0:0:0:0:
509,107,41610,1,0,0:0:0:0:
481,53,41635,1,0,0:0:0:0:
424,48,41660,5,4,0:0:0:0:
390,95,41685,1,0,0:0:0:0:
335,115,41710,1,0,0:0:0:0:
279,95,41735,1,0,0:0:0:0:
246,46,41760,1,8,0:0:0:0:
190,26,41785,1,0,0:0:0:0:
135,45,41810,1,0,0:0:0:0:
102,93,41835,1,0,0:0:0:0:
105,151,41861,1,4,0:0:0:0:
142,196,41885,1,0,0:0:0:0:
198,212,41910,1,0,0:0:0:0:
226,262,41935,1,0,0:0:0:0:
215,319,41960,1,10,0:0:0:0:
167,352,41985,1,0,0:0:0:0:
109,342,42010,1,10,0:0:0:0:
71,296,42035,1,0,0:0:0:0:
81,238,42060,5,8,0:0:0:0:
190,26,42110,1,8,0:0:0:0:
226,262,42160,1,2,0:0:0:0:
60,95,42210,1,2,0:0:0:0:
290,132,42260,1,8,0:0:0:0:
344,145,42285,1,0,0:0:0:0:
382,189,42310,1,0,0:0:0:0:
392,245,42335,1,0,0:0:0:0:
364,297,42360,5,8,0:0:0:0:
340,228,42385,1,0,0:0:0:0:
361,158,42410,1,0,0:0:0:0:
418,113,42436,1,0,0:0:0:0:
489,108,42460,5,8,0:0:0:0:
103,20,42560,5,8,0:0:0:0:
256,384,42660,5,8,0:0:0:0:
409,20,42760,5,8,0:0:0:0:
65,208,42860,6,0,P|79:264|124:299,1,117
327,345,42960,1,0,0:0:0:0:
257,156,43010,2,0,L|155:215,1,117
434,304,43110,1,8,0:0:0:0:
354,116,43160,1,2,0:0:0:0:
352,145,43185,1,0,0:0:0:0:
350,174,43210,1,0,0:0:0:0:
348,203,43235,1,0,0:0:0:0:
346,232,43260,6,0,L|448:173,1,117
362,0,43360,1,2,0:0:0:0:
257,156,43410,2,0,L|155:97,1,117
154,288,43510,1,8,0:0:0:0:
207,23,43560,1,2,0:0:0:0:
167,7,43585,1,0,0:0:0:0:
123,12,43610,1,0,0:0:0:0:
87,36,43635,1,0,0:0:0:0:
67,74,43660,6,0,L|66:191,1,117
271,273,43760,1,0,0:0:0:0:
33,299,43810,1,8,0:0:0:0:
43,322,43835,1,0,0:0:0:0:
52,346,43860,2,0,L|153:288,1,117
416,138,43960,1,2,0:0:0:0:
374,154,43985,1,0,0:0:0:0:
348,188,44010,1,0,0:0:0:0:
341,232,44035,1,0,0:0:0:0:
351,275,44060,6,0,P|313:203|237:196,1,117
119,154,44160,1,2,0:0:0:0:
311,353,44210,2,0,P|391:356|435:294,1,117
512,188,44310,1,8,0:0:0:0:
263,279,44360,1,2,0:0:0:0:
253,302,44385,1,0,0:0:0:0:
244,326,44410,1,0,0:0:0:0:
235,350,44435,1,0,0:0:0:0:
225,374,44460,6,0,L|124:315,1,117
43,169,44560,1,0,0:0:0:0:
263,279,44610,2,0,L|363:220,1,117
444,69,44710,1,8,0:0:0:0:
224,179,44760,2,0,L|123:120,1,117
375,131,44860,5,2,0:0:0:0:
415,146,44885,1,0,0:0:0:0:
444,179,44910,1,8,0:0:0:0:
453,221,44936,1,0,0:0:0:0:
442,263,44960,2,0,P|390:305|321:299,1,117
59,228,45060,1,2,0:0:0:0:
65,244,45085,1,0,0:0:0:0:
71,260,45110,1,8,0:0:0:0:
77,276,45135,1,0,0:0:0:0:
114,294,45160,1,2,0:0:0:0:
120,310,45185,1,0,0:0:0:0:
126,326,45210,1,0,0:0:0:0:
132,342,45235,1,2,0:0:0:0:
145,377,45260,6,0,P|197:335|266:341,1,117
433,371,45360,1,2,0:0:0:0:
240,120,45410,2,0,P|245:177|284:220,1,117
479,276,45511,1,8,0:0:0:0:
430,80,45560,1,2,0:0:0:0:
421,87,45585,1,0,0:0:0:0:
412,94,45610,1,0,0:0:0:0:
403,101,45635,1,0,0:0:0:0:
393,107,45660,5,4,0:0:0:0:
375,85,45685,1,0,0:0:0:0:
351,68,45710,1,8,0:0:0:0:
324,58,45735,1,0,0:0:0:0:
295,54,45760,1,2,0:0:0:0:
266,57,45785,1,0,0:0:0:0:
238,68,45810,1,8,0:0:0:0:
215,85,45835,1,0,0:0:0:0:
195,107,45860,5,2,0:0:0:0:
165,137,45885,1,0,0:0:0:0:
123,144,45910,1,8,0:0:0:0:
84,124,45935,1,8,0:0:0:0:
65,85,45961,1,8,0:0:0:0:
71,42,45985,1,8,0:0:0:0:
103,14,46010,1,8,0:0:0:0:
145,8,46035,1,0,0:0:0:0:
182,27,46060,6,0,B|221:69|221:69|222:163,1,117
135,302,46160,2,0,B|151:247|151:247|232:199,1,117
397,206,46260,1,0,0:0:0:0:
421,231,46285,1,0,0:0:0:0:
445,256,46310,1,8,0:0:0:0:
425,284,46335,1,0,0:0:0:0:
406,313,46360,1,2,0:0:0:0:
202,216,46410,1,0,0:0:0:0:
41,363,46460,6,0,P|18:310|38:257,1,117
109,63,46560,1,2,0:0:0:0:
131,41,46585,1,0,0:0:0:0:
160,29,46610,1,8,0:0:0:0:
192,30,46635,1,0,0:0:0:0:
220,44,46660,1,2,0:0:0:0:
240,69,46685,1,0,0:0:0:0:
248,100,46710,1,8,0:0:0:0:
243,131,46735,1,0,0:0:0:0:
225,158,46760,1,0,0:0:0:0:
197,175,46785,1,0,0:0:0:0:
166,178,46810,1,8,0:0:0:0:
135,169,46835,1,0,0:0:0:0:
111,147,46860,5,2,0:0:0:0:
147,118,46885,1,0,0:0:0:0:
193,109,46910,1,8,0:0:0:0:
237,121,46935,1,0,0:0:0:0:
272,152,46960,1,0,0:0:0:0:
292,195,46986,1,0,0:0:0:0:
308,238,47010,1,8,0:0:0:0:
342,269,47035,1,0,0:0:0:0:
387,281,47060,1,2,0:0:0:0:
433,271,47085,1,0,0:0:0:0:
468,242,47110,1,0,0:0:0:0:
487,200,47135,1,0,0:0:0:0:
484,153,47160,1,2,0:0:0:0:
461,114,47185,1,0,0:0:0:0:
422,89,47210,1,0,0:0:0:0:
375,84,47235,1,0,0:0:0:0:
332,102,47260,5,2,0:0:0:0:
344,123,47285,1,0,0:0:0:0:
357,144,47310,1,8,0:0:0:0:
369,165,47335,1,0,0:0:0:0:
382,186,47360,1,0,0:0:0:0:
395,207,47385,1,0,0:0:0:0:
407,228,47410,1,8,0:0:0:0:
420,249,47435,1,0,0:0:0:0:
432,270,47460,2,0,L|372:270,3,58.5
324,362,47561,2,0,L|264:362,3,58.5
106,374,47660,5,4,0:0:0:0:
68,344,47685,1,0,0:0:0:0:
56,299,47710,1,8,0:0:0:0:
70,254,47735,1,0,0:0:0:0:
107,227,47760,1,0,0:0:0:0:
144,200,47785,1,0,0:0:0:0:
158,155,47810,1,8,0:0:0:0:
146,110,47835,1,0,0:0:0:0:
108,80,47860,2,0,L|-31:124,1,117
258,34,47960,1,0,0:0:0:0:
226,241,48011,1,8,0:0:0:0:
226,241,48035,1,0,0:0:0:0:
226,241,48060,6,0,L|365:285,1,117
376,47,48160,1,2,0:0:0:0:
350,81,48185,1,0,0:0:0:0:
342,124,48210,1,0,0:0:0:0:
357,165,48235,1,0,0:0:0:0:
389,194,48260,1,8,0:0:0:0:
419,225,48285,1,0,0:0:0:0:
433,265,48310,1,2,0:0:0:0:
427,308,48335,1,0,0:0:0:0:
401,344,48360,2,0,P|377:360|335:369,1,58.5
423,117,48410,2,0,P|450:125|474:142,1,58.5
337,276,48460,5,2,0:0:0:0:
300,292,48485,1,0,0:0:0:0:
259,293,48510,1,8,0:0:0:0:
220,279,48535,1,0,0:0:0:0:
192,248,48560,1,0,0:0:0:0:
164,217,48586,1,0,0:0:0:0:
125,203,48610,1,8,0:0:0:0:
84,203,48635,1,0,0:0:0:0:
47,220,48660,1,2,0:0:0:0:
86,235,48685,1,0,0:0:0:0:
127,234,48710,1,0,0:0:0:0:
164,217,48735,1,0,0:0:0:0:
190,186,48760,2,0,P|205:157|200:118,1,58.5
89,27,48810,2,0,P|106:54|142:69,1,58.5
335,145,48860,5,10,0:0:0:0:
382,141,48885,1,0,0:0:0:0:
419,111,48910,1,0,0:0:0:0:
429,65,48935,1,0,0:0:0:0:
410,23,48960,1,10,0:0:0:0:
369,0,48985,1,0,0:0:0:0:
323,7,49010,1,0,0:0:0:0:
290,38,49036,1,0,0:0:0:0:
282,84,49060,1,10,0:0:0:0:
309,135,49085,1,0,0:0:0:0:
337,186,49110,1,0,0:0:0:0:
365,236,49135,1,0,0:0:0:0:
393,286,49160,2,0,L|323:258,1,58.5
458,189,49210,2,0,L|505:154,1,58.5
305,337,49260,6,0,P|266:296|265:239,1,117
355,76,49360,1,0,0:0:0:0:
332,359,49410,2,0,P|276:372|227:344,1,117
130,185,49510,1,8,0:0:0:0:
71,384,49560,1,0,0:0:0:0:
71,384,49585,1,0,0:0:0:0:
71,384,49611,1,8,0:0:0:0:
71,384,49635,1,0,0:0:0:0:
71,384,49660,6,0,P|48:326|63:269,1,117
201,106,49760,1,0,0:0:0:0:
138,321,49810,1,8,0:0:0:0:
268,43,49860,2,0,P|291:101|276:158,1,117
59,274,49960,1,0,0:0:0:0:
90,243,49985,1,0,0:0:0:0:
131,230,50010,1,8,0:0:0:0:
174,237,50035,1,0,0:0:0:0:
208,264,50061,6,0,P|262:280|316:259,1,117
416,100,50160,1,0,0:0:0:0:
174,237,50210,2,0,P|186:292|231:328,1,117
420,335,50310,1,8,0:0:0:0:
279,152,50360,1,0,0:0:0:0:
279,152,50385,1,0,0:0:0:0:
279,152,50410,1,8,0:0:0:0:
279,152,50435,1,0,0:0:0:0:
279,152,50460,6,0,L|157:109,1,117
368,0,50560,1,0,0:0:0:0:
102,95,50610,2,0,L|224:52,1,117
0,0,50710,1,8,0:0:0:0:
63,243,50760,1,0,0:0:0:0:
69,265,50785,1,0,0:0:0:0:
75,287,50810,1,2,0:0:0:0:
81,309,50835,1,0,0:0:0:0:
88,331,50860,6,0,P|136:300|207:311,1,117
374,384,50960,1,0,0:0:0:0:
277,110,51010,2,0,P|279:167|234:223,1,117
88,331,51110,1,8,0:0:0:0:
374,384,51160,2,0,P|323:357|297:290,1,117
388,79,51260,5,4,0:0:0:0:
388,294,51310,1,8,0:0:0:0:
512,55,51360,1,0,0:0:0:0:
382,308,51410,1,8,0:0:0:0:
382,61,51460,2,0,L|382:-8,3,58.5
449,190,51560,2,0,L|508:224,3,58.5
303,183,51661,6,0,B|250:214|250:214|228:281,1,117
374,384,51760,1,2,0:0:0:0:
327,163,51810,2,0,L|204:143,1,117
0,236,51910,1,2,0:0:0:0:
17,263,51935,1,0,0:0:0:0:
45,284,51960,1,8,0:0:0:0:
80,292,51985,1,0,0:0:0:0:
114,286,52010,1,0,0:0:0:0:
144,268,52035,1,0,0:0:0:0:
168,237,52060,5,4,0:0:0:0:
169,248,52085,1,0,0:0:0:0:
170,259,52111,1,8,0:0:0:0:
171,270,52135,1,0,0:0:0:0:
172,281,52160,1,0,0:0:0:0:
173,292,52185,1,0,0:0:0:0:
174,303,52210,1,8,0:0:0:0:
175,314,52235,1,0,0:0:0:0:
177,325,52260,5,2,0:0:0:0:
201,294,52285,1,0,0:0:0:0:
231,276,52310,1,8,0:0:0:0:
265,270,52335,1,0,0:0:0:0:
300,278,52360,1,0,0:0:0:0:
328,299,52385,1,0,0:0:0:0:
345,326,52410,2,0,L|353:383,1,58.5
483,209,52460,6,0,P|424:205|377:241,1,117
261,362,52560,1,0,0:0:0:0:
261,160,52610,1,8,0:0:0:0:
481,336,52660,1,2,0:0:0:0:
500,307,52686,1,0,0:0:0:0:
508,272,52710,1,8,0:0:0:0:
502,238,52735,1,0,0:0:0:0:
483,209,52760,1,0,0:0:0:0:
464,179,52785,1,0,0:0:0:0:
457,145,52810,1,8,0:0:0:0:
465,110,52835,1,0,0:0:0:0:
485,81,52860,6,0,P|431:103|378:82,1,117
179,64,52960,2,0,P|210:57|241:67,3,58.5
134,165,53060,2,0,P|124:195|100:217,3,58.5
71,85,53160,2,0,P|49:61|42:29,3,58.5
18,232,53260,5,4,0:0:0:0:
38,273,53285,1,0,0:0:0:0:
76,299,53310,1,8,0:0:0:0:
122,304,53335,1,0,0:0:0:0:
165,285,53360,1,0,0:0:0:0:
193,248,53385,1,0,0:0:0:0:
220,211,53410,1,8,0:0:0:0:
262,190,53435,1,0,0:0:0:0:
308,192,53460,1,2,0:0:0:0:
348,216,53485,1,0,0:0:0:0:
372,255,53510,1,8,0:0:0:0:
375,301,53535,1,0,0:0:0:0:
355,343,53560,1,2,0:0:0:0:
318,371,53585,1,0,0:0:0:0:
273,379,53610,1,8,0:0:0:0:
229,363,53635,1,0,0:0:0:0:
198,329,53660,5,2,0:0:0:0:
234,300,53685,1,0,0:0:0:0:
279,290,53710,1,8,0:0:0:0:
324,300,53735,1,8,0:0:0:0:
361,329,53760,1,8,0:0:0:0:
405,339,53785,1,0,0:0:0:0:
450,329,53810,1,8,0:0:0:0:
487,300,53835,1,0,0:0:0:0:
508,258,53860,5,0,0:0:0:0:
370,86,53910,1,0,0:0:0:0:
405,235,53960,1,2,0:0:0:0:
473,109,54010,1,2,0:0:0:0:
302,212,54060,6,0,P|201:212|161:128,1,195
276,17,54260,2,0,B|290:57|290:57|252:137,1,130
98,203,54410,1,0,0:0:0:0:
98,203,54460,6,0,B|78:143|78:143|90:76|90:76|70:15,1,195
159,136,54660,2,0,P|68:116|9:187,1,195
26,335,54860,6,0,P|49:333|32:317,1,58.5
97,203,54910,2,0,P|99:226|115:209,1,58.5
164,340,54960,6,0,P|162:317|145:333,1,58.5
222,191,55010,2,0,P|245:189|228:173,1,58.5
293,326,55060,6,0,P|270:327|287:343,1,58.5
346,133,55110,2,0,P|344:110|328:127,1,58.5
405,323,55160,6,0,P|407:346|422:328,1,58.5
440,36,55210,2,0,P|417:38|434:54,1,58.5
512,336,55260,5,8,0:0:0:0:
72,36,55360,1,8,0:0:0:0:
44,341,55460,5,8,0:0:0:0:
440,36,55560,1,8,0:0:0:0:
133,237,55660,5,4,0:0:0:0:
319,268,55710,1,8,0:0:0:0:
346,234,55735,1,0,0:0:0:0:
355,192,55760,1,0,0:0:0:0:
346,150,55785,1,0,0:0:0:0:
319,115,55810,1,8,0:0:0:0:
133,237,55860,1,0,0:0:0:0:
203,15,55910,1,8,0:0:0:0:
203,15,55935,1,0,0:0:0:0:
203,15,55960,1,0,0:0:0:0:
266,191,56010,1,8,0:0:0:0:
23,62,56060,5,2,0:0:0:0:
28,96,56085,1,2,0:0:0:0:
34,131,56110,1,8,0:0:0:0:
40,165,56135,1,0,0:0:0:0:
45,200,56160,1,0,0:0:0:0:
232,325,56211,1,8,0:0:0:0:
154,113,56260,1,0,0:0:0:0:
92,328,56310,1,8,0:0:0:0:
92,328,56335,1,0,0:0:0:0:
92,328,56360,1,0,0:0:0:0:
266,191,56410,1,8,0:0:0:0:
439,328,56461,5,2,0:0:0:0:
460,300,56485,1,2,0:0:0:0:
469,266,56510,1,8,0:0:0:0:
461,233,56535,1,0,0:0:0:0:
440,204,56560,1,0,0:0:0:0:
266,341,56610,1,8,0:0:0:0:
301,88,56660,1,0,0:0:0:0:
384,265,56710,1,8,0:0:0:0:
131,230,56760,1,0,0:0:0:0:
408,105,56810,1,8,0:0:0:0:
114,36,56860,5,0,0:0:0:0:
109,52,56885,1,0,0:0:0:0:
104,68,56910,1,8,0:0:0:0:
99,85,56935,1,0,0:0:0:0:
78,115,56960,5,0,0:0:0:0:
86,142,56985,1,0,0:0:0:0:
94,169,57010,1,8,0:0:0:0:
103,196,57035,1,0,0:0:0:0:
131,230,57060,5,2,0:0:0:0:
121,260,57085,1,0,0:0:0:0:
112,291,57110,1,8,0:0:0:0:
102,322,57135,1,0,0:0:0:0:
65,359,57160,5,2,0:0:0:0:
105,352,57185,1,0,0:0:0:0:
145,345,57210,1,0,0:0:0:0:
185,338,57236,1,0,0:0:0:0:
225,331,57260,5,4,0:0:0:0:
277,169,57310,1,8,0:0:0:0:
359,374,57360,1,0,0:0:0:0:
268,147,57410,1,8,0:0:0:0:
448,274,57460,5,0,0:0:0:0:
225,331,57510,1,8,0:0:0:0:
473,268,57560,1,0,0:0:0:0:
154,217,57610,1,8,0:0:0:0:
373,77,57660,5,2,0:0:0:0:
369,100,57685,1,2,0:0:0:0:
365,123,57710,1,8,0:0:0:0:
361,146,57735,1,0,0:0:0:0:
358,169,57760,1,0,0:0:0:0:
284,8,57811,1,8,0:0:0:0:
473,166,57860,1,0,0:0:0:0:
227,149,57910,1,8,0:0:0:0:
437,18,57960,1,0,0:0:0:0:
345,248,58010,1,8,0:0:0:0:
90,128,58060,5,4,0:0:0:0:
124,113,58085,1,0,0:0:0:0:
162,112,58110,1,8,0:0:0:0:
197,124,58135,1,0,0:0:0:0:
227,149,58160,1,0,0:0:0:0:
283,357,58210,1,8,0:0:0:0:
145,205,58261,1,2,0:0:0:0:
145,205,58285,1,0,0:0:0:0:
145,205,58310,1,8,0:0:0:0:
365,301,58360,1,8,0:0:0:0:
381,308,58385,1,0,0:0:0:0:
397,315,58410,1,0,0:0:0:0:
413,322,58435,1,0,0:0:0:0:
429,329,58460,6,0,L|445:395,1,58.5
329,238,58510,2,0,L|345:304,1,58.5
227,149,58560,2,0,L|243:215,1,58.5
127,58,58610,2,0,L|143:124,1,58.5
127,315,58660,6,0,L|140:258,1,58.5
273,21,58710,2,0,L|288:87,1,58.5
442,384,58760,2,0,L|414:270,1,117
67,0,58860,5,2,0:0:0:0:
35,41,58885,1,0,0:0:0:0:
23,92,58910,1,2,0:0:0:0:
35,143,58935,1,0,0:0:0:0:
67,184,58960,1,2,0:0:0:0:
99,225,58985,1,0,0:0:0:0:
111,276,59010,1,2,0:0:0:0:
99,327,59035,1,0,0:0:0:0:
64,367,59060,5,8,0:0:0:0:
53,316,59085,1,0,0:0:0:0:
66,265,59110,1,8,0:0:0:0:
99,225,59135,1,0,0:0:0:0:
146,202,59160,1,8,0:0:0:0:
198,202,59185,1,0,0:0:0:0:
245,179,59210,1,8,0:0:0:0:
278,139,59235,1,0,0:0:0:0:
291,88,59260,5,0,0:0:0:0:
319,134,59285,1,0,0:0:0:0:
370,148,59310,1,2,0:0:0:0:
416,121,59335,1,0,0:0:0:0:
429,71,59360,1,2,0:0:0:0:
403,25,59385,1,0,0:0:0:0:
353,10,59410,1,2,0:0:0:0:
307,38,59435,1,0,0:0:0:0:
291,88,59460,5,8,0:0:0:0:
310,136,59485,1,0,0:0:0:0:
355,161,59510,1,8,0:0:0:0:
406,169,59535,1,0,0:0:0:0:
446,202,59560,1,8,0:0:0:0:
460,252,59585,1,0,0:0:0:0:
437,299,59610,1,8,0:0:0:0:
391,324,59635,1,0,0:0:0:0:
339,314,59660,5,2,0:0:0:0:
305,355,59685,1,0,0:0:0:0:
255,370,59710,1,2,0:0:0:0:
204,356,59735,1,0,0:0:0:0:
171,313,59760,1,2,0:0:0:0:
138,270,59785,1,0,0:0:0:0:
87,256,59810,1,2,0:0:0:0:
36,270,59835,1,0,0:0:0:0:
3,312,59861,5,8,0:0:0:0:
54,326,59885,1,0,0:0:0:0:
105,312,59910,1,8,0:0:0:0:
138,270,59935,1,0,0:0:0:0:
157,221,59960,1,8,0:0:0:0:
144,169,59985,1,0,0:0:0:0:
110,127,60010,1,8,0:0:0:0:
61,107,60035,1,0,0:0:0:0:
9,117,60060,6,0,B|9:157|9:157|19:171,1,58.5
119,47,60110,2,0,B|127:20|127:20|149:0,1,58.5
254,154,60160,2,0,B|227:148|227:148|208:123,1,58.5
285,15,60210,2,0,B|310:2|310:2|340:2,1,58.5
472,32,60260,6,0,B|504:102|454:163|454:163|496:211|496:211|441:281|499:356,1,351
47,294,60460,5,2,0:0:0:0:
49,240,60485,1,0,0:0:0:0:
85,202,60510,1,2,0:0:0:0:
138,195,60535,1,0,0:0:0:0:
182,224,60560,1,2,0:0:0:0:
197,275,60585,1,0,0:0:0:0:
176,323,60610,1,2,0:0:0:0:
130,347,60635,1,0,0:0:0:0:
78,335,60660,5,8,0:0:0:0:
86,283,60685,1,0,0:0:0:0:
116,241,60710,1,8,0:0:0:0:
163,219,60735,1,0,0:0:0:0:
215,221,60760,1,8,0:0:0:0:
266,222,60785,1,0,0:0:0:0:
313,200,60810,1,8,0:0:0:0:
344,158,60835,1,0,0:0:0:0:
353,106,60860,5,2,0:0:0:0:
307,129,60886,1,0,0:0:0:0:
275,170,60910,1,2,0:0:0:0:
266,222,60935,1,0,0:0:0:0:
280,272,60960,1,2,0:0:0:0:
315,310,60985,1,0,0:0:0:0:
364,328,61010,1,2,0:0:0:0:
416,323,61035,1,0,0:0:0:0:
460,295,61060,5,8,0:0:0:0:
411,277,61085,1,0,0:0:0:0:
359,282,61110,1,8,0:0:0:0:
315,310,61135,1,0,0:0:0:0:
290,356,61160,1,12,0:0:0:0:
123,28,61260,5,8,0:0:0:0:
106,56,61285,1,0,0:0:0:0:
100,88,61310,1,0,0:0:0:0:
105,119,61335,1,0,0:0:0:0:
122,148,61360,1,0,0:0:0:0:
390,148,61410,5,8,0:0:0:0:
407,119,61435,1,0,0:0:0:0:
412,88,61460,1,0,0:0:0:0:
406,56,61485,1,0,0:0:0:0:
389,28,61510,1,0,0:0:0:0:
255,346,61560,5,4,0:0:0:0:
256,80,61610,1,4,0:0:0:0:
149,366,61710,5,8,0:0:0:0:
31,236,61760,1,8,0:0:0:0:
202,271,61810,1,8,0:0:0:0:
42,341,61860,1,8,0:0:0:0:
130,191,61910,1,8,0:0:0:0:
149,366,61960,1,4,0:0:0:0:
31,236,62010,1,8,0:0:0:0:
202,271,62060,6,0,B|253:247|317:264|317:264|385:217|365:145|304:130|259:160|248:226|317:264|317:264|372:275|410:239|410:239|425:292|469:315,1,585
388,361,62460,6,0,B|349:283|399:221|471:225|471:225|432:133|432:133|432:60|487:49|531:75|527:135|495:161|432:133|432:133|407:77|340:69,1,624
339,0,62860,6,0,B|271:37|295:108|295:108|257:72|211:53|211:53|244:135|188:192|127:208|56:191|28:124|37:76|61:36,1,585
132,91,63260,5,4,0:0:0:0:
425,268,63360,5,8,0:0:0:0:
512,366,63410,1,8,0:0:0:0:
302,317,63460,1,4,0:0:0:0:
87,268,63560,5,8,0:0:0:0:
0,366,63610,1,8,0:0:0:0:
210,317,63660,6,0,B|215:228|317:191|380:267|380:267|350:196|357:122|357:122|410:175|471:170|519:120|517:66,1,585
429,68,64060,6,0,B|446:150|446:150|493:197|493:197|510:279,2,234
281,68,64460,6,0,B|264:150|264:150|217:197|217:197|200:279,2,234
181,105,64810,1,8,0:0:0:0:
181,105,64860,6,0,L|105:89,1,78
90,190,64960,2,0,L|13:173,1,78
16,304,65060,1,0,0:0:0:0:
22,318,65085,1,0,0:0:0:0:
28,332,65110,1,0,0:0:0:0:
34,346,65135,1,0,0:0:0:0:
40,360,65160,2,0,L|116:343,1,78
301,302,65260,6,0,L|196:278,1,104
372,155,65360,1,8,0:0:0:0:
318,326,65410,2,0,L|213:302,1,104
389,179,65510,1,2,0:0:0:0:
335,350,65560,2,0,L|230:326,1,104
90,190,65660,6,0,L|191:166,1,104
46,300,65760,1,8,0:0:0:0:
134,80,65810,1,0,0:0:0:0:
264,198,65860,1,0,0:0:0:0:
44,110,65910,1,2,0:0:0:0:
264,22,65960,1,8,0:0:0:0:
157,256,66011,1,0,0:0:0:0:
377,168,66060,6,0,P|402:222|390:273,1,104
255,373,66160,1,8,0:0:0:0:
290,143,66210,2,0,P|324:94|374:79,1,104
512,150,66310,1,2,0:0:0:0:
312,231,66360,2,0,P|252:225|214:189,1,104
127,32,66461,5,2,0:0:0:0:
57,211,66510,1,0,0:0:0:0:
219,197,66560,5,8,0:0:0:0:
40,127,66610,1,8,0:0:0:0:
220,66,66660,5,0,0:0:0:0:
150,245,66710,1,0,0:0:0:0:
312,231,66760,5,4,0:0:0:0:
133,161,66810,1,0,0:0:0:0:
363,298,66860,6,0,P|394:248|380:180,1,110.5
337,21,66960,1,8,0:0:0:0:
239,157,67010,2,0,P|263:205|311:230,1,110.5
493,274,67110,1,2,0:0:0:0:
423,120,67160,2,0,P|369:116|323:145,1,110.5
178,336,67260,6,0,P|232:339|277:309,1,110.5
65,176,67360,1,8,0:0:0:0:
281,367,67410,2,0,P|311:321|308:267,1,110.5
65,148,67510,1,2,0:0:0:0:
359,293,67560,2,0,P|334:244|286:219,1,110.5
65,120,67660,5,4,0:0:0:0:
185,329,67710,1,0,0:0:0:0:
211,88,67760,1,8,0:0:0:0:
47,268,67810,1,0,0:0:0:0:
286,219,67860,1,0,0:0:0:0:
65,120,67910,1,2,0:0:0:0:
185,329,67960,2,0,L|303:353,1,110.5
499,177,68061,6,0,L|381:201,1,110.5
116,347,68160,2,0,L|234:371,1,110.5
372,98,68260,5,8,0:0:0:0:
333,112,68285,1,0,0:0:0:0:
303,140,68310,1,8,0:0:0:0:
287,178,68335,1,0,0:0:0:0:
286,219,68360,1,8,0:0:0:0:
302,257,68385,1,0,0:0:0:0:
331,286,68410,1,0,0:0:0:0:
370,301,68435,1,0,0:0:0:0:
411,300,68460,5,2,0:0:0:0:
181,238,68511,2,0,L|72:260,1,110.5
390,199,68610,2,0,L|499:177,1,110.5
181,112,68710,1,2,0:0:0:0:
286,219,68760,1,8,0:0:0:0:
348,2,68810,1,0,0:0:0:0:
73,116,68860,5,2,0:0:0:0:
233,45,68910,2,0,P|261:90|256:151,1,110.5
98,360,69010,2,0,P|69:314|74:253,1,110.5
181,112,69110,1,2,0:0:0:0:
150,293,69160,1,8,0:0:0:0:
42,39,69210,1,8,0:0:0:0:
157,310,69260,5,2,0:0:0:0:
99,174,69310,2,0,P|44:171|0:201,1,110.5
231,365,69410,2,0,P|285:367|330:337,1,110.5
450,174,69510,1,2,0:0:0:0:
262,280,69560,1,8,0:0:0:0:
512,280,69610,1,0,0:0:0:0:
200,174,69660,5,2,0:0:0:0:
486,271,69710,1,0,0:0:0:0:
479,103,69760,5,8,0:0:0:0:
381,384,69810,1,0,0:0:0:0:
282,102,69860,1,2,0:0:0:0:
249,77,69885,1,0,0:0:0:0:
210,65,69910,1,8,0:0:0:0:
169,69,69935,1,8,0:0:0:0:
132,88,69960,1,8,0:0:0:0:
105,119,69985,1,0,0:0:0:0:
92,158,70010,1,8,0:0:0:0:
94,199,70035,1,0,0:0:0:0:
111,237,70060,5,2,0:0:0:0:
382,135,70111,2,0,L|330:-6,1,110.5
211,270,70210,2,0,L|172:373,1,110.5
105,119,70310,1,2,0:0:0:0:
364,214,70360,1,8,0:0:0:0:
364,214,70385,1,0,0:0:0:0:
364,214,70410,1,8,0:0:0:0:
53,274,70460,5,2,0:0:0:0:
136,31,70510,2,0,P|67:37|23:77,1,110.5
294,272,70610,2,0,P|340:301|395:302,1,110.5
343,31,70710,1,2,0:0:0:0:
211,270,70760,1,8,0:0:0:0:
211,270,70785,1,0,0:0:0:0:
211,270,70810,1,8,0:0:0:0:
482,159,70860,5,2,0:0:0:0:
243,27,70910,2,0,B|217:76|217:76|223:130,1,110.5
481,286,71010,2,0,B|450:238|450:238|400:216,1,110.5
135,364,71110,1,2,0:0:0:0:
394,302,71160,1,8,0:0:0:0:
394,302,71185,1,0,0:0:0:0:
394,302,71210,1,8,0:0:0:0:
116,192,71260,5,2,0:0:0:0:
140,384,71310,1,8,0:0:0:0:
223,130,71360,5,8,0:0:0:0:
9,254,71410,1,8,0:0:0:0:
257,353,71460,1,2,0:0:0:0:
280,319,71485,1,0,0:0:0:0:
288,279,71510,1,8,0:0:0:0:
280,239,71535,1,8,0:0:0:0:
256,204,71560,1,8,0:0:0:0:
232,170,71586,1,0,0:0:0:0:
223,130,71610,1,8,0:0:0:0:
232,89,71635,1,0,0:0:0:0:
255,55,71660,5,2,0:0:0:0:
193,279,71710,2,0,P|137:295|81:280,1,117
317,131,71810,2,0,P|372:114|428:129,1,117
431,362,71910,1,2,0:0:0:0:
421,335,71935,1,0,0:0:0:0:
411,309,71960,1,8,0:0:0:0:
402,284,71985,1,0,0:0:0:0:
392,257,72010,1,8,0:0:0:0:
384,232,72035,1,0,0:0:0:0:
374,205,72060,5,2,0:0:0:0:
257,343,72110,2,0,L|144:384,1,117
26,157,72210,2,0,L|136:197,1,117
352,66,72310,1,2,0:0:0:0:
319,54,72335,1,0,0:0:0:0:
287,42,72360,1,8,0:0:0:0:
255,31,72385,1,0,0:0:0:0:
224,43,72410,1,8,0:0:0:0:
192,55,72435,1,0,0:0:0:0:
160,67,72460,5,2,0:0:0:0:
392,147,72510,2,0,P|440:88|438:37,1,117
135,196,72611,2,0,P|143:252|184:293,1,117
475,344,72710,1,2,0:0:0:0:
454,311,72735,1,0,0:0:0:0:
422,289,72760,1,8,0:0:0:0:
384,282,72785,1,0,0:0:0:0:
346,290,72810,1,8,0:0:0:0:
314,312,72835,1,0,0:0:0:0:
294,345,72860,5,2,0:0:0:0:
392,147,72910,1,8,0:0:0:0:
385,381,72960,1,0,0:0:0:0:
251,160,73010,1,8,0:0:0:0:
480,227,73060,5,2,0:0:0:0:
184,293,73110,1,8,0:0:0:0:
496,223,73160,1,2,0:0:0:0:
233,155,73210,1,8,0:0:0:0:
512,219,73260,5,2,0:0:0:0:
416,32,73310,2,0,L|386:171,1,117
89,200,73410,2,0,L|114:86,1,117
299,269,73510,1,2,0:0:0:0:
260,277,73535,1,0,0:0:0:0:
222,285,73560,1,8,0:0:0:0:
184,293,73585,1,0,0:0:0:0:
146,301,73610,1,8,0:0:0:0:
108,309,73636,1,0,0:0:0:0:
70,318,73660,5,2,0:0:0:0:
366,304,73710,2,0,P|372:247|337:202,1,117
2,282,73810,2,0,P|-3:338|31:384,1,117
137,115,73910,1,2,0:0:0:0:
200,349,73960,1,8,0:0:0:0:
200,349,73985,1,0,0:0:0:0:
200,349,74010,2,0,L|182:287,1,58.5
63,61,74060,5,2,0:0:0:0:
78,46,74085,1,0,0:0:0:0:
96,34,74110,1,8,0:0:0:0:
117,27,74136,1,0,0:0:0:0:
139,24,74160,1,0,0:0:0:0:
160,28,74185,1,0,0:0:0:0:
181,36,74211,1,8,0:0:0:0:
198,49,74235,1,0,0:0:0:0:
213,66,74260,5,2,0:0:0:0:
234,91,74285,1,0,0:0:0:0:
265,106,74310,1,8,0:0:0:0:
300,112,74336,1,0,0:0:0:0:
335,106,74360,1,0,0:0:0:0:
365,90,74385,1,0,0:0:0:0:
389,64,74410,1,8,0:0:0:0:
403,32,74435,1,0,0:0:0:0:
407,0,74460,5,2,0:0:0:0:
376,28,74485,1,0,0:0:0:0:
365,70,74510,1,8,0:0:0:0:
377,112,74535,1,0,0:0:0:0:
409,141,74560,1,0,0:0:0:0:
441,170,74585,1,0,0:0:0:0:
453,212,74610,1,8,0:0:0:0:
442,254,74635,1,0,0:0:0:0:
412,285,74661,5,2,0:0:0:0:
392,238,74685,1,0,0:0:0:0:
347,215,74710,1,0,0:0:0:0:
298,224,74735,1,0,0:0:0:0:
265,261,74760,1,2,0:0:0:0:
262,311,74785,1,0,0:0:0:0:
291,352,74810,1,0,0:0:0:0:
340,366,74835,1,0,0:0:0:0:
386,347,74860,5,8,0:0:0:0:
114,304,74910,1,0,0:0:0:0:
334,287,74960,1,8,0:0:0:0:
166,364,75010,1,0,0:0:0:0:
89,195,75060,2,0,L|39:84,1,117
257,118,75160,2,0,L|207:7,1,117
334,287,75260,5,8,0:0:0:0:
408,73,75310,1,0,0:0:0:0:
326,308,75360,1,8,0:0:0:0:
512,188,75410,1,0,0:0:0:0:
318,329,75460,5,2,0:0:0:0:
400,94,75510,1,0,0:0:0:0:
216,217,75560,2,0,L|118:281,1,117
57,29,75660,6,0,P|106:52|127:116,1,117
49,317,75760,2,0,P|44:262|89:211,1,117
303,179,75860,1,0,0:0:0:0:
308,207,75885,1,0,0:0:0:0:
314,236,75910,1,0,0:0:0:0:
320,265,75935,1,0,0:0:0:0:
326,293,75960,1,0,0:0:0:0:
408,73,76010,1,0,0:0:0:0:
214,214,76060,5,8,0:0:0:0:
486,153,76110,1,0,0:0:0:0:
214,92,76160,5,8,0:0:0:0:
499,153,76210,1,0,0:0:0:0:
201,218,76261,5,2,0:0:0:0:
499,279,76310,1,2,0:0:0:0:
188,222,76360,5,8,0:0:0:0:
512,153,76410,1,0,0:0:0:0:
384,349,76460,6,0,B|326:361|326:361|273:337,1,117
140,151,76560,2,0,B|197:138|197:138|250:162,1,117
82,317,76660,1,2,0:0:0:0:
32,93,76711,1,0,0:0:0:0:
85,331,76760,1,8,0:0:0:0:
168,61,76810,1,0,0:0:0:0:
360,267,76860,6,0,L|509:232,1,117
203,257,76960,2,0,P|204:312|249:358,1,117
357,134,77060,1,2,0:0:0:0:
140,151,77110,1,0,0:0:0:0:
430,162,77160,2,0,P|429:107|383:60,1,117
133,252,77260,5,4,0:0:0:0:
160,241,77285,1,0,0:0:0:0:
187,231,77310,1,0,0:0:0:0:
215,221,77335,1,0,0:0:0:0:
242,210,77360,1,8,0:0:0:0:
42,203,77410,5,4,0:0:0:0:
28,244,77435,1,0,0:0:0:0:
33,287,77460,1,0,0:0:0:0:
56,324,77485,1,0,0:0:0:0:
93,348,77510,1,8,0:0:0:0:
325,231,77560,1,4,0:0:0:0:
175,144,77610,1,0,0:0:0:0:
337,326,77660,6,0,L|398:351,1,58.5
187,231,77710,2,0,L|132:253,1,58.5
337,136,77760,2,0,L|391:158,1,58.5
187,41,77810,2,0,L|132:63,1,58.5
325,231,77860,5,2,0:0:0:0:
338,236,77885,1,0,0:0:0:0:
352,242,77910,1,0,0:0:0:0:
365,247,77935,1,0,0:0:0:0:
379,253,77960,1,4,0:0:0:0:
392,258,77985,1,0,0:0:0:0:
406,264,78010,1,0,0:0:0:0:
419,269,78035,1,0,0:0:0:0:
433,275,78060,5,2,0:0:0:0:
397,295,78085,1,0,0:0:0:0:
357,303,78110,1,8,0:0:0:0:
317,296,78135,1,0,0:0:0:0:
282,277,78160,1,0,0:0:0:0:
246,258,78185,1,0,0:0:0:0:
206,251,78210,1,8,0:0:0:0:
166,259,78235,1,0,0:0:0:0:
131,280,78260,5,2,0:0:0:0:
53,197,78311,1,8,0:0:0:0:
209,363,78360,1,2,0:0:0:0:
21,307,78410,1,8,0:0:0:0:
163,172,78460,5,0,0:0:0:0:
98,384,78510,1,8,0:0:0:0:
32,109,78560,1,2,0:0:0:0:
303,190,78610,2,0,P|364:205|418:172,1,117
200,61,78710,1,8,0:0:0:0:
200,61,78735,1,0,0:0:0:0:
200,61,78761,2,0,L|162:171,1,117
340,361,78860,5,4,0:0:0:0:
373,350,78885,1,8,0:0:0:0:
407,339,78910,1,0,0:0:0:0:
440,329,78935,1,8,0:0:0:0:
483,308,78960,5,2,0:0:0:0:
450,297,78985,1,0,0:0:0:0:
416,286,79011,1,8,0:0:0:0:
383,276,79035,1,0,0:0:0:0:
340,255,79060,5,2,0:0:0:0:
373,244,79085,1,0,0:0:0:0:
407,233,79110,1,8,0:0:0:0:
440,223,79135,1,0,0:0:0:0:
483,202,79160,5,2,0:0:0:0:
450,191,79185,1,0,0:0:0:0:
416,180,79210,1,8,0:0:0:0:
383,170,79236,1,0,0:0:0:0:
340,149,79260,5,4,0:0:0:0:
357,142,79285,1,0,0:0:0:0:
374,136,79310,1,8,0:0:0:0:
391,129,79336,1,8,0:0:0:0:
408,123,79360,1,8,0:0:0:0:
425,117,79385,1,0,0:0:0:0:
442,110,79410,1,8,0:0:0:0:
459,104,79435,1,0,0:0:0:0:
477,98,79460,5,2,0:0:0:0:
432,50,79485,1,0,0:0:0:0:
369,33,79510,1,0,0:0:0:0:
306,50,79535,1,0,0:0:0:0:
260,96,79560,2,0,L|214:254,1,117
23,323,79660,6,0,B|75:353|126:324|126:324|167:348|167:348|216:331|276:336|276:336|212:325|174:286,1,351
40,59,79860,5,2,0:0:0:0:
68,64,79885,1,0,0:0:0:0:
97,70,79910,1,0,0:0:0:0:
126,75,79935,1,0,0:0:0:0:
150,110,79960,5,2,0:0:0:0:
178,104,79985,1,0,0:0:0:0:
207,99,80010,1,0,0:0:0:0:
236,93,80035,1,0,0:0:0:0:
265,87,80060,5,2,0:0:0:0:
272,126,80085,1,0,0:0:0:0:
302,155,80110,1,8,0:0:0:0:
342,162,80135,1,0,0:0:0:0:
379,145,80160,1,2,0:0:0:0:
399,109,80185,1,8,0:0:0:0:
396,67,80210,1,8,0:0:0:0:
371,34,80235,1,0,0:0:0:0:
330,26,80260,5,2,0:0:0:0:
335,67,80285,1,0,0:0:0:0:
360,99,80310,1,2,0:0:0:0:
391,124,80335,1,0,0:0:0:0:
428,140,80361,1,0,0:0:0:0:
459,166,80385,1,0,0:0:0:0:
477,202,80410,1,8,0:0:0:0:
474,242,80435,1,0,0:0:0:0:
446,272,80460,5,8,0:0:0:0:
401,285,80485,1,0,0:0:0:0:
355,299,80510,1,8,0:0:0:0:
310,314,80535,1,0,0:0:0:0:
313,356,80560,5,0,0:0:0:0:
268,341,80585,1,0,0:0:0:0:
222,327,80611,1,8,0:0:0:0:
177,314,80635,1,0,0:0:0:0:
133,300,80660,5,8,0:0:0:0:
117,344,80685,1,0,0:0:0:0:
76,367,80710,1,0,0:0:0:0:
30,359,80735,1,0,0:0:0:0:
0,323,80760,1,8,0:0:0:0:
0,276,80785,1,0,0:0:0:0:
30,240,80811,1,0,0:0:0:0:
76,232,80835,1,0,0:0:0:0:
116,254,80860,5,2,0:0:0:0:
101,203,80885,1,0,0:0:0:0:
86,152,80910,1,0,0:0:0:0:
71,101,80935,1,0,0:0:0:0:
55,49,80960,5,2,0:0:0:0:
94,85,80985,1,0,0:0:0:0:
143,104,81010,1,0,0:0:0:0:
195,104,81035,1,0,0:0:0:0:
244,86,81060,1,2,0:0:0:0:
287,56,81085,1,0,0:0:0:0:
340,58,81110,1,8,0:0:0:0:
380,91,81135,1,0,0:0:0:0:
390,142,81160,1,0,0:0:0:0:
367,189,81185,1,0,0:0:0:0:
320,213,81210,1,8,0:0:0:0:
267,202,81235,1,0,0:0:0:0:
238,157,81260,5,4,0:0:0:0:
201,332,81960,5,0,0:0:0:0:
226,345,81985,1,0,0:0:0:0:
255,350,82010,1,0,0:0:0:0:
284,345,82035,1,0,0:0:0:0:
310,332,82060,1,4,0:0:0:0:
203,97,82710,6,0,L|141:81,1,58.5
158,190,82760,1,0,0:0:0:0:
151,218,82785,1,0,0:0:0:0:
144,246,82810,1,0,0:0:0:0:
137,275,82835,1,0,0:0:0:0:
129,303,82860,1,8,0:0:0:0:
354,190,83160,5,0,0:0:0:0:
361,218,83185,1,0,0:0:0:0:
368,246,83210,1,0,0:0:0:0:
375,275,83235,1,0,0:0:0:0:
383,303,83260,1,4,0:0:0:0:
284,313,83510,6,0,L|301:370,1,58.5
117,319,83560,1,0,0:0:0:0:
137,296,83585,1,0,0:0:0:0:
161,282,83610,1,0,0:0:0:0:
190,278,83635,1,0,0:0:0:0:
219,283,83660,6,0,P|275:283|320:248,1,117
401,132,83760,1,2,0:0:0:0:
212,92,83810,2,0,L|248:204,1,117
361,4,83910,1,2,0:0:0:0:
105,84,83960,2,0,L|141:196,1,117
359,328,84060,5,2,0:0:0:0:
188,291,84110,1,2,0:0:0:0:
411,225,84160,1,8,0:0:0:0:
252,384,84210,1,2,0:0:0:0:
480,304,84260,1,2,0:0:0:0:
506,269,84285,1,0,0:0:0:0:
512,227,84310,1,2,0:0:0:0:
508,184,84335,1,0,0:0:0:0:
483,148,84360,2,0,P|461:132|432:125,1,58.5
411,225,84410,2,0,P|387:242|359:248,1,58.5
349,55,84461,6,0,L|472:30,1,117
144,97,84560,1,8,0:0:0:0:
317,148,84610,2,0,L|440:123,1,117
112,190,84710,1,2,0:0:0:0:
176,4,84760,1,8,0:0:0:0:
235,271,84810,1,2,0:0:0:0:
235,271,84835,1,0,0:0:0:0:
235,271,84860,6,0,L|120:294,1,117
366,300,84960,1,8,0:0:0:0:
64,362,85010,2,0,P|34:306|46:250,1,117
200,77,85110,1,2,0:0:0:0:
120,294,85160,1,8,0:0:0:0:
14,54,85210,1,0,0:0:0:0:
14,54,85235,1,0,0:0:0:0:
14,54,85260,6,0,P|6:110|35:160,1,117
235,271,85361,1,0,0:0:0:0:
200,77,85410,2,0,L|56:99,1,117
350,248,85510,1,2,0:0:0:0:
311,49,85560,1,8,0:0:0:0:
159,183,85610,1,0,0:0:0:0:
465,225,85660,5,4,0:0:0:0:
273,160,85710,1,0,0:0:0:0:
312,359,85760,1,8,0:0:0:0:
388,137,85810,5,0,0:0:0:0:
235,271,85860,1,2,0:0:0:0:
427,336,85910,1,2,0:0:0:0:
427,336,85936,1,0,0:0:0:0:
427,336,85960,2,0,L|350:248,1,117
174,30,86060,5,2,0:0:0:0:
152,41,86085,1,0,0:0:0:0:
135,58,86110,1,0,0:0:0:0:
125,80,86135,1,0,0:0:0:0:
122,104,86160,1,8,0:0:0:0:
128,128,86185,1,0,0:0:0:0:
140,148,86210,5,2,0:0:0:0:
116,140,86235,1,0,0:0:0:0:
92,140,86260,1,0,0:0:0:0:
69,148,86285,1,0,0:0:0:0:
50,163,86310,1,8,0:0:0:0:
38,184,86335,1,0,0:0:0:0:
32,207,86360,5,2,0:0:0:0:
26,183,86386,1,0,0:0:0:0:
20,160,86410,1,8,0:0:0:0:
15,137,86435,1,0,0:0:0:0:
10,114,86460,5,2,0:0:0:0:
40,131,86485,1,0,0:0:0:0:
63,157,86511,1,0,0:0:0:0:
76,189,86535,1,0,0:0:0:0:
79,224,86560,1,8,0:0:0:0:
70,258,86585,1,0,0:0:0:0:
50,287,86610,5,2,0:0:0:0:
83,277,86635,1,0,0:0:0:0:
117,279,86660,1,0,0:0:0:0:
149,293,86685,1,0,0:0:0:0:
176,315,86710,1,8,0:0:0:0:
194,346,86735,1,0,0:0:0:0:
200,381,86760,5,2,0:0:0:0:
225,349,86785,1,0,0:0:0:0:
250,316,86810,1,8,0:0:0:0:
275,284,86835,1,0,0:0:0:0:
301,252,86860,5,2,0:0:0:0:
304,298,86885,1,0,0:0:0:0:
329,336,86910,1,0,0:0:0:0:
371,357,86935,1,0,0:0:0:0:
417,355,86961,1,2,0:0:0:0:
456,330,86985,1,0,0:0:0:0:
477,289,87010,1,8,0:0:0:0:
476,242,87035,1,0,0:0:0:0:
452,203,87060,1,2,0:0:0:0:
411,181,87085,1,0,0:0:0:0:
365,181,87110,1,0,0:0:0:0:
324,159,87135,1,2,0:0:0:0:
300,120,87160,1,2,0:0:0:0:
299,73,87185,1,0,0:0:0:0:
320,32,87210,1,8,0:0:0:0:
359,7,87235,1,0,0:0:0:0:
405,5,87260,5,0,0:0:0:0:
447,26,87285,1,0,0:0:0:0:
472,64,87310,1,0,0:0:0:0:
476,111,87335,1,0,0:0:0:0:
458,154,87360,1,2,0:0:0:0:
417,178,87385,1,0,0:0:0:0:
370,184,87411,1,8,0:0:0:0:
326,166,87435,1,0,0:0:0:0:
282,148,87460,5,2,0:0:0:0:
236,160,87485,1,0,0:0:0:0:
209,198,87510,1,0,0:0:0:0:
214,245,87536,1,2,0:0:0:0:
247,278,87560,1,2,0:0:0:0:
294,283,87585,1,0,0:0:0:0:
332,256,87610,1,8,0:0:0:0:
345,211,87635,1,2,0:0:0:0:
329,160,87660,5,2,0:0:0:0:
283,133,87685,1,0,0:0:0:0:
231,141,87710,1,8,0:0:0:0:
194,178,87735,1,8,0:0:0:0:
177,227,87760,1,2,0:0:0:0:
186,278,87785,1,0,0:0:0:0:
165,325,87810,1,8,0:0:0:0:
119,348,87835,1,0,0:0:0:0:
69,339,87860,1,2,0:0:0:0:
34,301,87885,1,0,0:0:0:0:
30,249,87910,1,8,0:0:0:0:
58,206,87935,1,8,0:0:0:0:
105,182,87960,1,2,0:0:0:0:
133,139,87986,1,0,0:0:0:0:
135,87,88010,1,8,0:0:0:0:
114,39,88035,1,0,0:0:0:0:
70,11,88060,5,2,0:0:0:0:
66,67,88085,1,0,0:0:0:0:
92,120,88110,1,10,0:0:0:0:
139,152,88135,1,8,0:0:0:0:
196,156,88160,1,2,0:0:0:0:
249,131,88185,1,0,0:0:0:0:
279,81,88210,1,8,0:0:0:0:
335,64,88235,1,0,0:0:0:0:
385,94,88260,1,0,0:0:0:0:
402,149,88285,1,0,0:0:0:0:
372,201,88310,1,8,0:0:0:0:
317,217,88335,1,8,0:0:0:0:
267,186,88360,2,0,P|314:126|421:142,1,156
472,315,88460,5,8,0:0:0:0:
420,370,88485,1,0,0:0:0:0:
346,384,88510,1,8,0:0:0:0:
273,364,88535,1,0,0:0:0:0:
228,302,88561,1,2,0:0:0:0:
155,281,88585,1,0,0:0:0:0:
79,299,88610,1,8,0:0:0:0:
24,243,88635,1,0,0:0:0:0:
46,169,88660,1,8,0:0:0:0:
120,150,88685,1,0,0:0:0:0:
174,206,88710,1,2,0:0:0:0:
251,208,88735,1,0,0:0:0:0:
307,156,88760,1,10,0:0:0:0:
308,79,88785,1,0,0:0:0:0:
256,23,88811,1,8,0:0:0:0:
179,21,88835,1,0,0:0:0:0:
123,74,88860,5,10,0:0:0:0:
124,155,88885,1,0,0:0:0:0:
190,203,88910,1,8,0:0:0:0:
268,181,88935,1,0,0:0:0:0:
335,133,88960,1,10,0:0:0:0:
417,141,88985,1,0,0:0:0:0:
474,199,89011,1,8,0:0:0:0:
482,281,89035,1,0,0:0:0:0:
435,347,89060,1,10,0:0:0:0:
356,368,89085,1,0,0:0:0:0:
282,334,89110,1,8,0:0:0:0:
247,259,89135,1,0,0:0:0:0:
268,181,89160,6,0,P|307:140|396:137,1,130
364,249,89235,1,0,0:0:0:0:
364,249,89260,6,0,B|324:330|232:375|145:305|127:257|127:257|51:237|18:274|15:344|96:371|139:340|127:257|127:257|104:203|126:137,1,682.5
27,98,90060,6,0,B|99:10|196:72|196:72|289:130|372:45,1,386.75
379,288,90460,6,0,L|393:234,1,52
414,142,90560,1,8,0:0:0:0:
321,171,90611,1,8,0:0:0:0:
485,208,90660,2,0,L|468:270,1,65
357,383,90760,1,8,0:0:0:0:
300,267,90810,1,8,0:0:0:0:
228,374,90860,6,0,P|153:379|96:314,1,156
162,158,91010,2,0,P|204:221|184:294,1,156
40,254,91160,2,0,P|75:237|113:236,1,78
389,250,91260,6,0,P|347:273|300:267,1,97.5
429,160,91360,1,8,0:0:0:0:
451,357,91410,1,2,0:0:0:0:
333,197,91460,2,0,L|317:127,3,56.875
377,0,91560,2,0,L|389:55,3,56.875
205,64,91660,5,2,0:0:0:0:
173,31,91685,1,0,0:0:0:0:
130,19,91710,1,8,0:0:0:0:
86,31,91735,1,0,0:0:0:0:
55,63,91760,1,0,0:0:0:0:
44,106,91785,1,0,0:0:0:0:
56,149,91810,1,8,0:0:0:0:
89,180,91835,1,0,0:0:0:0:
133,190,91860,1,2,0:0:0:0:
177,200,91885,1,0,0:0:0:0:
210,231,91910,1,8,0:0:0:0:
222,274,91935,1,0,0:0:0:0:
211,317,91960,1,8,0:0:0:0:
180,349,91985,1,0,0:0:0:0:
136,361,92010,1,0,0:0:0:0:
93,349,92035,1,0,0:0:0:0:
62,317,92060,5,8,0:0:0:0:
108,293,92086,1,0,0:0:0:0:
158,297,92110,1,0,0:0:0:0:
203,319,92135,1,0,0:0:0:0:
250,338,92160,1,8,0:0:0:0:
295,360,92185,1,0,0:0:0:0:
345,357,92210,1,0,0:0:0:0:
387,329,92235,1,0,0:0:0:0:
409,283,92260,1,2,0:0:0:0:
404,233,92285,1,0,0:0:0:0:
370,196,92310,1,2,0:0:0:0:
368,145,92335,1,2,0:0:0:0:
405,109,92360,1,8,0:0:0:0:
457,109,92385,1,0,0:0:0:0:
492,146,92410,1,2,0:0:0:0:
494,200,92435,1,0,0:0:0:0:
455,233,92460,6,0,P|387:228|335:182,1,130
235,24,92560,1,0,0:0:0:0:
448,31,92610,1,8,0:0:0:0:
200,161,92661,1,2,0:0:0:0:
183,171,92685,1,0,0:0:0:0:
166,181,92710,1,8,0:0:0:0:
149,191,92735,1,0,0:0:0:0:
132,201,92760,2,0,L|142:119,1,65
21,16,92810,2,0,L|28:80,1,65
67,257,92860,6,0,P|121:288|192:263,1,130
420,207,92960,1,0,0:0:0:0:
454,232,92985,1,0,0:0:0:0:
473,270,93010,1,8,0:0:0:0:
472,313,93035,1,0,0:0:0:0:
450,350,93060,1,2,0:0:0:0:
414,373,93085,1,0,0:0:0:0:
371,375,93111,1,8,0:0:0:0:
332,357,93135,1,8,0:0:0:0:
306,323,93160,1,2,0:0:0:0:
299,281,93185,1,0,0:0:0:0:
313,240,93210,1,8,0:0:0:0:
345,211,93235,1,0,0:0:0:0:
386,200,93260,5,6,0:0:0:0:
357,242,93285,1,0,0:0:0:0:
312,267,93310,1,8,0:0:0:0:
260,269,93335,1,8,0:0:0:0:
214,246,93360,1,2,0:0:0:0:
183,205,93385,1,0,0:0:0:0:
137,182,93410,1,8,0:0:0:0:
86,183,93435,1,0,0:0:0:0:
41,209,93460,1,2,0:0:0:0:
16,254,93485,1,0,0:0:0:0:
15,305,93510,1,8,0:0:0:0:
39,351,93535,1,0,0:0:0:0:
82,378,93561,1,2,0:0:0:0:
134,381,93585,1,0,0:0:0:0:
180,359,93610,1,0,0:0:0:0:
210,317,93635,1,0,0:0:0:0:
215,266,93660,6,0,P|199:196|234:141,1,130
382,21,93760,1,2,0:0:0:0:
287,214,93810,1,8,0:0:0:0:
144,56,93860,1,2,0:0:0:0:
144,56,93885,1,0,0:0:0:0:
144,56,93910,2,0,P|122:35|74:29,1,65
59,156,93960,1,2,0:0:0:0:
59,156,93985,1,0,0:0:0:0:
59,156,94010,2,0,P|28:156|-9:186,1,65
115,281,94060,5,4,0:0:0:0:
154,314,94085,1,0,0:0:0:0:
204,326,94110,1,8,0:0:0:0:
254,314,94135,1,0,0:0:0:0:
293,281,94160,1,0,0:0:0:0:
332,248,94185,1,0,0:0:0:0:
382,236,94210,1,8,0:0:0:0:
432,248,94235,1,0,0:0:0:0:
471,281,94260,2,0,L|453:148,1,130
380,345,94360,1,2,0:0:0:0:
344,68,94410,1,8,0:0:0:0:
344,68,94435,1,0,0:0:0:0:
344,68,94460,6,0,P|282:52|223:85,1,130
178,317,94560,2,0,P|222:271|223:203,1,130
44,48,94660,2,0,P|61:109|119:144,1,130
379,171,94760,1,2,0:0:0:0:
397,176,94785,1,0,0:0:0:0:
415,180,94810,1,8,0:0:0:0:
433,184,94835,1,0,0:0:0:0:
451,188,94860,5,4,0:0:0:0:
417,191,94885,1,0,0:0:0:0:
387,208,94910,1,8,0:0:0:0:
367,235,94935,1,8,0:0:0:0:
360,268,94960,1,2,0:0:0:0:
366,301,94985,1,0,0:0:0:0:
385,329,95010,1,8,0:0:0:0:
414,347,95035,1,0,0:0:0:0:
454,345,95060,5,2,0:0:0:0:
420,318,95085,1,0,0:0:0:0:
379,307,95110,1,8,0:0:0:0:
336,312,95135,1,0,0:0:0:0:
300,334,95161,1,2,0:0:0:0:
264,356,95185,1,0,0:0:0:0:
221,361,95210,1,8,0:0:0:0:
180,350,95235,1,0,0:0:0:0:
125,365,95260,5,8,0:0:0:0:
138,315,95285,1,0,0:0:0:0:
151,265,95310,1,8,0:0:0:0:
165,216,95335,1,0,0:0:0:0:
179,167,95360,5,0,0:0:0:0:
130,190,95385,1,0,0:0:0:0:
75,182,95410,1,8,0:0:0:0:
37,142,95435,1,0,0:0:0:0:
30,87,95460,1,8,0:0:0:0:
58,40,95485,1,0,0:0:0:0:
108,18,95510,1,8,0:0:0:0:
160,30,95535,1,0,0:0:0:0:
195,70,95560,2,0,L|122:101,1,78
58,220,95611,2,0,L|129:189,1,78
316,70,95660,5,6,0:0:0:0:
350,100,95685,1,0,0:0:0:0:
395,111,95710,1,8,0:0:0:0:
440,98,95735,1,0,0:0:0:0:
473,69,95760,1,0,0:0:0:0:
453,111,95785,1,0,0:0:0:0:
453,157,95810,1,8,0:0:0:0:
471,199,95835,1,0,0:0:0:0:
495,238,95860,1,2,0:0:0:0:
512,280,95885,1,0,0:0:0:0:
502,325,95910,1,8,0:0:0:0:
468,356,95935,1,0,0:0:0:0:
422,361,95960,1,2,0:0:0:0:
382,339,95985,1,0,0:0:0:0:
362,298,96010,1,8,0:0:0:0:
369,252,96035,1,0,0:0:0:0:
402,220,96060,5,4,0:0:0:0:
356,213,96085,1,0,0:0:0:0:
311,226,96110,1,8,0:0:0:0:
276,256,96135,1,0,0:0:0:0:
260,299,96160,1,0,0:0:0:0:
221,325,96186,1,0,0:0:0:0:
175,324,96210,1,8,0:0:0:0:
138,297,96235,1,0,0:0:0:0:
123,253,96260,1,2,0:0:0:0:
136,209,96285,1,0,0:0:0:0:
173,181,96310,1,0,0:0:0:0:
197,142,96335,1,0,0:0:0:0:
192,96,96360,1,2,0:0:0:0:
161,62,96385,1,0,0:0:0:0:
116,55,96410,1,8,0:0:0:0:
75,77,96435,1,0,0:0:0:0:
57,119,96460,5,4,0:0:0:0:
102,126,96485,1,0,0:0:0:0:
142,104,96510,1,8,0:0:0:0:
161,62,96535,1,0,0:0:0:0:
202,40,96560,1,0,0:0:0:0:
248,42,96585,1,0,0:0:0:0:
286,68,96610,1,8,0:0:0:0:
306,110,96635,1,0,0:0:0:0:
302,156,96660,1,2,0:0:0:0:
298,202,96685,1,0,0:0:0:0:
307,246,96710,1,8,0:0:0:0:
342,276,96735,1,0,0:0:0:0:
388,278,96760,1,2,0:0:0:0:
425,251,96785,1,0,0:0:0:0:
438,207,96810,1,8,0:0:0:0:
422,164,96835,1,0,0:0:0:0:
382,141,96860,5,4,0:0:0:0:
366,185,96885,1,0,0:0:0:0:
371,232,96910,1,8,0:0:0:0:
388,278,96935,1,0,0:0:0:0:
386,324,96960,1,0,0:0:0:0:
359,361,96985,1,0,0:0:0:0:
314,371,97010,1,8,0:0:0:0:
274,349,97035,1,0,0:0:0:0:
258,307,97060,1,2,0:0:0:0:
273,264,97085,1,0,0:0:0:0:
257,222,97110,1,8,0:0:0:0:
217,200,97135,1,0,0:0:0:0:
172,210,97160,2,0,L|142:290,1,58.5
62,368,97211,2,0,L|41:313,1,58.5
36,110,97260,5,4,0:0:0:0:
71,68,97285,1,0,0:0:0:0:
118,41,97310,1,8,0:0:0:0:
171,31,97335,1,0,0:0:0:0:
225,40,97360,1,0,0:0:0:0:
272,67,97385,1,0,0:0:0:0:
307,108,97410,5,8,0:0:0:0:
254,103,97435,1,0,0:0:0:0:
209,132,97460,1,2,0:0:0:0:
193,183,97485,1,0,0:0:0:0:
212,233,97510,1,8,0:0:0:0:
258,259,97535,1,0,0:0:0:0:
311,251,97560,2,0,L|336:187,1,58.5
395,72,97610,2,0,L|412:127,1,58.5
459,323,97661,5,4,0:0:0:0:
419,360,97685,1,0,0:0:0:0:
368,376,97710,1,8,0:0:0:0:
314,368,97735,1,0,0:0:0:0:
270,337,97760,1,0,0:0:0:0:
223,310,97786,1,0,0:0:0:0:
169,302,97810,1,8,0:0:0:0:
118,318,97835,1,0,0:0:0:0:
79,356,97860,5,2,0:0:0:0:
85,294,97885,1,0,0:0:0:0:
121,244,97910,1,8,0:0:0:0:
177,218,97935,1,0,0:0:0:0:
238,223,97960,1,2,0:0:0:0:
308,219,97985,1,0,0:0:0:0:
360,172,98010,1,8,0:0:0:0:
372,103,98035,1,0,0:0:0:0:
349,36,98060,5,6,0:0:0:0:
339,106,98085,1,0,0:0:0:0:
375,166,98110,1,0,0:0:0:0:
439,193,98135,1,0,0:0:0:0:
490,241,98160,1,8,0:0:0:0:
499,310,98185,1,0,0:0:0:0:
463,375,98210,5,6,0:0:0:0:
389,382,98236,1,0,0:0:0:0:
326,342,98260,1,0,0:0:0:0:
292,275,98285,1,0,0:0:0:0:
238,223,98310,1,8,0:0:0:0:
166,202,98335,1,0,0:0:0:0:
101,222,98360,2,0,P|183:232|246:117,1,214.5
323,101,98460,6,0,L|174:75,1,130
162,74,98535,1,8,0:0:0:0:
162,74,98560,1,2,0:0:0:0:
344,10,98610,1,8,0:0:0:0:
398,168,98660,1,8,0:0:0:0:
405,189,98686,1,8,0:0:0:0:
412,210,98710,1,8,0:0:0:0:
420,232,98735,1,8,0:0:0:0:
427,253,98760,1,10,0:0:0:0:
434,274,98785,1,0,0:0:0:0:
441,295,98811,1,0,0:0:0:0:
449,317,98835,1,0,0:0:0:0:
456,338,98860,6,0,P|358:255|274:294,1,208
355,360,99010,1,8,0:0:0:0:
194,238,99060,2,0,L|212:340,1,104
276,171,99160,1,2,0:0:0:0:
84,207,99210,1,0,0:0:0:0:
84,207,99235,1,8,0:0:0:0:
84,207,99261,2,0,L|102:104,1,104
23,260,99360,6,0,P|66:286|117:282,1,104
260,93,99460,2,0,P|215:117|193:163,1,104
282,379,99560,2,0,P|283:328|254:286,1,104
103,104,99660,6,0,L|5:140,1,104
328,168,99760,1,8,0:0:0:0:
170,8,99810,1,8,0:0:0:0:
155,250,99860,2,0,L|253:285,1,104
405,51,99960,1,8,0:0:0:0:
192,163,100010,1,8,0:0:0:0:
475,250,100060,6,0,P|421:173|327:168,1,195
329,359,100210,1,0,0:0:0:0:
329,359,100235,1,0,0:0:0:0:
329,359,100260,2,0,L|370:264,1,104
192,163,100360,2,0,L|232:258,1,84.49999
246,83,100460,6,0,P|169:68|96:177,1,208
48,39,102467,5,4,0:0:0:0:
351,270,105691,5,0,0:0:0:0:
201,203,105935,1,0,0:0:0:0:
466,121,106010,1,0,0:0:0:0:
190,276,106085,1,0,0:0:0:0:
