osu file format v14

[General]
AudioFilename: audio.mp3
AudioLeadIn: 0
PreviewTime: 260812
Countdown: 0
SampleSet: Drum
StackLeniency: 0.7
Mode: 0
LetterboxInBreaks: 0
EpilepsyWarning: 1
WidescreenStoryboard: 1

[Editor]
DistanceSpacing: 0.9
BeatDivisor: 4
GridSize: 32
TimelineZoom: 2.699999

[Metadata]
Title:Road of Resistance
TitleUnicode:Road of Resistance
Artist:BABYMETAL
ArtistUnicode:BABYMETAL
Creator:Sotarks
Version:Revolution
Source:
Tags:dragonforce herman li sam totman kitsune suzuka nakamoto yui mizuno moa kikuchi su-metal yuimetal moametal japanese female vocalists rock metal ror ponoyoshi pono jeezyh
BeatmapID:2317735
BeatmapSetID:1109083

[Difficulty]
HPDrainRate:5.2
CircleSize:3.8
OverallDifficulty:8.5
ApproachRate:9.4
SliderMultiplier:1.82
SliderTickRate:1

[Events]
//Background and Video events
0,0,"bg.jpg",0,0
//Break Periods
2,47354,54633
//Storyboard Layer 0 (Background)
//Storyboard Layer 1 (Fail)
//Storyboard Layer 2 (Pass)
//Storyboard Layer 3 (Foreground)
//Storyboard Layer 4 (Overlay)
//Storyboard Sound Samples

[TimingPoints]
1091,301.507537688442,4,2,69,50,1,0
4709,-192.307692307692,4,2,22,70,0,0
7064,291.26213592233,4,2,22,70,1,0
7064,-192.307692307692,4,2,22,70,0,0
8520,293.398533007335,4,2,22,70,1,8
8520,-312.5,4,2,22,70,0,8
9400,298.507462686567,4,2,22,70,1,0
9400,-192.307692307692,4,2,22,70,0,0
11743,291.26213592233,4,2,22,70,1,0
11743,-192.307692307692,4,2,22,70,0,0
12908,292.682926829268,4,2,22,70,1,0
12908,-161.290322580645,4,2,22,70,0,0
14078,-192.307692307692,4,2,22,70,0,0
15249,296.73590504451,4,2,22,70,1,0
16422,294.117647058824,4,2,22,70,1,0
16422,-192.307692307692,4,2,22,70,0,0
17598,292.682926829268,4,2,22,70,1,0
17598,-161.290322580645,4,2,22,70,0,0
18183,-161.290322580645,4,2,22,70,0,0
18573,-161.290322580645,4,2,22,70,0,0
18768,-192.307692307692,4,2,22,70,0,0
19793,310.880829015544,4,2,22,70,1,8
19948,287.081339712919,4,2,22,70,1,0
19948,-161.290322580645,4,2,22,70,0,0
20378,292.682926829268,4,2,22,70,1,8
20378,-161.290322580645,4,2,22,70,0,8
21109,292.682926829268,4,2,22,70,1,0
21109,-192.307692307692,4,2,22,70,0,0
22279,-161.290322580645,4,2,22,70,0,0
22865,-161.290322580645,4,2,22,70,0,0
23157,-161.290322580645,4,2,22,70,0,0
23450,-121.951219512195,4,2,22,70,0,0
32230,300,4,2,22,70,1,8
32529,292.682926829268,4,2,22,70,1,8
32822,292.682926829268,4,2,22,70,1,0
32822,-121.951219512195,4,2,22,70,0,0
35163,-121.951219512195,4,2,22,70,0,0
37212,-98.0392156862744,4,2,22,70,0,0
37504,290.556900726392,4,2,22,70,1,0
37504,-121.951219512195,4,2,22,70,0,0
38666,292.682926829268,4,2,22,70,1,0
39105,-121.951219512195,4,2,22,70,0,0
39836,-108.695652173913,4,2,22,50,0,0
41600,324.324324324324,4,2,22,50,1,8
41600,-108.695652173913,4,2,22,50,0,8
41924,401.33779264214,4,2,22,50,1,8
41924,-108.695652173913,4,2,22,50,0,8
42325,292.682926829268,4,2,69,70,1,0
42325,-833.333333333333,4,2,69,70,0,0
42398,-833.333333333333,4,2,69,5,0,0
47154,-833.333333333333,4,2,22,50,0,0
54032,-833.333333333333,4,2,22,25,0,0
54325,-833.333333333333,4,2,22,35,0,0
54617,-833.333333333333,4,2,22,45,0,0
54910,-833.333333333333,4,2,22,55,0,0
55056,-833.333333333333,4,2,22,10,0,0
55203,-108.695652173913,4,1,22,70,0,0
57544,-98.0392156862745,4,3,22,85,0,0
76276,-70.4225352112676,4,3,22,75,0,0
77446,-108.695652173913,4,3,22,75,0,0
78617,-70.4225352112676,4,3,22,75,0,0
79788,-108.695652173913,4,3,22,75,0,0
85642,-70.4225352112676,4,3,22,75,0,0
86812,-108.695652173913,4,3,22,75,0,0
87983,-70.4225352112676,4,3,22,75,0,0
89154,-108.695652173913,4,3,22,75,0,0
95007,-108.695652173913,4,2,22,75,0,0
99690,-108.695652173913,4,3,22,75,0,0
103202,-108.695652173913,4,3,22,70,0,0
103276,-108.695652173913,4,3,22,75,0,0
104373,-98.0392156862745,4,1,22,75,0,0
113446,-98.0392156862745,4,2,22,70,0,0
113739,-98.0392156862745,4,1,22,75,0,0
120471,-138.888888888889,4,1,22,75,0,0
120764,-98.0392156862745,4,3,22,75,0,0
123690,-98.0392156862745,4,2,22,70,0,0
123763,-98.0392156862745,4,2,22,70,0,0
124276,-98.0392156862745,4,2,22,70,0,0
124861,-98.0392156862745,4,2,22,70,0,0
125446,-89.2857142857143,4,3,22,85,0,1
158227,-161.290322580645,4,2,22,70,0,1
160568,-138.888888888889,4,2,22,60,0,1
160861,-121.951219512195,4,2,22,60,0,1
161154,-108.695652173913,4,2,22,70,0,1
161446,-98.0392156862745,4,2,22,70,0,1
161739,-89.2857142857143,4,2,22,80,0,0
162910,-98.0392156862745,4,2,22,70,0,0
172276,-98.0392156862745,4,2,22,85,0,0
176373,-81.9672131147541,4,2,22,85,0,0
176959,-98.0392156862745,4,2,22,90,0,0
179300,-98.0392156862745,4,2,22,70,0,0
180178,-138.888888888889,4,2,22,70,0,0
181056,-138.888888888889,4,2,22,70,0,0
181203,-138.888888888889,4,2,22,70,0,0
181349,-138.888888888889,4,2,22,70,0,0
181495,-138.888888888889,4,2,22,70,0,0
181642,-161.290322580645,4,2,22,70,0,0
187495,-121.951219512195,4,2,22,70,0,0
188666,-138.888888888889,4,2,22,70,0,0
189837,-138.888888888889,4,2,22,85,0,0
189910,-138.888888888889,4,2,22,70,0,0
191007,-108.695652173913,4,2,22,55,0,0
195690,-108.695652173913,4,2,22,70,0,0
200373,-98.0392156862745,4,2,22,80,0,0
219105,-98.0392156862745,4,1,22,80,0,0
227885,-98.0392156862745,4,2,22,70,0,0
227959,-98.0392156862745,4,2,22,80,0,0
228471,-98.0392156862745,4,1,22,80,0,0
237837,-108.695652173913,4,2,22,65,0,0
244861,-108.695652173913,4,2,22,70,0,0
247203,-98.0392156862745,4,1,22,80,0,0
251593,-192.307692307692,4,2,22,80,0,0
251885,-161.290322580645,4,1,22,80,0,0
252324,-138.888888888889,4,1,22,80,0,0
252764,-121.951219512195,4,1,22,80,0,0
253056,-108.695652173913,4,1,22,80,0,0
253495,-98.0392156862745,4,1,22,80,0,0
253934,-89.2857142857143,4,1,22,80,0,0
254227,-81.9672131147541,4,1,22,80,0,0
258910,-70.4225352112676,4,2,22,90,0,1
261251,-192.307692307692,4,2,22,70,0,0
264764,-121.951219512195,4,2,22,70,0,0
265934,-192.307692307692,4,2,22,70,0,0
267690,-192.307692307692,4,2,22,70,0,0
268276,-121.951219512195,4,2,22,70,0,0
269446,-121.951219512195,4,2,22,70,0,0
269520,-121.951219512195,4,2,22,70,0,0
270617,-89.2857142857143,4,3,22,85,0,1
287885,-121.951219512195,4,2,22,85,0,1
288178,-121.951219512195,4,2,22,80,0,1
288763,-121.951219512195,4,2,22,80,0,1
288837,-121.951219512195,4,2,22,80,0,1
289349,-121.951219512195,4,2,22,80,0,0
289934,-161.290322580645,4,2,22,80,0,0
291690,-121.951219512195,4,2,22,80,0,0
292568,-121.951219512195,4,2,22,70,0,0
293007,-121.951219512195,4,2,22,70,0,0
293446,-161.290322580645,4,2,22,70,0,0
294032,-192.307692307692,4,2,22,70,0,0
294617,-121.951219512195,4,2,22,70,0,0
294910,283.018867924528,4,2,22,70,1,0
295051,300,4,2,22,70,1,8
295202,307.692307692308,4,2,22,70,1,0
295202,-192.307692307692,4,2,22,70,0,0
295356,287.081339712919,4,2,22,70,1,8
295643,355.029585798817,4,2,22,70,1,8
295643,-192.307692307692,4,2,22,70,0,8
295998,392.156862745098,4,2,22,70,1,8
296194,441.176470588235,4,2,22,70,1,8
296194,-192.307692307692,4,2,22,70,0,8
296414,472.44094488189,4,2,22,70,1,8
296650,800,4,2,22,70,1,0
296650,-192.307692307692,4,2,22,70,0,0
297450,703.812316715542,4,2,22,70,1,8
298152,736.196319018405,4,2,22,70,1,8
298152,-192.307692307692,4,2,22,70,0,8
298520,745.341614906832,4,2,22,70,1,8
298893,916.030534351145,4,2,22,70,1,8
298893,-192.307692307692,4,2,22,70,0,8
299351,1111.11111111111,4,2,22,70,1,8
299906,337.078651685393,4,2,22,70,1,0
309344,-100,4,2,22,100,0,0

[Colours]
Combo1 : 85,85,85
Combo2 : 147,126,125
Combo3 : 232,211,202
Combo4 : 179,83,83
Combo5 : 244,211,181
Combo6 : 255,36,36
Combo7 : 255,239,130

[HitObjects]
256,192,1091,12,2,4106,0:2:0:0:
260,103,4709,6,0,P|262:155|269:255,2,141.959999133545,6|0|0,1:2|0:2|0:2,0:2:0:0:
268,244,6216,5,2,0:2:0:0:
198,230,6518,1,0,0:2:0:0:
268,244,6819,1,0,0:2:0:0:
152,58,7064,86,0,P|83:80|76:156,2,141.959999133545,6|0|0,1:2|0:2|0:2,0:2:0:0:
152,58,8520,6,0,L|186:66,1,29.12,0|0,3:2|0:2,0:2:0:0:
209,93,8813,2,0,L|298:80,1,87.36,0|0,3:2|0:2,0:2:0:0:
487,69,9400,86,0,P|471:124|464:219,2,141.959999133545,6|0|0,1:2|0:2|0:2,0:2:0:0:
370,232,10892,5,2,0:2:0:0:
348,142,11191,1,0,0:2:0:0:
370,232,11489,1,0,0:2:0:0:
289,59,11743,86,0,P|230:82|188:86,1,94.6399994223633,4|0,1:2|0:2,0:2:0:0:
172,157,12179,2,0,P|113:134|71:130,1,94.6399994223633,0|0,0:2|0:2,0:2:0:0:
6,146,12616,1,0,0:2:0:0:
370,233,12908,6,0,P|413:222|431:220,1,56.4199977616578,6|0,1:2|0:2,0:2:0:0:
312,181,13200,1,8,1:3:0:0:
312,181,13347,1,8,1:3:0:0:
205,216,13493,2,0,P|245:236|265:258,1,56.4199977616578,6|0,1:2|0:2,0:2:0:0:
126,233,13786,1,4,0:3:0:0:
126,233,13932,1,4,0:3:0:0:
32,150,14078,86,0,P|91:194|168:188,2,141.959999133545,6|0|4,1:2|0:2|1:3,0:2:0:0:
32,150,15054,1,4,1:3:0:0:
32,150,15151,1,4,1:3:0:0:
32,150,15249,5,8,0:2:0:0:
12,85,15694,1,4,0:3:0:0:
76,228,16139,1,8,0:3:0:0:
176,65,16422,86,0,B|276:60|211:110|322:100,2,141.959999133545,6|0|0,1:2|0:2|0:2,0:2:0:0:
369,50,17598,5,4,1:2:0:0:
325,214,17793,1,8,0:2:0:0:
325,214,17890,2,0,L|316:161,2,37.6133318411052,8|8|8,0:2|0:2|0:2,0:2:0:0:
344,289,18183,2,0,L|350:326,2,37.6133318411052,8|8|8,0:3|0:3|0:3,0:2:0:0:
401,235,18476,2,0,L|453:224,2,37.6133318411052,4|4|4,0:3|0:3|0:3,0:2:0:0:
270,274,18768,86,0,L|119:311,2,141.959999133545,6|0|0,1:2|0:2|0:2,0:2:0:0:
394,248,19793,1,0,1:2:0:0:
394,248,19870,1,0,1:2:0:0:
394,248,19948,6,0,L|384:312,1,56.4199977616578,12|0,0:2|0:2,0:2:0:0:
417,164,20235,1,0,1:2:0:0:
354,61,20378,2,0,L|364:125,1,56.4199977616578,12|0,0:2|0:2,0:2:0:0:
401,0,20670,1,0,1:2:0:0:
307,165,20817,1,10,0:2:0:0:
307,165,21109,86,0,P|260:133|178:156,2,141.959999133545,6|0|0,1:2|0:2|0:2,0:2:0:0:
244,214,22133,1,0,1:2:0:0:
244,214,22206,1,0,1:2:0:0:
244,214,22279,2,0,L|246:254,3,28.2099988808289,8|0|0|0,1:2|1:2|1:2|1:2,1:2:0:0:
170,238,22572,2,0,L|172:278,3,28.2099988808289,0|0|0|0,1:2|1:2|1:2|1:2,1:2:0:0:
319,234,22865,2,0,L|321:274,3,28.2099988808289,4|0|0|0,1:3|1:3|1:3|1:3,1:3:0:0:
96,213,23157,2,0,L|94:253,3,28.2099988808289,4|0|0|0,1:3|1:3|1:3|1:3,1:3:0:0:
303,156,23450,6,0,P|348:145|387:140,1,74.6200011386109,6|0,1:2|0:2,0:2:0:0:
249,100,23743,1,0,1:2:0:0:
168,227,23889,2,0,P|131:221|95:212,1,74.6200011386109,2|0,1:2|0:2,0:2:0:0:
226,176,24182,1,0,1:2:0:0:
246,257,24328,1,2,1:2:0:0:
246,257,24401,1,0,1:2:0:0:
246,257,24474,1,0,1:2:0:0:
174,116,24621,1,8,0:2:0:0:
257,331,25206,1,0,3:2:0:0:
257,331,25791,86,0,P|310:319|338:317,1,74.6200011386109,4|0,1:2|0:2,0:2:0:0:
191,293,26084,1,0,1:2:0:0:
399,245,26230,2,0,P|361:240|325:231,1,74.6200011386109,2|0,1:2|0:2,0:2:0:0:
458,192,26523,1,0,1:2:0:0:
383,166,26669,1,2,1:2:0:0:
383,166,26743,1,0,1:2:0:0:
383,166,26816,1,0,1:2:0:0:
457,336,26962,1,8,0:2:0:0:
439,346,27401,6,0,L|388:333,1,37.3100005693054,0|0,1:2|1:2,0:2:0:0:
311,363,27548,1,8,0:2:0:0:
404,267,27694,2,0,P|360:319|232:310,1,186.550002846527,4|0,1:2|0:2,0:2:0:0:
248,321,28133,86,0,P|253:270|262:228,1,74.6200011386109,2|0,1:2|0:2,0:2:0:0:
171,336,28426,1,0,1:2:0:0:
179,131,28572,2,0,P|185:167|188:204,1,74.6200011386109,2|0,1:2|0:2,0:2:0:0:
235,73,28865,1,0,1:2:0:0:
261,158,29011,1,2,1:2:0:0:
261,158,29084,1,0,1:2:0:0:
261,158,29157,1,0,1:2:0:0:
119,35,29304,1,8,0:2:0:0:
381,204,29889,1,0,3:2:0:0:
381,204,30474,6,0,P|394:134|406:103,1,74.6200011386109,6|0,1:2|0:2,0:2:0:0:
307,232,30767,1,0,1:2:0:0:
379,353,30913,2,0,P|366:283|354:252,1,74.6200011386109,2|0,1:2|0:2,0:2:0:0:
459,369,31206,1,0,1:2:0:0:
437,291,31352,1,2,1:2:0:0:
437,291,31426,1,0,1:2:0:0:
437,291,31499,1,0,1:2:0:0:
263,342,31645,1,10,0:2:0:0:
275,325,32084,85,0,1:2:0:0:
275,325,32157,1,0,1:2:0:0:
275,325,32230,1,8,0:2:0:0:
249,209,32380,1,4,0:3:0:0:
135,236,32530,1,4,0:3:0:0:
161,352,32675,1,4,0:3:0:0:
205,280,32822,6,0,P|209:208|214:175,1,74.6200011386109,6|0,1:2|0:2,0:2:0:0:
173,61,33114,1,0,1:2:0:0:
173,61,33187,1,0,1:2:0:0:
173,61,33261,2,0,P|178:106|177:142,1,74.6200011386109,2|0,1:2|0:2,0:2:0:0:
249,59,33553,1,0,1:2:0:0:
104,103,33700,1,2,1:2:0:0:
104,103,33773,1,0,1:2:0:0:
104,103,33846,1,0,1:2:0:0:
306,121,33992,1,8,0:2:0:0:
24,56,34578,1,0,3:2:0:0:
24,56,35163,86,0,P|35:112|37:149,1,74.6200011386109,6|0,1:2|0:2,0:2:0:0:
82,281,35456,1,0,1:2:0:0:
82,281,35529,1,0,1:2:0:0:
82,281,35602,2,0,P|87:235|94:197,1,74.6200011386109,2|0,1:2|0:2,0:2:0:0:
7,208,35895,1,0,1:2:0:0:
169,261,36041,1,2,1:2:0:0:
169,261,36114,1,0,1:2:0:0:
169,261,36187,1,0,1:2:0:0:
5,355,36334,1,8,0:2:0:0:
25,339,36773,6,0,L|75:353,1,37.3100005693054,0|0,1:2|1:2,1:2:0:0:
168,301,36919,1,8,0:2:0:0:
275,347,37065,1,4,1:2:0:0:
394,287,37212,86,0,L|244:322,1,139.230000849792,0|0,1:2|0:2,0:2:0:0:
258,318,37504,6,0,P|269:255|272:215,1,74.6200011386109,6|0,1:2|0:2,0:2:0:0:
199,108,37794,1,0,1:2:0:0:
199,108,37867,1,0,1:2:0:0:
199,108,37939,2,0,P|203:153|210:189,1,74.6200011386109,2|0,1:2|0:2,0:2:0:0:
279,117,38230,1,0,1:2:0:0:
123,176,38375,1,2,1:2:0:0:
123,176,38448,1,0,1:2:0:0:
123,176,38520,1,0,1:2:0:0:
357,128,38666,1,8,0:2:0:0:
342,148,39105,86,0,L|337:197,1,37.3100005693054,0|0,1:2|1:2,1:2:0:0:
372,366,39251,1,8,0:2:0:0:
220,244,39397,1,8,0:2:0:0:
331,295,39544,2,0,L|241:317,1,74.6200011386109,4|4,0:3|0:3,0:2:0:0:
105,154,39836,6,0,P|162:172|199:174,1,83.7199971895753,14|0,0:2|0:2,0:2:0:0:
247,100,40129,1,0,1:2:0:0:
214,318,40275,2,0,P|267:290|294:265,1,83.7199971895753,14|0,0:2|0:2,0:2:0:0:
276,179,40568,1,0,1:2:0:0:
415,329,40714,2,0,P|432:271|434:234,1,83.7199971895753,14|0,0:2|0:2,0:2:0:0:
360,186,41007,1,0,1:2:0:0:
479,92,41153,85,14,0:2:0:0:
443,170,41300,1,0,1:2:0:0:
443,170,41373,1,0,1:2:0:0:
443,170,41446,1,0,1:2:0:0:
398,93,41600,2,0,P|336:75|297:77,1,83.7199971895753,14|4,0:2|0:3,0:2:0:0:
173,127,41924,2,0,P|214:123|253:108,1,83.7199971895753,6|4,0:3|0:3,0:2:0:0:
21,113,42325,6,0,B|216:101|121:249|339:245,1,360.360008797852,6|0,1:2|1:2,0:2:0:0:
283,150,55203,102,0,P|336:135|355:132,3,41.8599985947876,8|0|0|0,0:2|0:2|0:2|0:2,0:2:0:0:
302,221,55495,2,0,P|355:206|374:203,1,41.8599985947876,4|0,0:3|0:2,0:2:0:0:
226,91,55642,2,0,P|173:76|154:73,3,41.8599985947876,8|0|0|0,0:2|0:2|0:2|0:2,0:2:0:0:
207,162,55934,2,0,P|154:147|135:144,1,41.8599985947876,4|0,0:3|0:2,0:2:0:0:
297,43,56081,1,12,0:2:0:0:
165,338,56373,69,6,0:2:0:0:
122,78,56666,1,6,0:2:0:0:
378,37,56959,1,6,0:2:0:0:
421,297,57252,1,6,0:2:0:0:
253,182,57544,37,6,1:2:0:0:
370,128,57690,2,0,P|307:119|259:105,1,92.8200005665283,2|0,0:2|0:2,0:2:0:0:
422,189,57983,1,2,0:2:0:0:
361,47,58129,1,2,0:2:0:0:
345,204,58276,1,2,0:2:0:0:
461,111,58422,2,0,P|414:116|369:127,1,92.8200005665283,10|0,0:2|0:2,0:2:0:0:
296,266,58715,5,2,1:2:0:0:
215,123,58861,2,0,P|240:191|245:231,1,92.8200005665283,2|0,0:2|0:2,0:2:0:0:
303,135,59154,1,2,0:2:0:0:
213,285,59300,1,2,0:2:0:0:
345,204,59446,1,2,0:2:0:0:
324,353,59593,2,0,P|299:285|294:245,1,92.8200005665283,10|0,0:2|0:2,0:2:0:0:
167,351,59885,85,6,1:2:0:0:
73,235,60032,2,0,P|166:218|212:301,1,185.640001133057,10|0,0:2|0:2,0:2:0:0:
164,184,60471,2,0,L|154:126,1,46.4100002832642,2|2,0:2|0:2,0:2:0:0:
136,298,60617,1,2,0:2:0:0:
136,298,60690,1,2,0:2:0:0:
136,298,60764,2,0,P|67:279|12:278,1,92.8200005665283,2|0,0:2|0:2,0:2:0:0:
257,229,61056,6,0,P|326:210|381:209,1,92.8200005665283,10|0,0:2|0:2,0:2:0:0:
465,253,61349,1,2,0:2:0:0:
287,99,61495,2,0,P|370:176|443:147,1,185.640001133057,10|0,0:2|0:2,0:2:0:0:
355,35,61934,1,0,3:2:0:0:
356,48,62007,1,0,3:2:0:0:
358,62,62080,1,0,3:2:0:0:
360,76,62153,1,0,3:2:0:0:
361,90,62227,86,0,L|416:74,3,46.4100002832642,4|0|0|0,1:2|0:2|0:2|0:2,0:2:0:0:
363,161,62520,2,0,L|407:148,3,46.4100002832642,8|0|0|0,0:2|0:2|0:2|0:2,0:2:0:0:
257,55,62812,2,0,L|202:39,3,46.4100002832642,0|0|0|0,1:2|0:2|0:2|0:2,0:2:0:0:
255,126,63105,2,0,L|210:113,3,46.4100002832642,8|0|0|0,0:2|0:2|0:2|0:2,0:2:0:0:
78,116,63398,2,0,L|133:100,3,46.4100002832642,0|0|0|0,1:2|0:2|0:2|0:2,0:2:0:0:
80,187,63691,2,0,L|124:174,3,46.4100002832642,8|0|0|0,0:2|0:2|0:2|0:2,0:2:0:0:
224,63,63983,2,0,L|268:75,3,46.4100002832642,0|0|0|0,1:2|0:2|0:2|0:2,0:2:0:0:
222,134,64276,2,0,L|266:146,3,46.4100002832642,8|0|0|0,0:2|0:2|0:2|0:2,0:2:0:0:
368,91,64569,5,12,0:2:0:0:
379,83,64642,1,8,0:2:0:0:
393,81,64715,1,8,0:2:0:0:
406,84,64788,1,8,0:2:0:0:
418,92,64861,1,0,1:2:0:0:
267,222,65007,2,0,L|208:212,1,46.4100002832642,0|0,1:2|1:2,0:2:0:0:
348,209,65154,1,8,0:2:0:0:
354,221,65227,1,8,0:2:0:0:
356,234,65300,1,8,0:2:0:0:
352,248,65373,1,8,0:2:0:0:
344,258,65446,2,0,L|264:244,3,46.4100002832642,4|4|4|4,0:3|0:3|0:3|0:3,0:3:0:0:
435,227,65739,86,0,P|475:263|490:313,1,92.8200005665283,4|0,1:2|0:2,0:2:0:0:
291,150,66032,2,0,P|251:114|236:64,1,92.8200005665283,0|0,1:2|0:2,0:2:0:0:
413,21,66324,2,0,L|426:91,3,46.4100002832642,8|0|0|0,0:2|0:2|0:2|0:2,0:2:0:0:
394,154,66617,1,8,0:2:0:0:
390,190,66690,1,8,0:2:0:0:
387,227,66763,1,8,0:2:0:0:
384,264,66836,1,8,0:2:0:0:
380,301,66909,5,6,1:2:0:0:
224,257,67056,2,0,P|291:229|321:227,1,92.8200005665283,10|0,0:2|0:2,0:2:0:0:
191,351,67349,1,10,0:2:0:0:
252,158,67495,1,2,0:2:0:0:
191,351,67642,1,10,0:2:0:0:
176,128,67788,2,0,P|109:100|79:98,1,92.8200005665283,2|8,0:2|0:2,0:2:0:0:
224,257,68081,85,2,1:2:0:0:
311,100,68227,2,0,P|378:72|408:70,1,92.8200005665283,10|0,0:2|0:2,0:2:0:0:
241,45,68520,1,10,0:2:0:0:
400,169,68666,1,2,0:2:0:0:
241,45,68812,1,10,0:2:0:0:
319,204,68959,2,0,P|305:263|291:296,1,92.8200005665283,2|8,0:2|0:2,0:2:0:0:
158,84,69251,5,6,1:2:0:0:
186,270,69398,2,0,P|195:315|212:358,1,92.8200005665283,10|0,0:2|0:2,0:2:0:0:
253,148,69690,1,10,0:2:0:0:
102,212,69837,2,0,L|35:239,1,46.4100002832642,2|2,0:2|0:2,0:2:0:0:
287,174,69983,2,0,L|330:156,1,46.4100002832642,10|2,0:2|0:2,0:2:0:0:
64,188,70129,1,2,0:2:0:0:
219,290,70276,1,10,0:2:0:0:
158,84,70422,86,0,P|146:164|142:213,1,92.8200005665283,2|8,1:2|0:2,0:2:0:0:
253,312,70715,1,2,0:2:0:0:
64,188,70861,2,0,P|69:234|77:279,1,92.8200005665283,10|0,0:2|0:2,0:2:0:0:
236,184,71154,1,8,0:2:0:0:
236,184,71227,1,0,0:2:0:0:
236,184,71300,1,0,0:2:0:0:
172,348,71446,1,8,0:2:0:0:
321,235,71593,6,0,L|372:224,1,46.4100002832642,6|0,1:2|0:2,0:2:0:0:
327,308,71739,2,0,L|378:297,3,46.4100002832642,10|0|0|0,0:2|0:2|0:2|0:2,0:2:0:0:
236,184,72032,2,0,L|185:173,1,46.4100002832642,10|0,0:2|0:2,0:2:0:0:
230,257,72178,2,0,L|179:246,3,46.4100002832642,2|0|8|0,0:2|0:2|0:2|0:2,0:2:0:0:
329,134,72471,2,0,L|338:83,1,46.4100002832642,2|0,0:2|0:2,0:2:0:0:
265,38,72617,2,0,L|256:83,3,46.4100002832642,10|0|0|0,0:2|0:2|0:2|0:2,0:2:0:0:
413,93,72910,2,0,L|421:47,3,46.4100002832642,10|0|0|0,0:2|0:2|0:2|0:2,0:2:0:0:
239,170,73203,2,0,L|230:215,1,46.4100002832642,10|0,0:2|0:2,0:2:0:0:
387,242,73349,2,0,L|395:196,3,46.4100002832642,2|0|8|0,0:2|0:2|0:2|0:2,0:2:0:0:
307,290,73642,2,0,L|248:305,1,46.4100002832642,2|0,1:2|0:2,0:2:0:0:
386,334,73788,2,0,L|430:345,1,46.4100002832642,10|0,1:2|0:2,0:2:0:0:
308,211,73934,85,14,0:2:0:0:
464,163,74081,1,0,1:2:0:0:
464,163,74227,1,0,1:2:0:0:
195,102,74373,1,10,0:2:0:0:
351,150,74520,1,0,1:2:0:0:
351,150,74666,1,0,1:2:0:0:
79,221,74812,1,10,0:2:0:0:
235,173,74959,1,0,1:2:0:0:
46,138,75105,6,0,L|53:80,3,46.4100002832642,2|0|0|0,1:2|0:2|0:2|0:2,0:2:0:0:
152,163,75398,2,0,L|157:209,3,46.4100002832642,0|0|0|0,1:2|0:2|0:2|0:2,0:2:0:0:
186,72,75690,1,0,1:2:0:0:
209,50,75763,1,0,1:2:0:0:
240,43,75836,1,8,1:2:0:0:
270,55,75909,1,0,1:2:0:0:
290,80,75982,1,0,1:2:0:0:
309,105,76056,1,0,1:2:0:0:
339,116,76129,1,8,1:2:0:0:
370,110,76202,1,0,1:2:0:0:
394,88,76276,6,0,B|437:27|358:-28|196:47|350:190|412:140|368:279|329:329,1,387.659980479768,6|8,1:2|0:2,0:2:0:0:
266,206,76861,69,2,0:2:0:0:
200,174,77007,1,8,0:2:0:0:
128,232,77154,1,2,0:2:0:0:
60,161,77300,1,8,0:2:0:0:
12,233,77446,6,0,P|61:220|109:209,1,83.7199971895753,2|8,1:2|0:2,0:2:0:0:
93,212,77739,1,2,0:2:0:0:
213,144,77885,2,0,P|262:157|310:168,1,83.7199971895753,10|0,0:2|0:2,0:2:0:0:
357,166,78178,2,0,P|316:175|275:186,1,83.7199971895753,8|0,0:2|0:2,0:2:0:0:
313,95,78471,1,8,0:2:0:0:
173,331,78617,6,0,P|147:226|248:332,1,387.659980479768,6|8,1:2|0:2,0:2:0:0:
196,230,79203,69,2,0:2:0:0:
232,156,79349,1,8,0:2:0:0:
141,87,79495,1,2,0:2:0:0:
223,8,79642,1,8,0:2:0:0:
135,46,79788,6,0,P|183:51|249:70,1,83.7199971895753,2|8,1:2|0:2,0:2:0:0:
217,59,80081,1,2,0:2:0:0:
276,229,80227,2,0,P|324:224|390:205,1,83.7199971895753,10|0,0:2|0:2,0:2:0:0:
409,202,80520,2,0,P|368:192|326:188,1,83.7199971895753,8|0,0:2|0:2,0:2:0:0:
372,280,80812,1,8,0:2:0:0:
388,94,80959,86,0,P|397:32|402:2,1,83.7199971895753,6|8,1:2|0:2,0:2:0:0:
400,11,81251,1,0,0:2:0:0:
346,160,81398,2,0,P|352:201|358:242,1,83.7199971895753,10|0,0:2|0:2,0:2:0:0:
358,242,81690,1,8,0:2:0:0:
278,112,81837,2,0,P|225:103|185:91,1,83.7199971895753,2|8,0:2|0:2,0:2:0:0:
20,140,82129,6,0,B|151:138|32:192|208:190,1,167.439994379151,6|0,1:2|0:2,0:2:0:0:
171,189,82568,1,8,0:2:0:0:
35,266,82715,2,0,P|145:229|228:237,1,167.439994379151,2|0,0:2|0:2,0:2:0:0:
195,230,83154,1,8,0:2:0:0:
420,239,83300,2,0,P|341:220|315:205,1,83.7199971895753,6|8,1:2|0:2,0:2:0:0:
294,149,83593,1,0,0:2:0:0:
395,317,83739,2,0,P|316:335|225:378,1,167.439994379151,8|8,0:2|0:2,0:2:0:0:
315,249,84178,1,2,0:2:0:0:
213,191,84324,1,10,0:2:0:0:
285,70,84471,86,0,B|276:116|276:116|304:167,1,83.7199971895753,4|0,1:2|1:2,0:2:0:0:
293,148,84690,1,0,1:2:0:0:
293,148,84764,1,0,1:2:0:0:
197,59,84910,2,0,L|145:47,3,41.8599985947876,2|0|0|0,1:2|1:2|1:2|1:2,1:2:0:0:
233,42,85203,1,8,0:3:0:0:
184,136,85349,1,4,0:3:0:0:
233,42,85495,1,4,0:3:0:0:
264,230,85642,22,0,B|203:157|308:72|416:112|388:344,1,387.659980479768,6|8,1:2|0:2,0:2:0:0:
176,300,86227,69,2,0:2:0:0:
250,258,86373,1,8,0:2:0:0:
355,299,86520,1,2,0:2:0:0:
367,384,86666,1,8,0:2:0:0:
284,332,86812,6,0,L|279:220,1,83.7199971895753,2|8,1:2|0:2,0:2:0:0:
280,248,87105,1,2,0:2:0:0:
205,130,87251,2,0,L|208:46,1,83.7199971895753,10|0,0:2|0:2,0:2:0:0:
233,0,87544,2,0,L|236:83,1,83.7199971895753,8|0,0:2|0:2,0:2:0:0:
138,28,87837,1,8,0:2:0:0:
381,198,87983,6,0,P|397:112|276:209,1,387.659980479768,6|8,1:2|0:2,0:2:0:0:
369,288,88568,69,2,0:2:0:0:
279,248,88715,1,8,0:2:0:0:
176,311,88861,1,2,0:2:0:0:
101,254,89007,1,8,0:2:0:0:
186,152,89154,6,0,P|196:215|202:250,1,83.7199971895753,2|8,1:2|0:2,0:2:0:0:
199,234,89446,1,2,0:2:0:0:
115,79,89593,2,0,P|105:142|99:177,1,83.7199971895753,10|0,0:2|0:2,0:2:0:0:
83,190,89885,2,0,P|76:148|69:107,1,83.7199971895753,8|0,0:2|0:2,0:2:0:0:
109,0,90178,1,8,0:2:0:0:
248,114,90324,85,6,1:2:0:0:
330,78,90471,2,0,P|272:68|226:52,1,83.7199971895753,8|0,0:2|0:2,0:0:0:0:
396,123,90764,2,0,P|436:111|477:105,1,83.7199971895753,10|0,0:2|0:2,0:2:0:0:
402,43,91056,1,8,0:2:0:0:
319,154,91203,2,0,P|332:212|336:244,1,83.7199971895753,2|8,0:2|0:2,0:2:0:0:
179,334,91495,1,6,1:2:0:0:
108,273,91642,2,0,P|174:290|215:295,1,83.7199971895753,8|0,0:2|0:2,0:0:0:0:
251,236,91934,1,8,0:2:0:0:
137,135,92081,1,2,0:2:0:0:
180,204,92227,2,0,P|301:186|369:172,1,167.439994379151,8|8,0:2|0:2,0:0:0:0:
460,62,92666,5,6,1:2:0:0:
418,155,92812,2,0,P|408:81|404:41,1,83.7199971895753,8|0,0:2|0:2,0:0:0:0:
455,221,93105,2,0,P|450:262|444:303,1,83.7199971895753,8|0,0:2|0:0,0:2:0:0:
494,155,93398,1,8,0:2:0:0:
378,222,93544,2,0,P|303:206|274:201,1,83.7199971895753,2|10,0:2|0:2,0:0:0:0:
144,180,93837,85,12,1:2:0:0:
144,180,93910,1,0,1:2:0:0:
144,180,93983,2,0,L|195:171,1,41.8599985947876,0|0,1:2|0:2,0:2:0:0:
115,259,94129,2,0,L|73:251,1,41.8599985947876,8|0,1:2|0:2,0:2:0:0:
94,328,94276,2,0,L|52:320,3,41.8599985947876,8|0|0|0,1:2|0:2|0:2|0:2,0:2:0:0:
227,265,94568,1,8,1:2:0:0:
227,265,94642,1,8,1:2:0:0:
227,265,94715,2,0,L|268:257,3,41.8599985947876,8|4|4|4,1:2|0:3|0:3|0:3,0:2:0:0:
334,308,95007,70,0,P|339:233|347:141,1,167.439994379151,14|0,0:2|1:2,0:2:0:0:
334,308,95446,1,2,1:2:0:0:
262,140,95593,2,0,P|188:156|148:162,1,83.7199971895753,8|0,0:2|0:2,0:2:0:0:
324,90,95885,2,0,P|364:99|405:107,1,83.7199971895753,2|0,1:2|0:2,0:2:0:0:
164,15,96178,2,0,P|87:49|82:147,1,167.439994379151,10|0,0:2|0:2,0:2:0:0:
125,272,96617,2,0,P|115:195|114:157,1,83.7199971895753,8|2,0:2|1:2,0:2:0:0:
74,328,96910,1,12,0:2:0:0:
46,259,97056,1,4,0:3:0:0:
46,259,97203,1,4,0:3:0:0:
153,351,97349,6,0,B|251:354|199:297|304:298,1,167.439994379151,14|0,0:2|1:2,0:2:0:0:
411,249,97788,2,0,P|354:239|311:220,1,83.7199971895753,2|8,1:2|0:2,0:2:0:0:
463,194,98081,1,2,0:2:0:0:
439,323,98227,2,0,P|382:333|339:352,1,83.7199971895753,2|0,1:2|0:2,0:2:0:0:
409,139,98520,2,0,P|340:74|270:108,1,167.439994379151,10|0,0:2|0:2,0:2:0:0:
130,89,98959,2,0,P|272:57|315:40,1,167.439994379151,12|0,0:2|0:2,0:2:0:0:
154,13,99398,1,8,0:2:0:0:
224,150,99544,1,8,0:2:0:0:
224,150,99617,1,8,0:2:0:0:
224,150,99690,85,4,1:2:0:0:
188,216,99837,1,10,0:2:0:0:
221,280,99983,1,2,0:2:0:0:
259,215,100129,1,10,0:2:0:0:
150,283,100276,2,0,P|160:342|164:380,1,83.7199971895753,2|8,0:2|0:2,0:2:0:0:
77,278,100568,2,0,P|87:337|91:375,1,83.7199971895753,2|8,0:2|0:2,0:2:0:0:
259,215,100861,2,0,P|249:274|245:312,1,83.7199971895753,2|8,1:2|0:2,0:2:0:0:
332,210,101153,2,0,P|322:269|318:307,1,83.7199971895753,2|8,0:2|0:2,0:2:0:0:
176,85,101446,2,0,P|186:144|190:182,1,83.7199971895753,2|8,0:2|0:2,0:2:0:0:
377,27,101738,2,0,P|369:68|364:109,1,83.7199971895753,2|8,0:2|0:2,0:2:0:0:
258,23,102032,6,0,L|196:9,3,41.8599985947876,8|0|0|0,1:2|0:2|0:2|0:2,0:2:0:0:
216,93,102324,2,0,L|160:81,1,41.8599985947876,8|0,1:2|0:2,0:2:0:0:
323,118,102471,2,0,L|385:104,3,41.8599985947876,8|0|0|0,1:2|0:2|0:2|0:2,0:2:0:0:
365,188,102763,2,0,L|421:176,1,41.8599985947876,12|0,1:3|0:2,0:2:0:0:
244,180,102910,2,0,L|284:188,1,41.8599985947876,12|0,1:3|0:2,0:2:0:0:
139,227,103056,2,0,L|179:218,1,41.8599985947876,4|0,1:3|0:2,0:2:0:0:
73,181,103203,2,0,L|23:171,3,41.8599985947876,4|0|0|0,1:3|0:3|0:3|0:3,0:3:0:0:
139,306,103495,2,0,L|180:297,3,41.8599985947876,6|0|0|0,1:3|0:3|0:3|0:3,0:3:0:0:
266,152,103788,2,0,L|225:144,3,41.8599985947876,6|0|0|0,1:3|0:3|0:3|0:3,0:3:0:0:
372,306,104081,1,14,0:2:0:0:
372,306,104373,6,0,P|383:233|391:197,1,92.8200005665283,14|0,0:2|0:2,0:2:0:0:
185,136,104666,2,0,P|193:181|199:227,1,92.8200005665283,8|0,0:2|0:2,0:2:0:0:
342,57,104959,2,0,P|414:32|468:28,1,92.8200005665283,8|0,0:2|0:2,0:2:0:0:
283,192,105251,1,10,0:2:0:0:
189,56,105398,1,2,0:2:0:0:
368,159,105544,6,0,P|362:231|345:368,1,185.640001133057,14|8,0:2|0:2,0:2:0:0:
214,157,105983,1,0,0:2:0:0:
342,57,106129,2,0,P|416:83|459:122,1,92.8200005665283,8|0,0:2|0:2,0:2:0:0:
283,192,106422,1,10,0:2:0:0:
189,56,106568,1,2,0:2:0:0:
189,56,106642,1,0,0:2:0:0:
189,56,106715,86,0,P|109:58|81:177,1,185.640001133057,14|8,0:2|0:2,0:2:0:0:
178,293,107154,1,2,0:2:0:0:
246,151,107300,2,0,P|168:134|139:124,1,92.8200005665283,10|0,0:2|0:2,0:2:0:0:
252,320,107593,2,0,P|296:307|342:299,1,92.8200005665283,10|0,0:2|0:2,0:2:0:0:
482,160,107885,6,0,B|365:146|427:230|290:210,1,185.640001133057,14|8,0:2|0:2,0:2:0:0:
214,72,108324,1,2,0:2:0:0:
214,72,108398,1,0,0:2:0:0:
214,72,108471,2,0,L|222:21,3,46.4100002832642,10|0|0|0,0:2|0:2|0:2|0:2,0:2:0:0:
305,123,108764,1,10,0:2:0:0:
106,178,108910,1,2,0:2:0:0:
312,263,109056,86,0,P|241:283|193:306,1,92.8200005665283,14|0,0:2|0:2,0:2:0:0:
380,81,109349,2,0,P|425:91|468:108,1,92.8200005665283,8|0,0:2|0:2,0:2:0:0:
404,321,109642,2,0,P|393:257|390:213,1,92.8200005665283,8|0,0:2|0:2,0:2:0:0:
396,203,109861,1,0,0:2:0:0:
395,204,109934,1,10,0:2:0:0:
314,355,110081,1,2,0:2:0:0:
265,170,110227,6,0,P|191:147|138:241,2,185.640001133057,14|10|8,0:2|0:2|0:2,0:2:0:0:
168,312,110959,2,0,L|114:324,1,46.4100002832642,2|0,0:2|0:2,0:2:0:0:
54,267,111105,1,10,0:2:0:0:
181,102,111251,1,2,0:2:0:0:
181,102,111324,1,0,0:2:0:0:
181,102,111398,86,0,B|271:81|244:169|371:159,1,185.640001133057,14|0,0:2|0:2,0:2:0:0:
473,55,111837,1,10,0:2:0:0:
423,209,111983,2,0,P|344:196|298:184,1,92.8200005665283,2|0,0:2|0:2,0:2:0:0:
277,45,112276,2,0,P|231:54|185:60,1,92.8200005665283,8|0,0:2|0:2,0:2:0:0:
108,40,112495,1,0,0:2:0:0:
108,40,112568,6,0,P|100:100|96:116,1,46.4100002832642,10|0,0:2|3:2,0:2:0:0:
31,49,112715,2,0,P|23:109|19:125,3,46.4100002832642,8|0|2|0,0:2|3:2|3:2|3:2,0:2:0:0:
154,162,113007,2,0,P|162:222|166:238,1,46.4100002832642,8|0,0:2|3:2,0:2:0:0:
231,171,113154,2,0,P|239:231|243:247,3,46.4100002832642,10|0|0|0,0:2|3:2|3:2|3:2,0:2:0:0:
92,305,113446,53,14,0:2:0:0:
88,301,113739,22,0,P|152:287|199:283,1,92.8200005665283,14|0,0:2|0:2,0:2:0:0:
409,188,114032,2,0,P|363:181|317:171,1,92.8200005665283,8|0,0:2|0:2,0:2:0:0:
437,118,114324,2,0,P|391:111|345:101,1,92.8200005665283,8|0,0:2|0:2,0:2:0:0:
179,18,114617,1,10,0:2:0:0:
254,0,114764,1,2,0:2:0:0:
150,122,114910,6,0,P|166:200|171:244,1,92.8200005665283,14|0,0:2|0:2,0:2:0:0:
343,340,115203,2,0,P|350:294|360:248,1,92.8200005665283,8|0,0:2|0:2,0:2:0:0:
272,325,115495,2,0,P|279:279|289:233,1,92.8200005665283,8|0,0:2|0:2,0:2:0:0:
436,51,115788,1,10,0:2:0:0:
341,118,115934,1,0,0:2:0:0:
225,11,116081,86,0,P|293:23|358:32,1,92.8200005665283,14|0,0:2|0:2,0:2:0:0:
417,168,116373,1,10,0:2:0:0:
243,218,116520,1,2,0:2:0:0:
463,292,116666,2,0,P|417:300|371:307,1,92.8200005665283,10|0,0:2|0:2,0:2:0:0:
258,136,116959,2,0,P|212:128|166:120,1,92.8200005665283,10|0,0:2|0:2,0:2:0:0:
95,158,117178,1,0,0:2:0:0:
95,158,117251,6,0,P|86:92|93:43,1,92.8200005665283,14|0,0:2|0:2,0:2:0:0:
186,230,117544,1,8,0:2:0:0:
91,344,117690,2,0,P|94:297|108:253,1,92.8200005665283,14|2,0:2|0:2,0:2:0:0:
247,372,117983,1,8,0:2:0:0:
363,287,118129,1,8,0:2:0:0:
363,287,118203,1,8,0:2:0:0:
363,287,118276,1,8,0:2:0:0:
454,321,118422,54,0,B|331:292|401:383|244:348,1,185.640001133057,14|0,0:2|0:2,0:2:0:0:
78,305,118861,2,0,P|174:325|238:255,1,185.640001133057,12|0,0:2|0:2,0:2:0:0:
131,143,119300,2,0,P|149:217|159:264,1,92.8200005665283,10|0,0:2|0:2,0:2:0:0:
275,36,119593,2,0,B|392:31|326:92|464:98,1,185.640001133057,14|0,0:2|0:2,0:2:0:0:
238,126,120032,2,0,P|104:104|27:107,1,185.640001133057,14|0,0:2|0:2,0:2:0:0:
268,233,120471,2,0,P|277:280|286:340,1,98.2800023994141,10|0,0:2|0:2,0:2:0:0:
269,358,120764,5,4,1:2:0:0:
350,193,120910,1,8,0:2:0:0:
350,193,120983,1,8,0:2:0:0:
350,193,121056,2,0,P|284:180|233:168,1,92.8200005665283,8|0,0:2|0:2,0:2:0:0:
121,61,121349,1,8,0:2:0:0:
121,61,121422,1,8,0:2:0:0:
121,61,121495,2,0,P|187:48|238:36,1,92.8200005665283,8|0,0:2|0:2,0:2:0:0:
13,125,121788,86,0,P|86:137|213:185,1,185.640001133057,0|8,1:2|0:2,0:2:0:0:
205,200,122154,1,8,0:2:0:0:
205,200,122227,2,0,P|217:130|227:96,1,92.8200005665283,8|0,0:3|0:2,0:2:0:0:
108,227,122520,1,8,0:2:0:0:
111,250,122593,1,8,0:2:0:0:
114,273,122666,1,8,0:2:0:0:
117,296,122739,1,8,0:2:0:0:
122,318,122812,2,0,P|53:301|6:294,1,92.8200005665283,4|0,0:3|0:2,0:2:0:0:
242,227,123105,5,12,0:2:0:0:
216,361,123251,1,4,0:3:0:0:
216,361,123398,1,4,0:3:0:0:
349,170,123544,85,12,0:2:0:0:
396,331,123690,1,4,0:3:0:0:
396,331,123837,1,4,0:3:0:0:
455,112,123983,5,8,0:2:0:0:
452,134,124056,1,8,0:2:0:0:
449,157,124129,1,8,0:2:0:0:
446,180,124202,1,8,0:2:0:0:
443,203,124275,1,12,0:2:0:0:
85,53,124568,85,6,1:2:0:0:
447,10,124861,5,6,1:2:0:0:
149,368,125154,85,6,1:2:0:0:
511,325,125446,53,6,1:2:0:0:
357,244,125593,2,0,P|432:223|479:203,1,101.920001244141,8|0,0:2|0:2,0:2:0:0:
142,282,125885,2,0,P|217:303|264:323,1,101.920001244141,10|0,0:2|0:2,0:2:0:0:
113,125,126178,1,8,0:2:0:0:
4,226,126324,1,2,0:2:0:0:
4,226,126398,1,0,0:2:0:0:
4,226,126471,1,8,0:2:0:0:
230,124,126617,1,2,1:2:0:0:
49,47,126764,2,0,P|126:28|176:13,1,101.920001244141,8|0,0:2|0:2,0:2:0:0:
263,228,127056,2,0,P|213:216|164:202,1,101.920001244141,10|0,0:2|0:2,0:2:0:0:
324,62,127349,1,8,0:2:0:0:
324,62,127422,1,0,0:0:0:0:
324,62,127495,2,0,P|307:137|307:149,1,50.9600006220703,2|0,0:2|0:0,0:0:0:0:
159,120,127642,1,8,0:2:0:0:
240,335,127788,5,6,1:2:0:0:
307,185,127934,2,0,P|320:260|335:304,1,101.920001244141,8|0,0:2|0:2,0:2:0:0:
207,48,128227,2,0,P|194:123|179:167,1,101.920001244141,10|0,0:2|0:2,0:2:0:0:
403,19,128520,1,8,0:2:0:0:
287,103,128666,1,2,0:2:0:0:
287,103,128739,1,0,0:2:0:0:
287,103,128812,1,8,0:2:0:0:
441,237,128959,1,2,1:2:0:0:
363,146,129105,2,0,P|439:128|490:114,1,101.920001244141,8|0,0:2|0:2,0:2:0:0:
327,284,129398,2,0,P|277:271|227:259,1,101.920001244141,10|0,0:2|0:2,0:2:0:0:
139,125,129690,1,8,0:2:0:0:
218,350,129837,2,0,P|168:361|118:374,1,101.920001244141,2|8,0:2|0:2,0:2:0:0:
274,179,130129,85,6,1:2:0:0:
384,341,130276,2,0,P|397:250|405:207,1,101.920001244141,8|0,0:2|0:2,0:2:0:0:
194,149,130568,2,0,P|202:199|208:249,1,101.920001244141,10|0,0:2|0:2,0:2:0:0:
299,101,130861,1,8,0:2:0:0:
129,21,131007,2,0,P|120:71|114:121,1,101.920001244141,2|8,0:2|0:2,0:2:0:0:
274,179,131300,1,2,1:2:0:0:
55,61,131446,2,0,P|70:168|81:265,1,203.840002488281,8|8,0:2|0:2,0:2:0:0:
211,75,131885,2,0,P|282:51|330:46,1,101.920001244141,2|8,0:2|0:2,0:2:0:0:
315,267,132178,2,0,P|264:257|217:239,1,101.920001244141,2|8,0:2|0:2,0:2:0:0:
407,114,132471,5,6,1:2:0:0:
461,284,132617,2,0,P|439:205|433:168,1,101.920001244141,8|0,0:2|0:2,0:2:0:0:
289,365,132910,2,0,P|311:286|317:249,1,101.920001244141,10|0,0:2|0:2,0:2:0:0:
243,128,133203,1,8,0:2:0:0:
103,304,133349,2,0,P|81:225|75:188,1,101.920001244141,2|8,0:2|0:2,0:2:0:0:
160,5,133642,1,2,1:2:0:0:
33,122,133788,2,0,P|102:136|141:157,1,101.920001244141,8|0,0:2|0:2,0:2:0:0:
282,58,134081,1,8,0:2:0:0:
342,186,134227,2,0,P|273:200|234:221,1,101.920001244141,2|8,0:2|0:2,0:2:0:0:
80,278,134520,1,12,0:3:0:0:
114,270,134593,1,4,0:3:0:0:
148,278,134666,1,4,0:3:0:0:
175,302,134739,1,4,0:3:0:0:
189,334,134812,85,4,0:2:0:0:
14,360,134959,2,0,P|2:285|11:226,1,101.920001244141,8|0,0:2|0:2,0:2:0:0:
142,117,135251,1,8,0:2:0:0:
268,282,135398,2,0,P|268:332|257:382,1,101.920001244141,2|8,0:2|0:2,0:2:0:0:
129,192,135690,1,2,0:2:0:0:
273,78,135837,2,0,P|344:55|397:56,1,101.920001244141,10|0,0:2|0:2,0:2:0:0:
433,202,136129,1,8,0:2:0:0:
183,285,136276,2,0,P|132:279|85:260,1,101.920001244141,2|8,0:2|0:2,0:2:0:0:
345,162,136568,2,0,P|363:251|367:294,1,101.920001244141,2|8,0:2|0:2,0:2:0:0:
188,110,136861,2,0,P|195:59|207:10,1,101.920001244141,2|8,0:2|0:2,0:2:0:0:
274,210,137154,5,6,0:2:0:0:
109,352,137300,2,0,P|235:313|342:306,1,203.840002488281,8|8,0:2|0:2,0:2:0:0:
370,145,137739,2,0,P|281:121|255:110,1,101.920001244141,4|8,0:2|0:2,0:2:0:0:
48,52,138032,2,0,P|96:35|145:24,1,101.920001244141,2|8,0:2|0:2,0:2:0:0:
75,215,138324,1,6,0:2:0:0:
231,49,138471,2,0,B|279:169|192:134|241:260,1,203.840002488281,8|8,0:2|0:2,0:2:0:0:
311,343,138910,2,0,P|317:267|326:211,1,101.920001244141,2|8,0:2|0:2,0:2:0:0:
149,230,139203,2,0,P|155:280|158:331,1,101.920001244141,2|8,0:2|0:2,0:2:0:0:
315,168,139495,85,6,0:2:0:0:
165,97,139642,2,0,P|93:112|43:133,1,101.920001244141,8|0,0:2|0:2,0:2:0:0:
374,100,139934,2,0,P|302:85|252:64,1,101.920001244141,8|0,0:2|0:2,0:2:0:0:
453,42,140227,1,8,0:2:0:0:
384,205,140373,1,2,0:2:0:0:
474,149,140520,2,0,P|484:244|501:354,1,203.840002488281,10|8,0:2|0:2,0:2:0:0:
384,205,140959,2,0,P|383:278|379:331,1,101.920001244141,2|8,0:2|0:2,0:2:0:0:
273,153,141251,2,0,P|273:203|275:254,1,101.920001244141,2|8,0:2|0:2,0:2:0:0:
163,195,141544,2,0,P|162:245|160:296,1,101.920001244141,2|8,0:2|0:2,0:2:0:0:
83,141,141837,38,0,L|26:129,1,50.9600006220703,14|0,0:2|0:2,0:2:0:0:
80,217,141983,2,0,L|23:205,3,50.9600006220703,8|0|0|0,0:2|0:2|0:2|0:2,0:2:0:0:
220,87,142276,2,0,L|277:75,1,50.9600006220703,8|0,0:2|0:2,0:2:0:0:
223,163,142422,2,0,L|280:151,3,50.9600006220703,8|0|0|0,0:2|0:2|0:2|0:2,0:2:0:0:
420,118,142715,1,14,0:2:0:0:
418,138,142788,1,4,0:3:0:0:
416,158,142861,1,6,0:3:0:0:
414,178,142934,1,4,0:3:0:0:
412,199,143007,2,0,L|405:274,3,50.9600006220703,12|0|0|0,0:3|0:2|0:2|0:2,0:2:0:0:
327,233,143300,2,0,L|334:307,3,50.9600006220703,4|0|0|0,0:3|0:2|0:2|0:2,0:2:0:0:
284,155,143593,5,8,0:2:0:0:
256,132,143666,1,8,0:2:0:0:
220,125,143739,1,8,0:2:0:0:
186,133,143812,1,8,0:2:0:0:
160,157,143885,1,10,0:2:0:0:
133,180,143959,1,8,0:2:0:0:
99,188,144032,1,8,0:2:0:0:
64,181,144105,1,8,0:2:0:0:
36,159,144178,37,6,0:2:0:0:
219,212,144324,2,0,P|225:280|232:351,1,101.920001244141,8|0,0:2|0:2,0:2:0:0:
364,113,144617,2,0,P|358:181|351:252,1,101.920001244141,10|0,0:2|0:2,0:2:0:0:
271,34,144910,1,8,0:2:0:0:
449,148,145056,2,0,P|446:66|441:15,1,101.920001244141,2|8,0:2|0:2,0:2:0:0:
256,132,145349,1,2,0:2:0:0:
332,295,145495,2,0,P|419:277|458:261,1,101.920001244141,8|0,0:2|0:2,0:2:0:0:
156,191,145788,2,0,P|243:209|282:225,1,101.920001244141,10|0,0:2|0:2,0:2:0:0:
85,281,146081,1,8,0:2:0:0:
113,90,146227,2,0,P|161:75|212:67,1,101.920001244141,2|8,0:2|0:2,0:2:0:0:
63,185,146520,5,6,0:2:0:0:
181,284,146666,2,0,P|191:347|197:394,1,101.920001244141,8|0,0:2|0:2,0:2:0:0:
325,179,146959,2,0,P|316:229|310:279,1,101.920001244141,10|0,0:2|0:2,0:2:0:0:
217,176,147251,1,8,0:2:0:0:
396,97,147398,2,0,P|404:147|410:197,1,101.920001244141,2|8,0:2|0:2,0:2:0:0:
271,25,147690,1,2,0:2:0:0:
383,278,147837,2,0,P|446:261|485:236,1,101.920001244141,8|0,0:2|0:2,0:2:0:0:
218,101,148129,2,0,P|267:112|312:136,1,101.920001244141,10|0,0:2|0:2,0:2:0:0:
122,240,148422,1,8,0:2:0:0:
254,361,148568,2,0,P|261:282|269:230,1,101.920001244141,2|8,0:2|0:2,0:2:0:0:
32,170,148861,86,0,P|38:220|42:271,1,101.920001244141,6|8,0:2|0:2,0:2:0:0:
146,111,149154,1,0,0:2:0:0:
74,36,149300,2,0,P|67:86|63:137,1,101.920001244141,10|0,0:2|0:2,0:2:0:0:
0,12,149593,1,8,0:2:0:0:
122,240,149739,2,0,P|118:189|111:138,1,101.920001244141,2|8,0:2|0:2,0:2:0:0:
53,302,150032,1,2,0:2:0:0:
193,175,150178,2,0,B|324:156|244:242|421:227,1,203.840002488281,8|8,0:2|0:2,0:2:0:0:
328,48,150617,2,0,P|343:124|348:157,1,101.920001244141,2|8,0:2|0:2,0:2:0:0:
447,311,150910,2,0,P|455:260|465:210,1,101.920001244141,2|8,0:2|0:2,0:2:0:0:
300,333,151203,5,6,0:2:0:0:
181,221,151349,2,0,P|262:239|307:244,1,101.920001244141,8|0,0:2|0:2,0:2:0:0:
37,349,151642,2,0,P|118:331|163:326,1,101.920001244141,10|0,0:2|0:2,0:2:0:0:
69,175,151934,1,8,0:2:0:0:
218,71,152081,2,0,P|268:79|317:91,1,101.920001244141,2|8,0:2|0:2,0:2:0:0:
146,9,152373,1,2,0:2:0:0:
148,227,152520,2,0,P|138:308|131:366,1,101.920001244141,8|0,0:2|0:2,0:2:0:0:
370,35,152812,1,8,0:2:0:0:
368,253,152959,2,0,P|378:334|385:392,1,101.920001244141,2|8,0:2|0:2,0:2:0:0:
188,145,153251,1,4,0:3:0:0:
153,139,153324,1,4,0:3:0:0:
118,148,153397,1,4,0:3:0:0:
90,169,153470,1,4,0:3:0:0:
73,200,153543,85,4,0:2:0:0:
238,267,153690,2,0,P|304:248|361:223,1,101.920001244141,8|0,0:2|0:2,0:2:0:0:
226,75,153983,1,8,0:2:0:0:
156,253,154129,2,0,P|172:318|189:360,1,101.920001244141,2|8,0:2|0:2,0:2:0:0:
266,147,154422,1,2,0:2:0:0:
156,38,154568,2,0,P|79:27|38:28,1,101.920001244141,10|0,0:2|0:2,0:2:0:0:
209,197,154861,1,8,0:2:0:0:
347,74,155007,2,0,P|358:160|364:212,1,101.920001244141,2|8,0:2|0:2,0:2:0:0:
186,68,155300,2,8,P|175:154|169:206,1,101.920001244141,2|8,0:2|0:2,0:2:0:0:
360,60,155593,2,0,P|371:146|377:198,1,101.920001244141,2|8,0:2|0:2,0:2:0:0:
208,284,155885,5,6,0:2:0:0:
415,198,156032,2,0,B|291:185|360:277|214:256,1,203.840002488281,8|8,0:2|0:2,0:2:0:0:
142,122,156471,2,0,P|216:144|272:141,1,101.920001244141,4|8,0:2|0:2,0:2:0:0:
44,254,156764,2,0,P|91:236|142:231,1,101.920001244141,2|8,0:2|0:2,0:2:0:0:
274,355,157056,1,6,0:2:0:0:
144,310,157203,1,8,0:2:0:0:
144,310,157276,1,8,0:2:0:0:
144,310,157349,1,8,0:2:0:0:
295,209,157495,1,8,0:2:0:0:
203,138,157642,1,14,0:3:0:0:
275,91,157788,1,12,0:3:0:0:
219,35,157934,1,14,0:3:0:0:
219,35,158081,1,12,0:3:0:0:
225,269,158227,22,0,P|333:281|365:165,1,225.679991046631,6|0,1:2|3:2,0:2:0:0:
372,187,159105,1,2,0:2:0:0:
307,154,159251,1,2,0:2:0:0:
218,197,159398,2,0,P|311:178|348:175,1,112.839995523316,4|2,1:2|0:2,0:2:0:0:
111,101,159983,2,0,P|166:108|221:121,1,112.839995523316,6|2,1:2|0:2,0:2:0:0:
46,153,160422,1,0,1:2:0:0:
46,153,160495,1,0,1:2:0:0:
46,153,160568,6,0,L|55:196,1,32.7600007998047,10|0,0:3|0:2,0:2:0:0:
78,242,160715,2,0,L|84:209,1,32.7600007998047,10|0,0:3|0:2,0:2:0:0:
135,129,160861,2,0,L|147:176,1,37.3100005693054,10|0,0:3|0:2,0:2:0:0:
148,273,161007,2,0,L|157:236,1,37.3100005693054,10|0,0:3|0:2,0:2:0:0:
228,107,161154,2,0,L|239:147,1,41.8599985947876,6|0,0:3|0:2,0:2:0:0:
221,300,161300,2,0,L|230:249,1,41.8599985947876,6|0,0:3|0:2,0:2:0:0:
321,85,161446,2,0,L|329:130,1,46.4100002832642,6|0,0:3|0:2,0:2:0:0:
295,322,161592,2,0,L|306:273,1,46.4100002832642,6|0,0:3|0:2,0:2:0:0:
406,68,161739,1,12,0:2:0:0:
42,374,162032,85,6,1:2:0:0:
153,0,162324,1,6,1:2:0:0:
377,361,162617,1,6,1:2:0:0:
118,103,162910,21,6,1:2:0:0:
209,254,163056,2,0,P|219:180|229:136,1,92.8200005665283,8|0,0:2|1:2,0:2:0:0:
355,53,163349,2,0,P|363:98|368:144,1,92.8200005665283,8|0,0:2|1:2,0:2:0:0:
223,77,163642,1,8,0:2:0:0:
302,214,163788,1,0,1:2:0:0:
223,77,163934,1,8,0:2:0:0:
163,213,164081,5,2,1:2:0:0:
165,231,164154,1,0,3:2:0:0:
167,249,164227,1,8,0:2:0:0:
169,268,164300,1,0,3:2:0:0:
171,286,164373,1,0,1:2:0:0:
245,162,164520,2,0,P|301:137|358:136,1,92.8200005665283,8|0,0:2|1:2,0:2:0:0:
260,280,164812,1,8,0:2:0:0:
161,131,164959,2,0,P|105:106|48:105,1,92.8200005665283,0|8,1:2|0:2,0:2:0:0:
223,77,165251,85,6,1:2:0:0:
132,233,165398,1,8,0:2:0:0:
132,233,165471,1,0,3:2:0:0:
132,233,165544,1,0,1:2:0:0:
260,165,165690,1,8,0:2:0:0:
271,314,165837,1,0,1:2:0:0:
209,242,165983,1,8,0:2:0:0:
345,173,166129,2,0,P|336:251|333:297,1,92.8200005665283,0|8,1:2|0:2,0:2:0:0:
187,134,166422,6,0,P|173:80|170:71,3,46.4100002832642,2|0|8|0,1:2|1:2|1:2|1:2,1:2:0:0:
307,47,166715,2,0,P|300:69|295:92,3,46.4100002832642,0|0|8|0,1:2|1:2|1:2|1:2,1:2:0:0:
156,113,167007,2,0,P|150:90|144:67,3,46.4100002832642,0|0|8|0,1:2|1:2|1:2|1:2,1:2:0:0:
336,77,167300,2,0,P|329:99|324:122,3,46.4100002832642,0|0|8|0,1:2|1:2|1:2|1:2,1:2:0:0:
224,184,167593,85,6,1:2:0:0:
410,165,167739,2,0,P|332:195|307:211,1,92.8200005665283,8|0,0:2|1:2,0:2:0:0:
137,234,168032,2,0,P|181:247|222:268,1,92.8200005665283,8|0,0:2|1:2,0:2:0:0:
176,112,168324,1,8,0:2:0:0:
324,199,168471,1,0,1:2:0:0:
176,112,168617,1,8,0:2:0:0:
298,282,168764,5,2,1:2:0:0:
316,277,168837,1,0,3:2:0:0:
334,273,168910,1,8,0:2:0:0:
352,269,168983,1,0,3:2:0:0:
370,264,169056,1,0,1:2:0:0:
274,118,169203,2,0,P|265:188|261:228,1,92.8200005665283,8|0,0:2|1:2,0:2:0:0:
212,304,169495,1,8,0:2:0:0:
358,171,169642,2,0,P|364:216|369:263,1,92.8200005665283,0|8,1:2|0:2,0:2:0:0:
221,193,169934,85,6,1:2:0:0:
373,93,170081,1,8,0:2:0:0:
373,93,170154,1,0,3:2:0:0:
373,93,170227,1,0,1:2:0:0:
228,31,170373,1,8,0:2:0:0:
374,180,170520,2,0,L|384:250,3,46.4100002832642,0|0|8|0,1:2|1:2|1:2|1:2,1:2:0:0:
280,132,170812,2,0,L|286:86,3,46.4100002832642,0|0|8|0,1:2|1:2|1:2|1:2,1:2:0:0:
289,218,171105,6,0,L|231:234,1,46.4100002832642,0|0,1:2|1:2,1:2:0:0:
223,258,171251,2,0,L|267:245,1,46.4100002832642,8|0,1:2|1:2,1:2:0:0:
348,197,171398,86,0,L|283:180,1,46.4100002832642,0|0,1:2|1:2,1:2:0:0:
176,277,171544,2,0,L|220:288,1,46.4100002832642,8|0,1:2|1:2,1:2:0:0:
381,330,171690,5,14,1:2:0:0:
180,348,171837,2,0,L|394:297,1,185.640001133057,8|0,1:2|1:2,1:2:0:0:
464,269,172276,54,0,P|477:217|473:204,1,46.4100002832642,14|0,1:2|1:2,1:2:0:0:
421,172,172422,2,0,P|393:126|381:119,1,46.4100002832642,0|0,1:2|1:2,1:2:0:0:
328,96,172568,2,0,P|276:82|262:87,3,46.4100002832642,0|0|0|0,1:2|1:2|1:2|1:2,1:2:0:0:
459,284,172861,54,0,P|472:232|468:219,1,46.4100002832642,10|0,1:2|1:2,1:2:0:0:
416,187,173007,2,0,P|388:141|376:134,1,46.4100002832642,8|0,1:2|1:2,1:2:0:0:
323,111,173153,2,0,P|271:97|257:102,3,46.4100002832642,8|0|0|0,1:2|1:2|1:2|1:2,1:2:0:0:
189,317,173446,54,0,P|180:281|182:273,1,46.4100002832642,10|0,1:2|1:2,1:2:0:0:
218,251,173592,2,0,P|236:219|244:215,1,46.4100002832642,0|0,1:2|1:2,1:2:0:0:
280,200,173739,2,0,P|315:191|323:193,3,46.4100002832642,0|0|0|0,1:2|1:2|1:2|1:2,1:2:0:0:
164,339,174031,38,0,P|155:303|157:295,1,46.4100002832642,10|0,1:2|1:2,1:2:0:0:
208,221,174177,2,0,P|226:189|234:185,1,46.4100002832642,8|0,1:2|1:2,1:2:0:0:
311,159,174324,2,0,P|346:150|354:152,3,46.4100002832642,12|0|0|0,1:2|1:2|1:2|1:2,1:2:0:0:
155,147,174617,38,0,L|79:131,1,46.4100002832642,14|0,1:2|1:2,1:2:0:0:
280,71,174764,2,0,L|234:80,1,46.4100002832642,0|0,1:2|1:2,1:2:0:0:
422,101,174910,2,0,L|376:91,3,46.4100002832642,0|0|0|0,1:2|1:2|1:2|1:2,1:2:0:0:
169,164,175203,54,0,L|93:148,1,46.4100002832642,10|0,1:2|1:2,1:2:0:0:
294,88,175350,2,0,L|248:97,1,46.4100002832642,8|0,1:2|1:2,1:2:0:0:
436,118,175496,2,0,L|390:108,3,46.4100002832642,8|0|0|0,1:2|1:2|1:2|1:2,1:2:0:0:
300,172,175788,5,10,1:2:0:0:
302,200,175861,1,2,1:2:0:0:
305,228,175934,1,2,1:2:0:0:
308,256,176007,1,2,1:2:0:0:
311,283,176080,1,2,1:2:0:0:
314,311,176153,1,2,1:2:0:0:
314,311,176227,2,0,L|388:296,1,46.4100002832642,2|0,1:2|1:2,1:2:0:0:
458,351,176373,86,0,B|268:337|268:337|284:331|284:331|76:313,1,388.56998399141,12|0,1:2|1:2,1:2:0:0:
42,254,176959,54,0,L|22:202,1,46.4100002832642,14|0,1:2|1:2,1:2:0:0:
146,181,177105,2,0,L|166:129,1,46.4100002832642,0|0,1:2|1:2,1:2:0:0:
262,189,177251,2,0,L|329:167,3,46.4100002832642,0|0|0|0,1:2|1:2|1:2|1:2,1:2:0:0:
50,275,177544,38,0,L|30:223,1,46.4100002832642,10|0,1:2|1:2,1:2:0:0:
154,202,177690,2,0,L|174:150,1,46.4100002832642,8|0,1:2|1:2,1:2:0:0:
270,210,177836,2,0,L|337:188,3,46.4100002832642,8|0|0|0,1:2|1:2|1:2|1:2,1:2:0:0:
427,369,178129,38,0,L|452:306,1,46.4100002832642,10|0,1:2|1:2,1:2:0:0:
343,315,178275,2,0,L|325:266,1,46.4100002832642,0|0,1:2|1:2,1:2:0:0:
250,321,178422,2,0,L|195:303,3,46.4100002832642,0|0|0|0,1:2|1:2|1:2|1:2,1:2:0:0:
398,185,178715,53,10,1:2:0:0:
366,191,178788,1,8,1:2:0:0:
334,197,178861,1,8,1:2:0:0:
302,204,178934,1,8,1:2:0:0:
270,210,179007,1,12,1:2:0:0:
477,349,179300,53,6,1:2:0:0:
77,52,179739,1,6,1:2:0:0:
77,52,180178,86,0,P|66:152|42:227,1,163.800003999024,4|0,1:2|0:2,0:2:0:0:
47,212,180617,5,8,0:2:0:0:
176,99,180764,1,8,0:2:0:0:
75,304,180910,1,8,0:2:0:0:
264,144,181056,85,8,0:3:0:0:
331,265,181203,1,8,0:3:0:0:
402,131,181349,1,4,0:3:0:0:
484,258,181495,1,4,0:3:0:0:
219,211,181642,6,0,P|371:178|443:333,1,338.519986569947,6|0,1:2|0:2,0:2:0:0:
85,246,182812,86,0,P|123:106|318:64,1,338.519986569947,6|0,1:2|0:2,0:2:0:0:
196,356,183983,6,0,P|242:311|475:389,1,338.519986569947,6|0,1:2|0:2,0:2:0:0:
103,342,185154,86,0,P|98:281|95:271,1,56.4199977616578,6|0,1:2|0:2,0:2:0:0:
150,118,185446,1,4,0:3:0:0:
80,145,185593,1,4,0:3:0:0:
293,254,185739,6,0,P|298:193|301:183,1,56.4199977616578,6|0,1:2|0:2,0:2:0:0:
246,30,186031,1,4,0:3:0:0:
316,57,186178,1,4,0:3:0:0:
143,211,186324,86,0,P|264:240|166:376,1,338.519986569947,6|0,1:2|0:2,0:2:0:0:
294,41,187495,6,0,P|408:64|480:366,1,447.720006831665,6|0,1:2|0:2,0:2:0:0:
53,181,188666,86,0,P|130:131|415:203,1,393.120009597656,6|0,1:2|0:2,0:2:0:0:
230,311,189690,1,0,1:2:0:0:
230,311,189764,1,0,1:2:0:0:
230,311,189837,6,0,P|184:305|142:294,1,65.5200015996094,0|0,1:2|0:2,0:2:0:0:
115,236,190129,2,0,P|147:232|179:225,1,65.5200015996094,0|0,1:2|0:2,0:2:0:0:
72,300,190422,85,8,0:2:0:0:
51,274,190495,1,8,0:2:0:0:
40,244,190568,1,8,0:2:0:0:
40,211,190641,1,8,0:2:0:0:
51,181,190715,2,0,P|105:157|164:148,1,98.2800023994141,12|0,0:2|0:2,0:2:0:0:
211,113,191007,6,0,P|163:104|103:89,1,83.7199971895753,6|0,1:2|0:2,0:2:0:0:
297,40,191300,1,8,0:2:0:0:
202,202,191446,2,0,P|242:192|283:185,1,83.7199971895753,2|0,0:2|1:2,0:2:0:0:
185,29,191739,1,0,1:2:0:0:
363,125,191885,2,0,P|358:194|356:234,1,83.7199971895753,10|0,0:2|0:2,0:2:0:0:
165,322,192178,86,0,P|149:222|130:137,1,167.439994379151,2|8,1:2|0:2,0:2:0:0:
257,265,192617,2,0,P|263:202|270:143,1,83.7199971895753,2|0,0:2|1:2,0:2:0:0:
346,307,192910,1,0,1:2:0:0:
363,125,193056,2,0,P|367:166|371:208,1,83.7199971895753,10|0,0:2|0:2,0:2:0:0:
190,58,193349,6,0,P|259:35|296:19,1,83.7199971895753,6|0,1:2|0:2,0:2:0:0:
166,183,193642,1,8,0:2:0:0:
27,75,193788,2,0,P|66:89|106:102,1,83.7199971895753,2|0,0:2|1:2,0:2:0:0:
274,66,194081,1,0,1:2:0:0:
82,178,194227,2,0,P|96:241|104:283,1,83.7199971895753,10|0,0:2|0:2,0:2:0:0:
319,141,194520,85,2,1:2:0:0:
251,236,194666,1,0,1:2:0:0:
396,164,194812,1,10,0:2:0:0:
413,279,194959,1,0,0:2:0:0:
478,145,195105,1,2,1:2:0:0:
478,145,195178,1,0,1:2:0:0:
478,145,195251,1,0,1:2:0:0:
343,318,195398,2,0,P|337:231|328:171,1,125.579995784363,14|0,0:2|0:2,0:2:0:0:
271,141,195690,6,0,P|326:117|378:109,1,83.7199971895753,6|0,1:2|0:2,0:2:0:0:
177,56,195983,1,8,0:2:0:0:
201,214,196129,2,0,P|256:235|299:267,1,83.7199971895753,2|0,0:2|1:2,0:2:0:0:
194,87,196422,1,0,1:2:0:0:
107,224,196568,2,0,P|131:279|140:326,1,83.7199971895753,10|0,0:2|0:2,0:2:0:0:
6,95,196861,86,0,P|68:29|150:51,1,167.439994379151,2|8,1:2|0:2,0:2:0:0:
349,109,197300,2,0,P|268:116|217:54,1,167.439994379151,2|0,0:2|1:2,0:2:0:0:
408,63,197739,2,0,P|428:127|426:164,1,83.7199971895753,10|0,0:2|0:2,0:2:0:0:
286,274,198032,5,6,1:2:0:0:
342,144,198178,1,0,1:2:0:0:
315,338,198324,1,8,0:2:0:0:
257,122,198471,2,0,P|270:175|274:211,1,83.7199971895753,2|0,0:2|1:2,0:2:0:0:
238,328,198764,1,0,1:2:0:0:
380,195,198910,2,0,P|367:248|363:284,1,83.7199971895753,10|0,1:2|0:2,0:2:0:0:
372,307,199129,1,0,1:2:0:0:
372,307,199203,85,14,0:2:0:0:
319,73,199349,1,0,1:2:0:0:
176,245,199495,2,0,P|119:230|83:226,1,83.7199971895753,8|0,0:2|1:2,0:2:0:0:
169,117,199788,1,8,1:2:0:0:
192,134,199861,1,8,0:2:0:0:
220,140,199934,1,8,0:2:0:0:
249,134,200007,1,8,0:2:0:0:
272,117,200080,1,8,1:2:0:0:
294,100,200154,1,8,0:2:0:0:
322,93,200227,1,8,0:2:0:0:
351,100,200300,1,8,0:2:0:0:
374,118,200373,5,2,1:2:0:0:
343,262,200520,2,0,P|327:198|319:141,1,92.8200005665283,12|0,0:2|1:2,0:2:0:0:
279,297,200812,2,0,P|263:233|254:174,1,92.8200005665283,14|0,0:2|1:2,0:2:0:0:
224,57,201105,1,8,0:2:0:0:
135,192,201251,2,0,P|145:151|156:101,1,92.8200005665283,2|8,1:2|0:2,0:2:0:0:
240,205,201544,1,2,1:2:0:0:
105,333,201690,2,0,P|39:322|-4:322,1,92.8200005665283,12|0,0:2|1:2,0:2:0:0:
128,262,201983,2,0,P|62:251|14:250,1,92.8200005665283,12|0,0:2|1:2,0:2:0:0:
269,351,202276,1,8,0:2:0:0:
356,194,202422,1,0,1:2:0:0:
225,285,202568,1,8,0:2:0:0:
407,268,202715,85,2,1:2:0:0:
278,98,202861,2,0,P|275:163|269:213,1,92.8200005665283,12|0,0:2|1:2,0:2:0:0:
209,78,203154,2,0,P|206:143|200:199,1,92.8200005665283,14|0,0:2|1:2,0:2:0:0:
368,37,203446,1,8,0:2:0:0:
433,192,203593,2,0,P|429:145|427:99,1,92.8200005665283,2|8,1:2|0:2,0:2:0:0:
340,291,203885,1,2,1:2:0:0:
414,270,204032,1,8,0:2:0:0:
354,214,204178,1,0,1:2:0:0:
280,235,204325,1,8,0:2:0:0:
394,341,204471,2,0,L|456:322,3,46.4100002832642,0|0|8|0,1:2|1:2|1:2|1:2,1:2:0:0:
228,297,204764,2,0,L|272:310,3,46.4100002832642,0|0|8|0,1:2|1:2|1:2|1:2,1:2:0:0:
97,349,205056,5,2,1:2:0:0:
176,211,205203,2,0,P|115:234|67:243,1,92.8200005665283,12|0,0:2|1:2,0:2:0:0:
124,157,205495,2,0,P|79:145|36:128,1,92.8200005665283,14|0,0:2|1:2,0:2:0:0:
193,310,205788,1,8,0:2:0:0:
204,134,205934,2,0,P|248:145|291:162,1,92.8200005665283,2|8,1:2|0:2,0:2:0:0:
329,329,206227,1,2,1:2:0:0:
421,202,206373,2,0,P|434:268|445:318,1,92.8200005665283,12|0,0:2|1:2,0:2:0:0:
350,157,206666,2,0,P|341:202|331:247,1,92.8200005665283,14|0,0:2|1:2,0:2:0:0:
444,85,206959,1,8,0:2:0:0:
249,71,207105,2,0,P|257:116|267:161,1,92.8200005665283,2|8,1:2|0:2,0:2:0:0:
346,7,207398,85,2,1:2:0:0:
181,123,207544,2,0,P|121:109|75:95,1,92.8200005665283,12|0,0:2|1:2,0:2:0:0:
164,193,207837,2,0,P|104:179|58:165,1,92.8200005665283,14|0,0:2|1:2,0:2:0:0:
249,71,208129,1,8,0:2:0:0:
250,266,208276,2,0,P|205:278|160:288,1,92.8200005665283,2|0,1:2|0:2,0:2:0:0:
317,155,208568,2,0,P|368:169|389:178,3,46.4100002832642,2|0|8|0,1:2|1:2|1:2|1:2,1:2:0:0:
402,237,208861,2,0,P|424:230|446:225,3,46.4100002832642,0|0|8|0,1:2|1:2|1:2|1:2,1:2:0:0:
445,143,209154,1,0,1:2:0:0:
346,290,209300,1,8,0:2:0:0:
394,92,209446,1,8,0:2:0:0:
399,123,209519,1,8,0:2:0:0:
405,155,209592,1,8,0:2:0:0:
411,187,209665,1,8,0:2:0:0:
417,219,209738,5,2,1:2:0:0:
315,107,209885,2,0,P|257:125|203:163,1,92.8200005665283,12|0,0:2|1:2,0:2:0:0:
277,44,210178,2,0,P|219:62|165:100,1,92.8200005665283,14|0,0:2|1:2,0:2:0:0:
104,240,210471,1,8,0:2:0:0:
107,54,210617,2,0,P|123:126|133:164,1,92.8200005665283,2|8,1:2|0:2,0:2:0:0:
81,313,210910,1,2,1:2:0:0:
284,228,211056,2,0,P|229:218|174:203,1,92.8200005665283,12|0,0:2|1:2,0:2:0:0:
282,302,211349,2,0,P|227:292|172:277,1,92.8200005665283,12|0,0:2|1:2,0:2:0:0:
342,166,211642,1,8,0:2:0:0:
437,292,211788,1,0,1:2:0:0:
507,152,211934,1,8,0:2:0:0:
371,251,212081,85,2,1:2:0:0:
414,52,212227,2,0,P|429:123|442:179,1,92.8200005665283,12|0,0:2|1:2,0:2:0:0:
389,13,212520,2,0,P|379:58|369:103,1,92.8200005665283,14|0,0:2|1:2,0:2:0:0:
302,288,212812,1,8,0:2:0:0:
281,55,212959,2,0,P|290:100|300:145,1,92.8200005665283,2|8,1:2|0:2,0:2:0:0:
182,258,213251,5,2,1:2:0:0:
348,206,213398,1,8,0:2:0:0:
187,104,213544,1,0,1:2:0:0:
244,214,213690,1,8,0:2:0:0:
354,89,213837,85,0,1:2:0:0:
260,138,213983,1,8,1:2:0:0:
342,291,214129,1,0,1:2:0:0:
436,242,214275,1,8,1:2:0:0:
348,206,214422,5,2,1:2:0:0:
445,353,214568,2,0,P|447:306|451:260,1,92.8200005665283,12|0,0:2|1:2,0:2:0:0:
368,370,214861,2,0,P|370:323|374:277,1,92.8200005665283,14|0,0:2|1:2,0:2:0:0:
268,108,215154,1,8,0:2:0:0:
283,322,215300,2,0,P|280:275|276:229,1,92.8200005665283,2|8,1:2|0:2,0:2:0:0:
334,39,215593,1,2,1:2:0:0:
197,181,215739,2,0,P|137:166|88:142,1,92.8200005665283,12|0,0:2|1:2,0:2:0:0:
168,95,216032,2,0,P|125:112|79:122,1,92.8200005665283,14|0,0:2|1:2,0:2:0:0:
214,18,216324,1,8,0:2:0:0:
111,203,216471,2,0,P|126:272|133:326,1,92.8200005665283,2|8,1:2|0:2,0:2:0:0:
288,124,216764,85,14,0:2:0:0:
288,124,216837,1,8,0:2:0:0:
288,124,216910,1,8,0:2:0:0:
288,124,216983,1,8,0:2:0:0:
288,124,217056,2,0,L|347:113,1,46.4100002832642,0|0,1:2|1:2,0:2:0:0:
258,234,217203,1,8,0:2:0:0:
258,234,217276,1,8,0:2:0:0:
258,234,217349,1,14,0:2:0:0:
258,234,217422,1,8,0:2:0:0:
258,234,217495,2,0,L|199:223,1,46.4100002832642,0|0,1:2|1:2,0:2:0:0:
315,327,217642,2,0,L|374:316,3,46.4100002832642,8|0|0|0,0:2|1:2|1:2|1:2,0:2:0:0:
392,230,217934,5,12,0:2:0:0:
179,333,218081,2,0,L|84:316,1,92.8200005665283,8|0,0:2|1:2,0:2:0:0:
349,128,218373,1,12,0:2:0:0:
136,231,218520,2,0,L|41:214,1,92.8200005665283,8|0,0:2|1:2,0:2:0:0:
293,68,218812,2,0,L|460:112,1,139.230000849792,12|0,0:2|0:2,0:2:0:0:
458,115,219105,5,14,0:2:0:0:
430,205,219251,1,0,0:2:0:0:
349,128,219398,1,10,0:2:0:0:
321,218,219544,1,0,0:2:0:0:
223,184,219690,2,0,P|274:175|337:162,1,92.8200005665283,10|0,0:2|0:2,0:2:0:0:
373,280,219910,1,0,0:2:0:0:
373,280,219983,2,0,P|327:271|281:262,1,92.8200005665283,10|0,0:2|0:2,0:2:0:0:
142,51,220276,5,14,0:2:0:0:
248,71,220422,1,2,0:2:0:0:
223,184,220568,1,10,0:2:0:0:
117,164,220714,1,2,0:2:0:0:
181,114,220861,1,10,0:2:0:0:
266,160,221007,1,2,0:2:0:0:
266,160,221081,1,0,0:2:0:0:
266,160,221154,2,0,P|321:148|364:141,1,92.8200005665283,10|0,0:2|0:2,0:2:0:0:
218,305,221446,85,14,0:2:0:0:
151,235,221593,1,2,0:2:0:0:
235,178,221739,1,8,0:2:0:0:
302,248,221886,1,2,0:2:0:0:
248,87,222032,1,12,0:2:0:0:
156,143,222178,1,0,0:2:0:0:
156,143,222251,1,0,0:2:0:0:
156,143,222324,2,0,P|96:127|47:112,1,92.8200005665283,10|0,0:2|0:2,0:2:0:0:
194,20,222617,5,14,0:2:0:0:
253,169,222764,1,0,0:2:0:0:
330,120,222910,1,10,0:2:0:0:
271,269,223057,1,0,0:2:0:0:
343,216,223203,1,14,0:2:0:0:
402,365,223350,1,0,0:2:0:0:
446,277,223495,2,0,P|396:287|346:296,1,92.8200005665283,10|0,0:2|0:2,0:2:0:0:
172,161,223788,85,14,0:2:0:0:
131,254,223934,1,0,0:2:0:0:
66,157,224081,1,10,0:2:0:0:
25,250,224227,1,0,0:2:0:0:
189,193,224373,2,0,P|119:204|85:210,1,92.8200005665283,10|0,0:2|0:2,0:2:0:0:
95,295,224593,1,0,0:2:0:0:
95,295,224666,2,0,P|140:302|186:309,1,92.8200005665283,10|0,0:2|0:2,0:2:0:0:
364,197,224959,5,14,0:2:0:0:
261,247,225105,1,2,0:2:0:0:
318,345,225251,1,10,0:2:0:0:
421,295,225397,1,2,0:2:0:0:
336,271,225544,1,10,0:2:0:0:
282,342,225690,1,2,0:2:0:0:
282,342,225764,1,0,0:2:0:0:
282,342,225837,2,0,P|228:331|185:328,1,92.8200005665283,14|0,0:2|0:2,0:2:0:0:
100,208,226129,85,10,0:2:0:0:
100,208,226203,1,8,0:2:0:0:
100,208,226276,1,8,0:2:0:0:
100,208,226349,1,8,0:2:0:0:
100,208,226422,2,0,P|111:267|112:281,1,46.4100002832642,0|0,1:2|1:2,1:2:0:0:
265,177,226568,1,10,0:2:0:0:
265,177,226642,1,8,0:2:0:0:
265,177,226715,1,8,0:2:0:0:
265,177,226788,1,8,0:2:0:0:
265,177,226861,2,0,P|254:236|253:250,1,46.4100002832642,0|0,1:2|1:2,1:2:0:0:
152,98,227007,2,0,P|163:157|164:171,3,46.4100002832642,10|0|0|0,0:2|1:2|1:2|1:2,0:2:0:0:
338,76,227300,6,0,P|327:135|326:149,3,46.4100002832642,4|4|4|4,0:3|0:3|0:3|0:3,0:2:0:0:
173,68,227593,2,0,P|184:127|185:141,3,46.4100002832642,4|4|4|4,0:3|0:3|0:3|0:3,0:2:0:0:
257,24,227885,1,4,1:2:0:0:
237,203,228032,1,0,1:2:0:0:
237,203,228105,1,0,1:2:0:0:
237,203,228178,1,8,0:2:0:0:
240,225,228251,1,8,0:2:0:0:
244,248,228324,1,8,0:2:0:0:
247,271,228397,1,8,0:2:0:0:
251,294,228471,86,0,L|310:279,3,46.4100002832642,6|0|8|0,0:2|0:2|0:2|0:2,0:2:0:0:
158,227,228764,2,0,L|99:212,3,46.4100002832642,0|0|8|0,0:2|0:2|0:2|0:2,0:2:0:0:
275,134,229056,1,0,0:2:0:0:
152,143,229203,1,8,0:2:0:0:
302,213,229349,2,8,L|419:193,1,92.8200005665283,0|0,0:2|0:2,0:2:0:0:
292,52,229642,1,2,0:2:0:0:
222,194,229788,1,8,0:2:0:0:
357,125,229934,1,0,0:2:0:0:
323,309,230081,2,0,P|281:164|98:232,1,371.280002266113,10|8,0:2|0:2,0:2:0:0:
90,292,230812,6,0,P|36:278|26:277,3,46.4100002832642,6|0|8|0,0:2|0:2|0:2|0:2,0:2:0:0:
232,326,231105,2,0,P|209:331|187:338,3,46.4100002832642,0|0|8|0,0:2|0:2|0:2|0:2,0:2:0:0:
329,259,231398,2,0,P|306:253|284:246,3,46.4100002832642,0|0|8|0,0:2|0:2|0:2|0:2,0:2:0:0:
392,320,231690,2,0,P|369:325|347:332,3,46.4100002832642,0|0|8|0,0:2|0:2|0:2|0:2,0:2:0:0:
316,234,231983,86,0,P|293:228|271:221,1,46.4100002832642,2|0,0:2|0:2,0:2:0:0:
234,228,232129,2,0,P|255:235|278:240,1,46.4100002832642,8|0,0:2|0:2,0:2:0:0:
221,350,232276,2,0,P|198:355|176:362,1,46.4100002832642,0|0,0:2|0:2,0:2:0:0:
132,362,232422,2,0,P|154:356|176:349,1,46.4100002832642,8|0,0:2|0:2,0:2:0:0:
92,253,232568,1,0,0:2:0:0:
92,253,232642,1,0,0:2:0:0:
92,253,232715,1,8,0:2:0:0:
92,253,232788,1,0,0:2:0:0:
92,253,232861,2,0,P|31:243|-4:233,1,92.8200005665283,0|8,0:2|0:2,0:2:0:0:
141,108,233154,5,6,0:2:0:0:
260,180,233300,2,0,P|123:200|52:232,1,185.640001133057,8|8,0:2|0:2,0:2:0:0:
232,93,233739,2,0,P|224:66|219:42,3,46.4100002832642,2|0|8|0,0:2|0:2|0:2|0:2,0:2:0:0:
172,219,234032,2,0,P|178:196|183:174,3,46.4100002832642,0|0|8|0,0:2|0:2|0:2|0:2,0:2:0:0:
194,329,234324,2,0,P|202:356|207:380,3,46.4100002832642,2|0|8|0,0:2|0:2|0:2|0:2,0:2:0:0:
254,203,234617,2,0,P|248:226|243:248,3,46.4100002832642,0|0|8|0,0:2|0:2|0:2|0:2,0:2:0:0:
232,93,234910,2,0,P|224:66|219:42,3,46.4100002832642,2|0|8|0,0:2|0:2|0:2|0:2,0:2:0:0:
139,216,235203,2,0,P|145:193|150:171,1,46.4100002832642,0|0,0:2|0:2,0:2:0:0:
274,194,235349,2,0,P|268:216|262:239,1,46.4100002832642,8|0,0:2|0:2,0:2:0:0:
73,313,235495,86,0,P|179:265|282:287,1,185.640001133057,14|0,0:2|0:2,0:2:0:0:
47,88,235934,2,0,P|138:85|219:129,1,185.640001133057,8|0,0:2|0:2,0:2:0:0:
40,299,236373,2,0,P|92:260|156:258,1,92.8200005665283,8|0,0:2|0:2,0:2:0:0:
343,209,236666,1,10,0:2:0:0:
313,221,236739,1,8,0:2:0:0:
280,220,236812,1,8,0:2:0:0:
251,207,236885,1,8,0:2:0:0:
229,184,236959,2,0,L|248:88,1,92.8200005665283,8|8,0:3|0:3,0:2:0:0:
147,145,237251,2,0,L|158:78,3,46.4100002832642,4|4|4|4,0:3|0:3|0:3|0:3,0:3:0:0:
72,143,237544,2,0,L|83:76,3,46.4100002832642,4|4|4|4,0:3|0:3|0:3|0:3,0:3:0:0:
13,26,237837,69,6,1:2:0:0:
279,163,239885,2,0,L|348:145,1,41.8599985947876,0|0,1:2|1:2,1:2:0:0:
212,116,240032,1,0,1:2:0:0:
172,103,240105,1,0,1:2:0:0:
132,90,240178,5,6,1:2:0:0:
253,296,242081,1,0,1:2:0:0:
253,296,242154,1,0,1:2:0:0:
253,296,242227,2,0,L|261:240,1,41.8599985947876,8|8,1:2|1:2,1:2:0:0:
296,98,242373,1,8,1:2:0:0:
287,139,242446,1,8,1:2:0:0:
279,180,242520,85,6,1:2:0:0:
185,28,243398,2,0,L|194:84,1,41.8599985947876,0|0,1:2|1:2,1:2:0:0:
334,125,243544,2,0,L|325:181,1,41.8599985947876,0|0,1:2|1:2,1:2:0:0:
206,286,243690,5,6,1:2:0:0:
443,174,244422,1,0,1:2:0:0:
443,174,244495,1,0,1:2:0:0:
443,174,244568,2,0,L|453:235,1,41.8599985947876,8|8,1:2|1:2,1:2:0:0:
300,232,244715,1,8,1:2:0:0:
300,232,244788,1,8,1:2:0:0:
300,232,244861,86,0,L|325:112,1,83.7199971895753,14|0,1:2|1:2,0:2:0:0:
364,313,245154,1,0,1:2:0:0:
191,189,245300,2,0,L|166:69,1,83.7199971895753,10|0,0:2|1:2,0:2:0:0:
127,270,245593,1,0,1:2:0:0:
327,214,245739,2,0,L|352:94,1,83.7199971895753,10|0,0:2|1:2,0:2:0:0:
213,274,246032,2,0,L|224:334,3,41.8599985947876,2|0|0|0,1:2|1:2|1:2|1:2,1:2:0:0:
244,156,246324,2,0,L|236:197,3,41.8599985947876,0|0|0|0,1:2|1:2|1:2|1:2,1:2:0:0:
213,74,246617,1,4,1:3:0:0:
213,74,246690,1,4,1:3:0:0:
213,74,246764,1,4,1:3:0:0:
213,74,246837,1,4,1:3:0:0:
213,74,246910,2,0,P|265:45|352:69,1,125.579995784363,12|0,0:2|0:2,0:2:0:0:
399,110,247203,22,0,P|391:170|388:225,1,92.8200005665283,6|0,0:2|0:2,0:2:0:0:
399,110,247495,1,0,0:2:0:0:
325,345,247642,2,0,P|317:285|314:230,1,92.8200005665283,10|0,0:2|0:2,0:2:0:0:
325,345,247934,1,8,0:2:0:0:
328,77,248081,2,0,P|320:137|317:192,1,92.8200005665283,2|8,0:2|0:2,0:2:0:0:
192,303,248373,6,0,P|128:320|89:321,1,92.8200005665283,2|8,0:2|0:2,0:2:0:0:
101,321,248666,1,0,0:2:0:0:
274,232,248812,2,0,P|210:215|171:214,1,92.8200005665283,10|0,0:2|0:2,0:2:0:0:
183,213,249105,1,8,0:2:0:0:
343,263,249251,2,0,P|389:258|433:244,1,92.8200005665283,2|8,0:2|0:2,0:2:0:0:
268,62,249544,86,0,P|258:131|251:182,1,92.8200005665283,6|8,0:2|0:2,0:2:0:0:
254,153,249837,1,0,0:2:0:0:
145,33,249983,2,0,P|155:102|162:153,1,92.8200005665283,10|0,0:2|0:2,0:2:0:0:
158,124,250276,1,8,0:2:0:0:
37,67,250422,2,0,P|27:136|20:187,1,92.8200005665283,2|8,0:2|0:2,0:2:0:0:
141,308,250715,5,2,0:2:0:0:
113,236,250861,1,8,0:2:0:0:
266,261,251007,1,2,0:2:0:0:
294,189,251153,1,8,0:2:0:0:
414,325,251300,1,2,0:2:0:0:
386,213,251446,1,10,0:2:0:0:
286,370,251593,86,0,L|214:352,1,70.9799995667725,2|0,1:2|0:2,0:2:0:0:
172,357,251885,70,0,L|178:400,5,28.2099988808289,14|0|0|0|0|0,0:2|0:2|0:2|0:2|0:2|0:2,0:2:0:0:
106,324,252324,2,0,L|98:372,5,32.7600007998047,10|0|0|0|0|0,0:2|0:2|0:2|0:2|0:2|0:2,0:2:0:0:
24,348,252764,2,0,L|34:399,3,37.3100005693054,10|0|0|0,0:2|0:2|0:2|0:2,0:2:0:0:
388,318,253056,6,0,L|396:277,5,41.8599985947876,14|0|0|0|0|0,0:2|0:2|0:2|0:2|0:2|0:2,0:2:0:0:
314,292,253495,2,0,L|306:244,5,46.4100002832642,10|0|0|0|0|0,0:2|0:2|0:2|0:2|0:2|0:2,0:2:0:0:
225,327,253934,2,0,L|232:271,3,50.9600006220703,10|0|0|0,0:2|0:2|0:2|0:2,0:2:0:0:
3,141,254227,85,6,0:2:0:0:
94,217,254373,1,8,0:2:0:0:
124,204,254446,1,8,0:2:0:0:
157,206,254519,1,8,0:2:0:0:
186,222,254592,1,8,0:2:0:0:
214,237,254666,1,8,0:3:0:0:
248,239,254739,1,8,0:3:0:0:
278,227,254812,2,0,L|270:166,3,55.5099977130586,4|4|4|4,0:3|0:3|0:3|0:3,0:2:0:0:
140,289,255105,1,8,0:3:0:0:
140,289,255398,5,8,0:2:0:0:
112,284,255471,1,8,0:2:0:0:
85,280,255544,1,8,0:2:0:0:
57,275,255617,1,8,0:2:0:0:
30,271,255690,2,0,L|20:205,3,55.5099977130586,8|0|0|0,0:3|0:3|0:3|0:3,0:3:0:0:
85,167,255983,2,0,L|95:100,3,55.5099977130586,8|0|0|0,0:3|0:2|0:2|0:2,0:2:0:0:
37,58,256276,2,0,L|26:-8,3,55.5099977130586,4|0|0|0,0:3|0:2|0:2|0:2,0:2:0:0:
197,210,256568,86,0,L|469:162,1,222.039990852234,14|0,0:2|0:2,0:2:0:0:
229,129,257007,1,8,0:2:0:0:
445,245,257154,2,0,L|302:225,1,111.019995426117,8|0,0:2|0:2,0:2:0:0:
161,90,257446,1,8,0:2:0:0:
187,83,257519,1,8,0:2:0:0:
215,78,257592,1,8,0:2:0:0:
242,72,257665,1,8,0:2:0:0:
269,66,257738,5,12,0:2:0:0:
347,104,257885,1,8,0:3:0:0:
357,192,258032,1,8,0:3:0:0:
280,252,258178,1,8,0:3:0:0:
204,210,258324,2,0,L|219:148,1,55.5099977130586,4|4,0:3|0:3,0:3:0:0:
377,331,258471,2,0,L|362:269,1,55.5099977130586,4|4,0:3|0:3,0:3:0:0:
136,370,258617,1,12,0:2:0:0:
500,181,258910,38,0,L|436:193,1,64.609996746628,14|0,0:2|0:2,0:2:0:0:
100,261,259056,1,8,0:2:0:0:
474,108,259349,54,0,L|410:120,1,64.609996746628,8|0,0:2|0:2,0:2:0:0:
74,188,259495,1,8,0:2:0:0:
450,39,259788,38,0,L|386:51,1,64.609996746628,8|0,0:2|0:2,0:2:0:0:
47,114,259934,2,0,P|168:69|218:206,1,258.439986986512,12|0,1:2|0:2,0:2:0:0:
124,338,260373,1,8,0:2:0:0:
154,156,260520,1,0,1:2:0:0:
154,156,260593,1,0,1:2:0:0:
154,156,260666,53,0,1:2:0:0:
47,114,260812,1,4,1:3:0:0:
234,236,260959,1,4,1:3:0:0:
41,363,261105,1,4,1:3:0:0:
255,259,261251,70,0,B|298:204|292:120|257:49|257:49|406:-51|448:142|365:150|365:150|450:187|380:223|495:264,1,662.479995956543,6|0,1:2|0:2,0:2:0:0:
42,48,263593,6,0,P|17:98|113:40,1,331.239997978272,6|0,1:2|0:2,0:2:0:0:
66,195,264764,6,0,P|55:248|53:274,1,74.6200011386109,4|0,1:2|0:2,0:2:0:0:
276,164,265056,1,8,0:2:0:0:
174,99,265203,1,8,0:2:0:0:
367,291,265349,2,0,P|378:344|380:370,1,74.6200011386109,4|0,1:2|0:2,0:2:0:0:
157,260,265641,1,8,2:3:0:0:
224,222,265788,1,8,2:3:0:0:
157,372,265934,86,0,P|99:365|22:324,2,141.959999133545,6|0|0,1:2|0:2|0:2,0:2:0:0:
251,331,266959,1,0,1:2:0:0:
251,331,267032,1,0,1:2:0:0:
251,331,267105,1,14,1:2:0:0:
207,139,267398,5,0,1:2:0:0:
315,279,267544,1,12,0:2:0:0:
310,38,267837,85,0,1:2:0:0:
168,225,267983,1,12,0:2:0:0:
168,225,268276,6,0,L|123:217,1,37.3100005693054,10|8,1:2|1:2,1:2:0:0:
270,187,268422,1,0,1:2:0:0:
270,187,268495,1,0,1:2:0:0:
270,187,268568,2,0,L|306:180,1,37.3100005693054,8|0,1:2|1:2,1:2:0:0:
271,264,268715,2,0,L|307:257,3,37.3100005693054,10|0|0|0,1:2|1:2|1:2|1:2,1:2:0:0:
173,152,269007,2,0,L|128:144,1,37.3100005693054,8|0,1:2|1:2,1:2:0:0:
262,77,269154,1,10,1:2:0:0:
283,72,269227,1,8,1:2:0:0:
305,67,269300,1,8,1:2:0:0:
327,63,269373,1,8,1:2:0:0:
352,58,269446,86,0,L|345:112,3,37.3100005693054,10|4|4|4,1:3|1:3|1:3|1:3,1:2:0:0:
394,201,269739,2,0,L|389:163,3,37.3100005693054,8|4|4|4,1:3|1:3|1:3|1:3,1:2:0:0:
366,283,270032,1,2,1:2:0:0:
366,283,270105,1,0,1:2:0:0:
366,283,270178,1,0,1:2:0:0:
366,283,270251,1,0,1:2:0:0:
366,283,270324,1,8,1:2:0:0:
310,153,270471,1,8,1:2:0:0:
231,299,270617,53,4,0:2:0:0:
383,100,270764,2,0,P|395:175|386:234,1,101.920001244141,8|0,0:2|0:2,0:2:0:0:
202,233,271056,1,8,0:2:0:0:
295,54,271203,2,0,P|370:21|411:26,1,101.920001244141,2|8,0:2|0:2,0:2:0:0:
466,186,271495,1,2,0:2:0:0:
261,150,271642,2,0,P|186:117|145:122,1,101.920001244141,10|0,0:2|0:2,0:2:0:0:
75,287,271934,1,8,0:2:0:0:
324,219,272081,2,0,P|338:285|343:330,1,101.920001244141,2|8,0:2|0:2,0:2:0:0:
135,192,272373,2,0,P|121:258|116:303,1,101.920001244141,2|8,0:2|0:2,0:2:0:0:
349,186,272666,2,0,P|363:252|368:297,1,101.920001244141,2|8,0:2|0:2,0:2:0:0:
220,163,272959,5,6,0:2:0:0:
401,121,273105,2,0,P|336:51|226:84,1,203.840002488281,8|8,0:2|0:2,0:2:0:0:
135,226,273544,2,0,P|224:250|250:261,1,101.920001244141,4|8,0:2|0:2,0:2:0:0:
445,333,273837,2,0,P|397:350|348:361,1,101.920001244141,2|8,0:2|0:2,0:2:0:0:
428,178,274129,1,6,0:2:0:0:
272,344,274276,2,0,B|225:243|313:268|262:133,1,203.840002488281,8|8,0:2|0:2,0:2:0:0:
172,227,274715,2,0,P|178:176|181:125,1,101.920001244141,2|8,0:2|0:2,0:2:0:0:
361,264,275008,2,0,P|355:214|352:163,1,101.920001244141,2|8,0:2|0:2,0:2:0:0:
199,333,275300,85,6,0:2:0:0:
340,352,275447,2,0,P|412:337|462:316,1,101.920001244141,8|0,0:2|0:2,0:2:0:0:
172,227,275739,2,0,P|244:242|294:263,1,101.920001244141,8|0,0:2|0:2,0:2:0:0:
90,339,276032,1,8,0:2:0:0:
152,151,276178,1,2,0:2:0:0:
40,280,276325,2,0,P|32:187|19:76,1,203.840002488281,10|8,0:2|0:2,0:2:0:0:
119,188,276764,2,0,P|120:115|124:62,1,101.920001244141,2|8,0:2|0:2,0:2:0:0:
230,240,277056,2,0,P|230:190|228:139,1,101.920001244141,2|8,0:2|0:2,0:2:0:0:
340,198,277349,2,0,P|341:148|343:97,1,101.920001244141,2|8,0:2|0:2,0:2:0:0:
420,252,277642,6,0,L|477:264,1,50.9600006220703,14|0,0:2|0:2,0:2:0:0:
423,176,277788,2,0,L|480:188,3,50.9600006220703,8|0|0|0,0:2|0:2|0:2|0:2,0:2:0:0:
283,306,278081,2,0,L|226:318,1,50.9600006220703,8|0,0:2|0:2,0:2:0:0:
280,230,278227,2,0,L|223:242,3,50.9600006220703,8|0|0|0,0:2|0:2|0:2|0:2,0:2:0:0:
83,275,278520,1,14,0:2:0:0:
85,255,278593,1,4,0:3:0:0:
87,235,278666,1,6,0:3:0:0:
89,215,278739,1,4,0:3:0:0:
91,194,278812,2,0,L|98:119,3,50.9600006220703,12|0|0|0,0:3|0:2|0:2|0:2,0:2:0:0:
176,160,279105,2,0,L|169:86,3,50.9600006220703,4|0|0|0,0:3|0:2|0:2|0:2,0:2:0:0:
219,238,279398,21,8,0:2:0:0:
247,261,279471,1,8,0:2:0:0:
283,268,279544,1,8,0:2:0:0:
317,260,279617,1,8,0:2:0:0:
343,236,279690,1,10,0:2:0:0:
370,213,279764,1,8,0:2:0:0:
404,205,279837,1,8,0:2:0:0:
439,212,279910,1,8,0:2:0:0:
467,234,279983,53,6,0:2:0:0:
284,181,280129,2,0,P|278:113|271:42,1,101.920001244141,8|0,0:2|0:2,0:2:0:0:
139,280,280422,2,0,P|145:212|152:141,1,101.920001244141,10|0,0:2|0:2,0:2:0:0:
232,359,280715,1,8,0:2:0:0:
54,245,280861,2,0,P|57:327|62:378,1,101.920001244141,2|8,0:2|0:2,0:2:0:0:
247,261,281154,1,2,0:2:0:0:
171,98,281300,2,0,P|84:116|45:132,1,101.920001244141,8|0,0:2|0:2,0:2:0:0:
347,202,281593,2,0,P|260:184|221:168,1,101.920001244141,10|0,0:2|0:2,0:2:0:0:
418,112,281886,1,8,0:2:0:0:
390,303,282032,2,0,P|342:318|291:326,1,101.920001244141,2|8,0:2|0:2,0:2:0:0:
440,208,282325,5,6,0:2:0:0:
322,109,282471,2,0,P|312:46|306:-1,1,101.920001244141,8|0,0:2|0:2,0:2:0:0:
178,214,282764,2,0,P|187:164|193:114,1,101.920001244141,10|0,0:2|0:2,0:2:0:0:
286,217,283056,1,8,0:2:0:0:
107,296,283203,2,0,P|99:246|93:196,1,101.920001244141,2|8,0:2|0:2,0:2:0:0:
232,368,283495,1,2,0:2:0:0:
120,115,283642,2,0,P|57:132|18:157,1,101.920001244141,8|0,0:2|0:2,0:2:0:0:
285,292,283934,2,0,P|236:281|191:257,1,101.920001244141,10|0,0:2|0:2,0:2:0:0:
381,153,284227,1,8,0:2:0:0:
249,32,284373,2,0,P|242:111|234:163,1,101.920001244141,2|8,0:2|0:2,0:2:0:0:
471,223,284666,86,0,P|465:173|461:122,1,101.920001244141,6|8,0:2|0:2,0:2:0:0:
357,282,284959,1,0,0:2:0:0:
429,357,285105,2,0,P|436:307|440:256,1,101.920001244141,10|0,0:2|0:2,0:2:0:0:
503,381,285398,1,8,0:2:0:0:
381,153,285544,2,0,P|385:204|392:255,1,101.920001244141,2|8,0:2|0:2,0:2:0:0:
450,91,285837,1,2,0:2:0:0:
310,218,285983,2,0,B|179:237|259:151|82:166,1,203.840002488281,8|8,0:2|0:2,0:2:0:0:
272,133,286422,1,2,0:2:0:0:
285,111,286495,1,8,0:0:0:0:
287,86,286568,1,4,0:3:0:0:
277,63,286642,1,4,0:3:0:0:
254,49,286715,2,0,P|188:60|135:88,1,101.920001244141,2|8,0:2|0:2,0:2:0:0:
350,229,287007,6,0,P|227:162|117:166,1,203.840002488281,14|0,0:0|0:0,0:0:0:0:
480,264,287446,2,0,P|317:290|260:333,1,203.840002488281,10|0,0:0|0:0,0:0:0:0:
418,184,287885,1,10,0:0:0:0:
63,333,288178,85,8,1:2:0:0:
143,236,288324,1,8,1:2:0:0:
143,236,288398,1,8,1:2:0:0:
143,236,288471,1,8,1:2:0:0:
242,308,288617,1,8,1:2:0:0:
181,344,288764,5,8,0:3:0:0:
316,306,288910,1,8,0:3:0:0:
250,267,289056,1,4,0:3:0:0:
387,284,289203,1,4,0:3:0:0:
330,340,289349,54,0,P|337:257|362:106,1,223.860003415833,4|0,1:2|1:2,0:2:0:0:
269,189,289934,2,0,P|260:128|243:55,1,112.839995523316,10|0,0:2|0:2,0:2:0:0:
164,135,290373,1,10,0:2:0:0:
164,135,290446,1,8,0:2:0:0:
164,135,290520,2,0,P|169:77|172:60,1,56.4199977616578,0|8,1:2|0:2,0:2:0:0:
101,199,290812,1,2,1:2:0:0:
214,339,291105,1,10,0:2:0:0:
143,303,291251,2,0,P|198:297|275:274,1,112.839995523316,0|8,1:2|0:2,0:2:0:0:
434,158,291690,6,0,P|385:149|315:127,1,111.930001707916,6|0,1:2|0:2,0:2:0:0:
305,112,291983,1,8,0:2:0:0:
417,61,292129,1,8,0:2:0:0:
258,177,292276,86,0,P|209:186|139:208,1,111.930001707916,4|0,1:2|0:2,0:2:0:0:
129,223,292569,1,4,0:3:0:0:
198,265,292715,1,4,0:3:0:0:
118,134,292861,6,0,P|66:165|53:330,1,223.860003415833,6|8,1:2|0:3,0:2:0:0:
59,333,293373,1,8,0:3:0:0:
59,333,293446,2,0,P|115:321|132:320,1,56.4199977616578,10|4,0:3|0:3,0:2:0:0:
184,352,293739,2,0,P|240:364|257:365,1,56.4199977616578,6|4,0:3|0:3,0:2:0:0:
446,203,294032,86,0,P|387:133|295:160,1,189.279998844727,6|0,1:2|3:2,0:2:0:0:
281,180,295051,5,4,0:3:0:0:
281,180,295126,1,4,0:3:0:0:
281,180,295202,2,0,L|285:229,1,47.3199997111816,8|8,0:3|0:3,0:2:0:0:
110,87,295643,54,0,L|96:180,1,94.6399994223633,8|4,0:3|0:3,0:2:0:0:
128,254,296194,2,0,L|65:267,1,47.3199997111816,4|4,0:3|0:3,0:2:0:0:
257,89,296650,6,0,L|361:109,1,94.6399994223633,4|0,1:2|3:2,0:2:0:0:
298,241,298152,86,0,L|286:182,1,47.3199997111816,10|4,0:0|0:3,0:0:0:0:
371,301,298893,2,0,L|384:244,1,47.3199997111816,6|4,0:3|0:3,0:2:0:0:
214,364,299906,5,6,1:2:0:0:
256,192,299990,12,6,309344,1:2:0:0:
