osu file format v14

[General]
AudioFilename: audio.mp3
AudioLeadIn: 0
PreviewTime: 124459
Countdown: 0
SampleSet: Normal
StackLeniency: 0.4
Mode: 0
LetterboxInBreaks: 0
WidescreenStoryboard: 0

[Editor]
Bookmarks: 17793,17890,17988,18085,18183,18280,18378,18476,18671,23450,32822,42325,55495,55642,55934,56081,62227,64568,66032,66324,66617,72764,84324,85056,85642,95007,104373,109056,113739,118422,120764,121934,123105,129837,129910,129983,130056,130129,130203,130276,134812,139495,141837,144178,148861,153544,155885,157056,158227,160568,162910,167593,171690,172861,173446,174032,174617,175203,175788,186324,191007,195690,199203,200373,205056,210178,210617,210910,212520,212959,213251,214422,219105,223788,226568,227007,227300,228471,235495,251885,254227,259056,259349,259495,259788,259934,260373,260666,279983,284666,289349,304288
DistanceSpacing: 0.6
BeatDivisor: 4
GridSize: 32
TimelineZoom: 1.6

[Metadata]
Title:Road of Resistance
TitleUnicode:Road of Resistance
Artist:BABYMETAL
ArtistUnicode:BABYMETAL
Creator:Net0
Version:CS 5 original map
Source:
Tags:
BeatmapID:1208689
BeatmapSetID:570186

[Difficulty]
HPDrainRate:6.5
CircleSize:5
OverallDifficulty:8.3
ApproachRate:9.3
SliderMultiplier:1
SliderTickRate:1

[Events]
//Background and Video events
0,0,"698485.jpg",0,0
//Break Periods
2,47939,49966
2,51305,53139
//Storyboard Layer 0 (Background)
//Storyboard Layer 1 (Fail)
//Storyboard Layer 2 (Pass)
//Storyboard Layer 3 (Foreground)
//Storyboard Sound Samples

[TimingPoints]
1091,301.507537688442,4,1,5,50,1,0
1091,-313,4,1,5,50,0,0
4106,-360,4,1,5,5,0,0
4709,-142.857142857143,4,3,1,70,0,0
5085,-142.857142857143,4,3,1,5,0,0
5161,-142.857142857143,4,3,1,100,0,0
5538,-142.857142857143,4,3,1,5,0,0
5613,-142.857142857143,4,3,1,100,0,0
7064,291.26213592233,4,3,1,70,1,0
7064,-142.857142857143,4,3,1,70,0,0
7428,-142.857142857143,4,3,1,5,0,0
7500,-142.857142857143,4,3,1,70,0,0
7864,-142.857142857143,4,3,1,5,0,0
7937,-142.857142857143,4,3,1,70,0,0
8520,293.398533007335,4,3,1,70,1,8
9400,298.507462686567,4,3,1,70,1,0
9400,-133.333333333333,4,3,1,70,0,0
11743,291.26213592233,4,3,1,70,1,0
11743,-125,4,3,1,70,0,0
12107,-125,4,3,1,5,0,0
12179,-125,4,3,1,70,0,0
12543,-125,4,3,1,5,0,0
12616,-125,4,3,1,70,0,0
12908,292.682926829268,4,3,1,70,1,0
12908,-125,4,3,1,70,0,0
14078,-117.647058823529,4,3,1,70,0,0
15249,296.73590504451,4,3,0,70,1,0
15249,-111.111111111111,4,3,0,70,0,0
16422,294.117647058824,4,3,1,70,1,0
17598,292.682926829268,4,3,1,70,1,0
17598,-90.9090909090909,4,3,1,70,0,0
18183,-90.9090909090909,4,3,0,70,0,0
18573,-90.9090909090909,4,2,0,70,0,0
18768,-90.9090909090909,4,3,1,70,0,0
19793,310.880829015544,4,3,1,70,1,8
19948,287.081339712919,4,3,1,70,1,0
19948,-90.9090909090909,4,3,1,70,0,0
20378,292.682926829268,4,3,1,70,1,8
20378,-90.9090909090909,4,3,1,70,0,0
21109,292.682926829268,4,3,1,70,1,0
21109,-90.9090909090909,4,3,1,70,0,0
22279,-83.3333333333333,4,3,1,70,0,0
22426,-76.9230769230769,4,3,1,70,0,0
22572,-71.4285714285714,4,3,1,70,0,0
22718,-66.6666666666667,4,3,1,70,0,0
22865,-62.5,4,3,0,70,0,0
23011,-58.8235294117647,4,3,0,70,0,0
23157,-55.5555555555556,4,3,1,70,0,0
23304,-52.6315789473684,4,3,1,70,0,0
23450,-50,4,3,1,70,0,0
23743,-55.5555555555556,4,3,1,70,0,0
28133,-55.5555555555556,4,3,1,70,0,0
29596,-76.9230769230769,4,3,1,70,0,0
29816,-76.9230769230769,4,3,1,5,0,0
29889,-76.9230769230769,4,3,1,70,0,0
30108,-76.9230769230769,4,3,1,5,0,0
30182,-76.9230769230769,4,3,1,70,0,0
30401,-76.9230769230769,4,3,1,5,0,0
30474,-55.5555555555556,4,3,1,70,0,0
32230,300,4,3,1,70,1,8
32230,-76.9230769230769,4,3,1,70,0,0
32529,292.682926829268,4,3,1,70,1,8
32529,-76.9230769230769,4,3,1,70,0,0
32822,292.682926829268,4,3,1,70,1,0
32822,-55.5555555555556,4,3,1,70,0,0
33992,-55.5555555555556,4,3,1,70,0,0
37504,290.556900726392,4,3,1,70,1,0
37504,-55.5555555555556,4,3,1,70,0,0
38666,292.682926829268,4,3,1,70,1,0
38666,-55.5555555555556,4,3,1,70,0,0
38885,-76.9230769230769,4,3,1,5,0,0
38958,-76.9230769230769,4,3,1,70,0,0
39178,-76.9230769230769,4,3,1,5,0,0
39251,-76.9230769230769,4,3,1,70,0,0
39470,-76.9230769230769,4,3,1,5,0,0
39544,-76.9230769230769,4,3,1,70,0,0
39763,-76.9230769230769,4,3,1,5,0,0
39836,-52.6315789473684,4,3,1,50,0,0
41600,324.324324324324,4,3,1,50,1,8
41600,-62.5,4,3,1,50,0,0
41924,401.33779264214,4,3,1,50,1,8
41924,-71.4285714285714,4,3,1,50,0,0
42325,292.682926829268,4,3,1,70,1,0
45837,-100,4,3,1,50,0,0
46129,-100,4,3,1,40,0,0
46422,-100,4,3,1,30,0,0
46715,-100,4,3,1,20,0,0
47007,-100,4,3,1,10,0,0
47154,-100,4,3,1,50,0,0
53959,-100,4,3,1,5,0,0
54032,-100,4,3,1,25,0,0
54325,-100,4,3,1,35,0,0
54617,-100,4,3,1,45,0,0
54910,-100,4,3,1,55,0,0
55056,-100,4,3,1,10,0,0
55203,-55.5555555555556,4,3,1,70,0,0
56373,-50,4,3,2,70,0,0
56666,-45.4545454545455,4,3,2,85,0,0
56959,-41.6666666666667,4,3,2,85,0,0
57251,-38.4615384615385,4,3,2,90,0,0
57544,-35.7142857142857,4,3,2,90,0,1
57837,-35.7142857142857,4,3,2,90,0,1
65739,-71.4285714285714,4,3,2,90,0,1
66910,-41.6666666666667,4,3,2,85,0,1
71593,-35.7142857142857,4,3,2,90,0,1
73934,-41.6666666666667,4,3,2,85,0,1
76276,-55.5555555555556,4,3,1,75,0,0
99690,-50,4,3,1,75,0,0
103202,-55.5555555555556,4,3,0,70,0,0
103276,-55.5555555555556,4,3,1,75,0,0
113446,-55.5555555555556,4,1,5,70,0,0
113666,-55.5555555555556,4,1,5,5,0,0
113739,-50,4,3,1,75,0,0
123690,-55.5555555555556,4,3,0,70,0,0
123763,-55.5555555555556,4,3,1,70,0,0
124276,-55.5555555555556,4,3,0,70,0,0
124861,-55.5555555555556,4,3,1,70,0,0
125446,-55.5555555555556,4,3,2,85,0,1
144178,-41.6666666666667,4,3,2,85,0,1
158227,-92.5925925925926,4,3,1,70,0,1
159398,-48.780487804878,4,3,2,85,0,1
159983,-37.7358490566038,4,3,2,90,0,1
160568,-50,4,2,0,70,0,1
161154,-50,4,2,0,70,0,1
161739,-55.5555555555556,4,3,2,50,0,1
162910,-55.5555555555556,4,3,2,70,0,0
171105,-41.6666666666667,4,3,2,85,0,0
172276,-35.7142857142857,4,3,2,90,0,1
176373,-50,4,3,2,70,0,1
176959,-35.7142857142857,4,3,2,90,0,1
179300,-50,4,3,2,70,0,1
179520,-50,4,3,2,5,0,1
179593,-50,4,3,2,70,0,1
179959,-50,4,3,2,5,0,1
180032,-50,4,3,2,70,0,1
181056,-50,4,3,0,70,0,1
181203,-50,4,3,2,70,0,1
181349,-50,4,3,0,70,0,1
181495,-50,4,3,2,70,0,1
181642,-111.111111111111,4,1,5,70,0,0
189837,-83.3333333333333,4,3,1,85,0,0
189910,-83.3333333333333,4,3,1,70,0,0
191007,-62.5,4,3,2,55,0,0
199056,-58.8235294117647,4,3,2,55,0,0
200373,-55.5555555555556,4,3,2,80,0,0
209739,-55.5555555555556,4,3,2,80,0,0
219105,-50,4,3,2,80,0,0
227300,-45.4545454545455,4,3,2,85,0,0
227593,-41.6666666666667,4,3,2,85,0,0
227885,-35.7142857142857,4,3,2,90,0,1
227959,-55.5555555555556,4,3,2,80,0,0
228471,-41.6666666666667,4,3,2,85,0,1
235495,-38.4615384615385,4,3,2,90,0,1
237837,-133.333333333333,4,3,2,65,0,0
238203,-133.333333333333,4,3,2,5,0,0
238276,-133.333333333333,4,3,2,65,0,0
238642,-133.333333333333,4,3,2,5,0,0
238715,-133.333333333333,4,3,2,65,0,0
238934,-133.333333333333,4,3,2,5,0,0
239007,-133.333333333333,4,3,2,65,0,0
240178,-133.333333333333,4,3,2,65,0,0
240544,-133.333333333333,4,3,2,5,0,0
240617,-133.333333333333,4,3,2,65,0,0
240983,-133.333333333333,4,3,2,5,0,0
241056,-133.333333333333,4,3,2,65,0,0
241276,-133.333333333333,4,3,2,5,0,0
241349,-133.333333333333,4,3,2,65,0,0
244861,-55.5555555555556,4,3,2,70,0,0
247203,-55.5555555555556,4,3,2,80,0,0
251885,-55.5555555555556,4,3,2,80,0,1
256568,-41.6666666666667,4,3,2,80,0,1
258910,-39.2156862745098,4,3,2,90,0,1
260959,-50,4,3,2,90,0,1
261251,-151.057401812689,4,2,5,70,0,0
264763,-125,4,3,1,70,0,0
265349,-100,4,3,1,70,0,0
265934,-76.9230769230769,4,3,1,70,0,0
267105,-55.5555555555556,4,3,1,70,0,0
267690,-50,4,3,2,70,0,0
269446,-50,4,3,0,70,0,0
269520,-50,4,3,2,70,0,0
270617,-45.4545454545455,4,3,2,85,0,1
277642,-41.6666666666667,4,3,2,85,0,1
287885,-41.6666666666667,4,3,0,85,0,1
288178,-50,4,3,2,80,0,1
288763,-50,4,3,0,80,0,1
288837,-50,4,3,2,80,0,1
289056,-55.5555555555556,4,3,2,80,0,1
292568,-55.5555555555556,4,3,0,70,0,1
293007,-55.5555555555556,4,3,2,70,0,1
293446,-62.5,4,3,1,70,0,1
293739,-76.9230769230769,4,3,1,70,0,1
294032,-125,4,1,5,70,0,1
294617,-111.111111111111,4,3,2,70,0,1
294910,283.018867924528,4,3,2,70,1,1
294910,-111.111111111111,4,3,2,70,0,1
295051,300,4,3,1,70,1,9
295202,307.692307692308,4,3,1,70,1,1
295202,-125,4,3,1,70,0,1
295356,287.081339712919,4,3,1,70,1,9
295643,355.029585798817,4,3,0,70,1,9
295643,-133.333333333333,4,3,0,70,0,1
295998,392.156862745098,4,3,1,70,1,9
296194,441.176470588235,4,3,1,70,1,9
296194,-133.333333333333,4,3,1,70,0,1
296414,472.44094488189,4,3,1,70,1,9
296650,800,4,3,1,70,1,1
296650,-83.3333333333333,4,3,1,70,0,1
297450,703.812316715542,4,3,1,70,1,9
298152,736.196319018405,4,3,2,70,1,9
298520,745.341614906832,4,3,2,70,1,9
298893,916.030534351145,4,3,2,70,1,9
299351,1111.11111111111,4,3,2,70,1,9
299906,337.078651685393,4,3,1,70,1,1
299906,-76.9230769230769,4,3,1,70,0,1
309344,-50,4,3,1,100,0,0

[Colours]
Combo1 : 255,128,0
Combo2 : 177,78,177
Combo3 : 91,193,70
Combo4 : 48,63,150
Combo5 : 140,3,0
Combo6 : 254,16,16
Combo7 : 251,224,36
Combo8 : 169,150,41

[HitObjects]
228,139,1091,6,0,P|213:234|282:138,1,319.444444444444
256,192,4709,6,0,L|256:283,1,87.499997329712
219,330,5161,2,0,P|256:343|301:323,1,87.499997329712
318,267,5613,1,0,0:0:0:0:
403,122,6216,2,0,B|414:86|414:86|414:48,2,69.9999978637696
256,192,7064,6,0,L|165:192,1,87.499997329712
118,155,7500,2,0,P|105:192|125:237,1,87.499997329712
181,254,7937,1,0,0:0:0:0:
263,109,8520,2,0,L|263:7,1,100
336,191,9400,86,0,B|336:229|336:229|322:270,1,75.0000028610231
229,287,9847,2,0,B|241:252|241:252|241:214,1,75.0000028610231
146,237,10295,2,0,B|146:275|146:275|132:316,1,75.0000028610231
51,260,10892,2,0,B|39:295|39:295|39:333,2,75.0000028610231
256,192,11743,6,0,L|256:90,1,100
297,37,12179,2,0,P|255:22|205:44,1,100
186,108,12616,1,0,0:0:0:0:
162,224,12908,6,0,L|197:266,1,40
325,254,13200,1,0,0:0:0:0:
256,198,13347,1,0,0:0:0:0:
187,254,13493,1,0,0:0:0:0:
256,86,13786,1,0,0:0:0:0:
256,198,13932,1,0,0:0:0:0:
256,310,14078,85,0,0:0:0:0:
264,322,14517,1,0,0:0:0:0:
272,333,14956,2,0,L|296:351,2,28.3333338737488
422,361,15249,6,0,P|434:321|423:269,1,89.9999972534181
355,205,15694,2,0,L|310:171,2,44.999998626709
453,179,16139,2,0,L|453:134,1,44.999998626709
452,42,16422,6,0,P|410:52|369:93,1,100
319,177,16863,2,0,P|277:167|236:126,1,100
154,39,17304,2,0,L|154:94,1,50
74,86,17598,6,0,L|74:122,1,36.6666677856446
114,178,17793,1,0,0:0:0:0:
114,178,17890,2,0,L|114:214,1,36.6666677856446
189,259,18085,1,0,0:0:0:0:
189,259,18182,1,0,0:0:0:0:
189,259,18280,1,0,0:0:0:0:
189,259,18377,1,0,0:0:0:0:
189,259,18475,1,0,0:0:0:0:
189,259,18573,2,0,L|229:235,1,36.6666677856446
273,209,18768,70,0,L|333:310,1,110.000003356934
445,303,19207,2,0,L|384:201,1,110.000003356934
329,108,19646,1,0,0:0:0:0:
273,209,19793,1,0,0:0:0:0:
273,209,19870,1,0,0:0:0:0:
273,209,19948,6,0,P|248:260|233:279,1,55.0000016784668
161,209,20235,1,0,0:0:0:0:
217,108,20378,2,0,P|269:131|289:145,1,55.0000016784668
217,310,20670,1,0,0:0:0:0:
129,158,20817,2,0,P|154:107|169:87,1,55.0000016784668
330,168,21109,5,0,0:0:0:0:
338,180,21548,1,0,0:0:0:0:
346,192,21987,1,0,0:0:0:0:
456,295,22133,1,0,0:0:0:0:
456,295,22206,1,0,0:0:0:0:
456,295,22279,6,0,L|456:341,1,29.9999990844727
394,267,22426,2,0,L|394:304,1,32.4999985122681
332,239,22572,2,0,L|332:296,1,34.9999989318848
270,211,22718,2,0,L|270:254,1,37.5000014305115
208,183,22865,2,0,L|208:236,1,40
146,155,23011,2,0,L|146:213,1,42.5000008106232
84,127,23157,2,0,L|84:172,1,44.999998626709
22,99,23304,2,0,L|22:146,1,47.4999987316132
146,195,23450,70,0,L|146:317,1,100
270,383,23743,1,0,0:0:0:0:
270,383,23816,1,0,0:0:0:0:
270,383,23889,2,0,L|270:261,1,89.9999972534181
270,195,24182,1,0,0:0:0:0:
146,195,24328,2,0,L|76:195,2,44.999998626709
337,242,24621,6,0,P|351:192|266:111,1,179.999994506836
209,251,25206,1,0,0:0:0:0:
209,261,25499,1,0,0:0:0:0:
404,266,25791,101,0,0:0:0:0:
404,266,25865,1,0,0:0:0:0:
404,266,25938,1,0,0:0:0:0:
295,146,26084,2,0,L|246:97,2,44.999998626709
456,311,26523,1,0,0:0:0:0:
458,148,26669,1,0,0:0:0:0:
458,148,26743,1,0,0:0:0:0:
458,148,26816,1,0,0:0:0:0:
293,309,26962,22,0,B|252:259|252:259|196:227|196:227|144:160,1,179.999994506836,4|0,0:0|0:0,0:0:0:0:
231,82,27401,1,0,0:0:0:0:
231,82,27474,1,0,0:0:0:0:
231,82,27547,2,0,L|285:136,1,44.999998626709
360,186,27694,2,0,P|413:114|355:64,1,179.999994506836
239,205,28133,86,0,L|278:291,1,89.9999972534181
351,125,28426,1,0,0:0:0:0:
351,125,28499,1,0,0:0:0:0:
351,125,28572,1,0,0:0:0:0:
127,125,28718,2,0,L|166:39,1,89.9999972534181
239,205,29011,1,0,0:0:0:0:
239,205,29084,1,0,0:0:0:0:
239,205,29157,1,0,0:0:0:0:
15,205,29304,6,0,B|28:242|28:242|69:271,1,89.9999972534181
197,354,29596,2,0,P|210:308|182:244,1,97.4999955368044
177,244,29889,2,0,P|164:198|192:134,1,97.4999955368044
199,134,30182,2,0,P|212:88|184:24,1,97.4999955368044
121,89,30474,101,0,0:0:0:0:
121,89,30548,1,0,0:0:0:0:
121,89,30621,1,0,0:0:0:0:
230,209,30767,2,0,L|266:245,2,44.999998626709
69,44,31206,1,0,0:0:0:0:
67,207,31352,1,0,0:0:0:0:
67,207,31426,1,0,0:0:0:0:
67,207,31499,1,0,0:0:0:0:
231,45,31645,22,0,P|312:89|356:168,1,179.999994506836
385,255,32084,2,0,L|399:305,1,44.999998626709
307,313,32230,1,0,0:0:0:0:
228,254,32380,1,0,0:0:0:0:
258,162,32529,1,0,0:0:0:0:
355,162,32675,1,0,0:0:0:0:
241,319,32822,86,0,L|119:319,1,89.9999972534181
53,195,33115,1,0,0:0:0:0:
53,195,33188,1,0,0:0:0:0:
53,195,33261,2,0,L|175:195,1,89.9999972534181
241,195,33553,1,0,0:0:0:0:
241,319,33700,2,0,L|241:373,2,44.999998626709
324,196,33992,6,0,P|279:123|194:128,1,179.999994506836
186,268,34578,1,0,0:0:0:0:
188,277,34870,1,0,0:0:0:0:
403,200,35163,101,0,0:0:0:0:
403,200,35237,1,0,0:0:0:0:
403,200,35310,1,0,0:0:0:0:
244,234,35456,2,0,L|177:251,2,44.999998626709
467,177,35895,1,0,0:0:0:0:
327,94,36041,1,0,0:0:0:0:
327,94,36115,1,0,0:0:0:0:
327,94,36188,1,0,0:0:0:0:
384,317,36334,22,0,B|333:289|333:289|269:282|269:282|216:235,1,179.999994506836
156,138,36773,1,0,0:0:0:0:
156,138,36846,1,0,0:0:0:0:
156,138,36919,2,0,L|199:126,1,44.999998626709
388,97,37065,2,0,P|325:33|266:82,1,179.999994506836
365,243,37504,86,0,L|421:129,1,89.9999972534181
327,94,37794,1,0,0:0:0:0:
327,94,37868,1,0,0:0:0:0:
327,94,37939,1,0,0:0:0:0:
263,263,38085,2,0,L|343:302,1,89.9999972534181
464,198,38375,1,0,0:0:0:0:
464,198,38449,1,0,0:0:0:0:
464,198,38520,1,0,0:0:0:0:
255,149,38666,6,0,B|226:184|226:184|213:228,1,89.9999972534181
184,333,38958,2,0,P|230:346|294:318,1,97.4999955368044
294,313,39251,2,0,P|340:300|404:328,1,97.4999955368044
404,335,39544,2,0,P|450:348|514:320,1,97.4999955368044
449,229,39836,101,0,0:0:0:0:
344,372,39983,1,0,0:0:0:0:
344,372,40056,1,0,0:0:0:0:
344,372,40129,1,0,0:0:0:0:
341,167,40275,5,0,0:0:0:0:
276,332,40422,1,0,0:0:0:0:
276,332,40495,1,0,0:0:0:0:
276,332,40568,1,0,0:0:0:0:
229,116,40714,5,0,0:0:0:0:
208,292,40861,1,0,0:0:0:0:
208,292,40934,1,0,0:0:0:0:
208,292,41007,1,0,0:0:0:0:
115,77,41153,37,0,0:0:0:0:
140,252,41300,1,0,0:0:0:0:
140,252,41373,1,0,0:0:0:0:
140,252,41446,1,0,0:0:0:0:
259,247,41600,5,0,0:0:0:0:
293,131,41762,1,0,0:0:0:0:
193,64,41924,1,0,0:0:0:0:
99,138,42124,1,0,0:0:0:0:
329,203,42325,5,0,0:0:0:0:
256,192,42398,12,0,47007,0:0:0:0:
256,192,47154,5,0,0:0:0:0:
387,84,47739,1,0,0:0:0:0:
287,196,50520,21,0,0:0:0:0:
170,60,50959,1,0,0:0:0:0:
170,60,51105,1,0,0:0:0:0:
256,192,54032,12,0,55056,0:0:0:0:
157,167,55203,101,0,0:0:0:0:
169,185,55276,1,0,0:0:0:0:
181,204,55349,1,0,0:0:0:0:
194,223,55422,1,0,0:0:0:0:
206,241,55495,1,0,0:0:0:0:
357,278,55642,5,0,0:0:0:0:
345,260,55715,1,0,0:0:0:0:
332,241,55788,1,0,0:0:0:0:
320,222,55861,1,0,0:0:0:0:
308,204,55934,1,0,0:0:0:0:
361,93,56081,6,0,P|389:100|343:143,1,134.999995880127
260,120,56373,70,0,P|215:179|229:260,1,150
166,252,56666,2,0,P|161:171|201:100,1,165.000005035401
143,79,56959,2,0,P|106:159|107:253,1,179.999994506836
49,245,57251,2,0,P|51:149|98:47,1,194.999991073609
275,72,57544,38,0,B|266:120|266:120|293:160|293:160|262:212|295:277,1,209.999993591309
375,214,57837,2,0,L|413:278,1,69.9999978637696
408,158,57983,2,0,L|446:222,1,69.9999978637696
441,103,58129,2,0,L|479:167,1,69.9999978637696
392,67,58276,2,0,L|338:111,1,69.9999978637696
336,41,58422,2,0,L|272:71,1,69.9999978637696
280,17,58568,2,0,L|210:29,1,69.9999978637696
94,103,58715,5,0,0:0:0:0:
84,136,58788,1,0,0:0:0:0:
78,170,58861,1,0,0:0:0:0:
79,205,58934,1,0,0:0:0:0:
87,239,59007,1,0,0:0:0:0:
100,272,59080,1,0,0:0:0:0:
111,305,59154,1,0,0:0:0:0:
113,339,59227,1,0,0:0:0:0:
108,374,59300,5,0,0:0:0:0:
128,347,59373,1,0,0:0:0:0:
157,326,59446,1,0,0:0:0:0:
191,319,59519,1,0,0:0:0:0:
225,323,59592,1,0,0:0:0:0:
258,336,59665,1,0,0:0:0:0:
293,340,59739,1,0,0:0:0:0:
327,330,59812,1,0,0:0:0:0:
356,310,59885,6,0,L|423:328,1,69.9999978637696
399,256,60032,2,0,L|481:242,1,69.9999978637696
389,189,60178,2,0,L|453:135,1,69.9999978637696
348,116,60324,2,0,L|334:32,1,69.9999978637696
269,95,60471,69,0,0:0:0:0:
261,129,60544,1,0,0:0:0:0:
255,163,60617,1,0,0:0:0:0:
248,199,60690,1,0,0:0:0:0:
241,226,60763,5,0,0:0:0:0:
223,196,60836,1,0,0:0:0:0:
203,167,60910,1,0,0:0:0:0:
181,140,60983,1,0,0:0:0:0:
156,116,61056,6,2,B|119:72|119:72|93:117|43:119|43:119|52:188,1,209.999993591309,2|2,1:0|1:0,1:0:0:0:
67,307,61349,2,0,L|57:234,1,69.9999978637696
44,35,61495,2,2,B|134:197|134:197|157:210|157:210|292:194|314:343|218:388,1,489.999985046387,2|2,1:0|1:0,1:0:0:0:
117,283,62081,2,0,L|186:300,1,69.9999978637696
357,340,62227,85,0,0:0:0:0:
362,312,62300,1,0,0:0:0:0:
362,284,62373,1,0,0:0:0:0:
359,256,62446,1,0,0:0:0:0:
348,230,62519,1,0,0:0:0:0:
334,206,62592,1,0,0:0:0:0:
314,186,62665,1,0,0:0:0:0:
292,169,62739,1,0,0:0:0:0:
293,140,62812,1,0,0:0:0:0:
300,113,62885,1,0,0:0:0:0:
313,88,62959,1,0,0:0:0:0:
331,66,63032,1,0,0:0:0:0:
351,48,63105,1,0,0:0:0:0:
376,34,63178,1,0,0:0:0:0:
403,26,63251,1,0,0:0:0:0:
430,21,63324,1,0,0:0:0:0:
458,24,63398,6,0,P|457:58|444:107,1,69.9999978637696
408,164,63544,2,0,P|395:132|388:98,1,69.9999978637696
391,240,63690,2,2,P|364:217|342:190,1,69.9999978637696,2|2,1:0|1:0,1:0:0:0:
363,293,63837,2,0,P|331:278|302:257,1,69.9999978637696
333,348,63982,2,2,P|298:341|265:329,1,69.9999978637696,2|2,1:0|1:0,1:0:0:0:
184,281,64129,2,0,P|215:266|244:246,1,69.9999978637696
214,192,64276,2,2,P|248:186|281:174,1,69.9999978637696,2|2,1:0|1:0,1:0:0:0:
251,107,64422,2,0,P|285:110|320:107,1,69.9999978637696
388,98,64568,5,0,0:0:0:0:
391,112,64641,1,0,0:0:0:0:
395,127,64715,1,2,1:0:0:0:
398,141,64787,1,0,0:0:0:0:
402,156,64860,1,10,0:0:0:0:
405,170,64933,1,0,0:0:0:0:
407,183,65007,2,2,L|385:258,1,69.9999978637696,2|2,1:0|1:0,1:0:0:0:
341,328,65154,1,0,0:0:0:0:
328,335,65227,1,0,0:0:0:0:
315,343,65300,1,2,1:0:0:0:
302,350,65373,1,0,0:0:0:0:
289,359,65447,1,10,0:0:0:0:
276,367,65520,1,0,0:0:0:0:
266,375,65593,2,2,L|191:353,1,69.9999978637696,2|2,1:0|1:0,1:0:0:0:
19,320,65739,5,2,1:0:0:0:
34,290,65812,1,0,0:0:0:0:
56,265,65885,2,0,L|101:235,1,34.9999989318848
233,175,66032,101,2,1:0:0:0:
217,204,66105,1,0,0:0:0:0:
196,229,66178,2,0,L|150:258,1,34.9999989318848
54,140,66324,21,2,1:0:0:0:
83,155,66397,1,0,0:0:0:0:
108,177,66471,2,0,L|137:222,1,34.9999989318848
198,355,66617,53,2,1:0:0:0:
169,339,66690,1,0,0:0:0:0:
144,318,66764,2,0,L|114:272,1,34.9999989318848
180,106,66910,5,0,0:0:0:0:
302,114,67056,2,0,L|355:163,1,59.9999981689454
369,185,67203,1,0,0:0:0:0:
369,217,67276,1,0,0:0:0:0:
369,249,67349,1,0,0:0:0:0:
233,231,67495,1,0,0:0:0:0:
302,114,67642,2,0,L|352:61,1,59.9999981689454
170,184,67788,1,0,0:0:0:0:
170,184,67861,1,0,0:0:0:0:
170,184,67934,1,0,0:0:0:0:
379,367,68081,5,0,0:0:0:0:
433,257,68227,2,0,L|416:186,1,59.9999981689454
405,163,68374,1,0,0:0:0:0:
377,147,68447,1,0,0:0:0:0:
349,131,68520,1,0,0:0:0:0:
296,258,68666,1,0,0:0:0:0:
433,257,68813,2,0,L|503:240,1,59.9999981689454
306,336,68959,1,0,0:0:0:0:
306,336,69032,1,0,0:0:0:0:
306,336,69105,1,0,0:0:0:0:
261,56,69251,5,0,0:0:0:0:
138,53,69397,2,0,L|80:98,1,59.9999981689454
64,118,69544,1,0,0:0:0:0:
62,149,69617,1,0,0:0:0:0:
59,182,69690,1,0,0:0:0:0:
196,175,69837,1,0,0:0:0:0:
138,53,69983,2,0,L|92:-2,1,59.9999981689454
263,134,70129,1,0,0:0:0:0:
284,114,70203,1,0,0:0:0:0:
306,95,70276,1,0,0:0:0:0:
180,106,70422,6,0,L|209:237,1,119.999996337891
238,350,70715,1,0,0:0:0:0:
68,285,70861,2,2,P|105:224|208:224,1,179.999994506836,2|2,1:0|1:0,1:0:0:0:
171,359,71154,2,2,L|158:301,1,59.9999981689454,2|2,1:0|1:0,1:0:0:0:
180,106,71300,2,2,L|193:164,1,59.9999981689454,2|2,1:0|1:0,1:0:0:0:
301,340,71446,2,2,L|314:281,1,59.9999981689454,2|2,1:0|1:0,1:0:0:0:
350,101,71593,53,0,0:0:0:0:
325,66,71666,1,0,0:0:0:0:
292,38,71739,1,0,0:0:0:0:
255,19,71812,1,0,0:0:0:0:
214,8,71886,1,0,0:0:0:0:
173,7,71959,1,0,0:0:0:0:
131,15,72032,1,0,0:0:0:0:
93,31,72105,1,0,0:0:0:0:
59,56,72178,1,0,0:0:0:0:
32,88,72251,1,0,0:0:0:0:
12,125,72325,1,0,0:0:0:0:
1,166,72398,1,0,0:0:0:0:
1,207,72471,1,0,0:0:0:0:
7,249,72544,1,0,0:0:0:0:
24,288,72617,1,0,0:0:0:0:
49,320,72690,1,0,0:0:0:0:
81,349,72764,5,0,0:0:0:0:
68,310,72838,1,0,0:0:0:0:
62,274,72911,1,0,0:0:0:0:
67,237,72984,1,0,0:0:0:0:
82,201,73057,1,0,0:0:0:0:
101,168,73130,1,0,0:0:0:0:
126,141,73203,1,0,0:0:0:0:
158,122,73277,1,0,0:0:0:0:
194,108,73350,1,0,0:0:0:0:
196,134,73422,1,0,0:0:0:0:
198,160,73495,1,0,0:0:0:0:
200,186,73568,1,0,0:0:0:0:
202,212,73641,1,0,0:0:0:0:
204,238,73714,1,0,0:0:0:0:
206,264,73788,1,0,0:0:0:0:
208,291,73861,1,0,0:0:0:0:
210,317,73934,6,0,L|246:365,1,59.9999981689454
416,317,74081,1,0,0:0:0:0:
416,317,74154,1,0,0:0:0:0:
416,317,74227,1,0,0:0:0:0:
270,246,74373,1,0,0:0:0:0:
447,245,74520,1,0,0:0:0:0:
447,245,74593,1,0,0:0:0:0:
447,245,74666,1,0,0:0:0:0:
307,128,74812,1,0,0:0:0:0:
479,173,74959,1,0,0:0:0:0:
479,173,75032,1,0,0:0:0:0:
479,173,75105,6,0,L|411:181,1,59.9999981689454
187,178,75251,1,0,0:0:0:0:
187,132,75325,1,0,0:0:0:0:
199,93,75398,1,0,0:0:0:0:
226,59,75471,1,0,0:0:0:0:
263,36,75544,1,0,0:0:0:0:
306,26,75617,1,0,0:0:0:0:
349,33,75690,1,0,0:0:0:0:
386,52,75764,1,0,0:0:0:0:
415,88,75837,1,0,0:0:0:0:
400,109,75910,1,0,0:0:0:0:
385,130,75983,1,0,0:0:0:0:
370,151,76056,1,0,0:0:0:0:
354,173,76129,2,0,L|316:225,1,59.9999981689454
198,346,76276,22,0,B|212:312|212:312|195:270|195:270|221:225|185:174,1,179.999994506836
101,59,76715,1,0,0:0:0:0:
239,104,76861,2,0,P|270:143|275:199,1,89.9999972534181
101,149,77154,1,0,0:0:0:0:
101,149,77227,1,0,0:0:0:0:
101,149,77300,1,0,0:0:0:0:
187,30,77446,6,0,P|231:30|271:51,1,89.9999972534181
187,177,77739,1,0,0:0:0:0:
187,177,77812,1,0,0:0:0:0:
187,177,77885,1,0,0:0:0:0:
31,110,78032,2,0,P|59:75|100:58,1,89.9999972534181
277,181,78324,1,0,0:0:0:0:
277,181,78398,1,0,0:0:0:0:
277,181,78471,1,0,0:0:0:0:
440,58,78617,102,0,B|411:81|411:81|406:126|406:126|362:154|370:215,1,179.999994506836
390,356,79056,1,0,0:0:0:0:
289,251,79202,2,0,P|279:202|301:150,1,89.9999972534181
432,277,79495,1,0,0:0:0:0:
432,277,79568,1,0,0:0:0:0:
432,277,79641,1,0,0:0:0:0:
300,340,79787,22,0,P|260:319|235:282,1,89.9999972534181
369,212,80080,1,0,0:0:0:0:
369,212,80153,1,0,0:0:0:0:
369,212,80226,1,0,0:0:0:0:
476,344,80373,2,0,P|434:360|390:356,1,89.9999972534181
291,166,80665,1,0,0:0:0:0:
291,166,80739,1,0,0:0:0:0:
291,166,80812,1,0,0:0:0:0:
120,328,80959,5,0,0:0:0:0:
159,197,81105,1,0,0:0:0:0:
177,209,81178,1,0,0:0:0:0:
196,222,81251,2,0,L|242:254,1,44.999998626709
286,332,81398,2,0,L|233:331,1,44.999998626709
124,161,81544,1,0,0:0:0:0:
291,166,81690,1,0,0:0:0:0:
64,370,81837,1,0,0:0:0:0:
64,370,81910,1,0,0:0:0:0:
64,370,81983,2,0,P|48:343|37:309,1,44.999998626709
112,258,82129,6,0,P|128:231|139:197,1,44.999998626709
64,175,82276,2,0,P|48:148|37:114,1,44.999998626709
112,63,82422,2,0,P|128:36|139:2,1,44.999998626709
54,38,82568,2,0,P|38:65|27:99,1,44.999998626709
102,121,82715,2,0,P|118:148|129:182,1,44.999998626709
54,233,82861,2,0,P|38:260|27:294,1,44.999998626709
133,332,83007,2,0,P|160:348|194:359,1,44.999998626709
216,284,83154,2,0,P|243:268|277:257,1,44.999998626709
328,332,83300,6,0,P|355:348|389:359,1,44.999998626709
430,367,83446,1,0,0:0:0:0:
431,344,83519,1,0,0:0:0:0:
432,322,83592,1,0,0:0:0:0:
434,299,83665,1,0,0:0:0:0:
435,277,83738,1,0,0:0:0:0:
437,254,83811,1,0,0:0:0:0:
438,232,83885,1,0,0:0:0:0:
440,209,83958,1,0,0:0:0:0:
441,187,84031,1,0,0:0:0:0:
442,164,84104,1,0,0:0:0:0:
444,142,84178,2,0,P|417:126|383:115,1,44.999998626709
361,190,84325,2,0,P|334:206|300:217,1,44.999998626709
191,238,84471,5,0,0:0:0:0:
150,233,84544,1,0,0:0:0:0:
116,212,84618,1,0,0:0:0:0:
94,177,84691,1,0,0:0:0:0:
89,137,84764,1,0,0:0:0:0:
102,100,84837,1,0,0:0:0:0:
131,70,84910,1,0,0:0:0:0:
168,56,84983,1,0,0:0:0:0:
210,58,85056,6,0,P|224:75|242:89,1,44.999998626709
184,147,85202,2,0,P|193:167|206:185,1,44.999998626709
116,212,85349,2,0,P|120:234|128:255,1,44.999998626709
26,234,85495,2,0,P|23:256|25:278,1,44.999998626709
146,20,85642,6,0,B|167:49|167:49|212:57|212:57|236:103|298:100,1,179.999994506836
440,89,86081,1,0,0:0:0:0:
329,183,86227,2,0,P|279:188|229:163,1,89.9999972534181
364,42,86520,1,0,0:0:0:0:
364,42,86593,1,0,0:0:0:0:
364,42,86666,1,0,0:0:0:0:
418,177,86812,6,0,P|394:214|355:237,1,89.9999972534181
295,100,87105,1,0,0:0:0:0:
295,100,87178,1,0,0:0:0:0:
295,100,87251,1,0,0:0:0:0:
434,3,87398,2,0,P|447:45|440:89,1,89.9999972534181
244,174,87690,1,0,0:0:0:0:
244,174,87764,1,0,0:0:0:0:
244,174,87837,1,0,0:0:0:0:
261,377,87983,102,0,B|256:340|256:340|220:312|220:312|220:260|163:234,1,179.999994506836
35,177,88422,1,0,0:0:0:0:
178,147,88568,2,0,P|224:165|256:211,1,89.9999972534181
80,255,88861,1,0,0:0:0:0:
80,255,88934,1,0,0:0:0:0:
80,255,89007,1,0,0:0:0:0:
97,109,89153,22,0,P|135:86|180:84,1,89.9999972534181
169,236,89446,1,0,0:0:0:0:
169,236,89519,1,0,0:0:0:0:
169,236,89592,1,0,0:0:0:0:
0,256,89739,2,0,P|7:212|34:176,1,89.9999972534181
249,194,90031,1,0,0:0:0:0:
249,194,90105,1,0,0:0:0:0:
249,194,90178,1,0,0:0:0:0:
103,62,90324,5,0,0:0:0:0:
143,199,90470,1,0,0:0:0:0:
162,186,90543,1,0,0:0:0:0:
182,173,90616,2,0,L|230:139,1,44.999998626709
277,57,90763,2,0,L|221:58,1,44.999998626709
107,237,90909,1,0,0:0:0:0:
285,232,91055,1,0,0:0:0:0:
44,17,91202,1,0,0:0:0:0:
44,17,91275,1,0,0:0:0:0:
44,17,91348,2,0,P|27:45|15:80,1,44.999998626709
265,272,91495,6,0,P|274:251|286:232,1,44.999998626709
276,113,91642,2,0,P|271:145|275:182,1,44.999998626709
208,246,91788,2,0,P|214:224|224:204,1,44.999998626709
218,89,91934,2,0,P|210:120|209:157,1,44.999998626709
149,224,92081,2,0,P|153:201|161:180,1,44.999998626709
160,65,92227,2,0,P|149:95|144:132,1,44.999998626709
91,200,92373,2,0,P|93:177|98:155,1,44.999998626709
102,41,92520,2,0,P|88:70|79:106,1,44.999998626709
114,276,92666,6,0,P|113:298|115:320,1,44.999998626709
288,346,92812,1,0,0:0:0:0:
316,333,92885,1,0,0:0:0:0:
345,321,92958,1,0,0:0:0:0:
374,308,93031,1,0,0:0:0:0:
403,296,93105,2,0,L|403:250,1,44.999998626709
345,184,93251,1,0,0:0:0:0:
317,171,93324,1,0,0:0:0:0:
288,159,93397,1,0,0:0:0:0:
259,146,93470,1,0,0:0:0:0:
230,134,93544,2,0,L|230:88,1,44.999998626709
259,34,93690,2,0,L|298:11,1,44.999998626709
370,5,93837,5,0,0:0:0:0:
403,17,93910,1,0,0:0:0:0:
433,37,93983,1,0,0:0:0:0:
456,65,94056,1,0,0:0:0:0:
470,98,94129,1,0,0:0:0:0:
475,134,94202,1,0,0:0:0:0:
470,170,94276,1,0,0:0:0:0:
456,203,94349,1,0,0:0:0:0:
439,234,94422,6,0,P|430:255|418:274,1,44.999998626709
354,133,94568,2,0,P|356:155|355:178,1,44.999998626709
230,89,94715,2,0,P|243:107|254:127,1,44.999998626709
100,112,94861,2,0,P|121:121|139:133,1,44.999998626709
418,273,95007,5,0,0:0:0:0:
301,370,95154,1,0,0:0:0:0:
281,188,95300,1,0,0:0:0:0:
200,360,95446,1,0,0:0:0:0:
100,112,95593,2,0,P|93:157|100:209,1,89.9999972534181
100,350,95885,1,0,0:0:0:0:
291,279,96032,1,0,0:0:0:0:
35,202,96178,6,0,P|46:246|68:293,1,89.9999972534181
152,384,96471,1,0,0:0:0:0:
130,236,96617,1,0,0:0:0:0:
269,292,96764,1,0,0:0:0:0:
247,143,96910,1,0,0:0:0:0:
386,199,97056,1,0,0:0:0:0:
364,50,97202,1,0,0:0:0:0:
107,89,97349,102,0,P|101:134|107:186,1,89.9999972534181
183,270,97642,1,0,0:0:0:0:
355,190,97788,1,0,0:0:0:0:
197,89,97935,2,0,P|153:84|107:89,1,89.9999972534181
345,89,98227,1,0,0:0:0:0:
274,281,98374,1,0,0:0:0:0:
198,25,98520,22,0,P|239:33|282:54,1,89.9999972534181
403,154,98812,1,0,0:0:0:0:
232,189,98959,1,0,0:0:0:0:
232,189,99032,1,0,0:0:0:0:
232,189,99105,2,0,L|168:201,3,44.999998626709
166,280,99398,2,0,L|102:292,3,44.999998626709
55,379,99690,86,0,P|21:343|13:271,1,100
38,242,99910,1,0,0:0:0:0:
38,242,99983,2,0,P|34:191|74:131,1,100
113,126,100203,1,0,0:0:0:0:
113,126,100276,2,0,P|142:85|212:65,1,100
246,86,100495,1,0,0:0:0:0:
246,86,100568,2,0,P|294:74|361:103,1,100
430,244,100788,1,0,0:0:0:0:
430,244,100861,5,0,0:0:0:0:
464,121,101007,1,0,0:0:0:0:
306,210,101154,1,0,0:0:0:0:
306,210,101227,1,0,0:0:0:0:
306,210,101300,2,0,L|294:275,1,50
251,343,101446,21,0,0:0:0:0:
226,348,101519,1,0,0:0:0:0:
201,352,101592,1,0,0:0:0:0:
176,354,101665,1,0,0:0:0:0:
152,355,101738,1,0,0:0:0:0:
127,354,101811,1,0,0:0:0:0:
102,352,101885,1,0,0:0:0:0:
77,348,101958,1,0,0:0:0:0:
52,343,102031,5,0,0:0:0:0:
64,321,102105,1,0,0:0:0:0:
74,298,102178,1,0,0:0:0:0:
80,274,102251,1,0,0:0:0:0:
81,249,102324,1,0,0:0:0:0:
78,224,102397,1,0,0:0:0:0:
71,200,102471,1,0,0:0:0:0:
64,176,102544,1,0,0:0:0:0:
59,151,102617,5,0,0:0:0:0:
58,126,102690,1,0,0:0:0:0:
61,102,102763,1,0,0:0:0:0:
67,77,102836,1,0,0:0:0:0:
75,54,102910,1,0,0:0:0:0:
85,31,102983,1,0,0:0:0:0:
96,8,103056,1,0,0:0:0:0:
125,0,103129,1,0,0:0:0:0:
149,13,103203,5,0,0:0:0:0:
170,30,103276,1,0,0:0:0:0:
191,45,103349,2,0,L|238:84,1,44.999998626709
364,13,103495,1,0,0:0:0:0:
343,30,103568,1,0,0:0:0:0:
322,45,103641,2,0,L|274:84,1,44.999998626709
149,99,103788,1,0,0:0:0:0:
170,115,103861,1,0,0:0:0:0:
191,131,103934,2,0,L|238:170,1,44.999998626709
364,99,104080,1,0,0:0:0:0:
343,115,104153,1,0,0:0:0:0:
322,131,104226,2,0,L|274:170,1,44.999998626709
149,274,104373,21,0,0:0:0:0:
400,294,104666,2,0,P|403:234|381:187,1,89.9999972534181
322,131,104959,2,0,P|319:191|341:238,1,89.9999972534181
476,358,105251,2,0,L|415:359,1,44.999998626709
366,357,105398,2,0,L|322:358,1,44.999998626709
152,272,105544,1,0,0:0:0:0:
378,100,105837,2,0,P|337:55|288:37,1,89.9999972534181
207,39,106130,2,0,P|247:83|296:101,1,89.9999972534181
393,206,106422,1,0,0:0:0:0:
285,222,106568,1,0,0:0:0:0:
115,138,106715,6,0,L|57:111,3,44.999998626709
25,239,107007,2,0,L|70:235,3,44.999998626709
133,322,107300,2,0,L|96:348,3,44.999998626709
219,352,107593,2,0,L|237:311,3,44.999998626709
283,215,107885,5,0,0:0:0:0:
283,215,107959,1,0,0:0:0:0:
283,215,108032,2,0,L|278:170,1,44.999998626709
309,35,108178,1,0,0:0:0:0:
309,35,108252,1,0,0:0:0:0:
309,35,108325,2,0,L|313:79,1,44.999998626709
185,98,108471,1,0,0:0:0:0:
185,98,108545,1,0,0:0:0:0:
185,98,108618,2,0,L|140:102,1,44.999998626709
18,124,108764,1,0,0:0:0:0:
20,151,108837,1,0,0:0:0:0:
22,178,108910,1,0,0:0:0:0:
23,205,108983,1,0,0:0:0:0:
26,237,109056,85,0,0:0:0:0:
284,82,109349,2,0,P|287:142|265:189,1,89.9999972534181
206,245,109642,2,0,P|203:185|225:138,1,89.9999972534181
160,18,109934,2,0,L|221:17,1,44.999998626709
270,19,110081,2,0,L|314:18,1,44.999998626709
484,104,110227,1,0,0:0:0:0:
243,169,110520,2,0,B|254:227|254:227|287:284|287:284|298:343,1,179.999994506836
186,371,110959,1,0,0:0:0:0:
102,290,111105,1,0,0:0:0:0:
130,177,111251,1,0,0:0:0:0:
296,129,111398,6,0,B|310:205|310:205|344:263|344:263|352:304,1,179.999994506836
246,371,111837,1,0,0:0:0:0:
129,355,111983,2,0,P|99:353|60:325,3,44.999998626709
103,230,112276,2,0,P|78:213|58:170,3,44.999998626709
186,156,112568,21,0,0:0:0:0:
173,131,112641,1,0,0:0:0:0:
169,105,112714,1,0,0:0:0:0:
174,78,112788,1,0,0:0:0:0:
187,51,112861,5,0,0:0:0:0:
208,31,112934,1,0,0:0:0:0:
235,18,113008,1,0,0:0:0:0:
264,14,113081,1,0,0:0:0:0:
292,18,113154,5,0,0:0:0:0:
317,32,113227,1,0,0:0:0:0:
337,53,113300,1,0,0:0:0:0:
350,79,113373,1,0,0:0:0:0:
365,114,113446,6,0,P|424:162|497:164,1,134.999995880127
500,173,113739,70,0,L|494:224,1,50
435,347,113885,1,0,0:0:0:0:
435,347,113959,1,0,0:0:0:0:
435,347,114032,2,0,L|429:297,1,50
364,173,114178,1,0,0:0:0:0:
364,173,114252,1,0,0:0:0:0:
364,173,114324,2,0,L|358:224,1,50
299,347,114471,1,0,0:0:0:0:
299,347,114545,1,0,0:0:0:0:
299,347,114617,2,0,L|293:297,1,50
228,173,114764,1,0,0:0:0:0:
228,173,114838,1,0,0:0:0:0:
228,173,114910,6,0,L|222:224,1,50
163,347,115056,1,0,0:0:0:0:
163,347,115130,1,0,0:0:0:0:
163,347,115202,2,0,L|157:297,1,50
92,173,115349,1,0,0:0:0:0:
92,173,115423,1,0,0:0:0:0:
92,173,115495,2,0,L|86:224,1,50
27,347,115642,1,0,0:0:0:0:
27,347,115716,1,0,0:0:0:0:
27,347,115788,2,0,L|32:295,1,50
222,289,115934,1,0,0:0:0:0:
222,289,116008,1,0,0:0:0:0:
222,289,116081,6,0,P|244:306|279:320,3,50
379,295,116373,2,0,P|406:298|443:293,3,50
364,173,116666,2,0,P|389:162|419:139,3,50
248,126,116959,2,0,P|264:103|279:69,3,50
124,143,117251,5,0,0:0:0:0:
124,143,117324,1,0,0:0:0:0:
124,143,117398,2,0,P|127:115|122:78,1,50
44,23,117544,1,0,0:0:0:0:
44,23,117617,1,0,0:0:0:0:
44,23,117690,2,0,P|40:50|45:87,1,50
124,254,117837,2,0,P|127:226|122:189,1,50
44,134,117984,2,0,P|40:161|45:198,1,50
124,365,118129,2,0,P|127:337|122:300,1,50
44,245,118277,2,0,P|40:272|45:309,1,50
206,294,118422,6,0,P|207:269|204:245,1,50
252,168,118568,2,0,P|240:145|225:126,1,50
228,35,118715,2,0,P|206:21|184:12,1,50
41,72,118861,1,0,0:0:0:0:
41,101,118934,1,0,0:0:0:0:
41,131,119007,1,0,0:0:0:0:
41,161,119080,1,0,0:0:0:0:
41,191,119153,1,0,0:0:0:0:
41,221,119226,1,0,0:0:0:0:
41,251,119300,2,0,P|50:274|63:295,3,50
232,336,119593,54,0,P|220:313|205:294,1,50
296,191,119739,2,0,P|274:177|252:168,1,50
277,32,119886,2,0,P|252:31|228:34,1,50
41,72,120032,1,0,0:0:0:0:
56,97,120105,1,0,0:0:0:0:
71,123,120178,1,0,0:0:0:0:
85,148,120251,1,0,0:0:0:0:
100,174,120324,1,0,0:0:0:0:
115,200,120397,1,0,0:0:0:0:
129,226,120471,2,0,P|148:241|170:252,3,50
276,358,120764,5,0,0:0:0:0:
318,341,120837,1,0,0:0:0:0:
335,299,120910,1,0,0:0:0:0:
318,257,120983,1,0,0:0:0:0:
276,240,121056,1,0,0:0:0:0:
233,225,121129,1,0,0:0:0:0:
216,183,121203,1,0,0:0:0:0:
233,141,121276,1,0,0:0:0:0:
273,120,121349,1,0,0:0:0:0:
316,133,121422,1,0,0:0:0:0:
358,116,121495,1,0,0:0:0:0:
375,74,121568,1,0,0:0:0:0:
358,32,121641,1,0,0:0:0:0:
316,15,121714,1,0,0:0:0:0:
274,32,121788,1,0,0:0:0:0:
238,60,121861,1,0,0:0:0:0:
193,50,121934,5,0,0:0:0:0:
149,43,122007,1,0,0:0:0:0:
112,71,122080,1,0,0:0:0:0:
105,115,122153,1,0,0:0:0:0:
133,152,122226,1,0,0:0:0:0:
173,173,122300,1,0,0:0:0:0:
190,215,122373,1,0,0:0:0:0:
173,257,122447,1,0,0:0:0:0:
130,272,122520,1,0,0:0:0:0:
85,264,122593,1,0,0:0:0:0:
57,299,122666,1,0,0:0:0:0:
57,344,122740,1,0,0:0:0:0:
85,378,122813,1,0,0:0:0:0:
112,341,122885,1,0,0:0:0:0:
151,319,122958,1,0,0:0:0:0:
196,314,123031,1,0,0:0:0:0:
238,328,123104,5,0,0:0:0:0:
272,358,123178,1,0,0:0:0:0:
322,353,123251,1,0,0:0:0:0:
368,333,123324,1,0,0:0:0:0:
405,299,123397,1,0,0:0:0:0:
429,256,123470,1,0,0:0:0:0:
437,206,123544,1,0,0:0:0:0:
429,157,123617,1,0,0:0:0:0:
405,113,123691,1,0,0:0:0:0:
368,79,123764,1,0,0:0:0:0:
322,59,123837,1,0,0:0:0:0:
272,55,123910,1,0,0:0:0:0:
224,67,123983,5,0,0:0:0:0:
172,84,124056,1,0,0:0:0:0:
172,138,124129,1,0,0:0:0:0:
224,155,124203,1,0,0:0:0:0:
255,111,124276,1,0,0:0:0:0:
96,331,124568,1,0,0:0:0:0:
353,246,124861,1,0,0:0:0:0:
96,162,125154,1,0,0:0:0:0:
255,383,125446,6,0,P|281:354|300:305,1,89.9999972534181
255,111,125739,1,0,0:0:0:0:
223,262,125885,2,0,P|252:288|301:307,1,89.9999972534181
167,172,126178,1,0,0:0:0:0:
333,195,126324,1,0,0:0:0:0:
341,160,126398,1,0,0:0:0:0:
348,124,126471,2,0,L|358:70,1,44.999998626709
257,1,126617,6,0,P|231:30|212:79,1,89.9999972534181
257,273,126910,1,0,0:0:0:0:
292,267,126984,1,0,0:0:0:0:
329,261,127056,2,0,P|370:245|405:216,1,89.9999972534181
356,79,127349,1,0,0:0:0:0:
212,77,127495,1,0,0:0:0:0:
176,84,127569,1,0,0:0:0:0:
140,91,127642,2,0,L|86:101,1,44.999998626709
65,191,127788,102,0,P|94:217|143:236,1,89.9999972534181
266,215,128081,1,0,0:0:0:0:
307,123,128227,2,0,P|291:81|262:46,1,89.9999972534181
113,39,128520,1,0,0:0:0:0:
65,191,128666,1,0,0:0:0:0:
72,227,128740,1,0,0:0:0:0:
79,263,128813,2,0,L|89:317,1,44.999998626709
255,383,128959,22,0,P|281:354|300:305,1,89.9999972534181
255,111,129251,1,0,0:0:0:0:
220,117,129325,1,0,0:0:0:0:
183,123,129397,2,0,P|142:139|107:168,1,89.9999972534181
156,305,129690,1,0,0:0:0:0:
300,307,129836,1,0,0:0:0:0:
336,300,129910,1,0,0:0:0:0:
372,293,129983,2,0,L|426:283,1,44.999998626709
447,147,130129,86,0,B|429:193|429:193|397:234,1,89.9999972534181
227,352,130422,1,0,0:0:0:0:
264,187,130568,2,0,B|310:204|310:204|351:236,1,89.9999972534181
357,358,130861,1,0,0:0:0:0:
178,190,131007,1,0,0:0:0:0:
151,164,131081,1,0,0:0:0:0:
124,138,131154,1,0,0:0:0:0:
278,74,131300,5,0,0:0:0:0:
385,151,131446,1,0,0:0:0:0:
221,235,131593,1,0,0:0:0:0:
195,262,131666,1,0,0:0:0:0:
169,289,131740,1,0,0:0:0:0:
15,252,131885,2,0,L|15:149,1,89.9999972534181
156,83,132178,1,0,0:0:0:0:
183,109,132252,1,0,0:0:0:0:
210,135,132325,1,0,0:0:0:0:
237,161,132398,1,0,0:0:0:0:
264,187,132471,102,0,B|298:221|298:221|298:273,1,89.9999972534181
298,291,132690,1,0,0:0:0:0:
296,328,132763,1,0,0:0:0:0:
199,361,132910,2,0,B|154:367|154:367|96:361,1,89.9999972534181
82,358,133129,1,0,0:0:0:0:
45,351,133202,1,0,0:0:0:0:
145,221,133349,2,0,L|178:189,3,44.999998626709
202,163,133642,21,0,0:0:0:0:
237,154,133715,1,0,0:0:0:0:
272,163,133788,1,0,0:0:0:0:
298,189,133861,1,0,0:0:0:0:
307,224,133934,1,0,0:0:0:0:
298,259,134008,1,0,0:0:0:0:
272,284,134081,2,0,L|239:316,1,44.999998626709
109,362,134227,2,0,B|72:334|72:334|36:289,1,89.9999972534181
97,162,134520,1,0,0:0:0:0:
125,139,134593,1,0,0:0:0:0:
152,116,134666,1,0,0:0:0:0:
183,98,134739,1,0,0:0:0:0:
218,89,134812,86,0,P|272:95|325:119,1,89.9999972534181
241,222,135105,1,0,0:0:0:0:
229,257,135178,1,0,0:0:0:0:
219,290,135251,1,0,0:0:0:0:
338,330,135398,2,0,P|359:327|385:312,3,44.999998626709
380,223,135690,2,0,P|397:210|412:183,3,44.999998626709
409,96,135983,2,0,P|417:76|417:45,3,44.999998626709
326,53,136276,1,0,0:0:0:0:
299,76,136349,1,0,0:0:0:0:
271,99,136422,1,0,0:0:0:0:
193,25,136568,1,0,0:0:0:0:
115,99,136715,1,0,0:0:0:0:
193,173,136861,2,0,P|197:220|192:269,1,89.9999972534181
58,26,137154,5,0,0:0:0:0:
85,21,137227,1,0,0:0:0:0:
115,25,137300,1,0,0:0:0:0:
140,33,137373,1,0,0:0:0:0:
166,40,137446,1,0,0:0:0:0:
193,45,137519,1,0,0:0:0:0:
220,48,137592,1,0,0:0:0:0:
247,48,137665,1,0,0:0:0:0:
273,46,137739,1,0,0:0:0:0:
300,42,137812,1,0,0:0:0:0:
327,38,137885,1,0,0:0:0:0:
354,35,137958,1,0,0:0:0:0:
381,34,138032,2,0,P|411:35|437:53,3,44.999998626709
454,68,138325,101,0,0:0:0:0:
447,94,138398,1,0,0:0:0:0:
440,120,138471,1,0,0:0:0:0:
433,146,138544,1,0,0:0:0:0:
426,172,138617,1,0,0:0:0:0:
419,198,138691,1,0,0:0:0:0:
412,224,138764,2,0,L|376:266,1,44.999998626709
324,327,138910,21,0,0:0:0:0:
250,208,139056,2,0,L|254:263,1,44.999998626709
259,342,139202,1,0,0:0:0:0:
92,269,139349,2,0,L|134:304,1,44.999998626709
194,357,139495,85,0,0:0:0:0:
193,325,139568,1,0,0:0:0:0:
192,294,139641,1,0,0:0:0:0:
192,262,139714,1,0,0:0:0:0:
191,231,139787,1,0,0:0:0:0:
191,199,139860,1,0,0:0:0:0:
201,170,139934,1,0,0:0:0:0:
224,149,140007,1,0,0:0:0:0:
253,136,140080,1,0,0:0:0:0:
284,129,140153,1,0,0:0:0:0:
315,126,140226,1,0,0:0:0:0:
346,134,140300,1,0,0:0:0:0:
376,126,140373,2,0,P|394:102|402:69,3,44.999998626709
437,0,140666,5,0,0:0:0:0:
463,162,140812,1,0,0:0:0:0:
267,60,140958,1,0,0:0:0:0:
236,53,141031,1,0,0:0:0:0:
208,48,141104,1,0,0:0:0:0:
90,74,141251,5,0,0:0:0:0:
75,91,141324,1,0,0:0:0:0:
64,110,141397,1,0,0:0:0:0:
16,225,141544,2,0,L|16:284,3,44.999998626709
75,359,141837,69,0,0:0:0:0:
107,376,141910,1,0,0:0:0:0:
142,383,141983,1,0,0:0:0:0:
178,381,142057,1,0,0:0:0:0:
212,369,142130,1,0,0:0:0:0:
242,348,142203,1,0,0:0:0:0:
264,320,142276,1,0,0:0:0:0:
279,287,142349,1,0,0:0:0:0:
284,252,142422,1,0,0:0:0:0:
254,231,142495,1,0,0:0:0:0:
222,252,142568,1,0,0:0:0:0:
233,287,142642,1,0,0:0:0:0:
248,320,142715,1,0,0:0:0:0:
270,348,142788,1,0,0:0:0:0:
300,369,142861,1,0,0:0:0:0:
333,380,142934,1,0,0:0:0:0:
369,384,143007,69,0,0:0:0:0:
404,375,143081,1,0,0:0:0:0:
427,339,143154,1,0,0:0:0:0:
436,300,143227,1,0,0:0:0:0:
437,256,143301,1,0,0:0:0:0:
427,217,143374,1,0,0:0:0:0:
405,180,143447,1,0,0:0:0:0:
375,151,143520,1,0,0:0:0:0:
337,132,143593,1,0,0:0:0:0:
296,124,143666,1,0,0:0:0:0:
253,125,143740,1,0,0:0:0:0:
213,141,143813,1,0,0:0:0:0:
179,164,143886,1,0,0:0:0:0:
152,198,143959,1,0,0:0:0:0:
137,237,144032,2,0,L|191:269,1,44.999998626709
386,92,144178,6,0,P|337:68|205:81,1,179.999994506836
156,104,144471,2,0,P|131:127|109:164,3,59.9999981689454
74,261,144764,2,0,P|63:293|63:336,3,59.9999981689454
132,369,145056,1,0,0:0:0:0:
174,369,145129,1,0,0:0:0:0:
216,369,145202,1,0,0:0:0:0:
258,369,145275,1,0,0:0:0:0:
300,369,145349,6,0,L|369:347,1,59.9999981689454
453,285,145495,2,0,L|384:307,1,59.9999981689454
278,313,145642,2,0,L|347:291,1,59.9999981689454
431,229,145788,2,0,L|362:251,1,59.9999981689454
256,257,145934,2,0,L|325:235,1,59.9999981689454
409,173,146080,2,0,L|340:195,1,59.9999981689454
130,250,146227,1,0,0:0:0:0:
130,208,146300,1,0,0:0:0:0:
130,166,146373,1,0,0:0:0:0:
130,124,146446,1,0,0:0:0:0:
130,82,146520,102,0,P|136:50|152:13,3,59.9999981689454
247,82,146812,2,0,P|268:57|300:33,3,59.9999981689454
348,140,147105,2,0,P|378:129|418:124,3,59.9999981689454
406,240,147398,1,0,0:0:0:0:
364,240,147471,1,0,0:0:0:0:
322,240,147544,1,0,0:0:0:0:
280,240,147617,1,0,0:0:0:0:
238,240,147691,6,0,L|169:218,1,59.9999981689454
85,156,147837,2,0,L|154:178,1,59.9999981689454
260,184,147984,2,0,L|191:162,1,59.9999981689454
107,100,148130,2,0,L|176:122,1,59.9999981689454
282,128,148276,2,0,L|213:106,1,59.9999981689454
129,44,148422,2,0,L|198:66,1,59.9999981689454
394,155,148568,1,0,0:0:0:0:
394,197,148641,1,0,0:0:0:0:
394,239,148714,1,0,0:0:0:0:
394,281,148787,1,0,0:0:0:0:
394,323,148861,70,0,P|388:355|372:392,1,59.9999981689454
252,367,149007,1,0,0:0:0:0:
210,359,149080,1,0,0:0:0:0:
182,329,149153,1,0,0:0:0:0:
176,287,149226,1,0,0:0:0:0:
194,246,149300,2,0,P|214:219|219:192,3,59.9999981689454
207,153,149593,1,0,0:0:0:0:
173,128,149666,1,0,0:0:0:0:
131,128,149739,2,0,P|97:123|75:107,3,59.9999981689454
87,67,150032,5,0,0:0:0:0:
117,38,150105,1,0,0:0:0:0:
157,27,150178,1,0,0:0:0:0:
198,38,150251,1,0,0:0:0:0:
228,67,150325,1,0,0:0:0:0:
258,96,150398,1,0,0:0:0:0:
299,107,150471,1,0,0:0:0:0:
339,96,150544,1,0,0:0:0:0:
369,67,150617,2,0,P|398:50|416:23,1,59.9999981689454
413,141,150764,2,0,P|409:171|394:197,1,59.9999981689454
363,271,150910,1,0,0:0:0:0:
357,312,150983,1,0,0:0:0:0:
332,345,151056,1,0,0:0:0:0:
293,362,151129,1,0,0:0:0:0:
251,356,151203,6,0,P|222:340|192:313,1,59.9999981689454
220,230,151349,1,0,0:0:0:0:
228,188,151422,1,0,0:0:0:0:
258,160,151495,1,0,0:0:0:0:
300,154,151568,1,0,0:0:0:0:
341,172,151642,2,0,P|368:192|395:197,3,59.9999981689454
434,185,151935,1,0,0:0:0:0:
459,151,152008,1,0,0:0:0:0:
459,109,152081,2,0,P|454:75|438:53,3,59.9999981689454
374,72,152373,5,0,0:0:0:0:
344,43,152446,1,0,0:0:0:0:
304,32,152519,1,0,0:0:0:0:
263,43,152592,1,0,0:0:0:0:
233,72,152666,1,0,0:0:0:0:
203,101,152739,1,0,0:0:0:0:
162,112,152812,1,0,0:0:0:0:
122,101,152885,1,0,0:0:0:0:
92,72,152958,2,0,P|63:55|45:28,1,59.9999981689454
47,146,153105,2,0,P|51:176|67:202,1,59.9999981689454
142,309,153251,1,0,0:0:0:0:
168,341,153324,1,0,0:0:0:0:
206,356,153397,1,0,0:0:0:0:
248,350,153470,1,0,0:0:0:0:
280,323,153544,5,0,0:0:0:0:
347,185,153690,1,0,0:0:0:0:
372,350,153837,2,0,P|404:344|433:324,1,59.9999981689454
503,245,153983,1,0,0:0:0:0:
368,254,154129,2,0,P|312:273|279:322,1,119.999996337891
142,309,154422,1,0,0:0:0:0:
141,285,154496,1,0,0:0:0:0:
140,259,154569,1,0,0:0:0:0:
138,233,154642,1,0,0:0:0:0:
136,207,154715,1,0,0:0:0:0:
11,117,154861,1,0,0:0:0:0:
199,121,155007,2,0,P|225:138|244:167,3,59.9999981689454
302,165,155300,2,0,P|316:192|317:227,3,59.9999981689454
369,254,155593,2,0,P|367:285|351:315,3,59.9999981689454
211,374,155885,53,0,0:0:0:0:
158,364,155958,1,0,0:0:0:0:
110,339,156031,1,0,0:0:0:0:
72,301,156105,1,0,0:0:0:0:
46,254,156178,1,0,0:0:0:0:
35,201,156251,1,0,0:0:0:0:
41,147,156324,1,0,0:0:0:0:
62,98,156397,1,0,0:0:0:0:
98,56,156471,1,0,0:0:0:0:
143,27,156544,1,0,0:0:0:0:
195,12,156617,1,0,0:0:0:0:
249,14,156690,1,0,0:0:0:0:
300,32,156763,5,0,0:0:0:0:
339,60,156837,1,0,0:0:0:0:
369,100,156911,1,0,0:0:0:0:
386,145,156984,1,0,0:0:0:0:
387,194,157057,1,0,0:0:0:0:
369,239,157129,1,0,0:0:0:0:
324,257,157202,1,0,0:0:0:0:
280,239,157275,1,0,0:0:0:0:
261,194,157348,1,0,0:0:0:0:
243,150,157422,1,0,0:0:0:0:
198,131,157495,1,0,0:0:0:0:
154,150,157568,1,0,0:0:0:0:
135,193,157642,5,0,0:0:0:0:
137,234,157715,1,0,0:0:0:0:
157,271,157788,1,0,0:0:0:0:
190,296,157861,1,0,0:0:0:0:
231,304,157934,1,0,0:0:0:0:
272,294,158007,1,0,0:0:0:0:
304,269,158081,1,0,0:0:0:0:
323,232,158154,1,0,0:0:0:0:
325,190,158227,6,0,P|302:108|209:208,1,269.999991760254
262,165,159105,2,0,L|262:219,1,54.0000013183594
191,205,159398,6,0,P|254:70|343:190,1,358.750005474091
370,189,159983,86,0,P|254:32|171:209,1,463.750019459725
226,224,160568,5,0,0:0:0:0:
258,232,160641,1,0,0:0:0:0:
290,240,160714,1,0,0:0:0:0:
322,248,160787,1,0,0:0:0:0:
354,256,160861,5,0,0:0:0:0:
318,264,160934,1,0,0:0:0:0:
282,273,161007,1,0,0:0:0:0:
247,282,161080,1,0,0:0:0:0:
212,291,161154,53,0,0:0:0:0:
251,301,161227,1,0,0:0:0:0:
281,311,161300,1,0,0:0:0:0:
320,321,161373,1,0,0:0:0:0:
359,331,161446,5,0,0:0:0:0:
317,341,161520,1,0,0:0:0:0:
275,352,161593,1,0,0:0:0:0:
233,362,161666,1,0,0:0:0:0:
191,372,161739,5,0,0:0:0:0:
61,90,162032,1,0,0:0:0:0:
332,241,162324,1,0,0:0:0:0:
25,280,162617,1,0,0:0:0:0:
276,42,162910,38,0,L|277:147,1,89.9999972534181
276,263,163203,1,0,0:0:0:0:
198,156,163349,1,0,0:0:0:0:
323,197,163495,2,0,B|349:234|349:234|356:281,1,89.9999972534181
198,237,163788,1,0,0:0:0:0:
276,131,163934,1,0,0:0:0:0:
354,370,164081,6,0,P|377:367|409:352,3,44.999998626709
422,296,164373,1,0,0:0:0:0:
503,191,164520,1,0,0:0:0:0:
377,228,164666,2,0,B|349:264|349:264|341:310,1,89.9999972534181
500,272,164959,1,0,0:0:0:0:
426,164,165105,1,0,0:0:0:0:
262,367,165251,102,0,L|174:338,1,89.9999972534181
54,287,165544,1,0,0:0:0:0:
181,258,165691,1,0,0:0:0:0:
96,356,165837,2,0,B|51:365|51:365|5:353,1,89.9999972534181
108,227,166129,1,0,0:0:0:0:
176,339,166276,1,0,0:0:0:0:
316,121,166422,22,0,P|295:111|273:106,3,44.999998626709
192,59,166715,2,0,P|169:60|148:67,3,44.999998626709
53,66,167007,2,0,P|34:78|19:95,3,44.999998626709
33,188,167300,1,0,0:0:0:0:
36,210,167373,1,0,0:0:0:0:
42,231,167446,1,0,0:0:0:0:
51,252,167519,1,0,0:0:0:0:
61,271,167593,86,0,L|159:248,1,89.9999972534181
276,220,167885,1,0,0:0:0:0:
188,321,168031,1,0,0:0:0:0:
200,190,168177,2,0,B|230:156|230:156|274:138,1,89.9999972534181
267,302,168470,1,0,0:0:0:0:
146,250,168616,1,0,0:0:0:0:
350,41,168764,6,0,P|373:44|405:59,3,44.999998626709
418,115,169056,1,0,0:0:0:0:
499,220,169203,1,0,0:0:0:0:
373,183,169349,2,0,B|345:146|345:146|337:100,1,89.9999972534181
496,139,169642,1,0,0:0:0:0:
422,247,169788,1,0,0:0:0:0:
258,44,169934,102,0,L|247:142,1,89.9999972534181
220,261,170227,1,0,0:0:0:0:
166,144,170374,1,0,0:0:0:0:
279,206,170520,2,0,B|297:247|297:247|295:294,1,89.9999972534181
152,221,170812,1,0,0:0:0:0:
246,133,170959,1,0,0:0:0:0:
376,352,171105,22,0,P|372:322|356:277,1,59.9999981689454
417,259,171251,2,0,P|398:235|362:204,1,59.9999981689454
406,157,171398,2,0,P|378:145|331:136,1,59.9999981689454
345,75,171544,2,0,P|315:78|270:94,1,59.9999981689454
126,251,171690,2,0,L|84:292,1,59.9999981689454
199,324,171837,2,0,L|240:365,1,59.9999981689454
271,251,171983,2,0,L|312:209,1,59.9999981689454
198,178,172130,2,0,L|156:136,1,59.9999981689454
48,46,172276,5,0,0:0:0:0:
27,74,172349,1,0,0:0:0:0:
13,106,172422,1,0,0:0:0:0:
4,141,172495,1,0,0:0:0:0:
2,175,172569,1,0,0:0:0:0:
6,210,172642,1,0,0:0:0:0:
17,243,172715,1,0,0:0:0:0:
33,274,172788,1,0,0:0:0:0:
55,302,172861,5,0,0:0:0:0:
78,276,172934,1,0,0:0:0:0:
108,257,173008,1,0,0:0:0:0:
141,244,173081,1,0,0:0:0:0:
175,236,173154,1,0,0:0:0:0:
209,236,173227,1,0,0:0:0:0:
245,241,173300,1,0,0:0:0:0:
278,253,173374,1,0,0:0:0:0:
306,272,173447,5,0,0:0:0:0:
332,249,173520,1,0,0:0:0:0:
355,222,173593,1,0,0:0:0:0:
372,191,173666,1,0,0:0:0:0:
383,158,173740,1,0,0:0:0:0:
388,123,173813,1,0,0:0:0:0:
386,88,173886,1,0,0:0:0:0:
378,54,173959,1,0,0:0:0:0:
347,35,174032,5,0,0:0:0:0:
326,63,174105,1,0,0:0:0:0:
299,87,174178,1,0,0:0:0:0:
270,106,174252,1,0,0:0:0:0:
237,120,174325,1,0,0:0:0:0:
203,127,174398,1,0,0:0:0:0:
168,127,174471,1,0,0:0:0:0:
133,122,174544,1,0,0:0:0:0:
101,110,174617,69,0,0:0:0:0:
78,84,174690,1,0,0:0:0:0:
76,49,174763,1,0,0:0:0:0:
96,21,174836,1,0,0:0:0:0:
129,11,174909,1,0,0:0:0:0:
161,24,174982,1,0,0:0:0:0:
178,53,175056,1,0,0:0:0:0:
176,85,175129,1,0,0:0:0:0:
155,111,175203,5,0,0:0:0:0:
133,137,175276,1,0,0:0:0:0:
131,172,175349,1,0,0:0:0:0:
151,200,175422,1,0,0:0:0:0:
184,210,175495,1,0,0:0:0:0:
216,197,175568,1,0,0:0:0:0:
234,168,175642,1,0,0:0:0:0:
231,136,175715,1,0,0:0:0:0:
228,104,175788,5,0,0:0:0:0:
248,53,175861,1,0,0:0:0:0:
295,27,175934,1,0,0:0:0:0:
347,36,176007,1,0,0:0:0:0:
383,76,176080,1,0,0:0:0:0:
387,128,176154,1,0,0:0:0:0:
363,171,176227,1,0,0:0:0:0:
316,193,176301,1,0,0:0:0:0:
263,162,176373,6,0,P|230:286|316:191,1,350
229,106,176959,69,0,0:0:0:0:
196,119,177032,1,0,0:0:0:0:
169,141,177105,1,0,0:0:0:0:
149,169,177178,1,0,0:0:0:0:
137,202,177251,1,0,0:0:0:0:
134,237,177324,1,0,0:0:0:0:
141,271,177398,1,0,0:0:0:0:
157,302,177471,1,0,0:0:0:0:
181,328,177544,5,0,0:0:0:0:
211,346,177617,1,0,0:0:0:0:
245,355,177690,1,0,0:0:0:0:
280,355,177763,1,0,0:0:0:0:
313,345,177837,1,0,0:0:0:0:
343,327,177910,1,0,0:0:0:0:
366,301,177983,1,0,0:0:0:0:
382,270,178056,1,0,0:0:0:0:
389,236,178129,5,0,0:0:0:0:
386,201,178202,1,0,0:0:0:0:
374,168,178276,1,0,0:0:0:0:
354,140,178349,1,0,0:0:0:0:
326,119,178422,1,0,0:0:0:0:
297,106,178496,1,0,0:0:0:0:
262,101,178569,1,0,0:0:0:0:
227,104,178642,1,0,0:0:0:0:
196,119,178715,5,0,0:0:0:0:
154,138,178788,1,0,0:0:0:0:
109,142,178861,1,0,0:0:0:0:
63,135,178934,1,0,0:0:0:0:
24,119,179007,2,0,P|2:89|-9:53,3,69.9999978637696
116,21,179300,6,0,L|116:171,1,150
116,220,179593,1,0,0:0:0:0:
261,300,179739,2,0,L|261:149,1,150
261,100,180032,1,0,0:0:0:0:
215,18,180178,1,0,0:0:0:0:
189,160,180324,1,0,0:0:0:0:
427,125,180617,85,0,0:0:0:0:
512,174,180764,1,0,0:0:0:0:
512,278,180910,1,0,0:0:0:0:
415,333,181056,1,0,0:0:0:0:
313,274,181203,1,0,0:0:0:0:
313,151,181349,1,0,0:0:0:0:
199,87,181495,1,0,0:0:0:0:
84,155,181642,5,0,0:0:0:0:
312,272,182812,21,0,0:0:0:0:
301,15,183983,5,0,0:0:0:0:
182,243,185154,6,0,L|231:254,1,44.999998626709
385,204,185446,1,0,0:0:0:0:
303,74,185593,1,0,0:0:0:0:
310,251,185739,2,0,L|320:294,1,44.999998626709
382,115,186032,1,0,0:0:0:0:
228,122,186178,1,0,0:0:0:0:
158,259,186324,85,0,0:0:0:0:
393,35,187495,6,0,L|483:60,1,89.9999972534181
119,349,188666,6,0,L|29:324,1,89.9999972534181
157,125,189837,6,0,L|128:132,1,29.9999990844727
335,159,189983,2,0,L|363:167,1,29.9999990844727
157,194,190129,2,0,L|128:201,1,29.9999990844727
335,228,190276,2,0,L|363:236,1,29.9999990844727
157,262,190422,5,0,0:0:0:0:
116,275,190495,1,0,0:0:0:0:
114,318,190568,1,0,0:0:0:0:
152,335,190641,1,0,0:0:0:0:
183,307,190714,1,0,0:0:0:0:
393,35,191007,53,0,0:0:0:0:
263,75,191154,1,0,0:0:0:0:
393,115,191300,1,0,0:0:0:0:
263,155,191447,1,0,0:0:0:0:
393,195,191593,1,0,0:0:0:0:
263,235,191739,1,0,0:0:0:0:
393,275,191885,1,0,0:0:0:0:
263,315,192032,1,0,0:0:0:0:
133,275,192178,6,0,L|106:186,1,80
3,315,192471,1,0,0:0:0:0:
110,198,192617,2,0,L|136:109,1,80
263,315,192910,1,0,0:0:0:0:
132,121,193056,2,0,L|105:32,1,80
133,315,193349,102,0,L|213:315,1,80
385,281,193642,1,0,0:0:0:0:
413,198,193788,1,0,0:0:0:0:
299,297,193934,1,0,0:0:0:0:
241,231,194081,1,0,0:0:0:0:
355,131,194227,1,0,0:0:0:0:
328,215,194373,1,0,0:0:0:0:
213,315,194520,22,0,L|132:315,1,80
61,192,194812,1,0,0:0:0:0:
132,69,194959,1,0,0:0:0:0:
269,148,195105,2,0,L|320:160,2,40
68,133,195398,2,0,L|80:180,1,40
68,214,195544,2,0,L|55:261,1,40
3,355,195690,85,0,0:0:0:0:
133,315,195837,1,0,0:0:0:0:
3,275,195983,1,0,0:0:0:0:
133,234,196130,1,0,0:0:0:0:
3,194,196276,1,0,0:0:0:0:
133,154,196422,1,0,0:0:0:0:
3,115,196568,1,0,0:0:0:0:
133,74,196715,1,0,0:0:0:0:
263,114,196861,6,0,L|289:202,1,80
392,75,197154,1,0,0:0:0:0:
286,191,197300,2,0,L|259:279,1,80
133,74,197593,1,0,0:0:0:0:
264,268,197739,2,0,L|290:356,1,80
340,58,198032,102,0,L|262:78,1,80
104,155,198325,1,0,0:0:0:0:
98,242,198471,1,0,0:0:0:0:
256,166,198617,1,0,0:0:0:0:
183,117,198764,1,0,0:0:0:0:
177,205,198910,1,0,0:0:0:0:
173,293,199056,2,0,L|213:311,1,42.5000008106232
371,344,199203,22,0,L|283:344,1,85.0000016212464
13,242,199495,2,0,L|101:242,1,85.0000016212464
211,218,199788,1,0,0:0:0:0:
185,208,199861,1,0,0:0:0:0:
160,194,199934,1,0,0:0:0:0:
138,177,200007,1,0,0:0:0:0:
161,141,200081,1,0,0:0:0:0:
168,100,200154,1,0,0:0:0:0:
159,58,200227,1,0,0:0:0:0:
134,24,200300,1,0,0:0:0:0:
100,10,200373,85,0,0:0:0:0:
221,65,200520,1,0,0:0:0:0:
68,102,200666,2,0,L|1:122,2,44.999998626709
221,65,200959,1,0,0:0:0:0:
185,208,201105,1,0,0:0:0:0:
185,208,201178,1,0,0:0:0:0:
185,208,201251,2,0,L|168:276,2,44.999998626709
237,6,201544,5,0,0:0:0:0:
362,79,201690,1,0,0:0:0:0:
310,194,201837,1,0,0:0:0:0:
310,194,201910,1,0,0:0:0:0:
310,194,201983,1,0,0:0:0:0:
178,55,202129,2,0,P|155:67|136:96,1,44.999998626709
94,129,202276,2,0,P|116:142|150:144,1,44.999998626709
199,166,202422,2,0,P|199:140|183:109,3,44.999998626709
118,18,202715,101,0,0:0:0:0:
92,198,202861,1,0,0:0:0:0:
258,131,203007,2,0,L|300:115,2,44.999998626709
92,198,203300,1,0,0:0:0:0:
234,309,203446,1,0,0:0:0:0:
234,309,203519,1,0,0:0:0:0:
234,309,203592,2,0,L|268:337,2,44.999998626709
44,159,203885,21,0,0:0:0:0:
95,289,204032,1,0,0:0:0:0:
151,161,204178,1,0,0:0:0:0:
151,161,204251,1,0,0:0:0:0:
151,161,204324,1,0,0:0:0:0:
266,209,204471,2,0,P|287:214|306:226,1,44.999998626709
347,273,204617,2,0,P|341:294|329:313,1,44.999998626709
284,355,204764,2,0,P|262:349|243:337,1,44.999998626709
203,292,204910,2,0,P|208:270|220:251,1,44.999998626709
411,270,205056,85,0,0:0:0:0:
277,280,205203,1,0,0:0:0:0:
394,173,205349,2,0,L|442:123,2,44.999998626709
277,280,205642,1,0,0:0:0:0:
239,137,205788,1,0,0:0:0:0:
239,137,205861,1,0,0:0:0:0:
239,137,205934,2,0,L|220:69,2,44.999998626709
292,339,206227,5,0,0:0:0:0:
147,336,206373,1,0,0:0:0:0:
136,210,206520,1,0,0:0:0:0:
136,210,206593,1,0,0:0:0:0:
136,210,206666,1,0,0:0:0:0:
320,268,206812,2,0,P|334:246|336:211,1,44.999998626709
358,163,206959,2,0,P|332:162|301:177,1,44.999998626709
248,181,207105,2,0,P|260:203|289:223,3,44.999998626709
390,270,207398,101,0,0:0:0:0:
326,101,207544,1,0,0:0:0:0:
213,240,207690,2,0,L|184:274,2,44.999998626709
326,101,207983,1,0,0:0:0:0:
148,73,208129,1,0,0:0:0:0:
148,73,208202,1,0,0:0:0:0:
148,73,208275,2,0,L|104:64,2,44.999998626709
387,111,208568,21,0,0:0:0:0:
279,23,208715,1,0,0:0:0:0:
292,162,208861,1,0,0:0:0:0:
292,162,208934,1,0,0:0:0:0:
292,162,209007,1,0,0:0:0:0:
162,121,209154,1,0,0:0:0:0:
118,122,209227,1,0,0:0:0:0:
84,93,209300,1,0,0:0:0:0:
80,50,209373,1,0,0:0:0:0:
107,15,209446,1,0,0:0:0:0:
150,8,209519,1,0,0:0:0:0:
192,29,209593,2,0,P|198:50|197:73,1,44.999998626709
213,240,209739,5,0,0:0:0:0:
220,270,209812,1,0,0:0:0:0:
242,293,209886,1,0,0:0:0:0:
274,298,209959,1,0,0:0:0:0:
304,287,210032,2,0,P|324:269|334:243,1,44.999998626709
353,163,210178,1,0,0:0:0:0:
363,131,210251,1,0,0:0:0:0:
387,111,210324,2,0,P|409:96|437:94,3,44.999998626709
430,201,210617,1,0,0:0:0:0:
443,230,210690,1,0,0:0:0:0:
441,260,210764,2,0,P|437:282|426:301,1,44.999998626709
260,160,210910,6,0,P|245:136|222:118,3,44.999998626709
159,138,211203,2,0,P|134:124|105:120,3,44.999998626709
60,169,211495,2,0,P|31:169|4:180,3,44.999998626709
35,252,211788,2,0,P|11:267|-7:290,3,44.999998626709
74,340,212081,5,0,0:0:0:0:
97,360,212154,1,0,0:0:0:0:
128,365,212228,1,0,0:0:0:0:
157,351,212301,1,0,0:0:0:0:
175,324,212374,2,0,P|180:297|172:270,1,44.999998626709
160,172,212520,1,0,0:0:0:0:
159,138,212593,1,0,0:0:0:0:
175,111,212666,2,0,P|191:89|217:79,3,44.999998626709
278,183,212959,1,0,0:0:0:0:
300,207,213032,1,0,0:0:0:0:
307,237,213106,2,0,P|309:259|305:280,1,44.999998626709
349,383,213251,5,0,0:0:0:0:
372,368,213324,1,0,0:0:0:0:
392,348,213397,1,0,0:0:0:0:
410,325,213470,1,0,0:0:0:0:
421,300,213543,1,0,0:0:0:0:
427,273,213616,1,0,0:0:0:0:
429,244,213690,1,0,0:0:0:0:
424,216,213763,1,0,0:0:0:0:
414,190,213837,2,0,L|392:146,1,44.999998626709
308,82,213983,2,0,L|287:122,1,44.999998626709
201,189,214129,2,0,L|180:148,1,44.999998626709
95,81,214276,2,0,L|74:121,1,44.999998626709
15,213,214422,69,0,0:0:0:0:
2,180,214495,1,0,0:0:0:0:
0,147,214568,1,0,0:0:0:0:
7,113,214641,1,0,0:0:0:0:
21,82,214715,2,0,P|28:61|47:31,1,44.999998626709
160,85,214861,1,0,0:0:0:0:
166,118,214934,1,0,0:0:0:0:
180,148,215007,2,0,P|188:169|207:199,3,44.999998626709
273,290,215300,1,0,0:0:0:0:
304,281,215373,1,0,0:0:0:0:
326,258,215446,2,0,P|336:233|334:205,1,44.999998626709
226,51,215593,5,0,0:0:0:0:
226,51,215666,1,0,0:0:0:0:
226,51,215739,2,0,L|252:91,1,44.999998626709
363,78,215885,1,0,0:0:0:0:
363,78,215958,1,0,0:0:0:0:
363,78,216031,2,0,L|322:104,1,44.999998626709
199,188,216178,2,0,P|215:207|241:225,3,44.999998626709
325,258,216471,2,0,P|342:272|356:289,3,44.999998626709
453,347,216764,5,0,0:0:0:0:
469,319,216837,1,0,0:0:0:0:
480,290,216910,1,0,0:0:0:0:
485,259,216983,1,0,0:0:0:0:
485,227,217056,1,0,0:0:0:0:
480,196,217130,1,0,0:0:0:0:
469,167,217203,1,0,0:0:0:0:
453,140,217276,1,0,0:0:0:0:
432,116,217349,5,0,0:0:0:0:
424,144,217422,1,0,0:0:0:0:
412,173,217495,1,0,0:0:0:0:
396,201,217568,1,0,0:0:0:0:
375,224,217642,1,0,0:0:0:0:
350,244,217715,1,0,0:0:0:0:
322,258,217788,1,0,0:0:0:0:
293,267,217861,1,0,0:0:0:0:
260,271,217934,6,0,L|193:279,1,44.999998626709
21,233,218081,1,0,0:0:0:0:
21,233,218154,1,0,0:0:0:0:
21,233,218227,1,0,0:0:0:0:
109,63,218373,2,0,L|117:130,1,44.999998626709
71,302,218520,1,0,0:0:0:0:
71,302,218593,1,0,0:0:0:0:
71,302,218666,1,0,0:0:0:0:
278,201,218812,1,0,0:0:0:0:
291,234,218885,1,0,0:0:0:0:
293,267,218958,1,0,0:0:0:0:
286,301,219031,1,0,0:0:0:0:
272,332,219105,6,0,P|322:326|370:337,1,100
477,376,219398,1,0,0:0:0:0:
403,228,219544,1,0,0:0:0:0:
197,360,219690,2,0,L|198:261,1,100
199,244,219910,1,0,0:0:0:0:
199,229,219983,1,0,0:0:0:0:
433,24,220276,6,0,P|439:74|426:124,1,100
342,228,220568,1,0,0:0:0:0:
512,228,220715,1,0,0:0:0:0:
235,66,220861,2,0,L|335:66,1,100
351,68,221081,1,0,0:0:0:0:
366,68,221154,1,0,0:0:0:0:
272,332,221446,102,0,P|236:294|219:245,1,100
190,108,221739,1,0,0:0:0:0:
350,145,221885,1,0,0:0:0:0:
59,212,222032,1,0,0:0:0:0:
66,235,222105,1,0,0:0:0:0:
73,259,222178,1,0,0:0:0:0:
81,283,222251,1,0,0:0:0:0:
88,307,222324,1,0,0:0:0:0:
174,368,222471,1,0,0:0:0:0:
367,334,222617,22,0,P|349:287|314:251,1,100
183,171,222910,1,0,0:0:0:0:
152,307,223056,1,0,0:0:0:0:
288,145,223203,1,0,0:0:0:0:
285,155,223276,1,0,0:0:0:0:
275,177,223349,1,0,0:0:0:0:
272,186,223422,1,0,0:0:0:0:
262,208,223495,1,0,0:0:0:0:
213,318,223642,1,0,0:0:0:0:
190,140,223788,86,0,P|240:134|288:145,1,100
395,184,224081,1,0,0:0:0:0:
276,290,224227,1,0,0:0:0:0:
130,6,224373,2,0,L|129:105,1,100
128,122,224593,1,0,0:0:0:0:
128,137,224666,1,0,0:0:0:0:
378,348,224959,6,0,P|384:298|371:248,1,100
287,144,225251,1,0,0:0:0:0:
220,301,225398,1,0,0:0:0:0:
455,192,225544,2,0,L|355:192,1,100
339,194,225764,1,0,0:0:0:0:
324,194,225837,1,0,0:0:0:0:
188,197,225983,1,0,0:0:0:0:
33,141,226129,5,0,0:0:0:0:
22,112,226203,1,0,0:0:0:0:
21,83,226276,1,0,0:0:0:0:
31,53,226349,1,0,0:0:0:0:
48,29,226422,1,0,0:0:0:0:
112,74,226568,5,0,0:0:0:0:
107,106,226642,1,0,0:0:0:0:
113,139,226715,1,0,0:0:0:0:
131,166,226788,1,0,0:0:0:0:
157,186,226861,1,0,0:0:0:0:
192,108,227007,5,0,0:0:0:0:
162,136,227080,1,0,0:0:0:0:
131,165,227153,1,0,0:0:0:0:
99,194,227226,1,0,0:0:0:0:
69,222,227300,6,0,L|25:267,1,55.0000016784668
187,317,227446,2,0,L|225:277,1,55.0000016784668
234,150,227593,2,0,L|185:101,1,59.9999981689454
145,275,227739,2,0,L|187:317,1,59.9999981689454
384,289,227885,6,0,P|445:170|185:119,1,489.999985046387
125,241,228471,69,0,0:0:0:0:
145,275,228544,1,0,0:0:0:0:
177,301,228617,1,0,0:0:0:0:
216,317,228690,1,0,0:0:0:0:
258,317,228763,1,0,0:0:0:0:
298,303,228836,1,0,0:0:0:0:
330,275,228910,1,0,0:0:0:0:
352,239,228983,1,0,0:0:0:0:
333,198,229056,5,0,0:0:0:0:
331,153,229129,1,0,0:0:0:0:
345,110,229202,1,0,0:0:0:0:
374,76,229276,1,0,0:0:0:0:
398,102,229350,5,0,0:0:0:0:
422,128,229423,1,0,0:0:0:0:
447,155,229496,1,0,0:0:0:0:
471,181,229569,1,0,0:0:0:0:
469,231,229642,5,0,0:0:0:0:
422,204,229715,1,0,0:0:0:0:
370,195,229788,1,0,0:0:0:0:
318,203,229861,1,0,0:0:0:0:
271,229,229934,1,0,0:0:0:0:
236,268,230007,1,0,0:0:0:0:
215,317,230081,2,0,B|154:296|154:296|117:236|38:230|38:230|35:290|35:290|90:292|111:341|111:341|151:358|151:358|191:190,1,539.999983520508
198,154,230812,5,0,0:0:0:0:
210,106,230885,1,0,0:0:0:0:
238,68,230958,1,0,0:0:0:0:
279,41,231031,1,0,0:0:0:0:
325,29,231104,1,0,0:0:0:0:
373,33,231178,1,0,0:0:0:0:
416,55,231251,1,0,0:0:0:0:
449,90,231324,1,0,0:0:0:0:
468,133,231397,1,0,0:0:0:0:
471,181,231470,1,0,0:0:0:0:
425,193,231544,1,0,0:0:0:0:
384,220,231617,1,0,0:0:0:0:
356,258,231690,1,0,0:0:0:0:
321,294,231764,1,0,0:0:0:0:
278,313,231837,1,0,0:0:0:0:
229,316,231910,1,0,0:0:0:0:
183,303,231983,85,0,0:0:0:0:
139,285,232056,1,0,0:0:0:0:
120,240,232129,1,0,0:0:0:0:
139,196,232202,1,0,0:0:0:0:
183,177,232275,1,0,0:0:0:0:
228,196,232348,1,0,0:0:0:0:
246,240,232421,1,0,0:0:0:0:
256,271,232495,1,0,0:0:0:0:
278,313,232568,1,0,0:0:0:0:
324,328,232641,1,0,0:0:0:0:
367,305,232714,1,0,0:0:0:0:
382,260,232787,1,0,0:0:0:0:
359,217,232860,5,0,0:0:0:0:
323,183,232934,1,0,0:0:0:0:
302,226,233007,1,0,0:0:0:0:
286,271,233081,1,0,0:0:0:0:
278,313,233154,6,0,B|356:396|472:342|472:342|487:215|384:171,1,419.999987182618
320,153,233739,53,0,0:0:0:0:
272,156,233812,1,0,0:0:0:0:
231,132,233886,1,0,0:0:0:0:
211,88,233959,1,0,0:0:0:0:
222,40,234032,1,0,0:0:0:0:
259,9,234105,1,0,0:0:0:0:
307,5,234178,1,0,0:0:0:0:
348,30,234251,1,0,0:0:0:0:
368,72,234324,5,0,0:0:0:0:
390,118,234397,1,0,0:0:0:0:
397,169,234470,1,0,0:0:0:0:
388,220,234543,1,0,0:0:0:0:
364,265,234617,1,0,0:0:0:0:
334,307,234690,1,0,0:0:0:0:
293,338,234764,1,0,0:0:0:0:
243,353,234837,1,0,0:0:0:0:
193,346,234910,5,0,0:0:0:0:
219,313,234983,1,0,0:0:0:0:
198,278,235056,1,0,0:0:0:0:
167,254,235129,1,0,0:0:0:0:
129,242,235202,1,0,0:0:0:0:
89,245,235275,1,0,0:0:0:0:
53,261,235348,1,0,0:0:0:0:
25,290,235422,1,0,0:0:0:0:
39,247,235496,5,0,0:0:0:0:
72,207,235568,1,0,0:0:0:0:
123,198,235641,1,0,0:0:0:0:
169,224,235714,1,0,0:0:0:0:
186,273,235788,5,0,0:0:0:0:
219,313,235861,1,0,0:0:0:0:
270,322,235934,1,0,0:0:0:0:
316,296,236007,1,0,0:0:0:0:
284,255,236081,53,0,0:0:0:0:
272,205,236155,1,0,0:0:0:0:
284,154,236228,1,0,0:0:0:0:
316,113,236301,1,0,0:0:0:0:
363,91,236374,1,0,0:0:0:0:
415,91,236447,1,0,0:0:0:0:
462,113,236520,1,0,0:0:0:0:
495,154,236594,1,0,0:0:0:0:
506,205,236666,6,0,P|507:238|491:306,3,64.9999970245363
351,241,236959,2,0,P|335:270|287:320,3,64.9999970245363
144,290,237251,1,0,0:0:0:0:
112,299,237324,1,0,0:0:0:0:
80,297,237397,1,0,0:0:0:0:
50,285,237470,1,0,0:0:0:0:
25,265,237543,1,0,0:0:0:0:
8,237,237616,1,0,0:0:0:0:
1,205,237690,1,0,0:0:0:0:
5,173,237763,1,0,0:0:0:0:
16,144,237837,54,0,P|54:129|108:136,1,93.7500035762788,0|0,0:0|2:0,0:0:0:0:
226,249,238276,2,0,P|193:223|173:173,1,93.7500035762788,0|0,0:0|2:0,0:0:0:0:
195,46,238715,2,0,P|190:73|168:102,1,56.2500021457673,0|0,0:0|2:0,0:0:0:0:
68,208,239007,5,0,0:0:0:0:
68,208,239885,5,0,0:0:0:0:
68,208,239959,1,0,0:0:0:0:
68,208,240032,1,0,0:0:0:0:
68,208,240105,1,0,0:0:0:0:
68,208,240178,86,0,B|136:200|136:200|168:216,1,93.7500035762788,0|0,0:0|2:0,0:0:0:0:
275,84,240617,2,0,B|247:146|247:146|218:166,1,93.7500035762788,0|0,0:0|2:0,0:0:0:0:
256,288,241056,2,0,B|233:258|233:258|232:238,1,56.2500021457673,0|0,0:0|2:0,0:0:0:0:
372,184,241349,5,0,0:0:0:0:
372,184,242081,6,0,L|368:152,1,18.7500007152558
356,36,242227,1,0,0:0:0:0:
356,36,242300,1,0,0:0:0:0:
356,36,242373,1,0,0:0:0:0:
356,36,242446,1,0,0:0:0:0:
356,36,242520,86,0,L|376:140,1,93.7500035762788,0|0,0:0|2:0,0:0:0:0:
436,248,242959,2,0,L|335:213,1,93.7500035762788,0|0,0:0|2:0,0:0:0:0:
272,176,243398,5,0,0:0:0:0:
282,158,243471,1,0,0:0:0:0:
291,140,243544,1,0,0:0:0:0:
300,121,243617,1,0,0:0:0:0:
373,128,243690,6,0,L|461:158,1,93.7500035762788,0|0,0:0|2:0,0:0:0:0:
460,336,244129,2,0,L|371:366,1,93.7500035762788,0|0,0:0|2:0,0:0:0:0:
212,364,244568,5,0,0:0:0:0:
208,344,244642,1,0,0:0:0:0:
204,324,244715,1,0,0:0:0:0:
200,304,244788,1,0,0:0:0:0:
196,280,244861,6,0,P|240:294|296:288,1,89.9999972534181
209,96,245154,1,0,0:0:0:0:
362,199,245300,6,0,P|352:153|319:109,1,89.9999972534181
196,280,245593,1,0,0:0:0:0:
209,96,245739,6,0,P|174:127|152:178,1,89.9999972534181
241,324,246032,5,0,0:0:0:0:
379,256,246178,1,0,0:0:0:0:
201,221,246324,85,0,0:0:0:0:
386,355,246471,1,0,0:0:0:0:
134,292,246617,5,0,0:0:0:0:
465,190,246764,1,0,0:0:0:0:
104,198,246910,5,0,0:0:0:0:
472,302,247056,1,0,0:0:0:0:
288,48,247203,6,0,L|188:64,1,89.9999972534181
100,8,247495,1,0,0:0:0:0:
240,145,247642,2,0,L|140:161,1,89.9999972534181
100,8,247934,1,0,0:0:0:0:
356,0,248081,2,0,P|368:36|364:92,1,89.9999972534181
344,260,248373,5,0,0:0:0:0:
240,148,248520,1,0,0:0:0:0:
456,84,248666,1,0,0:0:0:0:
456,84,248739,1,0,0:0:0:0:
456,84,248812,2,0,L|452:180,1,89.9999972534181
356,384,249105,6,0,L|352:340,1,44.999998626709,0|0,0:0|2:0,0:0:0:0:
268,220,249251,2,0,L|264:264,1,44.999998626709,0|0,0:0|2:0,0:0:0:0:
176,380,249398,2,0,L|172:336,1,44.999998626709,0|0,0:0|2:0,0:0:0:0:
80,220,249544,86,0,P|64:260|72:316,1,89.9999972534181
176,376,249837,1,0,0:0:0:0:
432,220,249983,2,0,P|448:260|440:316,1,89.9999972534181
336,376,250276,1,0,0:0:0:0:
256,228,250422,2,0,L|256:128,1,89.9999972534181
344,64,250715,6,0,P|396:56|440:72,1,89.9999972534181
168,320,251007,2,0,P|116:328|72:312,1,89.9999972534181
101,206,251300,5,0,0:0:0:0:
387,261,251446,1,0,0:0:0:0:
143,113,251593,1,0,0:0:0:0:
318,330,251739,1,0,0:0:0:0:
252,138,251885,5,0,0:0:0:0:
257,168,251959,1,0,0:0:0:0:
273,195,252032,1,0,0:0:0:0:
300,213,252105,1,0,0:0:0:0:
331,218,252178,1,0,0:0:0:0:
361,210,252251,1,0,0:0:0:0:
388,190,252325,5,0,0:0:0:0:
415,175,252398,1,0,0:0:0:0:
447,173,252471,1,0,0:0:0:0:
476,184,252544,1,0,0:0:0:0:
499,205,252617,1,0,0:0:0:0:
511,236,252690,1,0,0:0:0:0:
510,266,252764,5,0,0:0:0:0:
480,278,252837,1,0,0:0:0:0:
452,290,252910,1,0,0:0:0:0:
424,302,252983,1,0,0:0:0:0:
396,314,253056,5,0,0:0:0:0:
364,290,253129,1,0,0:0:0:0:
324,278,253203,1,0,0:0:0:0:
284,278,253276,1,0,0:0:0:0:
248,298,253349,1,0,0:0:0:0:
224,330,253422,1,0,0:0:0:0:
216,370,253495,5,0,0:0:0:0:
223,325,253568,1,0,0:0:0:0:
230,280,253642,1,0,0:0:0:0:
237,235,253715,1,0,0:0:0:0:
244,190,253788,1,0,0:0:0:0:
251,145,253861,1,0,0:0:0:0:
259,100,253934,85,0,0:0:0:0:
227,136,254008,1,0,0:0:0:0:
182,153,254081,1,0,0:0:0:0:
134,146,254154,1,0,0:0:0:0:
95,120,254227,5,0,0:0:0:0:
134,94,254300,1,0,0:0:0:0:
182,87,254373,1,0,0:0:0:0:
227,104,254446,1,0,0:0:0:0:
259,140,254519,1,0,0:0:0:0:
298,166,254592,1,0,0:0:0:0:
346,173,254665,1,0,0:0:0:0:
391,156,254738,1,0,0:0:0:0:
423,120,254812,5,0,0:0:0:0:
424,72,254885,1,0,0:0:0:0:
399,27,254959,1,0,0:0:0:0:
357,2,255032,1,0,0:0:0:0:
307,1,255105,1,0,0:0:0:0:
264,26,255178,1,0,0:0:0:0:
238,67,255251,1,0,0:0:0:0:
244,116,255324,1,0,0:0:0:0:
276,156,255398,85,0,0:0:0:0:
280,168,255471,1,0,0:0:0:0:
284,180,255544,1,0,0:0:0:0:
288,192,255617,1,0,0:0:0:0:
328,216,255690,5,0,0:0:0:0:
332,228,255763,1,0,0:0:0:0:
336,240,255836,1,0,0:0:0:0:
340,252,255909,1,0,0:0:0:0:
376,284,255983,5,0,0:0:0:0:
332,260,256056,1,0,0:0:0:0:
284,256,256129,1,0,0:0:0:0:
236,276,256203,1,0,0:0:0:0:
176,328,256276,53,0,0:0:0:0:
132,352,256349,1,0,0:0:0:0:
84,356,256422,1,0,0:0:0:0:
36,336,256496,1,0,0:0:0:0:
32,256,256568,5,0,0:0:0:0:
104,264,256642,1,0,0:0:0:0:
168,228,256715,1,0,0:0:0:0:
182,152,256788,1,0,0:0:0:0:
146,88,256861,6,0,P|118:76|82:76,1,59.9999981689454
92,176,257007,2,0,L|166:157,1,59.9999981689454
338,112,257154,6,0,L|336:182,1,59.9999981689454
414,260,257300,1,0,0:0:0:0:
414,260,257373,1,0,0:0:0:0:
414,260,257446,2,0,L|414:193,1,59.9999981689454
262,79,257593,2,0,L|262:139,1,59.9999981689454
338,332,257739,6,0,P|314:304|291:289,1,59.9999981689454
102,219,257885,1,0,0:0:0:0:
102,219,257959,1,0,0:0:0:0:
102,219,258032,2,0,L|107:286,1,59.9999981689454
215,382,258178,2,0,L|210:322,1,59.9999981689454
156,65,258324,37,0,0:0:0:0:
123,48,258398,1,0,0:0:0:0:
87,44,258471,1,0,0:0:0:0:
52,53,258544,1,0,0:0:0:0:
21,72,258617,2,0,B|12:112|12:112|46:142|46:142|8:180|29:233,1,179.999994506836
98,198,258910,38,2,L|169:233,1,63.7499991488457,2|2,1:0|1:0,1:0:0:0:
334,319,259056,1,0,0:0:0:0:
330,256,259129,1,0,0:0:0:0:
326,193,259202,1,0,0:0:0:0:
322,130,259276,1,0,0:0:0:0:
323,55,259349,6,2,L|256:98,1,63.7499991488457,2|2,1:0|1:0,1:0:0:0:
98,198,259495,1,0,0:0:0:0:
155,226,259568,1,0,0:0:0:0:
211,254,259641,1,0,0:0:0:0:
267,282,259715,1,0,0:0:0:0:
334,319,259788,6,2,L|329:239,1,63.7499991488457,2|2,1:0|1:0,1:0:0:0:
323,55,259934,1,0,0:0:0:0:
270,89,260007,1,0,0:0:0:0:
217,124,260080,1,0,0:0:0:0:
164,158,260154,1,0,0:0:0:0:
111,193,260227,1,0,0:0:0:0:
58,228,260300,1,0,0:0:0:0:
43,288,260373,69,0,0:0:0:0:
80,339,260446,1,0,0:0:0:0:
140,363,260519,1,0,0:0:0:0:
202,351,260592,1,0,0:0:0:0:
248,308,260665,1,0,0:0:0:0:
261,246,260738,1,0,0:0:0:0:
241,186,260811,1,0,0:0:0:0:
254,124,260885,1,0,0:0:0:0:
309,72,260958,37,0,0:0:0:0:
383,57,261031,85,0,0:0:0:0:
455,86,261104,5,0,0:0:0:0:
494,147,261178,69,0,0:0:0:0:
497,225,261251,5,0,0:0:0:0:
58,228,263593,5,0,0:0:0:0:
255,5,264764,2,0,L|254:45,1,40
253,123,265056,1,0,0:0:0:0:
182,81,265203,1,0,0:0:0:0:
326,167,265349,2,0,L|325:240,1,50
250,261,265642,1,0,0:0:0:0:
175,306,265789,1,0,0:0:0:0:
400,171,265934,5,0,0:0:0:0:
100,351,267105,6,0,L|100:238,1,89.9999972534181
100,131,267398,1,0,0:0:0:0:
23,236,267544,1,0,0:0:0:0:
147,196,267690,6,0,L|260:196,1,100
377,205,267983,1,0,0:0:0:0:
277,121,268129,1,0,0:0:0:0:
173,273,268276,5,0,0:0:0:0:
189,277,268349,1,0,0:0:0:0:
205,281,268422,1,0,0:0:0:0:
221,286,268495,1,0,0:0:0:0:
237,290,268568,1,0,0:0:0:0:
253,295,268641,1,0,0:0:0:0:
269,299,268715,1,0,0:0:0:0:
285,304,268788,1,0,0:0:0:0:
301,308,268861,1,0,0:0:0:0:
317,312,268934,1,0,0:0:0:0:
333,317,269007,1,0,0:0:0:0:
349,321,269080,1,0,0:0:0:0:
365,326,269154,1,0,0:0:0:0:
381,330,269227,1,0,0:0:0:0:
397,335,269300,1,0,0:0:0:0:
413,339,269373,1,0,0:0:0:0:
452,334,269446,5,0,0:0:0:0:
483,308,269520,1,0,0:0:0:0:
494,269,269593,1,0,0:0:0:0:
483,231,269666,1,0,0:0:0:0:
452,205,269739,5,0,0:0:0:0:
465,166,269812,1,0,0:0:0:0:
455,127,269885,1,0,0:0:0:0:
427,100,269958,1,0,0:0:0:0:
387,93,270032,5,0,0:0:0:0:
378,52,270106,1,0,0:0:0:0:
350,23,270179,1,0,0:0:0:0:
312,14,270252,1,0,0:0:0:0:
274,28,270325,5,0,0:0:0:0:
232,14,270398,1,0,0:0:0:0:
193,24,270471,1,0,0:0:0:0:
167,53,270544,1,0,0:0:0:0:
160,93,270617,6,0,L|146:215,1,110.000003356934
134,311,270910,1,0,0:0:0:0:
163,288,270983,1,0,0:0:0:0:
191,265,271056,1,0,0:0:0:0:
313,192,271203,2,0,P|312:167|298:136,3,55.0000016784668
196,131,271495,2,0,P|183:110|154:89,3,55.0000016784668
56,83,271788,2,0,P|34:71|0:67,3,55.0000016784668
48,213,272081,1,0,0:0:0:0:
70,241,272154,1,0,0:0:0:0:
93,270,272227,1,0,0:0:0:0:
235,328,272373,1,0,0:0:0:0:
218,193,272520,1,0,0:0:0:0:
174,374,272666,1,0,0:0:0:0:
155,231,272812,1,0,0:0:0:0:
295,374,272959,5,0,0:0:0:0:
336,372,273032,1,0,0:0:0:0:
375,361,273105,1,0,0:0:0:0:
411,340,273178,1,0,0:0:0:0:
440,312,273251,1,0,0:0:0:0:
462,277,273324,1,0,0:0:0:0:
475,238,273398,1,0,0:0:0:0:
478,197,273471,1,0,0:0:0:0:
470,156,273544,1,0,0:0:0:0:
453,119,273617,1,0,0:0:0:0:
428,87,273690,1,0,0:0:0:0:
395,61,273763,1,0,0:0:0:0:
357,45,273837,2,0,P|322:36|285:42,3,55.0000016784668
287,94,274129,5,0,0:0:0:0:
332,97,274202,1,0,0:0:0:0:
372,119,274275,1,0,0:0:0:0:
401,154,274348,1,0,0:0:0:0:
414,198,274421,1,0,0:0:0:0:
408,243,274494,1,0,0:0:0:0:
386,282,274568,2,0,L|331:317,1,55.0000016784668
276,358,274715,1,0,0:0:0:0:
195,192,274861,2,0,L|197:256,1,55.0000016784668
204,325,275008,1,0,0:0:0:0:
21,313,275154,2,0,L|78:343,1,55.0000016784668
140,371,275301,5,0,0:0:0:0:
139,341,275373,1,0,0:0:0:0:
137,311,275446,1,0,0:0:0:0:
131,282,275519,1,0,0:0:0:0:
120,255,275592,1,0,0:0:0:0:
104,230,275665,1,0,0:0:0:0:
84,208,275739,1,0,0:0:0:0:
63,187,275812,1,0,0:0:0:0:
47,162,275885,1,0,0:0:0:0:
39,134,275958,1,0,0:0:0:0:
39,104,276031,1,0,0:0:0:0:
42,75,276104,1,0,0:0:0:0:
48,46,276178,2,0,P|63:22|96:4,3,55.0000016784668
255,7,276471,5,0,0:0:0:0:
170,106,276617,1,0,0:0:0:0:
266,196,276764,1,0,0:0:0:0:
301,195,276837,1,0,0:0:0:0:
338,194,276910,1,0,0:0:0:0:
461,261,277056,1,0,0:0:0:0:
432,284,277129,1,0,0:0:0:0:
404,307,277202,1,0,0:0:0:0:
237,325,277349,2,0,P|210:320|180:307,3,55.0000016784668,0|0|0|0,0:1|0:1|0:1|0:1,0:1:0:0:
118,167,277642,5,0,0:0:0:0:
108,126,277715,1,0,0:0:0:0:
118,85,277788,1,0,0:0:0:0:
146,54,277862,1,0,0:0:0:0:
186,39,277935,1,0,0:0:0:0:
227,44,278008,1,0,0:0:0:0:
262,68,278081,1,0,0:0:0:0:
281,105,278154,1,0,0:0:0:0:
284,152,278227,5,0,0:0:0:0:
271,160,278300,1,0,0:0:0:0:
259,169,278373,1,0,0:0:0:0:
247,177,278446,1,0,0:0:0:0:
223,194,278520,1,0,0:0:0:0:
210,185,278593,1,0,0:0:0:0:
198,176,278666,1,0,0:0:0:0:
186,168,278739,1,0,0:0:0:0:
158,153,278812,5,0,0:0:0:0:
144,201,278885,1,0,0:0:0:0:
155,249,278959,1,0,0:0:0:0:
185,286,279032,1,0,0:0:0:0:
228,307,279105,1,0,0:0:0:0:
276,307,279178,1,0,0:0:0:0:
320,286,279251,1,0,0:0:0:0:
350,249,279324,1,0,0:0:0:0:
360,202,279398,1,0,0:0:0:0:
350,155,279471,1,0,0:0:0:0:
320,117,279544,1,0,0:0:0:0:
276,97,279617,1,0,0:0:0:0:
228,97,279690,2,0,P|200:107|171:133,3,59.9999981689454
76,219,279983,5,4,0:2:0:0:
120,230,280056,1,0,0:0:0:0:
161,209,280129,1,0,0:0:0:0:
185,168,280203,1,0,0:0:0:0:
181,124,280276,1,0,0:0:0:0:
158,87,280349,1,0,0:0:0:0:
113,77,280422,5,4,0:2:0:0:
117,121,280495,1,0,0:0:0:0:
120,165,280568,1,0,0:0:0:0:
124,213,280642,1,0,0:0:0:0:
127,257,280715,1,0,0:0:0:0:
130,301,280788,1,0,0:0:0:0:
134,345,280861,5,4,0:2:0:0:
175,325,280934,1,0,0:0:0:0:
219,318,281007,1,0,0:0:0:0:
263,328,281081,1,0,0:0:0:0:
300,355,281154,5,4,2:0:0:0:
345,345,281227,1,0,0:0:0:0:
368,308,281300,1,0,0:0:0:0:
362,264,281373,1,0,0:0:0:0:
324,236,281446,1,0,0:0:0:0:
277,243,281520,1,0,0:0:0:0:
253,284,281593,5,4,0:2:0:0:
232,243,281666,1,0,0:0:0:0:
229,199,281739,1,0,0:0:0:0:
246,158,281812,1,0,0:0:0:0:
283,134,281885,1,0,0:0:0:0:
331,131,281959,1,0,0:0:0:0:
375,148,282032,5,4,0:2:0:0:
341,121,282105,1,0,0:0:0:0:
307,90,282178,1,0,0:0:0:0:
273,63,282251,1,0,0:0:0:0:
239,36,282324,5,4,0:2:0:0:
192,56,282398,1,0,0:0:0:0:
171,104,282471,1,0,0:0:0:0:
192,151,282544,1,0,0:0:0:0:
239,172,282617,1,0,0:0:0:0:
287,151,282690,1,0,0:0:0:0:
300,100,282764,5,4,0:2:0:0:
253,121,282837,1,0,0:0:0:0:
239,172,282910,1,0,0:0:0:0:
253,219,282983,1,0,0:0:0:0:
297,247,283056,1,0,0:0:0:0:
348,236,283129,1,0,0:0:0:0:
379,196,283203,5,4,0:2:0:0:
362,243,283276,1,0,0:0:0:0:
375,291,283349,1,0,0:0:0:0:
419,315,283422,1,0,0:0:0:0:
470,304,283495,5,4,0:2:0:0:
423,284,283568,1,0,0:0:0:0:
372,291,283642,1,0,0:0:0:0:
328,315,283715,1,0,0:0:0:0:
283,338,283788,1,0,0:2:0:0:
236,359,283861,1,0,0:0:0:0:
185,352,283935,5,4,0:2:0:0:
212,311,284007,1,0,0:0:0:0:
198,260,284081,1,0,0:0:0:0:
154,236,284154,1,0,0:0:0:0:
107,253,284227,1,0,0:0:0:0:
90,301,284300,1,0,0:0:0:0:
110,349,284373,5,4,0:2:0:0:
107,298,284446,1,0,0:0:0:0:
103,247,284520,1,0,0:0:0:0:
100,196,284593,1,0,0:0:0:0:
96,145,284666,5,4,0:2:0:0:
117,87,284739,1,0,0:0:0:0:
171,59,284812,1,0,0:0:0:0:
231,70,284885,1,0,0:0:0:0:
273,114,284959,1,0,0:0:0:0:
282,173,285032,1,0,0:0:0:0:
253,228,285105,5,4,0:2:0:0:
224,173,285178,1,0,0:0:0:0:
232,114,285251,1,0,0:0:0:0:
275,70,285325,1,0,0:0:0:0:
334,59,285398,1,0,0:0:0:0:
389,87,285471,1,0,0:0:0:0:
409,145,285544,5,4,0:2:0:0:
382,199,285617,1,0,0:0:0:0:
416,250,285690,1,0,0:0:0:0:
385,304,285764,1,0,0:0:0:0:
419,355,285837,6,0,L|377:308,1,59.9999981689454
283,202,285983,2,0,L|253:254,1,59.9999981689454
192,359,286129,2,0,L|149:311,1,59.9999981689454
55,205,286276,2,0,L|25:257,1,59.9999981689454
79,338,286422,5,4,0:2:0:0:
83,335,286495,1,0,0:0:0:0:
86,332,286568,1,0,0:0:0:0:
90,328,286642,1,0,0:0:0:0:
113,301,286715,5,4,0:2:0:0:
117,298,286788,1,0,0:0:0:0:
120,294,286861,1,0,0:0:0:0:
124,291,286935,1,0,0:0:0:0:
145,277,287007,5,4,0:2:0:0:
175,224,287081,1,0,0:0:0:0:
170,166,287154,1,0,0:0:0:0:
135,116,287227,1,0,0:0:0:0:
173,70,287300,1,0,0:0:0:0:
221,107,287373,1,0,0:0:0:0:
256,156,287446,5,4,0:2:0:0:
289,107,287519,1,0,0:0:0:0:
339,70,287592,1,0,0:0:0:0:
375,116,287665,1,0,0:0:0:0:
342,166,287738,1,0,0:0:0:0:
335,224,287811,1,0,0:0:0:0:
366,277,287885,5,4,0:2:0:0:
308,292,287959,1,0,0:0:0:0:
256,261,288032,1,0,0:0:0:0:
203,292,288105,1,0,0:0:0:0:
145,277,288178,5,0,0:0:0:0:
256,332,288324,1,0,0:0:0:0:
170,156,288471,5,0,0:0:0:0:
256,332,288617,1,0,0:0:0:0:
342,156,288764,5,0,0:0:0:0:
256,332,288910,1,0,0:0:0:0:
366,277,289056,5,0,0:0:0:0:
256,332,289202,1,0,0:0:0:0:
145,277,289349,6,0,P|100:243|180:228,1,179.999994506836
311,305,289788,1,0,0:0:0:0:
229,189,289934,2,0,P|194:151|156:137,1,89.9999972534181
53,186,290227,1,0,0:0:0:0:
83,320,290373,2,0,P|106:331|144:339,1,44.999998626709
286,252,290520,6,0,P|309:206|309:165,1,89.9999972534181
261,22,290812,2,0,P|238:68|238:109,1,89.9999972534181
388,124,291105,2,0,P|342:101|301:101,1,89.9999972534181
158,149,291397,2,0,P|204:172|245:172,1,89.9999972534181
286,252,291690,6,0,P|263:298|263:339,1,89.9999972534181
357,319,291983,1,0,0:0:0:0:
380,225,292129,1,0,0:0:0:0:
166,318,292276,2,0,P|144:278|142:234,1,89.9999972534181
237,105,292568,1,0,0:0:0:0:
226,196,292715,1,0,0:0:0:0:
8,109,292861,2,0,P|19:67|49:34,1,89.9999972534181
162,50,293154,1,0,0:0:0:0:
105,114,293300,1,0,0:0:0:0:
105,114,293373,1,0,0:0:0:0:
105,114,293446,2,0,L|105:205,1,80
226,261,293739,2,0,L|226:170,1,64.9999970245363
347,114,294032,6,0,L|347:291,1,160
226,322,294910,2,0,L|168:322,1,44.999998626709
115,264,295126,1,0,0:0:0:0:
115,264,295202,2,0,L|161:264,1,40
276,155,295643,2,0,P|253:132|201:123,1,75.0000028610231
155,226,296194,2,0,L|155:270,1,37.5000014305115
339,153,296650,2,0,P|306:98|253:67,1,119.999996337891
155,176,298152,6,0,L|155:241,1,50
339,203,298893,2,0,L|339:137,1,50
80,115,299906,6,0,L|92:72,1,32.4999985122681
165,176,300074,2,0,L|157:125,1,32.4999985122681
254,35,300243,6,0,L|266:78,1,32.4999985122681
337,109,300411,2,0,L|329:160,1,32.4999985122681
374,214,300580,6,0,L|341:254,1,32.4999985122681
353,323,300748,2,0,L|304:341,1,32.4999985122681
239,270,300917,2,0,L|272:276,1,32.4999985122681
480,180,301085,6,0,L|436:192,1,32.4999985122681
445,302,301253,2,0,L|401:314,1,32.4999985122681
337,109,301422,6,0,L|329:160,1,32.4999985122681
263,307,301591,2,0,L|273:276,1,32.4999985122681
389,241,301759,6,0,L|338:233,1,32.4999985122681
218,165,301928,2,0,L|248:175,1,32.4999985122681
184,296,302097,6,0,P|156:304|132:304,1,32.4999985122681
54,225,302265,2,0,P|46:197|46:173,1,32.4999985122681
122,100,302434,2,0,P|150:92|174:92,1,32.4999985122681
254,113,302602,5,0,0:0:0:0:
273,111,302686,1,0,0:0:0:0:
299,107,302771,5,0,0:0:0:0:
317,110,302855,1,0,0:0:0:0:
337,109,302939,5,0,0:0:0:0:
460,244,303108,1,0,0:0:0:0:
460,244,303192,1,0,0:0:0:0:
460,244,303276,5,0,0:0:0:0:
455,269,303360,1,0,0:0:0:0:
443,292,303444,1,0,0:0:0:0:
425,311,303528,1,0,0:0:0:0:
403,323,303613,1,0,0:0:0:0:
377,329,303697,1,0,0:0:0:0:
351,327,303781,1,0,0:0:0:0:
327,318,303865,1,0,0:0:0:0:
308,287,303950,6,0,L|268:255,1,32.4999985122681
308,75,304119,1,0,0:0:0:0:
308,75,304203,1,0,0:0:0:0:
308,75,304288,1,0,0:0:0:0:
308,75,304372,1,0,0:0:0:0:
308,75,304456,2,0,L|292:127,1,32.4999985122681
188,259,304625,2,0,L|180:219,1,32.4999985122681
42,137,304793,5,0,0:0:0:0:
60,118,304877,1,0,0:0:0:0:
82,104,304961,1,0,0:0:0:0:
107,97,305045,1,0,0:0:0:0:
132,96,305130,1,0,0:0:0:0:
158,102,305214,1,0,0:0:0:0:
181,114,305299,1,0,0:0:0:0:
181,104,305383,1,0,0:0:0:0:
181,95,305467,1,0,0:0:0:0:
179,85,305551,1,0,0:0:0:0:
176,76,305636,1,0,0:0:0:0:
172,67,305720,1,0,0:0:0:0:
166,59,305804,5,0,0:0:0:0:
324,111,305973,2,0,L|412:91,2,64.9999970245363
248,255,306479,1,0,0:0:0:0:
240,291,306563,1,0,0:0:0:0:
240,327,306647,5,0,0:0:0:0:
207,330,306731,1,0,0:0:0:0:
176,323,306815,1,0,0:0:0:0:
148,306,306899,1,0,0:0:0:0:
126,283,306984,1,0,0:0:0:0:
64,187,307209,2,0,B|72:159|72:159|60:115|60:115|76:71,1,108.333328374227
285,0,307771,2,0,B|293:28|293:28|281:72|281:72|297:116,1,108.333328374227
260,267,308445,5,0,0:0:0:0:
260,175,308557,2,0,L|224:175,2,21.6666656748454
260,175,309344,5,0,0:0:0:0:
109,124,309934,1,0,0:0:0:0:
109,124,310018,2,0,L|174:108,1,50
332,71,310271,1,0,0:0:0:0:
182,308,310481,1,0,0:0:0:0:
