osu file format v14

[General]
AudioFilename: BABYMETAL - Road of Resistance.mp3
AudioLeadIn: 0
PreviewTime: 124459
Countdown: 0
SampleSet: None
StackLeniency: 0.5
Mode: 0
LetterboxInBreaks: 0
WidescreenStoryboard: 0

[Editor]
DistanceSpacing: 0.9
BeatDivisor: 4
GridSize: 4
TimelineZoom: 3.399999

[Metadata]
Title:Road of Resistance
TitleUnicode:Road of Resistance
Artist:BABYMETAL
ArtistUnicode:BABYMETAL
Creator:Kroytz
Version:Crimson Rebellion
Source:
Tags:dragonforce herman li sam totman ktsune suzuka nakamoto yui mizuno moa kikuchi su-metal yuimetal moametal
BeatmapID:1201636
BeatmapSetID:567324

[Difficulty]
HPDrainRate:6.5
CircleSize:4.3
OverallDifficulty:9.4
ApproachRate:9.7
SliderMultiplier:1.3
SliderTickRate:1

[Events]
//Background and Video events
0,0,"remi.jpg",0,0
//Break Periods
2,47354,52861
//Storyboard Layer 0 (Background)
//Storyboard Layer 1 (Fail)
//Storyboard Layer 2 (Pass)
//Storyboard Layer 3 (Foreground)
//Storyboard Sound Samples

[TimingPoints]
1091,301.507537688442,4,1,5,5,1,0
1392,-100,4,1,5,9,0,0
1694,-100,4,1,5,13,0,0
1995,-100,4,1,5,17,0,0
2297,-100,4,1,5,21,0,0
2598,-100,4,1,5,25,0,0
2900,-100,4,1,5,29,0,0
3201,-100,4,1,5,33,0,0
3503,-100,4,1,5,37,0,0
3804,-100,4,1,5,41,0,0
4106,-100,4,1,5,45,0,0
4709,-142.857142857143,4,3,5,50,0,0
7064,291.26213592233,4,3,1,70,1,0
7064,-142.857142857143,4,3,1,70,0,0
8520,293.398533007335,4,3,1,70,1,8
9400,298.507462686567,4,3,1,70,1,0
9400,-142.857142857143,4,3,1,70,0,0
11743,291.26213592233,4,3,1,70,1,0
11743,-142.857142857143,4,3,1,70,0,0
12908,292.682926829268,4,3,1,70,1,0
12908,-125,4,3,1,70,0,0
14078,-117.647058823529,4,3,1,70,0,0
15249,296.73590504451,4,3,0,70,1,0
15249,-111.111111111111,4,3,0,70,0,0
16422,294.117647058824,4,3,1,70,1,0
16422,-111.111111111111,4,3,1,70,0,0
17598,292.682926829268,4,3,1,70,1,0
17598,-90.9090909090909,4,3,1,70,0,0
18183,-90.9090909090909,4,3,0,70,0,0
18573,-90.9090909090909,4,2,0,5,0,0
18768,-90.9090909090909,4,3,1,70,0,0
19793,310.880829015544,4,3,1,70,1,8
19948,287.081339712919,4,3,1,70,1,0
19948,-90.9090909090909,4,3,1,70,0,0
20378,292.682926829268,4,3,1,70,1,8
20378,-90.9090909090909,4,3,1,70,0,0
21109,292.682926829268,4,3,1,70,1,0
21109,-90.9090909090909,4,3,1,70,0,0
22865,-90.9090909090909,4,3,0,70,0,0
23157,-90.9090909090909,4,3,1,70,0,0
23450,-83.3333333333333,4,3,1,70,0,0
27694,-71.4285714285714,4,3,1,70,0,0
28133,-76.9230769230769,4,3,1,70,0,0
32230,300,4,3,1,70,1,8
32230,-76.9230769230769,4,3,1,70,0,0
32529,292.682926829268,4,3,1,70,1,8
32529,-76.9230769230769,4,3,1,70,0,0
32822,292.682926829268,4,3,1,70,1,0
32822,-76.9230769230769,4,3,1,70,0,0
33992,-71.4285714285714,4,3,1,70,0,0
37504,290.556900726392,4,3,1,70,1,0
37504,-71.4285714285714,4,3,1,70,0,0
38666,292.682926829268,4,3,1,70,1,0
38666,-71.4285714285714,4,3,1,70,0,0
39836,-62.5,4,3,1,50,0,0
41600,324.324324324324,4,3,1,50,1,8
41600,-83.3333333333333,4,3,1,50,0,0
41924,401.33779264214,4,3,1,50,1,8
41924,-83.3333333333333,4,3,1,50,0,0
42325,292.682926829268,4,3,1,50,1,0
45837,-100,4,3,1,50,0,0
46129,-100,4,3,1,40,0,0
46422,-100,4,3,1,30,0,0
46715,-100,4,3,1,20,0,0
47007,-100,4,3,1,10,0,0
47154,-100,4,3,1,30,0,0
54032,-100,4,3,1,25,0,0
54325,-100,4,3,1,35,0,0
54617,-100,4,3,1,45,0,0
54910,-100,4,3,1,55,0,0
55056,-100,4,3,1,10,0,0
55203,-55.5555555555556,4,3,1,70,0,0
57544,-62.5,4,3,1,85,0,1
76276,-55.5555555555556,4,3,1,75,0,0
95007,-62.5,4,3,1,75,0,0
103202,-55.5555555555556,4,3,0,70,0,0
103276,-55.5555555555556,4,3,1,75,0,0
113446,-55.5555555555556,4,1,5,70,0,0
113739,-55.5555555555556,4,3,1,75,0,0
123690,-55.5555555555556,4,3,0,70,0,0
123763,-55.5555555555556,4,3,1,70,0,0
124276,-55.5555555555556,4,3,0,70,0,0
124861,-55.5555555555556,4,3,1,70,0,0
125446,-55.5555555555556,4,3,2,85,0,1
158227,-100,4,3,1,70,0,1
160568,-55.5555555555556,4,2,0,60,0,1
161154,-55.5555555555556,4,1,5,40,0,1
161739,-55.5555555555556,4,3,2,50,0,1
162910,-55.5555555555556,4,3,2,70,0,0
172276,-55.5555555555556,4,3,2,85,0,1
176959,-55.5555555555556,4,3,2,90,0,1
179300,-50,4,3,2,70,0,1
181056,-50,4,3,0,70,0,1
181203,-50,4,3,2,70,0,1
181349,-50,4,3,0,70,0,1
181495,-50,4,3,2,70,0,1
181642,-83.3333333333333,4,1,6,70,0,0
182739,-83.3333333333333,4,2,6,5,0,0
182812,-78.125,4,1,6,70,0,0
183910,-78.125,4,2,6,5,0,0
183983,-83.3333333333333,4,1,6,70,0,0
185081,-83.3333333333333,4,2,6,5,0,0
185154,-83.3333333333333,4,1,6,70,0,0
187422,-83.3333333333333,4,2,6,5,0,0
187495,-83.3333333333333,4,1,6,70,0,0
187568,-83.3333333333333,4,1,6,40,0,0
188666,-83.3333333333333,4,1,6,70,0,0
188739,-83.3333333333333,4,1,6,40,0,0
189837,-83.3333333333333,4,3,1,85,0,0
189910,-83.3333333333333,4,3,1,70,0,0
191007,-62.5,4,3,2,60,0,0
195690,-58.8235294117647,4,3,2,70,0,0
200373,-58.8235294117647,4,3,2,80,0,0
209739,-55.5555555555556,4,3,2,80,0,0
227885,-55.5555555555556,4,1,5,70,0,0
227959,-55.5555555555556,4,3,2,80,0,0
237837,-55.5555555555556,4,3,2,65,0,0
244861,-55.5555555555556,4,3,2,70,0,0
247203,-55.5555555555556,4,3,2,80,0,0
256568,-55.5555555555556,4,3,2,80,0,1
258617,-41.6666666666667,4,3,2,80,0,1
258910,-35.7142857142857,4,3,2,90,0,1
260959,-50,4,3,2,90,0,1
261251,-133.333333333333,4,2,6,70,0,0
263593,-117.647058823529,4,2,6,70,0,0
264763,-125,4,3,1,70,0,0
265349,-100,4,3,1,70,0,0
265934,-83.3333333333333,4,3,1,70,0,0
267105,-66.6666666666667,4,3,1,70,0,0
267690,-57.1428571428571,4,3,2,70,0,0
269446,-57.1428571428571,4,3,0,70,0,0
269520,-57.1428571428571,4,3,2,70,0,0
270617,-50,4,3,2,85,0,1
277642,-41.6666666666667,4,3,2,85,0,1
284373,-55.5555555555556,4,3,2,85,0,1
284666,-41.6666666666667,4,3,2,85,0,1
285544,-55.5555555555556,4,3,2,85,0,1
285837,-41.6666666666667,4,3,2,85,0,1
287885,-45.4545454545455,4,3,0,85,0,1
288178,-50,4,3,2,80,0,1
288763,-50,4,3,0,80,0,1
288837,-50,4,3,2,80,0,1
289056,-55.5555555555556,4,3,2,80,0,1
289349,-62.5,4,3,2,80,0,1
292568,-55.5555555555556,4,3,0,70,0,1
292861,-66.6666666666667,4,3,0,70,0,1
293007,-55.5555555555556,4,3,2,70,0,1
293446,-62.5,4,3,1,70,0,1
293739,-76.9230769230769,4,3,1,70,0,1
294032,-125,4,1,5,70,0,0
294617,-111.111111111111,4,3,2,70,0,0
294910,283.018867924528,4,3,2,70,1,0
294910,-111.111111111111,4,3,2,70,0,0
295051,300,4,3,1,70,1,8
295202,307.692307692308,4,3,1,70,1,0
295202,-125,4,3,1,70,0,0
295356,287.081339712919,4,3,1,70,1,8
295643,355.029585798817,4,3,0,70,1,8
295643,-133.333333333333,4,3,0,70,0,0
295998,392.156862745098,4,3,1,70,1,8
296194,441.176470588235,4,3,1,70,1,8
296194,-133.333333333333,4,3,1,70,0,0
296414,472.44094488189,4,3,1,70,1,8
296650,800,4,3,1,70,1,0
296650,-83.3333333333333,4,3,1,70,0,0
297450,703.812316715542,4,3,1,70,1,8
298152,736.196319018405,4,3,2,70,1,8
298520,745.341614906832,4,3,2,70,1,8
298893,916.030534351145,4,3,2,70,1,8
299351,1111.11111111111,4,3,2,70,1,8
299906,337.078651685393,4,3,1,70,1,1
309344,-100,4,3,1,100,0,0

[Colours]
Combo1 : 183,98,98
Combo2 : 200,40,40
Combo3 : 230,109,21

[HitObjects]
256,192,1091,12,2,4106,0:0:0:0:
328,129,4709,6,0,P|375:83|441:84,2,136.499995834351,4|0|0,0:1|0:0|0:0,0:0:0:0:
256,344,6216,1,0,0:0:0:0:
300,279,6518,2,0,P|256:267|212:278,1,90.9999972229005,0|0,0:0|0:0,0:0:0:0:
68,236,7064,6,0,B|49:192|49:192|78:96,2,136.499995834351,4|0|0,0:2|0:0|0:0,0:0:0:0:
328,254,9400,6,0,P|375:300|441:299,2,136.499995834351,4|0|0,0:0|0:0|0:0,0:0:0:0:
256,40,10892,1,0,0:0:0:0:
256,40,11191,2,0,L|256:131,1,90.9999972229005,0|0,0:0|0:0,0:0:0:0:
406,213,11743,6,0,B|429:147|429:147|407:85,2,136.499995834351,4|0|0,0:2|0:0|0:0,0:0:0:0:
256,344,12908,2,0,L|206:327,1,52,0|0,0:0|0:0,0:0:0:0:
75,289,13200,1,0,1:0:0:0:
121,374,13347,1,2,2:3:0:0:
174,194,13493,1,8,1:3:0:0:
180,167,13786,5,8,0:0:0:0:
75,289,13932,1,0,0:0:0:0:
128,100,14078,6,0,P|179:83|232:98,1,110.50000210762,4|0,0:0|0:0,0:0:0:0:
301,172,14517,2,0,P|352:188|405:173,1,110.50000210762,0|0,0:0|0:0,0:0:0:0:
473,100,14956,2,0,L|484:33,2,36.8333340358734,8|0|0,0:0|0:0|0:0,0:0:0:0:
444,266,15249,6,0,B|427:339|427:339|450:381,1,116.999996429443,10|0,0:0|0:0,0:0:0:0:
447,375,15694,1,8,0:3:0:0:
312,311,15842,2,0,B|255:292|255:292|200:311,1,116.999996429443,0|0,0:0|0:0,0:0:0:0:
68,266,16422,6,0,B|85:339|85:339|64:375,1,116.999996429443,4|0,0:0|0:0,0:0:0:0:
1,215,16863,2,0,P|48:184|105:191,1,116.999996429443,0|0,0:0|0:0,3:0:0:0:
151,262,17304,1,0,0:0:0:0:
380,43,17598,6,0,L|397:103,1,47.6666681213379,8|0,0:0|0:0,0:0:0:0:
490,120,17793,1,0,0:0:0:0:
490,120,17890,2,0,L|473:180,1,47.6666681213379,10|0,0:0|0:0,0:0:0:0:
380,197,18085,1,0,0:0:0:0:
380,197,18183,2,0,L|392:242,1,47.6666681213379,8|0,0:0|0:0,0:0:0:0:
490,274,18378,1,0,0:0:0:0:
490,274,18476,2,0,L|477:319,1,47.6666681213379,8|0,0:0|2:0,0:0:0:0:
324,343,18768,6,0,P|252:345|199:290,1,143.000004364014,4|0,0:2|0:0,0:0:0:0:
270,128,19207,2,0,B|301:175|301:175|285:261,1,143.000004364014,0|0,0:0|0:0,0:0:0:0:
141,237,19646,2,0,L|207:210,1,71.5000021820069
67,103,19948,6,0,L|58:174,1,71.5000021820069,8|0,0:0|0:0,0:0:0:0:
172,9,20235,1,2,0:0:0:0:
141,237,20378,2,0,L|150:166,1,71.5000021820069,8|0,0:0|0:0,0:0:0:0:
255,72,20670,1,2,0:0:0:0:
233,229,20817,2,0,L|224:300,1,71.5000021820069,8|0,0:0|0:0,0:0:0:0:
405,384,21109,6,0,P|451:357|466:253,1,143.000004364014,6|0,0:2|0:0,0:0:0:0:
405,206,21548,1,2,0:0:0:0:
385,295,21694,2,0,P|339:268|324:164,1,143.000004364014,2|0,0:2|0:0,0:0:0:0:
398,96,22133,1,0,0:0:0:0:
404,98,22206,1,0,0:0:0:0:
410,100,22279,6,0,L|469:78,3,35.7500010910034,8|0|0|0,0:0|0:0|0:0|0:0,0:0:0:0:
319,36,22572,2,0,L|260:14,3,35.7500010910034,8|0|0|0,0:0|0:0|0:0|0:0,0:0:0:0:
193,86,22865,2,0,L|160:99,3,35.7500010910034,8|0|0|0,0:0|0:0|0:0|0:0,0:0:0:0:
35,22,23157,2,0,L|69:35,3,35.7500010910034,8|0|0|0,0:0|0:0|0:0|0:0,0:0:0:0:
11,155,23450,6,0,B|9:232|9:232|58:295,1,155.999995239258,8|0,0:0|0:0,0:0:0:0:
27,384,23816,1,0,0:0:0:0:
27,384,23889,2,0,P|68:321|143:320,1,155.999995239258,2|8,0:0|0:0,0:0:0:0:
256,360,24328,1,0,0:0:0:0:
256,360,24401,1,0,0:0:0:0:
256,360,24474,1,0,0:0:0:0:
330,230,24621,6,0,L|351:147,1,77.999997619629,4|0,0:1|0:0,0:0:0:0:
162,154,24913,2,0,L|182:230,1,77.999997619629,0|0,0:0|0:0,0:0:0:0:
346,248,25206,2,0,L|428:203,1,77.999997619629,0|0,0:0|0:0,0:0:0:0:
166,248,25499,2,0,L|84:203,1,77.999997619629,0|0,0:0|0:0,0:0:0:0:
194,21,25791,6,0,B|248:75|248:75|257:154,1,155.999995239258,8|0,0:0|0:0,0:0:0:0:
174,112,26157,1,0,0:0:0:0:
174,112,26230,2,0,L|314:45,1,155.999995239258,10|8,0:0|0:0,0:0:0:0:
105,49,26669,1,0,0:0:0:0:
105,49,26743,1,0,0:0:0:0:
105,49,26816,1,0,0:0:0:0:
45,193,26962,6,0,P|18:264|46:335,1,155.999995239258,4|0,0:1|0:0,0:0:0:0:
222,263,27401,1,0,0:0:0:0:
222,263,27474,1,0,0:0:0:0:
222,263,27548,1,2,0:0:0:0:
34,181,27694,2,0,P|1:263|34:345,1,181.999994445801,8|0,0:0|0:0,0:0:0:0:
223,351,28133,6,0,B|279:351|279:351|331:319|331:319|391:319,1,168.999992263794,4|8,0:2|0:0,0:0:0:0:
512,279,28572,2,0,B|456:279|456:279|404:247|404:247|344:247,1,168.999992263794,2|0,0:0|0:0,0:0:0:0:
459,367,29011,1,0,0:0:0:0:
459,367,29084,1,0,0:0:0:0:
459,367,29157,1,0,0:0:0:0:
457,192,29304,6,0,B|427:174|427:174|367:174,1,84.4999961318971,4|0,0:1|0:0,0:0:0:0:
319,86,29596,2,0,B|368:86|368:86|398:68,1,84.4999961318971
193,86,29889,2,0,B|143:86|143:86|113:68,1,84.4999961318971
55,192,30182,2,0,B|85:174|85:174|134:174,1,84.4999961318971
191,337,30474,5,4,0:2:0:0:
191,337,30548,1,0,0:0:0:0:
191,337,30621,2,0,P|199:296|191:255,1,84.4999961318971,2|0,0:0|0:0,0:0:0:0:
92,380,30913,2,0,P|84:339|93:298,1,84.4999961318971,2|0,0:0|0:0,0:0:0:0:
134,174,31206,1,2,0:0:0:0:
283,272,31352,1,8,0:0:0:0:
307,288,31426,1,0,0:0:0:0:
335,296,31499,1,0,0:0:0:0:
364,296,31572,1,0,0:0:0:0:
392,287,31645,6,0,P|332:288|289:382,1,168.999992263794,4|0,0:1|0:0,0:0:0:0:
465,359,32084,1,0,0:0:0:0:
465,359,32157,1,0,0:0:0:0:
465,359,32230,2,0,L|486:266,1,84.4999961318971,8|0,0:0|0:0,0:0:0:0:
399,126,32529,2,0,L|417:208,1,84.4999961318971,8|2,0:0|0:0,0:0:0:0:
503,52,32822,6,0,B|454:20|454:20|315:51,1,168.999992263794,4|8,0:2|0:0,0:0:0:0:
262,164,33261,2,0,L|222:-8,1,168.999992263794,2|2,0:0|0:0,0:0:0:0:
283,252,33700,1,8,0:0:0:0:
283,252,33773,1,0,0:0:0:0:
283,252,33846,1,0,0:0:0:0:
113,254,33992,6,0,P|149:227|194:224,1,90.9999972229005,4|0,0:1|0:0,0:0:0:0:
98,342,34285,2,0,P|142:338|178:311,1,90.9999972229005,0|0,0:0|0:0,0:0:0:0:
8,194,34578,2,0,L|28:283,1,90.9999972229005,0|0,0:0|0:0,0:0:0:0:
68,53,34870,2,0,L|87:141,1,90.9999972229005,0|0,0:0|0:0,0:0:0:0:
178,310,35163,6,0,P|213:337|258:341,1,90.9999972229005,4|0,0:2|0:0,0:0:0:0:
399,307,35456,1,8,0:0:0:0:
264,163,35602,2,0,L|245:252,1,90.9999972229005,2|0,0:0|0:0,0:0:0:0:
292,40,35895,1,2,0:0:0:0:
172,78,36041,1,8,0:0:0:0:
172,78,36114,1,0,0:0:0:0:
172,78,36187,1,0,0:0:0:0:
384,125,36334,6,0,B|470:147|470:147|518:226,1,181.999994445801,4|0,0:1|0:0,0:0:0:0:
264,163,36773,1,2,0:0:0:0:
264,163,36846,1,0,0:0:0:0:
264,163,36919,1,8,0:0:0:0:
462,65,37065,2,0,P|476:152|416:215,1,181.999994445801,2|0,0:0|0:0,0:0:0:0:
194,282,37504,5,4,0:2:0:0:
222,263,37576,1,0,0:0:0:0:
255,257,37649,1,0,0:0:0:0:
289,263,37721,1,0,0:0:0:0:
317,282,37794,1,8,0:0:0:0:
123,342,37939,2,0,L|104:234,1,90.9999972229005,2|0,0:0|0:0,0:0:0:0:
81,108,38230,1,2,0:0:0:0:
19,265,38375,1,8,0:0:0:0:
19,265,38448,1,0,0:0:0:0:
19,265,38520,1,0,0:0:0:0:
19,41,38666,6,0,P|104:20|168:80,1,181.999994445801,4|0,0:1|0:0,0:0:0:0:
256,192,39105,1,2,0:0:0:0:
256,192,39178,1,0,0:0:0:0:
256,192,39251,1,8,0:0:0:0:
256,96,39397,1,2,0:0:0:0:
338,239,39544,1,0,0:0:0:0:
171,239,39690,1,0,0:0:0:0:
375,137,39836,6,0,L|446:212,1,104,4|0,0:0|0:0,0:0:0:0:
416,318,40129,1,8,0:0:0:0:
137,137,40275,6,0,L|65:212,1,104,4|0,0:0|0:0,0:0:0:0:
96,318,40568,1,8,0:0:0:0:
321,367,40714,6,0,P|338:318|321:270,1,104,4|0,0:0|0:0,0:0:0:0:
256,80,41007,1,8,0:0:0:0:
191,367,41153,6,0,P|173:318|190:270,1,104,4|0,0:0|0:0,0:0:0:0:
256,56,41446,1,8,0:0:0:0:
436,192,41600,6,0,L|465:92,1,77.999997619629,4|0,0:0|0:0,0:0:0:0:
54,117,41924,6,0,L|76:192,1,77.999997619629,4|0,0:0|0:0,0:0:0:0:
256,320,42325,5,12,0:0:0:0:
256,192,42398,12,0,47154,1:0:0:0:
256,192,54032,12,0,55056,0:0:0:0:
123,127,55203,5,2,0:0:0:0:
89,144,55276,1,0,0:0:0:0:
67,174,55349,1,0,0:0:0:0:
61,211,55422,1,0,0:0:0:0:
73,247,55495,1,8,0:0:0:0:
233,315,55642,1,2,0:0:0:0:
235,277,55715,1,0,0:0:0:0:
220,243,55788,1,0,0:0:0:0:
191,219,55861,1,0,0:0:0:0:
154,211,55934,1,8,0:0:0:0:
17,317,56081,2,0,P|76:336|128:312,1,116.999996429443,6|0,0:2|0:0,0:0:0:0:
275,181,56373,6,0,L|255:127,3,58.4999982147217,8|0|0|0,0:0|0:0|0:0|0:0,0:0:0:0:
362,263,56666,2,0,L|382:317,3,58.4999982147217,8|0|0|0,0:0|0:0|0:0|0:0,0:0:0:0:
390,147,56959,2,0,L|370:93,3,58.4999982147217,8|0|0|0,0:0|0:0|0:0|0:0,0:0:0:0:
477,229,57251,2,0,L|497:283,3,58.4999982147217,8|0|0|0,0:0|0:0|0:0|0:0,0:0:0:0:
275,181,57544,6,0,L|143:158,1,104,4|0,0:2|0:0,0:0:0:0:
225,277,57837,1,8,0:0:0:0:
172,163,57983,1,2,0:0:0:0:
136,367,58129,1,0,0:0:0:0:
45,177,58276,1,2,0:0:0:0:
225,277,58422,1,8,0:0:0:0:
22,301,58568,1,0,0:0:0:0:
225,366,58715,6,0,L|357:343,1,104,4|0,0:2|0:0,0:0:0:0:
120,258,59007,1,8,0:0:0:0:
324,222,59154,1,2,0:0:0:0:
225,366,59300,1,8,0:0:0:0:
190,162,59446,1,2,0:0:0:0:
388,283,59593,1,8,0:0:0:0:
120,258,59739,1,0,0:0:0:0:
393,94,59885,6,0,L|416:226,1,104,4|0,0:2|0:0,0:0:0:0:
327,348,60178,1,8,0:0:0:0:
512,244,60324,1,2,0:0:0:0:
304,106,60471,1,0,0:0:0:0:
269,100,60544,1,0,0:0:0:0:
234,108,60617,1,2,0:0:0:0:
205,129,60690,1,0,0:0:0:0:
189,162,60764,1,8,0:0:0:0:
131,307,60910,1,0,0:0:0:0:
100,132,61056,6,0,L|77:0,1,104,4|0,0:2|0:0,0:0:0:0:
274,192,61349,1,8,0:0:0:0:
28,235,61495,2,0,L|10:337,1,104,4|0,0:2|0:0,0:0:0:0:
0,99,61788,1,2,0:0:0:0:
131,307,61934,1,8,0:0:0:0:
189,162,62081,1,0,0:0:0:0:
391,327,62227,5,2,0:0:0:0:
420,308,62300,1,0,0:0:0:0:
436,275,62373,1,0,1:0:0:0:
431,240,62446,1,0,1:0:0:0:
409,211,62520,1,8,0:0:0:0:
376,200,62593,1,0,0:0:0:0:
341,208,62666,1,8,0:0:0:0:
316,234,62739,1,0,0:0:0:0:
309,268,62812,5,2,0:0:0:0:
342,259,62885,1,0,0:0:0:0:
368,234,62959,1,0,1:0:0:0:
376,200,63032,1,0,1:0:0:0:
364,165,63105,1,8,0:0:0:0:
336,143,63178,1,0,0:0:0:0:
301,140,63251,1,8,0:0:0:0:
267,155,63324,1,0,0:0:0:0:
249,187,63398,5,2,0:0:0:0:
231,219,63471,1,0,0:0:0:0:
197,234,63544,1,0,1:0:0:0:
162,231,63617,1,0,1:0:0:0:
134,209,63690,1,8,0:0:0:0:
122,174,63764,1,0,0:0:0:0:
130,140,63837,1,8,0:0:0:0:
156,115,63910,1,0,0:0:0:0:
189,106,63983,5,2,0:0:0:0:
182,140,64056,1,0,0:0:0:0:
157,166,64129,1,0,1:0:0:0:
122,174,64203,1,0,1:0:0:0:
89,163,64276,1,8,0:0:0:0:
67,134,64349,1,0,0:0:0:0:
62,99,64422,1,8,0:0:0:0:
78,66,64495,1,0,0:0:0:0:
107,47,64568,6,0,P|132:40|166:45,1,52,6|0,0:0|0:0,0:0:0:0:
230,0,64715,2,0,P|252:12|273:40,1,52,2|0,0:0|0:0,0:0:0:0:
350,53,64861,2,0,P|356:78|352:112,1,52,8|0,0:0|0:0,0:0:0:0:
397,175,65007,2,0,P|384:197|356:218,1,52,8|0,0:0|0:0,0:0:0:0:
201,175,65154,6,0,P|213:197|241:218,1,52,6|0,0:0|0:0,0:0:0:0:
254,295,65300,2,0,P|279:301|313:297,1,52,2|0,0:0|0:0,0:0:0:0:
377,342,65446,2,0,P|399:329|420:301,1,52,8|0,0:0|0:0,0:0:0:0:
496,289,65593,2,0,P|503:264|498:230,1,52,8|0,0:0|0:0,0:0:0:0:
497,74,65739,5,10,0:0:0:0:
459,37,65812,1,0,0:0:0:0:
408,24,65885,1,0,0:0:0:0:
359,41,65959,1,0,0:0:0:0:
323,79,66032,1,10,0:0:0:0:
313,129,66105,1,0,0:0:0:0:
328,179,66178,1,0,0:0:0:0:
363,216,66251,1,0,0:0:0:0:
376,265,66324,1,10,0:0:0:0:
365,315,66398,1,0,0:0:0:0:
329,353,66471,1,0,0:0:0:0:
279,368,66544,1,0,0:0:0:0:
227,355,66617,1,10,0:0:0:0:
189,318,66690,1,0,0:0:0:0:
173,268,66764,1,0,0:0:0:0:
186,217,66837,1,0,0:0:0:0:
222,180,66910,5,4,0:2:0:0:
62,218,67056,2,0,L|83:319,1,104,8|0,0:0|0:0,0:0:0:0:
83,319,67276,1,0,0:0:0:0:
83,319,67349,1,2,0:0:0:0:
138,95,67495,1,8,0:0:0:0:
279,248,67642,1,0,0:0:0:0:
253,40,67788,1,8,0:0:0:0:
153,222,67934,1,0,0:0:0:0:
168,10,68081,5,4,0:2:0:0:
279,247,68227,2,0,L|380:226,1,104,8|0,0:0|0:0,0:0:0:0:
380,226,68446,1,0,0:0:0:0:
380,226,68520,1,2,0:0:0:0:
239,342,68666,1,8,0:0:0:0:
340,132,68812,1,0,0:0:0:0:
363,323,68959,1,8,0:0:0:0:
153,222,69105,1,0,0:0:0:0:
441,144,69251,5,4,0:2:0:0:
252,39,69398,2,0,L|234:142,1,104,8|0,0:0|0:0,0:0:0:0:
234,142,69617,1,0,0:0:0:0:
234,142,69690,1,2,0:0:0:0:
465,57,69837,1,8,0:0:0:0:
420,55,69910,1,0,0:0:0:0:
380,76,69983,1,0,0:0:0:0:
355,114,70056,1,0,0:0:0:0:
353,159,70129,1,8,0:0:0:0:
424,354,70276,1,0,0:0:0:0:
441,144,70422,5,4,0:2:0:0:
304,301,70568,1,8,0:0:0:0:
506,255,70715,1,0,0:0:0:0:
231,252,70861,2,0,P|214:300|229:349,1,104,4|0,0:2|0:0,0:0:0:0:
398,244,71154,1,2,0:0:0:0:
123,241,71300,1,8,0:0:0:0:
304,301,71446,1,0,0:0:0:0:
48,304,71593,5,8,0:0:0:0:
27,273,71666,1,0,0:0:0:0:
20,236,71739,1,0,0:0:0:0:
29,201,71812,1,0,0:0:0:0:
49,171,71885,1,0,0:0:0:0:
69,140,71959,1,0,0:0:0:0:
78,105,72032,1,2,0:0:0:0:
71,68,72105,1,0,0:0:0:0:
47,42,72178,5,8,0:0:0:0:
39,77,72251,1,0,0:0:0:0:
47,112,72324,1,8,0:0:0:0:
69,140,72398,1,0,0:0:0:0:
102,155,72471,1,2,0:0:0:0:
138,154,72544,1,0,0:0:0:0:
170,138,72617,1,2,0:0:0:0:
192,109,72690,1,0,0:0:0:0:
202,73,72764,5,8,0:0:0:0:
217,76,72837,1,0,0:0:0:0:
232,79,72910,1,2,0:0:0:0:
247,83,72983,1,0,0:0:0:0:
275,109,73056,5,0,1:0:0:0:
290,105,73129,1,0,0:0:0:0:
305,102,73203,1,8,0:0:0:0:
320,99,73276,1,0,0:0:0:0:
345,73,73349,5,0,1:0:0:0:
360,76,73422,1,0,0:0:0:0:
375,79,73495,1,2,0:0:0:0:
390,83,73568,1,0,0:0:0:0:
418,109,73642,5,8,0:0:0:0:
433,105,73715,1,0,0:0:0:0:
448,102,73788,1,2,0:0:0:0:
463,99,73861,1,0,0:0:0:0:
478,96,73934,5,8,0:0:0:0:
294,307,74081,1,2,0:0:0:0:
475,260,74227,1,2,0:0:0:0:
193,147,74373,5,8,0:0:0:0:
375,193,74520,1,2,0:0:0:0:
92,305,74666,1,2,0:0:0:0:
286,71,74812,5,8,0:0:0:0:
241,372,74959,1,8,0:0:0:0:
90,95,75105,5,2,0:0:0:0:
96,80,75178,1,0,0:0:0:0:
102,65,75251,1,0,0:0:0:0:
108,50,75324,1,0,0:0:0:0:
114,35,75397,5,8,0:0:0:0:
122,70,75471,1,0,0:0:0:0:
130,105,75544,1,0,0:0:0:0:
139,140,75617,1,0,0:0:0:0:
148,175,75690,5,4,0:2:0:0:
181,133,75764,1,0,0:0:0:0:
231,121,75837,1,0,0:0:0:0:
280,136,75910,1,0,0:0:0:0:
315,173,75983,1,0,0:0:0:0:
350,211,76056,1,0,0:0:0:0:
399,226,76129,1,0,0:0:0:0:
449,212,76203,1,0,0:0:0:0:
480,171,76276,6,0,P|381:179|342:310,1,233.999992858887,4|0,0:0|0:0,0:0:0:0:
512,341,76715,1,2,0:0:0:0:
288,384,76861,1,8,0:0:0:0:
438,267,77007,1,2,0:0:0:0:
214,310,77154,1,8,0:0:0:0:
364,193,77300,1,2,0:0:0:0:
142,365,77446,6,0,P|123:310|142:255,1,116.999996429443,8|0,0:0|0:0,0:0:0:0:
301,119,77739,1,2,0:0:0:0:
329,327,77885,2,0,L|214:310,1,116.999996429443,10|0,0:0|0:0,0:0:0:0:
76,158,78178,1,2,0:0:0:0:
261,222,78324,1,8,0:0:0:0:
56,345,78471,1,2,0:0:0:0:
0,132,78617,6,0,B|80:119|80:119|148:144|148:144|227:132,1,233.999992858887,4|0,0:0|0:0,0:0:0:0:
404,103,79056,1,2,0:0:0:0:
164,20,79203,1,8,0:0:0:0:
261,222,79349,1,2,0:0:0:0:
348,31,79495,1,8,0:0:0:0:
167,207,79642,1,2,0:0:0:0:
468,157,79788,6,0,P|486:102|467:48,1,116.999996429443,8|0,0:0|0:0,0:0:0:0:
295,310,80081,1,2,0:0:0:0:
460,256,80227,2,0,P|411:227|354:233,1,116.999996429443,8|0,0:0|0:0,0:0:0:0:
200,297,80520,1,2,0:0:0:0:
390,323,80666,1,8,0:0:0:0:
227,131,80812,1,2,0:0:0:0:
162,372,80959,5,8,0:0:0:0:
203,383,81032,1,0,0:0:0:0:
245,371,81105,1,2,0:0:0:0:
276,340,81178,1,0,0:0:0:0:
286,299,81251,2,0,P|281:265|261:234,1,58.4999982147217,0|0,0:0|0:0,0:0:0:0:
133,113,81398,5,2,0:0:0:0:
200,297,81544,1,0,0:0:0:0:
386,228,81690,1,2,0:0:0:0:
259,170,81837,1,8,3:3:0:0:
328,354,81983,1,8,3:3:0:0:
444,102,82129,5,12,3:3:0:0:
444,102,82203,1,0,0:0:0:0:
444,102,82276,2,0,L|468:177,1,58.4999982147217,2|0,0:0|0:0,0:0:0:0:
368,283,82422,2,0,L|385:227,1,58.4999982147217,0|0,0:0|0:0,0:0:0:0:
317,58,82568,2,0,L|341:133,1,58.4999982147217,2|0,0:0|0:0,0:0:0:0:
241,239,82715,1,0,0:0:0:0:
241,239,82788,1,0,0:0:0:0:
241,239,82861,2,0,L|258:183,1,58.4999982147217,2|0,0:0|0:0,0:0:0:0:
190,14,83007,2,0,L|207:69,1,58.4999982147217,8|0,0:0|0:0,0:0:0:0:
114,195,83154,2,0,L|131:139,1,58.4999982147217,2|0,0:0|0:0,0:0:0:0:
57,15,83300,5,4,0:2:0:0:
64,37,83373,1,0,0:0:0:0:
71,60,83446,1,0,0:0:0:0:
78,82,83520,1,0,0:0:0:0:
85,105,83593,1,8,0:0:0:0:
93,128,83666,1,0,0:0:0:0:
100,150,83739,1,0,0:0:0:0:
107,173,83812,1,0,0:0:0:0:
114,195,83885,1,8,0:0:0:0:
121,218,83959,1,0,0:0:0:0:
128,240,84032,1,0,0:0:0:0:
135,262,84105,1,0,0:0:0:0:
142,285,84178,2,0,P|115:299|78:294,1,58.4999982147217,2|0,0:0|0:0,0:0:0:0:
204,170,84324,2,0,P|232:169|258:182,1,58.4999982147217,2|0,0:0|0:0,0:0:0:0:
435,376,84471,5,4,0:2:0:0:
464,339,84544,1,0,0:0:0:0:
475,294,84617,1,2,0:0:0:0:
465,249,84690,1,0,0:0:0:0:
437,212,84764,1,0,0:0:0:0:
409,175,84837,1,0,0:0:0:0:
399,130,84910,1,8,0:0:0:0:
410,85,84983,1,0,0:0:0:0:
439,49,85056,6,0,L|358:74,1,58.4999982147217,0|0,0:0|0:0,0:0:0:0:
314,165,85203,2,0,L|233:190,1,58.4999982147217,2|0,0:0|0:0,0:0:0:0:
460,55,85349,2,0,L|379:80,1,58.4999982147217,8|0,0:0|0:0,0:0:0:0:
335,171,85495,2,0,L|254:196,1,58.4999982147217,0|0,0:0|0:0,0:0:0:0:
127,331,85642,6,0,B|113:248|113:248|78:201|78:201|63:111,1,233.999992858887,4|0,0:0|0:0,0:0:0:0:
227,359,86081,1,2,0:0:0:0:
29,286,86227,1,8,0:0:0:0:
301,286,86373,1,2,0:0:0:0:
159,96,86520,1,8,0:0:0:0:
127,331,86666,1,2,0:0:0:0:
381,321,86812,6,0,P|384:262|353:213,1,116.999996429443,8|0,0:0|0:0,0:0:0:0:
256,72,87105,1,2,0:0:0:0:
192,264,87251,2,0,P|242:291|300:286,1,116.999996429443,8|0,0:0|0:0,0:0:0:0:
452,109,87544,1,2,0:0:0:0:
261,203,87690,1,8,0:0:0:0:
489,192,87837,1,2,0:0:0:0:
256,72,87983,6,0,P|139:59|86:155,1,233.999992858887,4|0,0:0|0:0,0:0:0:0:
189,151,88422,1,2,0:0:0:0:
3,87,88568,1,8,0:0:0:0:
256,72,88715,1,2,0:0:0:0:
196,259,88861,1,8,0:0:0:0:
181,6,89007,1,2,0:0:0:0:
407,119,89154,6,0,P|427:168|407:241,1,116.999996429443,8|0,0:0|0:0,0:0:0:0:
283,361,89446,1,2,0:0:0:0:
222,162,89593,2,0,L|338:179,1,116.999996429443,8|0,0:0|0:0,0:0:0:0:
106,249,89885,1,2,0:0:0:0:
256,72,90032,1,8,0:0:0:0:
275,262,90178,1,2,0:0:0:0:
64,322,90324,5,8,0:0:0:0:
33,290,90398,1,0,0:0:0:0:
23,248,90471,1,2,0:0:0:0:
34,206,90544,1,0,0:0:0:0:
64,175,90617,1,0,0:0:0:0:
173,380,90764,1,8,0:0:0:0:
173,380,90837,1,0,0:0:0:0:
173,380,90910,1,0,0:0:0:0:
222,162,91056,1,2,0:0:0:0:
277,345,91203,1,8,0:0:0:0:
318,331,91276,1,8,0:0:0:0:
347,299,91349,1,8,0:0:0:0:
358,258,91422,1,0,0:0:0:0:
348,216,91495,5,8,0:0:0:0:
256,72,91642,1,2,0:0:0:0:
275,262,91788,1,0,0:0:0:0:
378,74,91934,1,2,0:0:0:0:
170,176,92081,1,0,0:0:0:0:
438,213,92227,1,2,0:0:0:0:
318,12,92373,1,0,0:0:0:0:
180,271,92520,1,2,0:0:0:0:
477,115,92666,5,10,0:0:0:0:
448,108,92739,1,0,0:0:0:0:
419,109,92812,1,0,0:0:0:0:
391,118,92885,1,0,0:0:0:0:
367,135,92959,1,0,0:0:0:0:
349,157,93032,1,0,0:0:0:0:
337,184,93105,5,2,0:0:0:0:
377,205,93178,1,0,0:0:0:0:
395,247,93251,1,0,0:0:0:0:
382,291,93324,1,0,0:0:0:0:
344,317,93398,1,0,0:0:0:0:
298,312,93471,1,0,0:0:0:0:
266,280,93544,2,0,P|260:252|267:224,1,58.4999982147217,2|0,0:0|0:0,0:0:0:0:
472,232,93690,2,0,P|478:260|471:288,1,58.4999982147217,0|0,0:0|0:0,0:0:0:0:
213,379,93837,5,8,0:0:0:0:
167,370,93910,1,0,0:0:0:0:
131,341,93983,1,0,0:0:0:0:
113,298,94056,1,0,0:0:0:0:
116,252,94129,1,2,0:0:0:0:
141,213,94203,1,0,0:0:0:0:
182,190,94276,1,8,0:0:0:0:
207,151,94349,1,0,0:0:0:0:
210,105,94422,1,0,0:0:0:0:
192,62,94495,1,0,0:0:0:0:
155,33,94568,2,0,P|125:28|81:49,1,58.4999982147217,2|0,0:0|0:0,0:0:0:0:
72,165,94715,2,0,P|91:142|99:114,1,58.4999982147217,8|0,0:0|0:0,0:0:0:0:
0,26,94861,2,0,P|9:54|30:74,1,58.4999982147217,8|0,0:0|0:0,0:0:0:0:
207,151,95007,6,0,P|255:166|304:151,1,104,2|0,0:0|0:0,0:0:0:0:
427,14,95300,2,0,L|466:123,1,104,0|0,0:0|0:0,0:0:0:0:
256,360,95593,2,0,L|256:248,1,104,8|0,0:0|0:0,0:0:0:0:
85,14,95885,2,0,L|46:123,1,104,0|0,0:0|0:0,0:0:0:0:
339,216,96178,6,0,P|255:165|172:219,1,208,2|0,0:0|1:0,0:0:0:0:
119,347,96617,1,8,0:0:0:0:
28,211,96764,1,0,0:0:0:0:
256,256,96910,1,2,0:0:0:0:
39,201,97056,1,10,0:0:0:0:
130,337,97203,1,0,0:0:0:0:
112,55,97349,6,0,B|167:32|167:32|314:95,1,208,2|0,0:0|1:0,0:0:0:0:
333,308,97788,1,2,0:0:0:0:
463,177,97934,2,0,L|343:193,1,104,8|0,0:0|0:0,0:0:0:0:
130,337,98227,2,0,L|233:350,1,104,2|0,0:0|0:0,0:0:0:0:
512,140,98520,6,0,L|303:167,1,208,2|0,0:0|1:0,0:0:0:0:
459,275,98959,1,8,0:0:0:0:
432,68,99105,1,0,0:0:0:0:
333,308,99251,1,2,0:0:0:0:
234,68,99398,1,8,0:0:0:0:
234,68,99471,1,0,0:0:0:0:
234,68,99544,1,8,0:0:0:0:
234,68,99617,1,8,0:0:0:0:
234,68,99690,6,0,P|182:74|144:115,1,104,8|0,0:0|0:0,0:0:0:0:
91,57,99910,1,0,0:0:0:0:
91,57,99983,2,0,P|71:103|83:153,1,104,0|0,1:0|0:0,0:0:0:0:
9,175,100203,1,0,0:0:0:0:
9,175,100276,2,0,P|40:217|94:229,1,104,0|0,1:0|0:0,0:0:0:0:
70,305,100495,1,0,0:0:0:0:
70,305,100568,2,0,P|120:299|157:263,1,104,0|0,1:0|0:0,0:0:0:0:
256,351,100861,5,2,0:0:0:0:
267,345,100934,1,0,0:0:0:0:
279,341,101007,1,0,0:0:0:0:
292,338,101081,1,0,0:0:0:0:
305,338,101154,1,0,1:0:0:0:
318,339,101227,1,0,0:0:0:0:
331,341,101300,1,0,0:0:0:0:
343,346,101373,1,0,0:0:0:0:
354,352,101446,5,8,0:0:0:0:
371,362,101520,1,0,0:0:0:0:
389,369,101593,1,0,0:0:0:0:
408,373,101666,1,0,0:0:0:0:
428,374,101739,1,8,0:0:0:0:
447,373,101812,1,0,0:0:0:0:
466,368,101885,1,0,0:0:0:0:
484,361,101959,1,0,0:0:0:0:
501,351,102032,5,8,1:3:0:0:
462,337,102105,1,0,0:0:0:0:
432,308,102178,1,0,0:0:0:0:
415,270,102251,1,0,0:0:0:0:
415,229,102324,1,0,0:0:0:0:
430,191,102398,1,0,0:0:0:0:
460,162,102471,1,2,0:0:0:0:
481,127,102544,1,0,0:0:0:0:
483,86,102617,1,0,0:0:0:0:
464,49,102690,1,0,0:0:0:0:
430,25,102764,1,8,0:0:0:0:
389,21,102837,1,0,0:0:0:0:
352,38,102910,1,2,0:0:0:0:
326,71,102983,1,0,0:0:0:0:
320,111,103056,1,0,0:0:0:0:
333,151,103129,1,0,0:0:0:0:
366,177,103203,6,0,P|391:157|398:118,1,58.4999982147217,8|0,0:0|0:0,0:0:0:0:
226,94,103349,2,0,P|196:82|158:95,1,58.4999982147217
222,250,103495,2,0,P|226:281|257:307,3,58.4999982147217,8|0|0|0,0:0|0:0|0:0|0:0,0:0:0:0:
99,292,103788,2,0,P|125:309|164:307,3,58.4999982147217,2|0|0|0,0:0|0:0|0:0|0:0,0:0:0:0:
53,382,104081,1,4,0:2:0:0:
458,53,104373,5,2,0:0:0:0:
172,88,104520,1,0,0:0:0:0:
419,193,104666,5,8,0:0:0:0:
153,81,104812,1,0,0:0:0:0:
308,303,104959,5,8,0:0:0:0:
133,73,105105,1,0,0:0:0:0:
458,53,105251,2,0,P|467:79|461:119,1,58.4999982147217
419,193,105398,2,0,P|402:218|367:235,1,58.4999982147217
152,311,105544,5,2,0:0:0:0:
287,96,105690,1,0,0:0:0:0:
41,201,105837,5,8,0:0:0:0:
307,89,105983,1,0,0:0:0:0:
40,44,106129,5,8,0:0:0:0:
327,81,106276,1,0,0:0:0:0:
152,311,106422,2,0,P|124:306|93:281,1,58.4999982147217
41,201,106568,2,0,P|27:174|30:135,1,58.4999982147217,0|0,0:0|0:0,0:0:0:0:
40,44,106715,6,0,L|107:64,3,58.4999982147217,2|0|0|0,0:0|0:0|0:0|0:0,0:0:0:0:
197,139,107007,2,0,L|141:156,3,58.4999982147217,8|0|0|0,0:0|0:0|0:0|0:0,0:0:0:0:
242,43,107300,2,0,L|309:63,3,58.4999982147217,2|0|0|0,0:0|0:0|0:0|0:0,0:0:0:0:
397,134,107593,2,0,L|340:150,3,58.4999982147217,8|0|0|0,0:0|0:0|0:0|0:0,0:0:0:0:
448,13,107885,5,2,0:0:0:0:
414,45,107959,1,0,0:0:0:0:
396,88,108032,1,0,0:0:0:0:
397,134,108105,1,0,0:0:0:0:
415,177,108178,1,8,0:0:0:0:
448,209,108251,1,0,0:0:0:0:
466,252,108324,1,0,0:0:0:0:
467,298,108398,1,0,0:0:0:0:
449,341,108471,1,2,0:0:0:0:
414,370,108544,1,0,0:0:0:0:
369,384,108617,1,0,0:0:0:0:
323,379,108690,1,0,0:0:0:0:
282,355,108764,2,0,P|263:333|256:305,1,58.4999982147217,8|0,0:0|0:0,0:0:0:0:
226,196,108910,2,0,P|254:191|282:199,1,58.4999982147217,8|0,0:0|0:0,0:0:0:0:
362,275,109056,5,2,0:0:0:0:
80,207,109203,1,0,0:0:0:0:
350,123,109349,5,8,0:0:0:0:
150,335,109495,1,0,0:0:0:0:
173,26,109642,5,8,0:0:0:0:
256,305,109788,1,0,0:0:0:0:
331,67,109934,2,0,L|350:122,1,58.4999982147217,0|0,0:0|0:0,0:0:0:0:
413,302,110081,2,0,L|432:246,1,58.4999982147217,0|0,0:0|0:0,0:0:0:0:
488,64,110227,5,2,0:0:0:0:
236,175,110373,1,0,0:0:0:0:
477,345,110520,2,0,B|397:345|397:345|337:305|337:305|255:305,1,233.999992858887,8|8,0:0|0:0,0:0:0:0:
507,194,110959,1,0,0:0:0:0:
310,384,111105,1,0,0:0:0:0:
350,122,111251,1,0,0:0:0:0:
158,313,111398,6,0,P|186:236|336:250,1,233.999992858887,2|0,0:0|0:0,0:0:0:0:
255,305,111837,1,8,0:0:0:0:
168,121,111983,1,2,0:0:0:0:
61,321,112129,1,0,0:0:0:0:
321,232,112276,1,8,0:0:0:0:
60,143,112422,1,0,0:0:0:0:
255,305,112568,5,4,1:2:0:0:
265,306,112642,1,0,0:0:0:0:
276,307,112715,1,0,0:0:0:0:
287,310,112788,1,0,0:0:0:0:
326,330,112861,5,8,0:0:0:0:
337,331,112934,1,0,0:0:0:0:
348,334,113007,1,0,0:0:0:0:
358,335,113081,1,0,0:0:0:0:
397,355,113154,5,2,0:0:0:0:
408,357,113227,1,0,0:0:0:0:
419,359,113300,1,0,0:0:0:0:
430,361,113373,1,0,0:0:0:0:
468,381,113446,5,6,0:0:0:0:
64,76,113739,5,4,1:2:0:0:
255,305,113885,1,0,0:0:0:0:
38,245,114032,5,8,0:0:0:0:
335,272,114178,1,0,0:0:0:0:
140,384,114324,5,8,0:0:0:0:
369,193,114471,1,0,0:0:0:0:
468,381,114617,2,0,L|467:322,1,58.4999982147217,8|0,0:0|0:0,0:0:0:0:
368,134,114764,2,0,L|368:227,1,58.4999982147217,8|0,0:0|0:0,0:0:0:0:
370,384,114910,5,4,1:2:0:0:
141,193,115056,1,0,0:0:0:0:
471,245,115203,5,8,0:0:0:0:
174,272,115349,1,0,0:0:0:0:
446,76,115495,5,8,0:0:0:0:
255,305,115642,1,0,0:0:0:0:
77,138,115788,1,8,0:0:0:0:
100,120,115861,1,0,0:0:0:0:
127,110,115934,1,0,0:0:0:0:
156,110,116007,1,0,0:0:0:0:
184,120,116081,6,0,P|243:132|298:96,1,116.999996429443,4|0,1:2|0:0,0:0:0:0:
62,0,116373,1,8,0:0:0:0:
141,193,116520,1,0,0:0:0:0:
141,193,116593,1,0,0:0:0:0:
141,193,116666,1,8,0:0:0:0:
228,49,116812,1,0,0:0:0:0:
0,124,116959,1,8,0:0:0:0:
7,144,117032,1,0,0:0:0:0:
16,165,117105,1,0,0:0:0:0:
24,187,117178,1,0,0:0:0:0:
34,207,117251,6,0,P|87:180|150:199,1,116.999996429443,8|0,1:3|0:0,0:0:0:0:
290,273,117544,1,2,0:0:0:0:
290,105,117690,1,8,1:3:0:0:
96,260,117837,1,0,0:0:0:0:
96,260,117910,1,0,0:0:0:0:
96,260,117983,1,2,0:0:0:0:
359,350,118129,1,8,0:0:0:0:
381,356,118203,1,0,0:0:0:0:
403,362,118276,1,0,0:0:0:0:
425,368,118349,1,0,0:0:0:0:
446,373,118422,5,4,0:0:0:0:
418,344,118495,1,0,0:0:0:0:
400,308,118568,1,0,0:0:0:0:
394,267,118642,1,0,0:0:0:0:
400,226,118715,1,2,0:0:0:0:
419,189,118788,1,0,0:0:0:0:
446,158,118861,1,8,0:0:0:0:
475,130,118934,1,0,0:0:0:0:
479,89,119007,1,0,0:0:0:0:
458,53,119081,1,0,0:0:0:0:
419,40,119154,1,2,0:0:0:0:
380,53,119227,1,0,0:0:0:0:
359,88,119300,2,0,P|362:127|382:152,3,58.4999982147217,8|0|0|0,0:0|0:0|0:0|0:0,0:0:0:0:
256,192,119593,5,12,0:0:0:0:
211,204,119666,1,0,0:0:0:0:
164,192,119739,1,0,0:0:0:0:
130,161,119812,1,0,0:0:0:0:
116,117,119885,1,2,0:0:0:0:
124,72,119959,1,0,0:0:0:0:
154,36,120032,5,8,0:0:0:0:
168,80,120105,1,0,0:0:0:0:
160,125,120178,1,0,0:0:0:0:
130,161,120251,1,0,0:0:0:0:
100,197,120324,1,2,0:0:0:0:
92,242,120398,1,0,0:0:0:0:
106,286,120471,2,0,L|137:363,3,58.4999982147217,8|0|0|0,0:0|0:0|0:0|0:0,0:0:0:0:
256,352,120764,5,4,0:0:0:0:
306,381,120837,1,0,0:0:0:0:
363,371,120910,1,0,1:0:0:0:
399,325,120983,1,0,1:0:0:0:
395,266,121056,1,8,0:0:0:0:
353,225,121129,1,0,0:0:0:0:
293,222,121203,1,0,1:0:0:0:
251,181,121276,1,0,1:0:0:0:
247,122,121349,1,8,0:0:0:0:
283,76,121422,1,0,1:0:0:0:
340,66,121495,1,0,1:0:0:0:
390,95,121568,1,0,0:0:0:0:
414,149,121642,1,4,1:2:0:0:
472,155,121715,1,0,0:0:0:0:
509,107,121788,1,0,1:0:0:0:
481,53,121861,1,0,0:0:0:0:
424,48,121934,5,4,1:2:0:0:
390,95,122007,1,0,0:0:0:0:
335,115,122081,1,0,1:0:0:0:
279,95,122154,1,0,1:0:0:0:
246,46,122227,1,8,1:3:0:0:
190,26,122300,1,0,1:0:0:0:
135,45,122373,1,0,1:0:0:0:
102,93,122446,1,0,0:0:0:0:
105,151,122520,1,4,1:2:0:0:
142,196,122593,1,0,1:0:0:0:
198,212,122666,1,0,1:0:0:0:
226,262,122739,1,0,1:0:0:0:
215,319,122812,1,10,0:3:0:0:
167,352,122885,1,0,0:0:0:0:
109,342,122959,1,10,0:0:0:0:
71,296,123032,1,0,0:0:0:0:
81,238,123105,5,8,0:0:0:0:
190,26,123251,1,8,0:0:0:0:
226,262,123398,1,2,0:0:0:0:
60,95,123544,1,2,0:0:0:0:
290,132,123690,1,8,0:0:0:0:
344,145,123764,1,0,0:0:0:0:
382,189,123837,1,0,0:0:0:0:
392,245,123910,1,0,0:0:0:0:
364,297,123983,5,8,0:0:0:0:
340,228,124056,1,0,0:0:0:0:
361,158,124129,1,0,0:0:0:0:
418,113,124203,1,0,0:0:0:0:
489,108,124276,5,8,0:0:0:0:
103,20,124568,5,8,0:0:0:0:
256,384,124861,5,8,0:0:0:0:
409,20,125154,5,8,0:0:0:0:
65,208,125446,6,0,P|79:264|124:299,1,116.999996429443,4|8,0:0|0:0,0:0:0:0:
327,345,125739,1,0,0:0:0:0:
257,156,125885,2,0,L|155:215,1,116.999996429443,8|0,0:0|0:0,0:0:0:0:
434,304,126178,1,8,0:0:0:0:
354,116,126324,1,2,0:0:0:0:
352,145,126398,1,0,0:0:0:0:
350,174,126471,1,0,0:0:0:0:
348,203,126544,1,0,0:0:0:0:
346,232,126617,6,0,L|448:173,1,116.999996429443,0|0,0:0|0:0,0:0:0:0:
362,0,126910,1,2,0:0:0:0:
257,156,127056,2,0,L|155:97,1,116.999996429443,8|0,0:0|0:0,0:0:0:0:
154,288,127349,1,8,0:0:0:0:
207,23,127495,1,2,0:0:0:0:
167,7,127568,1,0,0:0:0:0:
123,12,127642,1,0,0:0:0:0:
87,36,127715,1,0,0:0:0:0:
67,74,127788,6,0,L|66:191,1,116.999996429443,4|8,0:2|0:0,0:0:0:0:
271,273,128081,1,0,0:0:0:0:
33,299,128227,1,8,0:0:0:0:
43,322,128300,1,0,0:0:0:0:
52,346,128373,2,0,L|153:288,1,116.999996429443,0|8,0:0|0:0,0:0:0:0:
416,138,128666,1,2,0:0:0:0:
374,154,128739,1,0,0:0:0:0:
348,188,128812,1,0,0:0:0:0:
341,232,128885,1,0,0:0:0:0:
351,275,128959,6,0,P|313:203|237:196,1,116.999996429443,0|8,0:0|0:0,0:0:0:0:
119,154,129251,1,2,0:0:0:0:
311,353,129398,2,0,P|391:356|435:294,1,116.999996429443,8|0,0:0|0:0,0:0:0:0:
512,188,129690,1,8,0:0:0:0:
263,279,129837,1,2,0:0:0:0:
253,302,129910,1,0,0:0:0:0:
244,326,129983,1,0,0:0:0:0:
235,350,130056,1,0,0:0:0:0:
225,374,130129,6,0,L|124:315,1,116.999996429443,4|0,0:2|0:0,0:0:0:0:
43,169,130422,1,0,0:0:0:0:
263,279,130568,2,0,L|363:220,1,116.999996429443,8|0,0:0|0:0,0:0:0:0:
444,69,130861,1,8,0:0:0:0:
224,179,131007,2,0,L|123:120,1,116.999996429443,2|0,0:0|0:0,0:0:0:0:
375,131,131300,5,2,0:0:0:0:
415,146,131373,1,0,0:0:0:0:
444,179,131446,1,8,0:0:0:0:
453,221,131520,1,0,0:0:0:0:
442,263,131593,2,0,P|390:305|321:299,1,116.999996429443,0|8,0:0|0:0,0:0:0:0:
59,228,131885,1,2,1:2:0:0:
65,244,131959,1,0,0:0:0:0:
71,260,132032,1,8,0:0:0:0:
77,276,132105,1,0,0:0:0:0:
114,294,132178,1,2,0:0:0:0:
120,310,132251,1,0,0:0:0:0:
126,326,132324,1,0,0:0:0:0:
132,342,132398,1,2,0:0:0:0:
145,377,132471,6,0,P|197:335|266:341,1,116.999996429443,4|8,0:2|0:0,0:0:0:0:
433,371,132764,1,2,0:0:0:0:
240,120,132910,2,0,P|245:177|284:220,1,116.999996429443,8|2,0:0|0:0,0:0:0:0:
479,276,133203,1,8,0:0:0:0:
430,80,133349,1,2,0:0:0:0:
421,87,133422,1,0,0:0:0:0:
412,94,133495,1,0,0:0:0:0:
403,101,133568,1,0,0:0:0:0:
393,107,133642,5,4,0:2:0:0:
375,85,133715,1,0,0:0:0:0:
351,68,133788,1,8,0:0:0:0:
324,58,133861,1,0,0:0:0:0:
295,54,133934,1,2,0:0:0:0:
266,57,134007,1,0,0:0:0:0:
238,68,134081,1,8,0:0:0:0:
215,85,134154,1,0,0:0:0:0:
195,107,134227,5,2,0:0:0:0:
165,137,134300,1,0,0:0:0:0:
123,144,134373,1,8,0:0:0:0:
84,124,134446,1,8,0:0:0:0:
65,85,134520,1,8,0:0:0:0:
71,42,134593,1,8,0:0:0:0:
103,14,134666,1,8,0:0:0:0:
145,8,134739,1,0,0:0:0:0:
182,27,134812,6,0,B|221:69|221:69|222:163,1,116.999996429443,4|8,0:2|0:0,0:0:0:0:
135,302,135105,2,0,B|151:247|151:247|232:199,1,116.999996429443,0|8,0:0|0:0,0:0:0:0:
397,206,135398,1,0,0:0:0:0:
421,231,135471,1,0,0:0:0:0:
445,256,135544,1,8,0:0:0:0:
425,284,135617,1,0,0:0:0:0:
406,313,135690,1,2,0:0:0:0:
202,216,135837,1,0,0:0:0:0:
41,363,135983,6,0,P|18:310|38:257,1,116.999996429443,0|8,0:0|0:0,0:0:0:0:
109,63,136276,1,2,0:0:0:0:
131,41,136349,1,0,0:0:0:0:
160,29,136422,1,8,0:0:0:0:
192,30,136495,1,0,0:0:0:0:
220,44,136568,1,2,0:0:0:0:
240,69,136642,1,0,0:0:0:0:
248,100,136715,1,8,0:0:0:0:
243,131,136788,1,0,0:0:0:0:
225,158,136861,1,0,0:0:0:0:
197,175,136934,1,0,0:0:0:0:
166,178,137007,1,8,0:0:0:0:
135,169,137081,1,0,0:0:0:0:
111,147,137154,5,2,0:0:0:0:
147,118,137227,1,0,0:0:0:0:
193,109,137300,1,8,0:0:0:0:
237,121,137373,1,0,0:0:0:0:
272,152,137446,1,0,0:0:0:0:
292,195,137520,1,0,0:0:0:0:
308,238,137593,1,8,0:0:0:0:
342,269,137666,1,0,0:0:0:0:
387,281,137739,1,2,0:0:0:0:
433,271,137812,1,0,0:0:0:0:
468,242,137885,1,0,0:0:0:0:
487,200,137959,1,0,0:0:0:0:
484,153,138032,1,2,0:0:0:0:
461,114,138105,1,0,0:0:0:0:
422,89,138178,1,0,0:0:0:0:
375,84,138251,1,0,0:0:0:0:
332,102,138324,5,2,0:0:0:0:
344,123,138398,1,0,0:0:0:0:
357,144,138471,1,8,0:0:0:0:
369,165,138544,1,0,0:0:0:0:
382,186,138617,1,0,0:0:0:0:
395,207,138690,1,0,0:0:0:0:
407,228,138764,1,8,0:0:0:0:
420,249,138837,1,0,0:0:0:0:
432,270,138910,2,0,L|372:270,3,58.4999982147217,2|0|0|0,0:0|0:0|0:0|0:0,0:0:0:0:
324,362,139203,2,0,L|264:362,3,58.4999982147217,2|0|0|0,0:0|0:0|0:0|0:0,0:0:0:0:
106,374,139495,5,4,0:2:0:0:
68,344,139568,1,0,0:0:0:0:
56,299,139642,1,8,0:0:0:0:
70,254,139715,1,0,0:0:0:0:
107,227,139788,1,0,0:0:0:0:
144,200,139861,1,0,0:0:0:0:
158,155,139934,1,8,0:0:0:0:
146,110,140007,1,0,0:0:0:0:
108,80,140081,2,0,L|-31:124,1,116.999996429443,2|8,0:0|0:0,0:0:0:0:
258,34,140373,1,0,0:0:0:0:
226,241,140520,1,8,0:0:0:0:
226,241,140593,1,0,0:0:0:0:
226,241,140666,6,0,L|365:285,1,116.999996429443,2|0,0:0|0:0,0:0:0:0:
376,47,140959,1,2,0:0:0:0:
350,81,141032,1,0,0:0:0:0:
342,124,141105,1,0,0:0:0:0:
357,165,141178,1,0,0:0:0:0:
389,194,141251,1,8,0:0:0:0:
419,225,141324,1,0,0:0:0:0:
433,265,141398,1,2,0:0:0:0:
427,308,141471,1,0,0:0:0:0:
401,344,141544,2,0,P|377:360|335:369,1,58.4999982147217,8|0,0:0|0:0,0:0:0:0:
423,117,141690,2,0,P|450:125|474:142,1,58.4999982147217,2|0,0:0|0:0,0:0:0:0:
337,276,141837,5,2,0:0:0:0:
300,292,141910,1,0,0:0:0:0:
259,293,141983,1,8,0:0:0:0:
220,279,142056,1,0,0:0:0:0:
192,248,142129,1,0,0:0:0:0:
164,217,142203,1,0,0:0:0:0:
125,203,142276,1,8,0:0:0:0:
84,203,142349,1,0,0:0:0:0:
47,220,142422,1,2,0:0:0:0:
86,235,142495,1,0,0:0:0:0:
127,234,142568,1,0,0:0:0:0:
164,217,142642,1,0,0:0:0:0:
190,186,142715,2,0,P|205:157|200:118,1,58.4999982147217,2|0,0:0|0:0,0:0:0:0:
89,27,142861,2,0,P|106:54|142:69,1,58.4999982147217,8|0,0:0|0:0,0:0:0:0:
335,145,143007,5,10,0:0:0:0:
382,141,143081,1,0,0:0:0:0:
419,111,143154,1,0,0:0:0:0:
429,65,143227,1,0,0:0:0:0:
410,23,143300,1,10,0:0:0:0:
369,0,143373,1,0,0:0:0:0:
323,7,143446,1,0,0:0:0:0:
290,38,143520,1,0,0:0:0:0:
282,84,143593,1,10,0:0:0:0:
309,135,143666,1,0,0:0:0:0:
337,186,143739,1,0,0:0:0:0:
365,236,143812,1,0,0:0:0:0:
393,286,143885,2,0,L|323:258,1,58.4999982147217,2|0,0:0|0:0,0:0:0:0:
458,189,144032,2,0,L|505:154,1,58.4999982147217
305,337,144178,6,0,P|266:296|265:239,1,116.999996429443,6|8,0:0|0:0,0:0:0:0:
355,76,144471,1,0,0:0:0:0:
332,359,144617,2,0,P|276:372|227:344,1,116.999996429443,8|2,0:0|0:0,0:0:0:0:
130,185,144910,1,8,0:0:0:0:
71,384,145056,1,0,0:0:0:0:
71,384,145129,1,0,0:0:0:0:
71,384,145203,1,8,0:0:0:0:
71,384,145276,1,0,0:0:0:0:
71,384,145349,6,0,P|48:326|63:269,1,116.999996429443,4|8,1:2|0:0,0:0:0:0:
201,106,145642,1,0,0:0:0:0:
138,321,145788,1,8,0:0:0:0:
268,43,145934,2,0,P|291:101|276:158,1,116.999996429443,2|8,0:0|0:0,0:0:0:0:
59,274,146227,1,0,0:0:0:0:
90,243,146300,1,0,0:0:0:0:
131,230,146373,1,8,0:0:0:0:
174,237,146446,1,0,0:0:0:0:
208,264,146520,6,0,P|262:280|316:259,1,116.999996429443,4|8,1:2|0:0,0:0:0:0:
416,100,146812,1,0,0:0:0:0:
174,237,146959,2,0,P|186:292|231:328,1,116.999996429443,8|2,0:0|0:0,0:0:0:0:
420,335,147251,1,8,0:0:0:0:
279,152,147398,1,0,0:0:0:0:
279,152,147471,1,0,0:0:0:0:
279,152,147544,1,8,0:0:0:0:
279,152,147617,1,0,0:0:0:0:
279,152,147690,6,0,L|157:109,1,116.999996429443,4|8,1:2|0:0,0:0:0:0:
368,0,147983,1,0,0:0:0:0:
102,95,148129,2,0,L|224:52,1,116.999996429443,8|2,0:0|0:0,0:0:0:0:
0,0,148422,1,8,0:0:0:0:
63,243,148568,1,0,0:0:0:0:
69,265,148642,1,0,0:0:0:0:
75,287,148715,1,2,0:0:0:0:
81,309,148788,1,0,0:0:0:0:
88,331,148861,6,0,P|136:300|207:311,1,116.999996429443,4|8,1:2|0:0,0:0:0:0:
374,384,149154,1,0,0:0:0:0:
277,110,149300,2,0,P|279:167|234:223,1,116.999996429443,8|2,0:0|0:0,0:0:0:0:
88,331,149593,1,8,0:0:0:0:
374,384,149739,2,0,P|323:357|297:290,1,116.999996429443,0|8,0:0|0:0,0:0:0:0:
388,79,150032,5,4,1:2:0:0:
388,294,150178,1,8,0:0:0:0:
512,55,150324,1,0,0:0:0:0:
382,308,150471,1,8,0:0:0:0:
382,61,150617,2,0,L|382:-8,3,58.4999982147217,2|0|8|0,1:2|0:0|0:0|0:0,0:0:0:0:
449,190,150910,2,0,L|508:224,3,58.4999982147217,2|0|8|0,0:0|0:0|0:0|0:0,0:0:0:0:
303,183,151203,6,0,B|250:214|250:214|228:281,1,116.999996429443,4|0,1:2|0:0,0:0:0:0:
374,384,151495,1,2,0:0:0:0:
327,163,151642,2,0,L|204:143,1,116.999996429443,8|0,0:0|0:0,0:0:0:0:
0,236,151934,1,2,0:0:0:0:
17,263,152007,1,0,0:0:0:0:
45,284,152081,1,8,0:0:0:0:
80,292,152154,1,0,0:0:0:0:
114,286,152227,1,0,0:0:0:0:
144,268,152300,1,0,0:0:0:0:
168,237,152373,5,4,1:2:0:0:
169,248,152446,1,0,0:0:0:0:
170,259,152520,1,8,0:0:0:0:
171,270,152593,1,0,0:0:0:0:
172,281,152666,1,0,0:0:0:0:
173,292,152739,1,0,0:0:0:0:
174,303,152812,1,8,0:0:0:0:
175,314,152885,1,0,0:0:0:0:
177,325,152959,5,2,0:0:0:0:
201,294,153032,1,0,0:0:0:0:
231,276,153105,1,8,0:0:0:0:
265,270,153178,1,0,0:0:0:0:
300,278,153251,1,0,0:0:0:0:
328,299,153324,1,0,0:0:0:0:
345,326,153398,2,0,L|353:383,1,58.4999982147217,0|0,0:0|0:0,0:0:0:0:
483,209,153544,6,0,P|424:205|377:241,1,116.999996429443,4|8,1:2|0:0,0:0:0:0:
261,362,153837,1,0,0:0:0:0:
261,160,153983,1,8,0:0:0:0:
481,336,154129,1,2,0:0:0:0:
500,307,154203,1,0,0:0:0:0:
508,272,154276,1,8,0:0:0:0:
502,238,154349,1,0,0:0:0:0:
483,209,154422,1,0,0:0:0:0:
464,179,154495,1,0,0:0:0:0:
457,145,154568,1,8,0:0:0:0:
465,110,154642,1,0,0:0:0:0:
485,81,154715,6,0,P|431:103|378:82,1,116.999996429443,2|0,0:0|0:0,0:0:0:0:
179,64,155007,2,0,P|210:57|241:67,3,58.4999982147217,2|0|0|0,0:0|0:0|0:0|0:0,0:0:0:0:
134,165,155300,2,0,P|124:195|100:217,3,58.4999982147217,8|0|0|0,0:0|0:0|0:0|0:0,0:0:0:0:
71,85,155593,2,0,P|49:61|42:29,3,58.4999982147217,8|0|0|0,0:0|0:0|0:0|0:0,0:0:0:0:
18,232,155885,5,4,0:2:0:0:
38,273,155959,1,0,0:0:0:0:
76,299,156032,1,8,0:0:0:0:
122,304,156105,1,0,0:0:0:0:
165,285,156178,1,0,0:0:0:0:
193,248,156251,1,0,0:0:0:0:
220,211,156324,1,8,0:0:0:0:
262,190,156397,1,0,0:0:0:0:
308,192,156470,1,2,0:0:0:0:
348,216,156543,1,0,0:0:0:0:
372,255,156616,1,8,0:0:0:0:
375,301,156690,1,0,0:0:0:0:
355,343,156763,1,2,0:0:0:0:
318,371,156836,1,0,0:0:0:0:
273,379,156909,1,8,0:0:0:0:
229,363,156982,1,0,0:0:0:0:
198,329,157055,5,2,0:0:0:0:
234,300,157129,1,0,0:0:0:0:
279,290,157202,1,8,0:0:0:0:
324,300,157275,1,8,0:0:0:0:
361,329,157348,1,8,0:0:0:0:
405,339,157422,1,0,0:0:0:0:
450,329,157495,1,8,0:0:0:0:
487,300,157568,1,0,0:0:0:0:
508,258,157642,5,0,1:0:0:0:
370,86,157788,1,0,1:0:0:0:
405,235,157934,1,2,0:0:0:0:
473,109,158081,1,2,0:0:0:0:
302,212,158227,6,0,P|201:212|161:128,1,195,4|0,0:2|0:0,0:0:0:0:
276,17,158812,2,0,B|290:57|290:57|252:137,1,130,0|0,0:2|0:0,0:0:0:0:
98,203,159251,1,0,0:0:0:0:
98,203,159398,6,0,B|78:143|78:143|90:76|90:76|70:15,1,195,8|0,0:0|0:0,0:0:0:0:
159,136,159983,2,0,P|68:116|9:187,1,195,8|0,0:0|0:0,0:0:0:0:
26,335,160568,6,0,P|49:333|32:317,1,58.4999982147217,2|0,0:0|0:0,0:0:0:0:
97,203,160715,2,0,P|99:226|115:209,1,58.4999982147217,2|0,0:0|0:0,0:0:0:0:
164,340,160861,6,0,P|162:317|145:333,1,58.4999982147217,2|0,0:0|0:0,0:0:0:0:
222,191,161007,2,0,P|245:189|228:173,1,58.4999982147217,2|0,0:0|0:0,0:0:0:0:
293,326,161154,6,0,P|270:327|287:343,1,58.4999982147217,2|0,0:0|0:0,0:0:0:0:
346,133,161300,2,0,P|344:110|328:127,1,58.4999982147217,2|0,0:0|0:0,0:0:0:0:
405,323,161446,6,0,P|407:346|422:328,1,58.4999982147217,2|0,0:0|0:0,0:0:0:0:
440,36,161593,2,0,P|417:38|434:54,1,58.4999982147217,2|0,0:0|0:0,0:0:0:0:
512,336,161739,5,8,0:1:0:0:
72,36,162032,1,8,0:1:0:0:
44,341,162324,5,8,0:0:0:0:
440,36,162617,1,8,0:0:0:0:
133,237,162910,5,4,0:2:0:0:
319,268,163056,1,8,2:3:0:0:
346,234,163129,1,0,2:3:0:0:
355,192,163202,1,0,2:3:0:0:
346,150,163275,1,0,2:3:0:0:
319,115,163348,1,8,2:3:0:0:
133,237,163495,1,0,0:0:0:0:
203,15,163642,1,8,0:0:0:0:
203,15,163715,1,0,0:0:0:0:
203,15,163788,1,0,0:0:0:0:
266,191,163934,1,8,0:0:0:0:
23,62,164081,5,2,2:3:0:0:
28,96,164154,1,2,2:3:0:0:
34,131,164227,1,8,2:3:0:0:
40,165,164300,1,0,2:3:0:0:
45,200,164373,1,0,2:3:0:0:
232,325,164520,1,8,0:0:0:0:
154,113,164666,1,0,0:0:0:0:
92,328,164812,1,8,0:0:0:0:
92,328,164885,1,0,0:0:0:0:
92,328,164959,1,0,0:0:0:0:
266,191,165105,1,8,0:0:0:0:
439,328,165252,5,2,2:3:0:0:
460,300,165325,1,2,2:3:0:0:
469,266,165398,1,8,2:3:0:0:
461,233,165471,1,0,2:3:0:0:
440,204,165544,1,0,2:3:0:0:
266,341,165690,1,8,0:0:0:0:
301,88,165837,1,0,0:0:0:0:
384,265,165983,1,8,0:0:0:0:
131,230,166129,1,0,0:0:0:0:
408,105,166276,1,8,0:0:0:0:
114,36,166422,5,0,2:3:0:0:
109,52,166495,1,0,2:3:0:0:
104,68,166568,1,8,2:3:0:0:
99,85,166642,1,0,2:3:0:0:
78,115,166715,5,0,2:3:0:0:
86,142,166788,1,0,2:3:0:0:
94,169,166861,1,8,2:3:0:0:
103,196,166934,1,0,2:3:0:0:
131,230,167007,5,2,0:0:0:0:
121,260,167080,1,0,0:0:0:0:
112,291,167153,1,8,0:0:0:0:
102,322,167226,1,0,0:0:0:0:
65,359,167300,5,2,0:0:0:0:
105,352,167373,1,0,0:0:0:0:
145,345,167446,1,0,0:0:0:0:
185,338,167520,1,0,0:0:0:0:
225,331,167593,5,4,1:2:0:0:
277,169,167739,1,8,0:0:0:0:
359,374,167885,1,0,0:0:0:0:
268,147,168032,1,8,0:0:0:0:
448,274,168178,5,0,0:0:0:0:
225,331,168324,1,8,0:0:0:0:
473,268,168471,1,0,0:0:0:0:
154,217,168617,1,8,0:0:0:0:
373,77,168764,5,2,2:3:0:0:
369,100,168837,1,2,2:3:0:0:
365,123,168910,1,8,2:3:0:0:
361,146,168983,1,0,2:3:0:0:
358,169,169056,1,0,2:3:0:0:
284,8,169203,1,8,0:0:0:0:
473,166,169349,1,0,0:0:0:0:
227,149,169495,1,8,0:0:0:0:
437,18,169642,1,0,0:0:0:0:
345,248,169788,1,8,0:0:0:0:
90,128,169934,5,4,1:2:0:0:
124,113,170007,1,0,0:0:0:0:
162,112,170080,1,8,0:0:0:0:
197,124,170153,1,0,0:0:0:0:
227,149,170226,1,0,0:0:0:0:
283,357,170373,1,8,0:0:0:0:
145,205,170520,1,2,2:3:0:0:
145,205,170593,1,0,2:3:0:0:
145,205,170666,1,8,2:3:0:0:
365,301,170812,1,8,2:3:0:0:
381,308,170885,1,0,0:0:0:0:
397,315,170958,1,0,0:0:0:0:
413,322,171031,1,0,0:0:0:0:
429,329,171105,6,0,L|445:395,1,58.4999982147217,2|0,0:0|0:0,0:0:0:0:
329,238,171251,2,0,L|345:304,1,58.4999982147217,2|0,0:0|0:0,0:0:0:0:
227,149,171398,2,0,L|243:215,1,58.4999982147217,2|0,0:0|0:0,0:0:0:0:
127,58,171544,2,0,L|143:124,1,58.4999982147217,2|0,0:0|0:0,0:0:0:0:
127,315,171690,6,0,L|140:258,1,58.4999982147217,8|0,0:3|0:0,0:0:0:0:
273,21,171837,2,0,L|288:87,1,58.4999982147217,8|0,0:3|0:0,0:0:0:0:
442,384,171983,2,0,L|414:270,1,116.999996429443,8|0,0:3|0:0,0:0:0:0:
67,0,172276,5,2,0:0:0:0:
35,41,172349,1,0,0:0:0:0:
23,92,172422,1,2,0:0:0:0:
35,143,172495,1,0,0:0:0:0:
67,184,172568,1,2,0:0:0:0:
99,225,172642,1,0,0:0:0:0:
111,276,172715,1,2,0:0:0:0:
99,327,172788,1,0,0:0:0:0:
64,367,172861,5,8,0:0:0:0:
53,316,172934,1,0,0:0:0:0:
66,265,173007,1,8,0:0:0:0:
99,225,173080,1,0,0:0:0:0:
146,202,173153,1,8,0:0:0:0:
198,202,173226,1,0,0:0:0:0:
245,179,173300,1,8,0:0:0:0:
278,139,173373,1,0,0:0:0:0:
291,88,173446,5,0,0:0:0:0:
319,134,173519,1,0,0:0:0:0:
370,148,173592,1,2,0:0:0:0:
416,121,173665,1,0,0:0:0:0:
429,71,173738,1,2,0:0:0:0:
403,25,173811,1,0,0:0:0:0:
353,10,173885,1,2,0:0:0:0:
307,38,173958,1,0,0:0:0:0:
291,88,174032,5,8,0:0:0:0:
310,136,174105,1,0,0:0:0:0:
355,161,174178,1,8,0:0:0:0:
406,169,174251,1,0,0:0:0:0:
446,202,174324,1,8,0:0:0:0:
460,252,174397,1,0,0:0:0:0:
437,299,174470,1,8,0:0:0:0:
391,324,174543,1,0,0:0:0:0:
339,314,174617,5,2,0:0:0:0:
305,355,174691,1,0,0:0:0:0:
255,370,174764,1,2,0:0:0:0:
204,356,174837,1,0,0:0:0:0:
171,313,174910,1,2,0:0:0:0:
138,270,174983,1,0,0:0:0:0:
87,256,175056,1,2,0:0:0:0:
36,270,175129,1,0,0:0:0:0:
3,312,175203,5,8,0:0:0:0:
54,326,175276,1,0,0:0:0:0:
105,312,175349,1,8,0:0:0:0:
138,270,175422,1,0,0:0:0:0:
157,221,175495,1,8,0:0:0:0:
144,169,175568,1,0,0:0:0:0:
110,127,175642,1,8,0:0:0:0:
61,107,175715,1,0,0:0:0:0:
9,117,175788,6,0,B|9:157|9:157|19:171,1,58.4999982147217,2|0,0:0|0:0,0:0:0:0:
119,47,175934,2,0,B|127:20|127:20|149:0,1,58.4999982147217,2|0,0:0|0:0,0:0:0:0:
254,154,176081,2,0,B|227:148|227:148|208:123,1,58.4999982147217,2|0,0:0|0:0,0:0:0:0:
285,15,176227,2,0,B|310:2|310:2|340:2,1,58.4999982147217,2|0,0:0|0:0,0:0:0:0:
472,32,176373,6,0,B|504:102|454:163|454:163|496:211|496:211|441:281|499:356,1,350.99998928833,4|0,0:0|0:0,0:0:0:0:
47,294,176959,5,2,0:0:0:0:
49,240,177032,1,0,0:0:0:0:
85,202,177105,1,2,0:0:0:0:
138,195,177178,1,0,0:0:0:0:
182,224,177251,1,2,0:0:0:0:
197,275,177324,1,0,0:0:0:0:
176,323,177397,1,2,0:0:0:0:
130,347,177471,1,0,0:0:0:0:
78,335,177544,5,8,0:0:0:0:
86,283,177617,1,0,0:0:0:0:
116,241,177690,1,8,0:0:0:0:
163,219,177764,1,0,0:0:0:0:
215,221,177837,1,8,0:0:0:0:
266,222,177910,1,0,0:0:0:0:
313,200,177983,1,8,0:0:0:0:
344,158,178056,1,0,0:0:0:0:
353,106,178129,5,2,0:0:0:0:
307,129,178203,1,0,0:0:0:0:
275,170,178276,1,2,0:0:0:0:
266,222,178349,1,0,0:0:0:0:
280,272,178422,1,2,0:0:0:0:
315,310,178495,1,0,0:0:0:0:
364,328,178568,1,2,0:0:0:0:
416,323,178642,1,0,0:0:0:0:
460,295,178715,5,8,0:0:0:0:
411,277,178788,1,0,0:0:0:0:
359,282,178861,1,8,0:0:0:0:
315,310,178934,1,0,0:0:0:0:
290,356,179007,1,12,0:0:0:0:
123,28,179300,5,8,2:3:0:0:
106,56,179373,1,0,2:3:0:0:
100,88,179446,1,0,2:3:0:0:
105,119,179519,1,0,0:0:0:0:
122,148,179592,1,0,0:0:0:0:
390,148,179739,5,8,2:3:0:0:
407,119,179812,1,0,2:3:0:0:
412,88,179885,1,0,2:3:0:0:
406,56,179958,1,0,0:0:0:0:
389,28,180031,1,0,0:0:0:0:
255,346,180178,5,4,3:2:0:0:
256,80,180324,1,4,3:2:0:0:
149,366,180617,5,8,0:0:0:0:
31,236,180763,1,8,0:0:0:0:
202,271,180909,1,8,0:0:0:0:
42,341,181055,1,8,0:0:0:0:
130,191,181202,1,8,0:0:0:0:
149,366,181349,1,4,0:0:0:0:
31,236,181495,1,8,0:0:0:0:
202,271,181642,6,0,B|253:247|317:264|317:264|385:217|365:145|304:130|259:160|248:226|317:264|317:264|372:275|410:239|410:239|425:292|469:315,1,584.999982147217,4|0,0:2|0:0,0:0:0:0:
388,361,182812,6,0,B|349:283|399:221|471:225|471:225|432:133|432:133|432:60|487:49|531:75|527:135|495:161|432:133|432:133|407:77|340:69,1,624,4|0,0:0|0:0,0:0:0:0:
339,0,183983,6,0,B|271:37|295:108|295:108|257:72|211:53|211:53|244:135|188:192|127:208|56:191|28:124|37:76|61:36,1,584.999982147217,4|0,0:2|0:0,0:0:0:0:
132,91,185154,5,4,0:0:0:0:
425,268,185446,5,8,0:3:0:0:
512,366,185592,1,8,0:3:0:0:
302,317,185739,1,4,0:3:0:0:
87,268,186032,5,8,0:3:0:0:
0,366,186178,1,8,0:3:0:0:
210,317,186324,6,0,B|215:228|317:191|380:267|380:267|350:196|357:122|357:122|410:175|471:170|519:120|517:66,1,584.999982147217,4|0,0:2|0:0,0:0:0:0:
429,68,187495,6,0,B|446:150|446:150|493:197|493:197|510:279,2,233.999992858887,4|0|0,0:2|2:0|2:0,0:0:0:0:
281,68,188666,6,0,B|264:150|264:150|217:197|217:197|200:279,2,233.999992858887,4|0|0,0:2|2:0|2:0,0:0:0:0:
181,105,189690,1,8,0:3:0:0:
181,105,189837,6,0,L|105:89,1,77.999997619629,4|0,0:0|0:0,0:0:0:0:
90,190,190129,2,0,L|13:173,1,77.999997619629,8|8,0:0|0:0,0:0:0:0:
16,304,190422,1,0,1:0:0:0:
22,318,190495,1,0,1:0:0:0:
28,332,190568,1,0,1:0:0:0:
34,346,190642,1,0,1:0:0:0:
40,360,190715,2,0,L|116:343,1,77.999997619629,4|0,0:2|0:0,0:0:0:0:
301,302,191007,6,0,L|196:278,1,104,4|0,0:0|0:0,0:0:0:0:
372,155,191300,1,8,0:0:0:0:
318,326,191446,2,0,L|213:302,1,104,0|0,1:0|0:0,0:0:0:0:
389,179,191739,1,2,0:0:0:0:
335,350,191885,2,0,L|230:326,1,104,8|0,0:0|0:0,0:0:0:0:
90,190,192178,6,0,L|191:166,1,104,4|0,0:2|0:0,0:0:0:0:
46,300,192471,1,8,0:0:0:0:
134,80,192617,1,0,1:0:0:0:
264,198,192764,1,0,1:0:0:0:
44,110,192910,1,2,0:0:0:0:
264,22,193056,1,8,0:0:0:0:
157,256,193203,1,0,0:0:0:0:
377,168,193349,6,0,P|402:222|390:273,1,104,4|0,0:2|0:0,0:0:0:0:
255,373,193642,1,8,0:0:0:0:
290,143,193788,2,0,P|324:94|374:79,1,104,0|0,1:0|0:0,0:0:0:0:
512,150,194081,1,2,0:0:0:0:
312,231,194227,2,0,P|252:225|214:189,1,104,8|0,0:0|0:0,0:0:0:0:
127,32,194520,5,2,0:0:0:0:
57,211,194666,1,0,0:0:0:0:
219,197,194812,5,8,0:0:0:0:
40,127,194959,1,8,0:0:0:0:
220,66,195105,5,0,1:0:0:0:
150,245,195251,1,0,1:0:0:0:
312,231,195397,5,4,0:2:0:0:
133,161,195543,1,0,0:0:0:0:
363,298,195690,6,0,P|394:248|380:180,1,110.50000210762,4|0,0:2|0:0,0:0:0:0:
337,21,195983,1,8,0:0:0:0:
239,157,196129,2,0,P|263:205|311:230,1,110.50000210762,0|0,1:0|0:0,0:0:0:0:
493,274,196422,1,2,0:0:0:0:
423,120,196568,2,0,P|369:116|323:145,1,110.50000210762,8|0,0:0|0:0,0:0:0:0:
178,336,196861,6,0,P|232:339|277:309,1,110.50000210762,4|0,0:2|0:0,0:0:0:0:
65,176,197154,1,8,0:0:0:0:
281,367,197300,2,0,P|311:321|308:267,1,110.50000210762,0|0,1:0|0:0,0:0:0:0:
65,148,197593,1,2,0:0:0:0:
359,293,197739,2,0,P|334:244|286:219,1,110.50000210762,8|0,0:0|0:0,0:0:0:0:
65,120,198032,5,4,0:2:0:0:
185,329,198178,1,0,0:0:0:0:
211,88,198324,1,8,0:0:0:0:
47,268,198471,1,0,1:0:0:0:
286,219,198617,1,0,0:0:0:0:
65,120,198764,1,2,0:0:0:0:
185,329,198910,2,0,L|303:353,1,110.50000210762,8|0,0:0|0:0,0:0:0:0:
499,177,199203,6,0,L|381:201,1,110.50000210762,4|0,0:0|0:0,0:0:0:0:
116,347,199495,2,0,L|234:371,1,110.50000210762,12|0,0:0|0:0,0:0:0:0:
372,98,199788,5,8,0:0:0:0:
333,112,199861,1,0,0:0:0:0:
303,140,199934,1,8,0:0:0:0:
287,178,200007,1,0,0:0:0:0:
286,219,200080,1,8,0:0:0:0:
302,257,200153,1,0,0:0:0:0:
331,286,200227,1,0,1:0:0:0:
370,301,200300,1,0,1:0:0:0:
411,300,200373,5,2,0:0:0:0:
181,238,200520,2,0,L|72:260,1,110.50000210762,4|0,0:2|0:0,0:0:0:0:
390,199,200812,2,0,L|499:177,1,110.50000210762,4|0,0:2|0:0,0:0:0:0:
181,112,201105,1,2,0:0:0:0:
286,219,201251,1,8,0:0:0:0:
348,2,201398,1,0,0:0:0:0:
73,116,201544,5,2,0:0:0:0:
233,45,201690,2,0,P|261:90|256:151,1,110.50000210762,4|0,0:2|0:0,0:0:0:0:
98,360,201983,2,0,P|69:314|74:253,1,110.50000210762,4|0,0:2|0:0,0:0:0:0:
181,112,202276,1,2,0:0:0:0:
150,293,202422,1,8,0:0:0:0:
42,39,202568,1,8,0:0:0:0:
157,310,202715,5,2,0:0:0:0:
99,174,202861,2,0,P|44:171|0:201,1,110.50000210762,4|0,0:2|0:0,0:0:0:0:
231,365,203154,2,0,P|285:367|330:337,1,110.50000210762,4|0,0:2|0:0,0:0:0:0:
450,174,203446,1,2,0:0:0:0:
262,280,203593,1,8,0:0:0:0:
512,280,203739,1,0,0:0:0:0:
200,174,203885,5,2,0:0:0:0:
486,271,204032,1,0,0:0:0:0:
479,103,204178,5,8,0:0:0:0:
381,384,204325,1,0,0:0:0:0:
282,102,204471,1,2,0:0:0:0:
249,77,204544,1,0,0:0:0:0:
210,65,204617,1,8,0:0:0:0:
169,69,204690,1,8,0:0:0:0:
132,88,204764,1,8,0:0:0:0:
105,119,204837,1,0,0:0:0:0:
92,158,204910,1,8,0:0:0:0:
94,199,204983,1,0,0:0:0:0:
111,237,205056,5,2,0:0:0:0:
382,135,205203,2,0,L|330:-6,1,110.50000210762,4|0,0:2|0:0,0:0:0:0:
211,270,205495,2,0,L|172:373,1,110.50000210762,4|0,0:2|0:0,0:0:0:0:
105,119,205788,1,2,0:0:0:0:
364,214,205934,1,8,0:0:0:0:
364,214,206007,1,0,0:0:0:0:
364,214,206081,1,8,0:0:0:0:
53,274,206227,5,2,0:0:0:0:
136,31,206373,2,0,P|67:37|23:77,1,110.50000210762,4|0,0:2|0:0,0:0:0:0:
294,272,206666,2,0,P|340:301|395:302,1,110.50000210762,4|0,0:2|0:0,0:0:0:0:
343,31,206959,1,2,0:0:0:0:
211,270,207105,1,8,0:0:0:0:
211,270,207178,1,0,0:0:0:0:
211,270,207251,1,8,0:0:0:0:
482,159,207398,5,2,0:0:0:0:
243,27,207544,2,0,B|217:76|217:76|223:130,1,110.50000210762,4|0,0:2|0:0,0:0:0:0:
481,286,207837,2,0,B|450:238|450:238|400:216,1,110.50000210762,4|0,0:2|0:0,0:0:0:0:
135,364,208129,1,2,0:0:0:0:
394,302,208276,1,8,0:0:0:0:
394,302,208349,1,0,0:0:0:0:
394,302,208422,1,8,0:0:0:0:
116,192,208568,5,2,0:0:0:0:
140,384,208715,1,8,0:0:0:0:
223,130,208861,5,8,0:0:0:0:
9,254,209007,1,8,0:0:0:0:
257,353,209154,1,2,0:0:0:0:
280,319,209227,1,0,0:0:0:0:
288,279,209300,1,8,0:0:0:0:
280,239,209373,1,8,0:0:0:0:
256,204,209446,1,8,0:0:0:0:
232,170,209520,1,0,0:0:0:0:
223,130,209593,1,8,0:0:0:0:
232,89,209666,1,0,0:0:0:0:
255,55,209739,5,2,0:0:0:0:
193,279,209885,2,0,P|137:295|81:280,1,116.999996429443,4|0,0:2|0:0,0:0:0:0:
317,131,210178,2,0,P|372:114|428:129,1,116.999996429443,4|0,0:2|0:0,0:0:0:0:
431,362,210471,1,2,0:0:0:0:
421,335,210544,1,0,0:0:0:0:
411,309,210617,1,8,0:0:0:0:
402,284,210690,1,0,0:0:0:0:
392,257,210764,1,8,0:0:0:0:
384,232,210837,1,0,0:0:0:0:
374,205,210910,5,2,0:0:0:0:
257,343,211056,2,0,L|144:384,1,116.999996429443,4|0,0:2|0:0,0:0:0:0:
26,157,211349,2,0,L|136:197,1,116.999996429443,4|0,0:2|0:0,0:0:0:0:
352,66,211642,1,2,0:0:0:0:
319,54,211715,1,0,0:0:0:0:
287,42,211788,1,8,0:0:0:0:
255,31,211861,1,0,0:0:0:0:
224,43,211934,1,8,0:0:0:0:
192,55,212007,1,0,0:0:0:0:
160,67,212081,5,2,0:0:0:0:
392,147,212227,2,0,P|440:88|438:37,1,116.999996429443,4|0,0:2|0:0,0:0:0:0:
135,196,212520,2,0,P|143:252|184:293,1,116.999996429443,4|0,0:2|0:0,0:0:0:0:
475,344,212812,1,2,0:0:0:0:
454,311,212885,1,0,0:0:0:0:
422,289,212959,1,8,0:0:0:0:
384,282,213031,1,0,0:0:0:0:
346,290,213104,1,8,0:0:0:0:
314,312,213177,1,0,0:0:0:0:
294,345,213251,5,2,0:0:0:0:
392,147,213398,1,8,0:0:0:0:
385,381,213544,1,0,0:0:0:0:
251,160,213690,1,8,0:0:0:0:
480,227,213837,5,2,0:0:0:0:
184,293,213983,1,8,0:0:0:0:
496,223,214129,1,2,0:0:0:0:
233,155,214276,1,8,0:0:0:0:
512,219,214422,5,2,0:0:0:0:
416,32,214568,2,0,L|386:171,1,116.999996429443,4|0,0:2|0:0,0:0:0:0:
89,200,214861,2,0,L|114:86,1,116.999996429443,4|0,0:2|0:0,0:0:0:0:
299,269,215154,1,2,3:0:0:0:
260,277,215227,1,0,3:0:0:0:
222,285,215300,1,8,0:0:0:0:
184,293,215373,1,0,0:0:0:0:
146,301,215446,1,8,0:0:0:0:
108,309,215520,1,0,0:0:0:0:
70,318,215593,5,2,0:0:0:0:
366,304,215739,2,0,P|372:247|337:202,1,116.999996429443,4|0,0:2|0:0,0:0:0:0:
2,282,216032,2,0,P|-3:338|31:384,1,116.999996429443,4|0,0:2|0:0,0:0:0:0:
137,115,216324,1,2,0:0:0:0:
200,349,216471,1,8,0:0:0:0:
200,349,216544,1,0,0:0:0:0:
200,349,216617,2,0,L|182:287,1,58.4999982147217,8|0,0:0|0:0,0:0:0:0:
63,61,216764,5,2,0:0:0:0:
78,46,216837,1,0,0:0:0:0:
96,34,216910,1,8,0:0:0:0:
117,27,216984,1,0,0:0:0:0:
139,24,217057,1,0,0:0:0:0:
160,28,217130,1,0,0:0:0:0:
181,36,217203,1,8,0:0:0:0:
198,49,217276,1,0,0:0:0:0:
213,66,217349,5,2,0:0:0:0:
234,91,217422,1,0,0:0:0:0:
265,106,217495,1,8,0:0:0:0:
300,112,217569,1,0,0:0:0:0:
335,106,217642,1,0,0:0:0:0:
365,90,217715,1,0,0:0:0:0:
389,64,217788,1,8,0:0:0:0:
403,32,217861,1,0,0:0:0:0:
407,0,217934,5,2,0:0:0:0:
376,28,218007,1,0,0:0:0:0:
365,70,218080,1,8,0:0:0:0:
377,112,218153,1,0,0:0:0:0:
409,141,218226,1,0,0:0:0:0:
441,170,218300,1,0,0:0:0:0:
453,212,218373,1,8,0:0:0:0:
442,254,218446,1,0,0:0:0:0:
412,285,218520,5,2,0:0:0:0:
392,238,218593,1,0,0:0:0:0:
347,215,218666,1,0,0:0:0:0:
298,224,218739,1,0,0:0:0:0:
265,261,218812,1,2,0:0:0:0:
262,311,218885,1,0,0:0:0:0:
291,352,218959,1,0,0:0:0:0:
340,366,219032,1,0,0:0:0:0:
386,347,219105,5,8,0:1:0:0:
114,304,219251,1,0,0:0:0:0:
334,287,219398,1,8,0:0:0:0:
166,364,219544,1,0,0:0:0:0:
89,195,219690,2,0,L|39:84,1,116.999996429443,2|0,0:0|0:0,0:0:0:0:
257,118,219983,2,0,L|207:7,1,116.999996429443,8|0,0:0|0:0,0:0:0:0:
334,287,220276,5,8,0:1:0:0:
408,73,220422,1,0,0:0:0:0:
326,308,220568,1,8,0:0:0:0:
512,188,220715,1,0,0:0:0:0:
318,329,220861,5,2,0:0:0:0:
400,94,221007,1,0,0:0:0:0:
216,217,221154,2,0,L|118:281,1,116.999996429443,8|0,0:0|0:0,0:0:0:0:
57,29,221446,6,0,P|106:52|127:116,1,116.999996429443,8|0,0:1|0:0,0:0:0:0:
49,317,221739,2,0,P|44:262|89:211,1,116.999996429443,0|0,0:0|0:0,0:0:0:0:
303,179,222032,1,0,0:1:0:0:
308,207,222105,1,0,0:0:0:0:
314,236,222178,1,0,0:0:0:0:
320,265,222251,1,0,0:0:0:0:
326,293,222324,1,0,0:0:0:0:
408,73,222471,1,0,0:0:0:0:
214,214,222617,5,8,0:1:0:0:
486,153,222764,1,0,0:0:0:0:
214,92,222910,5,8,0:0:0:0:
499,153,223056,1,0,0:0:0:0:
201,218,223203,5,2,0:0:0:0:
499,279,223349,1,2,0:0:0:0:
188,222,223495,5,8,0:0:0:0:
512,153,223642,1,0,0:0:0:0:
384,349,223788,6,0,B|326:361|326:361|273:337,1,116.999996429443,8|0,0:1|0:0,0:0:0:0:
140,151,224081,2,0,B|197:138|197:138|250:162,1,116.999996429443,8|0,0:0|0:0,0:0:0:0:
82,317,224373,1,2,0:0:0:0:
32,93,224520,1,0,0:0:0:0:
85,331,224666,1,8,0:0:0:0:
168,61,224812,1,0,0:0:0:0:
360,267,224959,6,0,L|509:232,1,116.999996429443,8|0,0:1|0:0,0:0:0:0:
203,257,225251,2,0,P|204:312|249:358,1,116.999996429443,8|0,0:0|0:0,0:0:0:0:
357,134,225544,1,2,0:0:0:0:
140,151,225690,1,0,0:0:0:0:
430,162,225837,2,0,P|429:107|383:60,1,116.999996429443,8|0,0:0|0:0,0:0:0:0:
133,252,226129,5,4,0:2:0:0:
160,241,226202,1,0,0:0:0:0:
187,231,226275,1,0,0:0:0:0:
215,221,226348,1,0,0:0:0:0:
242,210,226421,1,8,0:0:0:0:
42,203,226568,5,4,1:2:0:0:
28,244,226641,1,0,0:0:0:0:
33,287,226714,1,0,0:0:0:0:
56,324,226787,1,0,0:0:0:0:
93,348,226860,1,8,0:0:0:0:
325,231,227007,1,4,1:2:0:0:
175,144,227154,1,0,0:0:0:0:
337,326,227300,6,0,L|398:351,1,58.4999982147217,2|0,0:0|0:0,0:0:0:0:
187,231,227446,2,0,L|132:253,1,58.4999982147217,2|0,0:0|0:0,0:0:0:0:
337,136,227593,2,0,L|391:158,1,58.4999982147217,8|0,0:0|0:0,0:0:0:0:
187,41,227739,2,0,L|132:63,1,58.4999982147217,8|0,0:0|0:0,0:0:0:0:
325,231,227885,5,2,0:0:0:0:
338,236,227959,1,0,0:0:0:0:
352,242,228032,1,0,0:0:0:0:
365,247,228105,1,0,0:0:0:0:
379,253,228178,1,4,0:2:0:0:
392,258,228251,1,0,0:0:0:0:
406,264,228324,1,0,0:0:0:0:
419,269,228398,1,0,0:0:0:0:
433,275,228471,5,2,0:0:0:0:
397,295,228544,1,0,0:0:0:0:
357,303,228617,1,8,0:0:0:0:
317,296,228690,1,0,0:0:0:0:
282,277,228764,1,0,0:0:0:0:
246,258,228837,1,0,0:0:0:0:
206,251,228910,1,8,0:0:0:0:
166,259,228983,1,0,0:0:0:0:
131,280,229056,5,2,0:0:0:0:
53,197,229203,1,8,0:0:0:0:
209,363,229349,1,2,0:0:0:0:
21,307,229495,1,8,0:0:0:0:
163,172,229642,5,0,1:0:0:0:
98,384,229788,1,8,0:0:0:0:
32,109,229934,1,2,0:0:0:0:
303,190,230081,2,0,P|364:205|418:172,1,116.999996429443,4|0,0:2|0:0,0:0:0:0:
200,61,230373,1,8,0:0:0:0:
200,61,230446,1,0,0:0:0:0:
200,61,230520,2,0,L|162:171,1,116.999996429443,0|8,0:0|0:0,0:0:0:0:
340,361,230812,5,4,0:2:0:0:
373,350,230885,1,8,0:0:0:0:
407,339,230959,1,0,0:0:0:0:
440,329,231032,1,8,0:0:0:0:
483,308,231105,5,2,0:0:0:0:
450,297,231178,1,0,0:0:0:0:
416,286,231252,1,8,0:0:0:0:
383,276,231325,1,0,0:0:0:0:
340,255,231397,5,2,0:0:0:0:
373,244,231470,1,0,0:0:0:0:
407,233,231544,1,8,0:0:0:0:
440,223,231617,1,0,0:0:0:0:
483,202,231690,5,2,0:0:0:0:
450,191,231763,1,0,0:0:0:0:
416,180,231838,1,8,0:0:0:0:
383,170,231911,1,0,0:0:0:0:
340,149,231983,5,4,0:2:0:0:
357,142,232056,1,0,0:0:0:0:
374,136,232129,1,8,0:0:0:0:
391,129,232203,1,8,0:0:0:0:
408,123,232276,1,8,0:0:0:0:
425,117,232349,1,0,0:0:0:0:
442,110,232422,1,8,0:0:0:0:
459,104,232495,1,0,0:0:0:0:
477,98,232568,5,2,0:0:0:0:
432,50,232642,1,0,0:0:0:0:
369,33,232715,1,0,0:0:0:0:
306,50,232788,1,0,0:0:0:0:
260,96,232861,2,0,L|214:254,1,116.999996429443,2|0,0:0|0:0,0:0:0:0:
23,323,233154,6,0,B|75:353|126:324|126:324|167:348|167:348|216:331|276:336|276:336|212:325|174:286,1,350.99998928833,4|8,0:0|0:0,0:0:0:0:
40,59,233739,5,2,0:0:0:0:
68,64,233812,1,0,0:0:0:0:
97,70,233885,1,0,0:0:0:0:
126,75,233958,1,0,0:0:0:0:
150,110,234032,5,2,0:0:0:0:
178,104,234105,1,0,0:0:0:0:
207,99,234178,1,0,0:0:0:0:
236,93,234251,1,0,0:0:0:0:
265,87,234324,5,2,0:0:0:0:
272,126,234397,1,0,0:0:0:0:
302,155,234470,1,8,0:0:0:0:
342,162,234543,1,0,0:0:0:0:
379,145,234616,1,2,0:0:0:0:
399,109,234689,1,8,0:0:0:0:
396,67,234763,1,8,0:0:0:0:
371,34,234836,1,0,0:0:0:0:
330,26,234909,5,2,0:0:0:0:
335,67,234983,1,0,0:0:0:0:
360,99,235056,1,2,0:0:0:0:
391,124,235129,1,0,0:0:0:0:
428,140,235203,1,0,0:0:0:0:
459,166,235276,1,0,0:0:0:0:
477,202,235349,1,8,0:0:0:0:
474,242,235422,1,0,0:0:0:0:
446,272,235495,5,8,0:0:0:0:
401,285,235568,1,0,0:0:0:0:
355,299,235642,1,8,0:0:0:0:
310,314,235715,1,0,0:0:0:0:
313,356,235788,5,0,0:0:0:0:
268,341,235861,1,0,0:0:0:0:
222,327,235935,1,8,0:0:0:0:
177,314,236008,1,0,0:0:0:0:
133,300,236081,5,8,0:0:0:0:
117,344,236154,1,0,0:0:0:0:
76,367,236227,1,0,0:0:0:0:
30,359,236300,1,0,0:0:0:0:
0,323,236374,1,8,0:0:0:0:
0,276,236447,1,0,0:0:0:0:
30,240,236520,1,0,0:0:0:0:
76,232,236593,1,0,0:0:0:0:
116,254,236666,5,2,0:0:0:0:
101,203,236739,1,0,0:0:0:0:
86,152,236812,1,0,0:0:0:0:
71,101,236885,1,0,0:0:0:0:
55,49,236959,5,2,0:0:0:0:
94,85,237032,1,0,0:0:0:0:
143,104,237105,1,0,0:0:0:0:
195,104,237178,1,0,0:0:0:0:
244,86,237251,1,2,0:0:0:0:
287,56,237324,1,0,0:0:0:0:
340,58,237398,1,8,0:0:0:0:
380,91,237471,1,0,0:0:0:0:
390,142,237544,1,0,0:0:0:0:
367,189,237617,1,0,0:0:0:0:
320,213,237690,1,8,0:0:0:0:
267,202,237764,1,0,0:0:0:0:
238,157,237837,5,4,1:2:0:0:
201,332,239885,5,0,0:0:0:0:
226,345,239958,1,0,0:0:0:0:
255,350,240031,1,0,0:0:0:0:
284,345,240104,1,0,0:0:0:0:
310,332,240177,1,4,1:2:0:0:
203,97,242081,6,0,L|141:81,1,58.4999982147217,8|0,0:0|0:0,0:0:0:0:
158,190,242227,1,0,0:0:0:0:
151,218,242300,1,0,0:0:0:0:
144,246,242373,1,0,0:0:0:0:
137,275,242446,1,0,0:0:0:0:
129,303,242519,1,8,0:1:0:0:
354,190,243398,5,0,0:0:0:0:
361,218,243471,1,0,0:0:0:0:
368,246,243544,1,0,0:0:0:0:
375,275,243617,1,0,0:0:0:0:
383,303,243690,1,4,1:2:0:0:
284,313,244422,6,0,L|301:370,1,58.4999982147217,8|0,0:0|0:0,0:0:0:0:
117,319,244568,1,0,0:0:0:0:
137,296,244642,1,0,0:0:0:0:
161,282,244715,1,0,0:0:0:0:
190,278,244788,1,0,0:0:0:0:
219,283,244861,6,0,P|275:283|320:248,1,116.999996429443,4|0,0:2|0:0,0:0:0:0:
401,132,245154,1,2,0:0:0:0:
212,92,245300,2,0,L|248:204,1,116.999996429443,8|0,0:0|0:0,0:0:0:0:
361,4,245593,1,2,0:0:0:0:
105,84,245739,2,0,L|141:196,1,116.999996429443,8|0,0:0|0:0,0:0:0:0:
359,328,246032,5,2,0:0:0:0:
188,291,246178,1,2,0:0:0:0:
411,225,246324,1,8,0:0:0:0:
252,384,246471,1,2,0:0:0:0:
480,304,246617,1,2,0:0:0:0:
506,269,246690,1,0,0:0:0:0:
512,227,246763,1,2,0:0:0:0:
508,184,246836,1,0,0:0:0:0:
483,148,246910,2,0,P|461:132|432:125,1,58.4999982147217,8|0,0:0|0:0,0:0:0:0:
411,225,247056,2,0,P|387:242|359:248,1,58.4999982147217,2|0,0:0|0:0,0:0:0:0:
349,55,247203,6,0,L|472:30,1,116.999996429443,4|0,0:0|0:0,0:0:0:0:
144,97,247495,1,8,0:0:0:0:
317,148,247642,2,0,L|440:123,1,116.999996429443,2|0,0:0|0:0,0:0:0:0:
112,190,247934,1,2,0:0:0:0:
176,4,248081,1,8,0:0:0:0:
235,271,248227,1,2,0:0:0:0:
235,271,248300,1,0,0:0:0:0:
235,271,248373,6,0,L|120:294,1,116.999996429443,4|0,1:2|0:0,0:0:0:0:
366,300,248666,1,8,0:0:0:0:
64,362,248812,2,0,P|34:306|46:250,1,116.999996429443,2|0,0:0|0:0,0:0:0:0:
200,77,249105,1,2,0:0:0:0:
120,294,249251,1,8,0:0:0:0:
14,54,249398,1,0,0:0:0:0:
14,54,249471,1,0,0:0:0:0:
14,54,249544,6,0,P|6:110|35:160,1,116.999996429443,4|0,1:2|0:0,0:0:0:0:
235,271,249837,1,0,0:0:0:0:
200,77,249983,2,0,L|56:99,1,116.999996429443,2|0,0:0|0:0,0:0:0:0:
350,248,250276,1,2,0:0:0:0:
311,49,250422,1,8,0:0:0:0:
159,183,250568,1,0,0:0:0:0:
465,225,250715,5,4,1:2:0:0:
273,160,250861,1,0,0:0:0:0:
312,359,251007,1,8,0:0:0:0:
388,137,251154,5,0,0:0:0:0:
235,271,251300,1,2,0:0:0:0:
427,336,251446,1,2,0:0:0:0:
427,336,251520,1,0,0:0:0:0:
427,336,251593,2,0,L|350:248,1,116.999996429443,8|0,0:0|0:0,0:0:0:0:
174,30,251885,5,2,0:0:0:0:
152,41,251959,1,0,0:0:0:0:
135,58,252032,1,0,0:0:0:0:
125,80,252105,1,0,0:0:0:0:
122,104,252178,1,8,0:0:0:0:
128,128,252251,1,0,0:0:0:0:
140,148,252324,5,2,0:0:0:0:
116,140,252398,1,0,0:0:0:0:
92,140,252471,1,0,0:0:0:0:
69,148,252544,1,0,0:0:0:0:
50,163,252617,1,8,0:0:0:0:
38,184,252690,1,0,0:0:0:0:
32,207,252764,5,2,0:0:0:0:
26,183,252837,1,0,0:0:0:0:
20,160,252910,1,8,0:0:0:0:
15,137,252983,1,0,0:0:0:0:
10,114,253056,5,2,0:0:0:0:
40,131,253129,1,0,0:0:0:0:
63,157,253203,1,0,0:0:0:0:
76,189,253276,1,0,0:0:0:0:
79,224,253349,1,8,0:0:0:0:
70,258,253422,1,0,0:0:0:0:
50,287,253495,5,2,0:0:0:0:
83,277,253568,1,0,0:0:0:0:
117,279,253642,1,0,0:0:0:0:
149,293,253715,1,0,0:0:0:0:
176,315,253788,1,8,0:0:0:0:
194,346,253861,1,0,0:0:0:0:
200,381,253934,5,2,0:0:0:0:
225,349,254007,1,0,0:0:0:0:
250,316,254081,1,8,0:0:0:0:
275,284,254154,1,0,0:0:0:0:
301,252,254227,5,2,0:0:0:0:
304,298,254300,1,0,0:0:0:0:
329,336,254373,1,0,0:0:0:0:
371,357,254446,1,0,0:0:0:0:
417,355,254520,1,2,0:0:0:0:
456,330,254593,1,0,0:0:0:0:
477,289,254666,1,8,0:0:0:0:
476,242,254739,1,0,0:0:0:0:
452,203,254812,1,2,0:0:0:0:
411,181,254885,1,0,0:0:0:0:
365,181,254959,1,0,0:0:0:0:
324,159,255032,1,2,0:0:0:0:
300,120,255105,1,2,0:0:0:0:
299,73,255178,1,0,0:0:0:0:
320,32,255251,1,8,0:0:0:0:
359,7,255324,1,0,0:0:0:0:
405,5,255398,5,0,0:0:0:0:
447,26,255471,1,0,0:0:0:0:
472,64,255544,1,0,0:0:0:0:
476,111,255617,1,0,0:0:0:0:
458,154,255690,1,2,0:0:0:0:
417,178,255764,1,0,0:0:0:0:
370,184,255837,1,8,0:0:0:0:
326,166,255910,1,0,0:0:0:0:
282,148,255983,5,2,0:0:0:0:
236,160,256056,1,0,0:0:0:0:
209,198,256129,1,0,0:0:0:0:
214,245,256203,1,2,0:0:0:0:
247,278,256276,1,2,0:0:0:0:
294,283,256349,1,0,0:0:0:0:
332,256,256422,1,8,0:0:0:0:
345,211,256495,1,2,0:0:0:0:
329,160,256568,5,2,0:0:0:0:
283,133,256642,1,0,0:0:0:0:
231,141,256715,1,8,0:0:0:0:
194,178,256788,1,8,0:0:0:0:
177,227,256861,1,2,0:0:0:0:
186,278,256934,1,0,0:0:0:0:
165,325,257007,1,8,0:0:0:0:
119,348,257081,1,0,0:0:0:0:
69,339,257154,1,2,0:0:0:0:
34,301,257227,1,0,0:0:0:0:
30,249,257300,1,8,0:0:0:0:
58,206,257373,1,8,0:0:0:0:
105,182,257446,1,2,0:0:0:0:
133,139,257520,1,0,0:0:0:0:
135,87,257593,1,8,0:0:0:0:
114,39,257666,1,0,0:0:0:0:
70,11,257739,5,2,0:0:0:0:
66,67,257812,1,0,0:0:0:0:
92,120,257885,1,10,0:0:0:0:
139,152,257959,1,8,0:0:0:0:
196,156,258032,1,2,0:0:0:0:
249,131,258105,1,0,0:0:0:0:
279,81,258178,1,8,0:1:0:0:
335,64,258251,1,0,0:0:0:0:
385,94,258324,1,0,0:0:0:0:
402,149,258398,1,0,0:0:0:0:
372,201,258471,1,8,0:0:0:0:
317,217,258544,1,8,0:0:0:0:
267,186,258617,2,0,P|314:126|421:142,1,155.999995239258,6|0,0:0|0:0,0:0:0:0:
472,315,258910,5,8,0:0:0:0:
420,370,258983,1,0,0:0:0:0:
346,384,259056,1,8,0:0:0:0:
273,364,259129,1,0,0:0:0:0:
228,302,259203,1,2,0:0:0:0:
155,281,259276,1,0,0:0:0:0:
79,299,259349,1,8,0:0:0:0:
24,243,259422,1,0,0:0:0:0:
46,169,259495,1,8,0:0:0:0:
120,150,259568,1,0,0:0:0:0:
174,206,259642,1,2,0:0:0:0:
251,208,259715,1,0,0:0:0:0:
307,156,259788,1,10,1:3:0:0:
308,79,259861,1,0,0:0:0:0:
256,23,259935,1,8,0:0:0:0:
179,21,260008,1,0,0:0:0:0:
123,74,260081,5,10,0:0:0:0:
124,155,260154,1,0,0:0:0:0:
190,203,260227,1,8,0:0:0:0:
268,181,260300,1,0,0:0:0:0:
335,133,260373,1,10,1:3:0:0:
417,141,260446,1,0,0:0:0:0:
474,199,260520,1,8,0:0:0:0:
482,281,260593,1,0,0:0:0:0:
435,347,260666,1,10,0:3:0:0:
356,368,260739,1,0,0:0:0:0:
282,334,260812,1,8,0:0:0:0:
247,259,260885,1,0,0:0:0:0:
268,181,260959,6,0,P|307:140|396:137,1,130,10|0,0:0|0:0,0:0:0:0:
364,249,261178,1,0,0:0:0:0:
364,249,261251,6,0,B|324:330|232:375|145:305|127:257|127:257|51:237|18:274|15:344|96:371|139:340|127:257|127:257|104:203|126:137,1,682.50002603531,4|0,0:0|0:0,0:0:0:0:
27,98,263593,6,0,B|99:10|196:72|196:72|289:130|372:45,1,386.750007376671,4|0,0:0|0:0,0:0:0:0:
379,288,264764,6,0,L|393:234,1,52,0|0,0:0|0:0,0:0:0:0:
414,142,265056,1,8,0:0:0:0:
321,171,265203,1,8,0:0:0:0:
485,208,265349,2,0,L|468:270,1,65,4|0,0:2|0:0,0:0:0:0:
357,383,265642,1,8,0:0:0:0:
300,267,265788,1,8,0:0:0:0:
228,374,265934,6,0,P|153:379|96:314,1,155.999995239258,2|0,0:2|0:0,0:0:0:0:
162,158,266373,2,0,P|204:221|184:294,1,155.999995239258
40,254,266812,2,0,P|75:237|113:236,1,77.999997619629,0|0,0:0|0:0,0:0:0:0:
389,250,267105,6,0,P|347:273|300:267,1,97.50000371933,4|0,0:1|0:0,0:0:0:0:
429,160,267398,1,8,0:0:0:0:
451,357,267544,1,2,0:0:0:0:
333,197,267690,2,0,L|317:127,3,56.8750005424023,4|0|0|0,0:0|0:0|0:0|0:0,0:0:0:0:
377,0,267983,2,0,L|389:55,3,56.8750005424023,8|0|0|0,0:0|0:0|0:0|0:0,0:0:0:0:
205,64,268276,5,2,0:0:0:0:
173,31,268349,1,0,0:0:0:0:
130,19,268422,1,8,0:0:0:0:
86,31,268495,1,0,0:0:0:0:
55,63,268568,1,0,0:0:0:0:
44,106,268641,1,0,0:0:0:0:
56,149,268715,1,8,0:0:0:0:
89,180,268788,1,0,0:0:0:0:
133,190,268861,1,2,0:0:0:0:
177,200,268934,1,0,0:0:0:0:
210,231,269007,1,8,0:0:0:0:
222,274,269081,1,0,0:0:0:0:
211,317,269154,1,8,0:0:0:0:
180,349,269227,1,0,0:0:0:0:
136,361,269300,1,0,0:0:0:0:
93,349,269373,1,0,0:0:0:0:
62,317,269446,5,8,0:0:0:0:
108,293,269520,1,0,0:0:0:0:
158,297,269593,1,0,0:0:0:0:
203,319,269666,1,0,0:0:0:0:
250,338,269739,1,8,0:0:0:0:
295,360,269812,1,0,0:0:0:0:
345,357,269885,1,0,0:0:0:0:
387,329,269959,1,0,0:0:0:0:
409,283,270032,1,2,0:0:0:0:
404,233,270105,1,0,0:0:0:0:
370,196,270178,1,2,0:0:0:0:
368,145,270251,1,2,0:0:0:0:
405,109,270324,1,8,0:0:0:0:
457,109,270398,1,0,0:0:0:0:
492,146,270471,1,2,0:0:0:0:
494,200,270544,1,0,0:0:0:0:
455,233,270617,6,0,P|387:228|335:182,1,130,4|8,0:0|0:0,0:0:0:0:
235,24,270910,1,0,0:0:0:0:
448,31,271056,1,8,0:0:0:0:
200,161,271203,1,2,0:0:0:0:
183,171,271276,1,0,0:0:0:0:
166,181,271349,1,8,0:0:0:0:
149,191,271422,1,0,0:0:0:0:
132,201,271495,2,0,L|142:119,1,65,2|0,0:0|0:0,0:0:0:0:
21,16,271642,2,0,L|28:80,1,65,8|0,0:0|0:0,0:0:0:0:
67,257,271788,6,0,P|121:288|192:263,1,130,4|8,1:2|0:0,0:0:0:0:
420,207,272081,1,0,0:0:0:0:
454,232,272154,1,0,0:0:0:0:
473,270,272227,1,8,0:0:0:0:
472,313,272300,1,0,0:0:0:0:
450,350,272373,1,2,0:0:0:0:
414,373,272446,1,0,0:0:0:0:
371,375,272520,1,8,0:0:0:0:
332,357,272593,1,8,0:0:0:0:
306,323,272666,1,2,0:0:0:0:
299,281,272739,1,0,0:0:0:0:
313,240,272812,1,8,0:0:0:0:
345,211,272885,1,0,0:0:0:0:
386,200,272959,5,6,0:0:0:0:
357,242,273032,1,0,0:0:0:0:
312,267,273105,1,8,0:0:0:0:
260,269,273178,1,8,0:0:0:0:
214,246,273251,1,2,0:0:0:0:
183,205,273324,1,0,0:0:0:0:
137,182,273398,1,8,0:0:0:0:
86,183,273471,1,0,0:0:0:0:
41,209,273544,1,2,0:0:0:0:
16,254,273617,1,0,0:0:0:0:
15,305,273690,1,8,0:0:0:0:
39,351,273764,1,0,0:0:0:0:
82,378,273837,1,2,0:0:0:0:
134,381,273910,1,0,0:0:0:0:
180,359,273983,1,0,0:0:0:0:
210,317,274056,1,0,0:0:0:0:
215,266,274129,6,0,P|199:196|234:141,1,130,4|8,1:2|0:0,0:0:0:0:
382,21,274422,1,2,0:0:0:0:
287,214,274568,1,8,0:0:0:0:
144,56,274715,1,2,0:0:0:0:
144,56,274788,1,0,0:0:0:0:
144,56,274861,2,0,P|122:35|74:29,1,65,8|0,0:0|0:0,0:0:0:0:
59,156,275007,1,2,0:0:0:0:
59,156,275081,1,0,0:0:0:0:
59,156,275154,2,0,P|28:156|-9:186,1,65
115,281,275300,5,4,0:0:0:0:
154,314,275373,1,0,0:0:0:0:
204,326,275446,1,8,0:0:0:0:
254,314,275519,1,0,0:0:0:0:
293,281,275592,1,0,0:0:0:0:
332,248,275666,1,0,0:0:0:0:
382,236,275739,1,8,0:0:0:0:
432,248,275812,1,0,0:0:0:0:
471,281,275885,2,0,L|453:148,1,130,2|8,0:0|0:0,0:0:0:0:
380,345,276178,1,2,0:0:0:0:
344,68,276324,1,8,0:0:0:0:
344,68,276398,1,0,0:0:0:0:
344,68,276471,6,0,P|282:52|223:85,1,130,4|8,1:2|0:0,0:0:0:0:
178,317,276764,2,0,P|222:271|223:203,1,130,2|8,0:0|0:0,0:0:0:0:
44,48,277056,2,0,P|61:109|119:144,1,130,2|8,0:0|0:0,0:0:0:0:
379,171,277349,1,2,0:0:0:0:
397,176,277422,1,0,0:0:0:0:
415,180,277495,1,8,0:0:0:0:
433,184,277568,1,0,0:0:0:0:
451,188,277642,5,4,0:0:0:0:
417,191,277715,1,0,0:0:0:0:
387,208,277788,1,8,0:0:0:0:
367,235,277861,1,8,0:0:0:0:
360,268,277934,1,2,0:0:0:0:
366,301,278007,1,0,0:0:0:0:
385,329,278081,1,8,0:0:0:0:
414,347,278154,1,0,0:0:0:0:
454,345,278227,5,2,0:0:0:0:
420,318,278300,1,0,0:0:0:0:
379,307,278373,1,8,0:0:0:0:
336,312,278446,1,0,0:0:0:0:
300,334,278520,1,2,0:0:0:0:
264,356,278592,1,0,0:0:0:0:
221,361,278665,1,8,0:0:0:0:
180,350,278738,1,0,0:0:0:0:
125,365,278812,5,8,0:1:0:0:
138,315,278885,1,0,0:0:0:0:
151,265,278959,1,8,0:0:0:0:
165,216,279032,1,0,0:0:0:0:
179,167,279105,5,0,0:0:0:0:
130,190,279178,1,0,0:0:0:0:
75,182,279251,1,8,0:0:0:0:
37,142,279324,1,0,0:0:0:0:
30,87,279397,1,8,0:1:0:0:
58,40,279470,1,0,0:0:0:0:
108,18,279544,1,8,0:0:0:0:
160,30,279617,1,0,0:0:0:0:
195,70,279690,2,0,L|122:101,1,77.999997619629,8|8,0:0|0:0,0:0:0:0:
58,220,279837,2,0,L|129:189,1,77.999997619629,8|8,0:0|0:0,0:0:0:0:
316,70,279983,5,6,0:0:0:0:
350,100,280056,1,0,0:0:0:0:
395,111,280129,1,8,0:0:0:0:
440,98,280202,1,0,0:0:0:0:
473,69,280276,1,0,0:0:0:0:
453,111,280349,1,0,0:0:0:0:
453,157,280422,1,8,0:0:0:0:
471,199,280495,1,0,0:0:0:0:
495,238,280568,1,2,0:0:0:0:
512,280,280641,1,0,0:0:0:0:
502,325,280714,1,8,0:0:0:0:
468,356,280787,1,0,0:0:0:0:
422,361,280860,1,2,0:0:0:0:
382,339,280933,1,0,0:0:0:0:
362,298,281007,1,8,0:0:0:0:
369,252,281080,1,0,0:0:0:0:
402,220,281154,5,4,1:2:0:0:
356,213,281227,1,0,0:0:0:0:
311,226,281300,1,8,0:0:0:0:
276,256,281373,1,0,0:0:0:0:
260,299,281446,1,0,0:0:0:0:
221,325,281520,1,0,0:0:0:0:
175,324,281593,1,8,0:0:0:0:
138,297,281666,1,0,0:0:0:0:
123,253,281739,1,2,0:0:0:0:
136,209,281812,1,0,0:0:0:0:
173,181,281885,1,0,0:0:0:0:
197,142,281958,1,0,0:0:0:0:
192,96,282031,1,2,0:0:0:0:
161,62,282104,1,0,0:0:0:0:
116,55,282177,1,8,0:0:0:0:
75,77,282250,1,0,0:0:0:0:
57,119,282324,5,4,0:0:0:0:
102,126,282397,1,0,0:0:0:0:
142,104,282470,1,8,0:0:0:0:
161,62,282544,1,0,0:0:0:0:
202,40,282617,1,0,0:0:0:0:
248,42,282690,1,0,0:0:0:0:
286,68,282763,1,8,0:0:0:0:
306,110,282836,1,0,0:0:0:0:
302,156,282910,1,2,0:0:0:0:
298,202,282983,1,0,0:0:0:0:
307,246,283056,1,8,0:0:0:0:
342,276,283129,1,0,0:0:0:0:
388,278,283202,1,2,0:0:0:0:
425,251,283275,1,0,0:0:0:0:
438,207,283348,1,8,0:0:0:0:
422,164,283422,1,0,0:0:0:0:
382,141,283495,5,4,1:2:0:0:
366,185,283568,1,0,0:0:0:0:
371,232,283642,1,8,0:0:0:0:
388,278,283715,1,0,0:0:0:0:
386,324,283788,1,0,0:0:0:0:
359,361,283861,1,0,0:0:0:0:
314,371,283934,1,8,0:0:0:0:
274,349,284007,1,0,0:0:0:0:
258,307,284081,1,2,0:0:0:0:
273,264,284154,1,0,0:0:0:0:
257,222,284227,1,8,0:0:0:0:
217,200,284300,1,0,0:0:0:0:
172,210,284373,2,0,L|142:290,1,58.4999982147217,2|0,0:0|0:0,0:0:0:0:
62,368,284520,2,0,L|41:313,1,58.4999982147217,8|0,0:0|0:0,0:0:0:0:
36,110,284666,5,4,0:0:0:0:
71,68,284739,1,0,0:0:0:0:
118,41,284812,1,8,0:0:0:0:
171,31,284885,1,0,0:0:0:0:
225,40,284958,1,0,0:0:0:0:
272,67,285031,1,0,0:0:0:0:
307,108,285105,5,8,0:0:0:0:
254,103,285178,1,0,0:0:0:0:
209,132,285251,1,2,0:0:0:0:
193,183,285324,1,0,0:0:0:0:
212,233,285397,1,8,0:0:0:0:
258,259,285470,1,0,0:0:0:0:
311,251,285544,2,0,L|336:187,1,58.4999982147217,2|0,0:0|0:0,0:0:0:0:
395,72,285690,2,0,L|412:127,1,58.4999982147217,8|0,0:0|0:0,0:0:0:0:
459,323,285837,5,4,1:2:0:0:
419,360,285910,1,0,0:0:0:0:
368,376,285983,1,8,0:0:0:0:
314,368,286056,1,0,0:0:0:0:
270,337,286129,1,0,0:0:0:0:
223,310,286203,1,0,0:0:0:0:
169,302,286276,1,8,0:0:0:0:
118,318,286349,1,0,0:0:0:0:
79,356,286422,5,2,0:0:0:0:
85,294,286495,1,0,3:0:0:0:
121,244,286568,1,8,3:0:0:0:
177,218,286642,1,0,0:0:0:0:
238,223,286715,1,2,0:0:0:0:
308,219,286788,1,0,0:0:0:0:
360,172,286861,1,8,0:0:0:0:
372,103,286934,1,0,0:0:0:0:
349,36,287007,5,6,0:0:0:0:
339,106,287081,1,0,0:0:0:0:
375,166,287154,1,0,0:0:0:0:
439,193,287227,1,0,0:0:0:0:
490,241,287300,1,8,0:0:0:0:
499,310,287373,1,0,0:0:0:0:
463,375,287446,5,6,0:0:0:0:
389,382,287520,1,0,0:0:0:0:
326,342,287593,1,0,0:0:0:0:
292,275,287666,1,0,0:0:0:0:
238,223,287739,1,8,0:0:0:0:
166,202,287812,1,0,0:0:0:0:
101,222,287885,2,0,P|183:232|246:117,1,214.500006546021,8|0,0:0|0:0,0:0:0:0:
323,101,288178,6,0,L|174:75,1,130,2|8,0:0|0:0,0:0:0:0:
162,74,288398,1,8,0:0:0:0:
162,74,288471,1,2,0:0:0:0:
344,10,288617,1,8,0:0:0:0:
398,168,288764,1,8,0:0:0:0:
405,189,288837,1,8,0:0:0:0:
412,210,288910,1,8,0:0:0:0:
420,232,288983,1,8,0:0:0:0:
427,253,289056,1,10,0:0:0:0:
434,274,289129,1,0,0:0:0:0:
441,295,289203,1,0,0:0:0:0:
449,317,289276,1,0,0:0:0:0:
456,338,289349,6,0,P|358:255|274:294,1,208,4|0,0:0|0:0,0:0:0:0:
355,360,289788,1,8,0:0:0:0:
194,238,289934,2,0,L|212:340,1,104,2|0,0:0|0:0,0:0:0:0:
276,171,290227,1,2,0:0:0:0:
84,207,290373,1,0,0:0:0:0:
84,207,290446,1,8,0:0:0:0:
84,207,290520,2,0,L|102:104,1,104,2|0,0:0|0:0,0:0:0:0:
23,260,290812,6,0,P|66:286|117:282,1,104,2|0,0:0|0:0,0:0:0:0:
260,93,291105,2,0,P|215:117|193:163,1,104,8|0,0:0|0:0,0:0:0:0:
282,379,291398,2,0,P|283:328|254:286,1,104,8|0,0:0|0:0,0:0:0:0:
103,104,291690,6,0,L|5:140,1,104,4|0,0:0|0:0,0:0:0:0:
328,168,291983,1,8,0:0:0:0:
170,8,292129,1,8,0:0:0:0:
155,250,292276,2,0,L|253:285,1,104,4|0,0:2|0:0,0:0:0:0:
405,51,292568,1,8,0:0:0:0:
192,163,292715,1,8,0:0:0:0:
475,250,292861,6,0,P|421:173|327:168,1,195.00000743866,8|0,0:3|0:0,0:0:0:0:
329,359,293300,1,0,0:0:0:0:
329,359,293373,1,0,0:0:0:0:
329,359,293446,2,0,L|370:264,1,104,2|0,0:0|0:0,0:0:0:0:
192,163,293739,2,0,L|232:258,1,84.4999961318971,2|0,0:0|0:0,0:0:0:0:
246,83,294032,6,0,P|169:68|96:177,1,208,4|0,0:2|0:0,0:0:0:0:
153,285,294910,2,0,L|176:340,1,58.4999982147217,0|2,0:0|0:0,0:0:0:0:
259,384,295126,1,0,0:0:0:0:
259,384,295202,2,0,L|281:328,1,52,8|0,0:0|0:0,0:0:0:0:
359,199,295643,6,0,P|313:204|271:244,1,97.50000371933,8|0,0:0|0:0,0:0:0:0:
365,322,296194,2,0,L|346:278,1,48.750001859665,8|0,0:0|0:0,0:0:0:0:
362,127,296650,6,0,P|286:137|219:189,1,155.999995239258,4|2,0:0|0:0,0:0:0:0:
139,274,298152,2,0,L|113:214,1,65,8|0,0:0|0:0,0:0:0:0:
199,66,298893,2,0,L|174:132,1,65,8|0,0:0|0:0,0:0:0:0:
48,39,299906,5,4,0:0:0:0:
256,192,299990,12,4,309344,0:3:0:0:
