osu file format v14

[General]
AudioFilename: audio.mp3
AudioLeadIn: 0
PreviewTime: 124568
Countdown: 0
SampleSet: None
StackLeniency: 0.4
Mode: 0
LetterboxInBreaks: 0
WidescreenStoryboard: 0

[Editor]
Bookmarks: 95007,151568,163788,171398,181642,191007,219105,246764
DistanceSpacing: 1.4
BeatDivisor: 4
GridSize: 32
TimelineZoom: 3.099999

[Metadata]
Title:Road of Resistance
TitleUnicode:Road of Resistance
Artist:BABYMETAL
ArtistUnicode:BABYMETAL
Creator:Anxient
Version:The Path of Tomorrow
Source:
Tags:dragonforce herman li sam totman ktsune suzuka nakamoto yui mizuno moa kikuchi su-metal yuimetal moametal
BeatmapID:1208673
BeatmapSetID:570177

[Difficulty]
HPDrainRate:5.8
CircleSize:5
OverallDifficulty:9
ApproachRate:9.5
SliderMultiplier:1.4
SliderTickRate:1

[Events]
//Background and Video events
0,0,"4958b7bb4245cd2c7f01180c8147411108eb9ae8_s2_n1.png",0,0
//Break Periods
2,47354,53214
//Storyboard Layer 0 (Background)
//Storyboard Layer 1 (Fail)
//Storyboard Layer 2 (Pass)
//Storyboard Layer 3 (Foreground)
//Storyboard Sound Samples

[TimingPoints]
1091,301.507537688442,4,1,5,50,1,0
4709,-200,4,1,5,50,0,0
4710,-200,4,3,1,70,0,0
7064,291.26213592233,4,3,1,70,1,0
7500,-200,4,3,1,70,0,0
8520,293.398533007335,4,3,1,70,1,8
8520,-133.333333333333,4,3,1,70,0,8
9400,298.507462686567,4,3,1,70,1,0
10892,-133.333333333333,4,3,1,70,0,0
11743,291.26213592233,4,3,1,70,1,0
11743,-133.333333333333,4,3,1,70,0,0
12908,292.682926829268,4,3,1,70,1,0
14078,-133.333333333333,4,3,1,70,0,0
15249,296.73590504451,4,3,0,70,1,0
15249,-133.333333333333,4,3,0,70,0,0
16422,294.117647058824,4,3,1,70,1,0
16422,-133.333333333333,4,3,1,70,0,0
17598,292.682926829268,4,3,1,70,1,0
18183,-100,4,3,0,70,0,0
18573,-100,4,2,0,5,0,0
18768,-133.333333333333,4,3,1,70,0,0
19793,310.880829015544,4,3,1,70,1,8
19948,287.081339712919,4,3,1,70,1,0
20378,292.682926829268,4,3,1,70,1,8
21109,292.682926829268,4,3,1,70,1,0
22865,-100,4,3,0,70,0,0
23157,-100,4,3,1,70,0,0
32230,300,4,3,1,70,1,8
32529,292.682926829268,4,3,1,70,1,8
32822,292.682926829268,4,3,1,70,1,0
37504,290.556900726392,4,3,1,70,1,0
38666,292.682926829268,4,3,1,70,1,0
39836,-100,4,3,1,50,0,0
41600,324.324324324324,4,3,1,50,1,8
41924,401.33779264214,4,3,1,50,1,8
42325,292.682926829268,4,3,1,70,1,0
45837,-100,4,3,1,50,0,0
46129,-100,4,3,1,40,0,0
46422,-100,4,3,1,30,0,0
46715,-100,4,3,1,20,0,0
47007,-100,4,3,1,10,0,0
47154,-100,4,3,1,50,0,0
54032,-100,4,3,1,25,0,0
54325,-100,4,3,1,35,0,0
54617,-100,4,3,1,45,0,0
54910,-100,4,3,1,55,0,0
55056,-100,4,3,1,10,0,0
55203,-100,4,3,1,70,0,0
57544,-76.9230769230769,4,3,1,85,0,0
76276,-76.9230769230769,4,3,1,75,0,0
76422,-66.6666666666667,4,3,1,75,0,0
103202,-66.6666666666667,4,3,0,70,0,0
103276,-66.6666666666667,4,3,1,75,0,0
113446,-66.6666666666667,4,1,5,70,0,0
113739,-66.6666666666667,4,3,1,75,0,0
123690,-66.6666666666667,4,3,0,70,0,0
123763,-66.6666666666667,4,3,1,70,0,0
124276,-66.6666666666667,4,3,0,70,0,0
124861,-66.6666666666667,4,3,1,70,0,0
125446,-58.8235294117647,4,3,2,85,0,1
157642,-66.6666666666667,4,3,2,85,0,1
157934,-76.9230769230769,4,3,2,85,0,1
158227,-100,4,3,1,70,0,1
160568,-100,4,2,0,80,0,1
161154,-100,4,1,5,80,0,1
161739,-100,4,3,2,80,0,1
162910,-71.4285714285714,4,3,2,70,0,0
172276,-71.4285714285714,4,3,2,85,0,0
176666,-76.9230769230769,4,3,2,85,0,0
176959,-71.4285714285714,4,3,2,90,0,0
179300,-71.4285714285714,4,3,2,70,0,0
181056,-71.4285714285714,4,3,0,70,0,0
181203,-71.4285714285714,4,3,2,70,0,0
181349,-71.4285714285714,4,3,0,70,0,0
181495,-71.4285714285714,4,3,2,70,0,0
181642,-71.4285714285714,4,1,5,70,0,0
189910,-71.4285714285714,4,3,1,70,0,0
191007,-71.4285714285714,4,3,2,55,0,0
195690,-71.4285714285714,4,3,2,70,0,0
200373,-71.4285714285714,4,3,2,80,0,0
227885,-71.4285714285714,4,1,5,70,0,0
227959,-71.4285714285714,4,3,2,80,0,0
228471,-71.4285714285714,4,3,2,80,0,1
229642,-66.6666666666667,4,3,2,80,0,1
237837,-71.4285714285714,4,3,2,65,0,0
244861,-71.4285714285714,4,3,2,70,0,0
247203,-71.4285714285714,4,3,2,80,0,0
258910,-71.4285714285714,4,3,2,90,0,1
261251,-71.4285714285714,4,2,5,70,0,0
264763,-71.4285714285714,4,3,1,70,0,0
265056,-83.3333333333333,4,3,1,70,0,0
267690,-83.3333333333333,4,3,2,70,0,0
268276,-71.4285714285714,4,3,2,70,0,0
269446,-71.4285714285714,4,3,0,70,0,0
269520,-71.4285714285714,4,3,2,70,0,0
270617,-58.8235294117647,4,3,2,85,0,1
279983,-55.5555555555556,4,3,2,85,0,1
282324,-52.6315789473684,4,3,2,85,0,1
284666,-50,4,3,2,85,0,1
287007,-47.6190476190476,4,3,2,85,0,1
287885,-47.6190476190476,4,3,0,85,0,1
288178,-47.6190476190476,4,3,2,80,0,1
288763,-47.6190476190476,4,3,0,80,0,1
288764,-55.5555555555556,4,3,0,80,0,1
288837,-55.5555555555556,4,3,2,80,0,1
289056,-66.6666666666667,4,3,2,80,0,1
289349,-66.6666666666667,4,3,2,80,0,0
291690,-71.4285714285714,4,3,2,80,0,0
292568,-71.4285714285714,4,3,0,70,0,0
292861,-76.9230769230769,4,3,0,70,0,0
293007,-76.9230769230769,4,3,2,70,0,0
293446,-76.9230769230769,4,3,1,70,0,0
294032,-83.3333333333333,4,1,5,70,0,0
294617,-83.3333333333333,4,3,2,70,0,0
294910,283.018867924528,4,3,2,70,1,0
295051,300,4,3,1,70,1,8
295202,307.692307692308,4,3,1,70,1,0
295356,287.081339712919,4,3,1,70,1,8
295643,355.029585798817,4,3,0,70,1,8
295998,392.156862745098,4,3,1,70,1,8
296194,441.176470588235,4,3,1,70,1,8
296414,472.44094488189,4,3,1,70,1,8
296650,800,4,3,1,70,1,0
297450,703.812316715542,4,3,1,70,1,8
298152,736.196319018405,4,3,2,70,1,8
298520,745.341614906832,4,3,2,70,1,8
298893,916.030534351145,4,3,2,70,1,8
299351,1111.11111111111,4,3,2,70,1,8
299906,337.078651685393,4,3,1,70,1,1
309344,-100,4,3,1,90,0,0
310523,-100,4,3,1,40,0,0

[Colours]
Combo1 : 190,156,205
Combo2 : 227,222,204
Combo3 : 210,164,164
Combo4 : 171,231,231

[HitObjects]
256,192,1091,12,2,4106,0:0:0:0:
144,184,4709,6,0,L|149:79,2,105,4|0|0,0:0|0:0|0:0,3:0:0:0:
144,184,6141,5,0,3:0:0:0:
85,244,6443,1,0,3:0:0:0:
1,244,6744,1,0,3:0:0:0:
151,44,7064,6,0,L|144:184,1,140,4|0,0:2|0:0,0:0:0:0:
85,244,7500,2,0,L|91:349,1,105,0|0,0:0|0:0,0:0:0:0:
144,184,8520,6,0,L|185:185,3,35.0000013351441,0|0|0|0,0:0|0:0|0:0|0:0,0:0:0:0:
144,184,9400,5,4,0:0:0:0:
174,107,9847,1,0,0:0:0:0:
249,73,10295,1,0,0:0:0:0:
249,73,10892,6,0,L|366:79,2,105.000004005432,0|0|0,0:0|0:0|0:0,0:0:0:0:
144,184,11743,6,0,L|308:193,2,157.500006008148,4|0|0,0:2|0:0|0:0,0:0:0:0:
309,332,12908,6,0,L|301:192,1,140,0|0,0:0|1:0,0:0:0:0:
348,140,13347,1,2,2:3:0:0:
226,19,13493,6,0,L|230:89,1,70,8|0,1:3|0:0,0:0:0:0:
81,214,13786,2,0,L|144:183,1,70,8|0,0:0|0:0,0:0:0:0:
268,211,14078,6,0,L|277:379,2,157.500006008148,4|0|8,0:0|0:0|0:0,0:0:0:0:
291,199,15054,1,0,0:0:0:0:
315,186,15151,1,0,0:0:0:0:
339,173,15249,6,0,L|330:15,2,157.500006008148,10|8|0,0:0|0:3|0:0,0:0:0:0:
111,220,16422,6,0,L|268:211,1,157.500006008148,4|0,0:0|0:0,0:0:0:0:
305,291,17010,2,0,L|415:285,1,105.000004005432,0|0,0:0|0:0,0:0:0:0:
256,21,17598,6,0,L|151:26,1,93.3333333333333,8|0,0:0|0:0,0:0:0:0:
97,69,17890,2,0,L|13:73,2,46.6666666666667,10|0|0,0:0|0:0|0:0,0:0:0:0:
167,104,18183,2,0,L|213:101,2,46.6666666666667,8|0|0,0:0|0:0|0:0,0:0:0:0:
101,147,18476,1,8,0:0:0:0:
348,115,18768,6,0,L|505:106,2,157.500006008148,4|0|0,0:2|0:0|0:0,0:0:0:0:
270,246,19793,2,0,L|268:211,1,35,0|0,0:0|0:0,0:0:0:0:
353,219,19948,6,0,L|361:376,1,140,8|2,0:0|0:0,0:0:0:0:
512,246,20378,2,0,L|504:106,1,140,8|2,0:0|0:0,0:0:0:0:
344,45,20817,2,0,L|347:114,1,70,8|0,0:0|0:0,0:0:0:0:
155,176,21109,6,0,P|104:166|201:111,1,280,2|0,0:0|0:0,0:0:0:0:
196,94,21987,1,0,0:0:0:0:
155,176,22133,1,0,0:0:0:0:
155,176,22206,1,0,0:0:0:0:
155,176,22279,6,0,L|157:231,1,35,8|0,0:0|0:0,0:0:0:0:
198,354,22426,2,0,L|166:338,1,35,0|0,0:0|0:0,0:0:0:0:
21,301,22572,6,0,L|50:281,1,35,8|0,0:0|0:0,0:0:0:0:
9,138,22718,2,0,L|38:118,1,35,0|0,0:0|0:0,0:0:0:0:
248,67,22865,6,0,L|250:122,1,35,8|0,0:0|0:0,0:0:0:0:
242,271,23011,2,0,L|243:236,1,35,0|0,0:0|0:0,0:0:0:0:
502,181,23157,5,8,0:0:0:0:
467,179,23230,1,0,0:0:0:0:
432,177,23303,1,0,0:0:0:0:
397,175,23376,1,0,0:0:0:0:
362,173,23450,6,0,L|354:312,1,140,0|0,0:0|0:0,0:0:0:0:
354,312,23816,1,0,0:0:0:0:
354,312,23889,1,2,0:0:0:0:
243,236,24182,5,8,0:0:0:0:
199,319,24328,2,0,L|197:353,2,35,0|0|0,0:0|0:0|0:0,0:0:0:0:
82,127,24621,5,4,0:1:0:0:
143,70,24913,1,0,0:0:0:0:
287,15,25206,5,0,0:0:0:0:
226,72,25499,1,0,0:0:0:0:
432,177,25791,5,8,0:0:0:0:
397,175,25864,1,0,0:0:0:0:
362,173,25937,1,0,0:0:0:0:
173,240,26084,5,0,0:0:0:0:
208,238,26157,1,0,0:0:0:0:
243,236,26230,2,0,L|250:96,1,140,10|8,0:0|0:0,0:0:0:0:
362,173,26669,2,0,L|360:207,2,35,0|0|0,0:0|0:0|0:0,0:0:0:0:
441,60,26962,5,4,0:1:0:0:
441,60,27401,6,0,L|443:26,2,35,0|0|2,0:0|0:0|0:0,0:0:0:0:
362,173,27694,2,0,L|354:312,1,140,8|0,0:0|0:0,0:0:0:0:
250,95,28133,6,0,L|252:61,2,35,4|0|0,0:2|0:0|0:0,0:0:0:0:
240,306,28426,1,8,0:0:0:0:
241,271,28499,1,0,0:0:0:0:
243,236,28572,1,2,0:0:0:0:
243,236,28865,5,0,0:0:0:0:
143,70,29011,1,0,0:0:0:0:
141,104,29084,1,0,0:0:0:0:
139,139,29157,1,0,0:0:0:0:
35,267,29304,5,4,0:1:0:0:
108,287,29596,1,0,0:0:0:0:
218,372,29889,5,0,0:0:0:0:
145,352,30182,1,0,0:0:0:0:
143,70,30474,5,4,0:2:0:0:
141,104,30547,1,0,0:0:0:0:
139,139,30620,1,2,0:0:0:0:
239,305,30767,5,0,0:0:0:0:
241,270,30840,1,0,0:0:0:0:
243,236,30913,1,2,0:0:0:0:
243,236,31206,5,2,0:0:0:0:
362,173,31352,2,0,L|363:138,2,35,8|0|0,0:0|0:0|0:0,0:0:0:0:
493,320,31645,6,0,L|354:312,1,140,4|0,0:1|0:0,0:0:0:0:
243,236,32084,2,0,L|208:235,1,35,0|0,0:0|0:0,0:0:0:0:
144,351,32230,6,0,L|75:347,1,70,8|0,0:0|0:0,0:0:0:0:
43,251,32529,2,0,L|112:255,1,70,8|2,0:0|0:0,0:0:0:0:
232,115,32822,6,0,L|231:150,2,35,4|0|0,0:2|0:0|0:0,0:0:0:0:
90,88,33114,5,8,0:0:0:0:
88,122,33187,1,0,0:0:0:0:
86,157,33261,1,2,0:0:0:0:
224,253,33553,5,2,0:0:0:0:
236,46,33700,1,8,0:0:0:0:
234,80,33773,1,0,0:0:0:0:
232,115,33847,1,0,0:0:0:0:
456,160,33992,5,4,0:1:0:0:
375,135,34285,1,0,0:0:0:0:
274,255,34578,5,0,0:0:0:0:
300,174,34870,1,0,0:0:0:0:
401,54,35163,6,0,L|402:19,2,35,4|0|0,0:2|0:0|0:0,0:0:0:0:
300,174,35456,1,8,0:0:0:0:
298,208,35529,1,0,0:0:0:0:
296,243,35603,1,2,0:0:0:0:
296,243,35895,5,2,0:0:0:0:
144,351,36041,1,8,0:0:0:0:
146,316,36115,1,0,0:0:0:0:
148,282,36188,1,0,0:0:0:0:
250,351,36334,6,0,L|394:359,1,140,4|0,0:1|0:0,0:0:0:0:
296,243,36773,2,0,L|261:242,1,35,2|0,0:0|0:0,0:0:0:0:
118,298,36919,5,8,0:0:0:0:
31,256,37065,1,2,0:0:0:0:
146,316,37212,6,0,L|154:171,1,140,0|4,0:0|0:2,0:0:0:0:
175,159,37576,1,0,0:0:0:0:
197,141,37649,1,0,0:0:0:0:
219,124,37721,1,0,0:0:0:0:
241,107,37794,1,8,0:0:0:0:
296,243,37939,1,2,0:0:0:0:
296,243,38230,5,2,0:0:0:0:
375,70,38375,1,8,0:0:0:0:
373,104,38448,1,0,0:0:0:0:
371,139,38520,1,0,0:0:0:0:
462,296,38666,5,4,0:1:0:0:
281,340,38958,1,0,0:0:0:0:
296,243,39105,1,2,0:0:0:0:
296,243,39178,1,0,0:0:0:0:
296,243,39251,6,0,L|291:312,1,70,8|2,0:0|0:0,0:0:0:0:
149,245,39544,2,0,L|154:176,1,70,0|0,0:0|0:0,0:0:0:0:
245,37,39836,6,0,L|240:106,1,70,4|0,0:0|0:0,0:0:0:0:
239,106,40056,1,0,0:0:0:0:
239,106,40129,1,8,0:0:0:0:
65,59,40275,6,0,L|134:63,1,70,4|0,0:0|0:0,0:0:0:0:
134,63,40495,1,0,0:0:0:0:
134,63,40568,1,8,0:0:0:0:
310,110,40714,6,0,L|240:105,1,70,4|0,0:0|0:0,0:0:0:0:
240,105,40934,1,0,0:0:0:0:
240,105,41007,1,8,0:0:0:0:
84,171,41153,6,0,L|153:175,1,70,4|0,0:0|0:0,0:0:0:0:
153,175,41373,1,0,0:0:0:0:
153,175,41446,1,8,0:0:0:0:
263,378,41600,6,0,L|268:309,1,70,4|0,0:0|0:0,0:0:0:0:
370,223,41924,2,0,L|365:292,1,70,4|0,0:0|0:0,0:0:0:0:
282,17,42325,5,12,0:0:0:0:
256,192,42398,12,0,47154,1:0:0:0:
256,192,53739,12,0,55056,0:0:0:0:
284,20,55203,6,0,L|280:82,1,35,2|0,0:0|0:0,0:0:0:0:
243,191,55349,2,0,L|298:163,1,35,0|0,0:0|0:0,0:0:0:0:
412,141,55496,2,0,L|360:106,1,35,8|0,0:0|0:0,0:0:0:0:
190,23,55642,5,2,0:0:0:0:
187,57,55715,1,0,0:0:0:0:
185,92,55788,1,0,0:0:0:0:
85,162,55934,6,0,L|87:127,1,35,8|0,0:0|0:0,0:0:0:0:
0,0,56081,1,6,0:2:0:0:
85,162,56373,6,0,L|81:224,3,35,8|0|0|0,0:0|0:0|0:0|0:0,0:0:0:0:
213,283,56666,2,0,L|161:248,3,35,8|0|0|0,0:0|0:0|0:0|0:0,0:0:0:0:
44,333,56959,2,0,L|99:305,3,35,8|0|0|0,0:0|0:0|0:0|0:0,0:0:0:0:
114,259,57251,5,8,0:0:0:0:
366,233,57544,6,0,L|359:350,1,90.9999958343508,4|0,0:2|0:0,0:0:0:0:
243,191,57837,2,0,L|248:100,1,90.9999958343508,8|2,0:0|0:0,0:0:0:0:
269,83,58056,1,0,0:0:0:0:
290,66,58129,2,0,L|371:70,1,45.4999979171754,8|0,0:0|0:0,0:0:0:0:
412,205,58276,2,0,L|366:202,1,45.4999979171754,2|0,0:0|0:0,0:0:0:0:
258,285,58422,1,8,0:0:0:0:
235,283,58495,1,0,0:0:0:0:
212,282,58568,2,0,L|166:279,1,45.4999979171754,0|2,0:0|0:0,0:0:0:0:
85,162,58715,6,0,L|90:71,1,90.9999958343508,4|0,0:2|0:0,0:0:0:0:
5,238,59007,2,0,L|0:328,1,90.9999958343508,8|2,0:0|0:0,0:0:0:0:
25,339,59227,1,0,0:0:0:0:
50,349,59300,2,0,L|95:351,1,45.4999979171754,8|0,0:0|0:0,0:0:0:0:
258,285,59446,2,0,L|212:282,1,45.4999979171754,2|0,0:0|0:0,0:0:0:0:
97,170,59593,1,8,0:0:0:0:
96,181,59666,1,0,0:0:0:0:
95,192,59739,1,0,0:0:0:0:
95,204,59812,1,0,0:0:0:0:
94,215,59885,5,4,0:2:0:0:
238,189,60032,1,0,0:0:0:0:
375,384,60178,1,8,0:0:0:0:
231,357,60325,1,2,0:0:0:0:
303,136,60471,2,0,P|320:170|317:207,1,45.4999979171754,0|0,0:0|0:0,0:0:0:0:
251,271,60617,2,0,P|213:268|182:247,1,45.4999979171754,2|0,0:0|0:0,0:0:0:0:
152,179,60764,2,0,P|156:155|220:106,1,90.9999958343508,8|0,0:0|0:0,0:0:0:0:
412,291,61056,6,0,L|366:288,3,45.4999979171754,4|0|0|0,0:2|0:0|0:0|0:0,0:0:0:0:
390,118,61349,1,0,0:0:0:0:
489,176,61495,2,0,L|486:221,3,45.4999979171754,4|0|0|0,0:2|0:0|0:0|0:0,0:0:0:0:
424,0,61788,1,0,0:0:0:0:
299,113,61934,2,0,L|389:118,1,90.9999958343508,8|0,0:0|0:0,0:0:0:0:
206,265,62227,5,6,0:2:0:0:
183,263,62300,1,0,0:0:0:0:
160,262,62373,2,0,L|114:259,1,45.4999979171754,0|0,1:0|1:0,0:0:0:0:
49,85,62520,5,8,0:0:0:0:
47,108,62593,1,0,0:0:0:0:
46,131,62666,2,0,L|43:176,1,45.4999979171754,8|0,0:0|0:0,0:0:0:0:
111,354,62812,5,2,0:0:0:0:
134,356,62885,1,0,0:0:0:0:
157,357,62958,2,0,L|202:359,1,45.4999979171754,0|0,1:0|1:0,0:0:0:0:
231,170,63105,5,8,0:0:0:0:
208,168,63178,1,0,0:0:0:0:
185,167,63251,2,0,L|139:164,1,45.4999979171754,8|0,0:0|0:0,0:0:0:0:
284,274,63398,5,2,0:0:0:0:
313,258,63471,1,0,0:0:0:0:
337,234,63544,1,0,1:0:0:0:
351,203,63617,1,0,1:0:0:0:
354,169,63690,1,8,0:0:0:0:
336,127,63763,1,0,0:0:0:0:
347,84,63836,1,8,0:0:0:0:
381,55,63909,1,0,0:0:0:0:
426,53,63982,5,2,0:0:0:0:
463,78,64055,1,0,0:0:0:0:
479,120,64129,1,0,1:0:0:0:
466,162,64202,1,0,1:0:0:0:
432,194,64276,2,0,L|429:239,1,45.4999979171754,8|0,0:0|0:0,0:0:0:0:
383,368,64422,2,0,L|385:322,1,45.4999979171754,8|0,0:0|0:0,0:0:0:0:
231,170,64568,6,0,L|185:167,1,45.4999979171754,6|0,0:0|0:0,0:0:0:0:
59,161,64715,2,0,L|104:163,1,45.4999979171754,2|0,0:0|0:0,0:0:0:0:
133,335,64861,1,8,0:0:0:0:
313,258,65007,1,8,0:0:0:0:
337,234,65081,1,0,0:0:0:0:
351,202,65154,6,0,P|355:180|355:157,1,45.4999979171754,6|0,0:0|0:0,0:0:0:0:
272,2,65300,1,2,0:0:0:0:
96,74,65446,2,0,P|91:96|108:168,1,90.9999958343508,8|8,0:0|0:0,0:0:0:0:
222,306,65740,5,14,0:0:0:0:
230,284,65813,1,0,0:0:0:0:
234,262,65886,1,0,0:0:0:0:
234,239,65959,1,0,0:0:0:0:
230,217,66032,1,10,0:0:0:0:
226,195,66105,1,0,0:0:0:0:
226,172,66178,1,0,0:0:0:0:
230,150,66251,1,0,0:0:0:0:
239,129,66324,5,10,0:0:0:0:
276,99,66397,1,0,0:0:0:0:
322,100,66470,1,0,0:0:0:0:
361,129,66543,1,0,0:0:0:0:
372,174,66616,1,10,0:0:0:0:
410,146,66690,1,0,0:0:0:0:
456,146,66763,1,0,0:0:0:0:
494,176,66836,1,0,0:0:0:0:
506,221,66910,5,4,0:0:0:0:
354,379,67056,2,0,L|360:283,1,90.9999958343508
470,341,67349,1,2,0:0:0:0:
231,170,67495,2,0,L|225:260,1,90.9999958343508,8|0,0:0|0:0,0:0:0:0:
213,275,67715,1,0,0:0:0:0:
202,289,67788,2,0,L|111:283,1,90.9999958343508,8|0,0:0|0:0,0:0:0:0:
63,69,68081,6,0,L|57:159,1,90.9999958343508,4|8,0:2|0:0,0:0:0:0:
111,283,68373,2,0,L|109:329,1,45.4999979171754,0|0,0:0|0:0,0:0:0:0:
35,300,68520,1,2,0:0:0:0:
194,77,68666,2,0,L|284:82,1,90.9999958343508,8|0,0:0|0:0,0:0:0:0:
310,108,68885,1,0,0:0:0:0:
335,134,68959,2,0,L|425:139,1,90.9999958343508,8|0,0:0|0:0,0:0:0:0:
354,379,69251,6,0,L|359:288,1,90.9999958343508,4|8,0:2|0:0,0:0:0:0:
194,77,69544,2,0,L|199:167,1,90.9999958343508,0|2,0:0|0:0,0:0:0:0:
173,193,69764,1,0,0:0:0:0:
147,218,69837,2,0,L|151:281,1,45.4999979171754,8|0,0:0|0:0,0:0:0:0:
59,204,69983,2,0,L|57:159,1,45.4999979171754
4,270,70129,2,0,L|9:360,1,90.9999958343508,8|0,0:0|0:0,0:0:0:0:
57,159,70422,6,0,L|51:68,1,90.9999958343508,4|8,0:2|0:0,0:0:0:0:
310,108,70715,2,0,L|314:171,1,45.4999979171754,0|0,0:0|0:0,0:0:0:0:
194,77,70861,6,0,L|191:31,1,45.4999979171754,4|0,0:2|0:0,0:0:0:0:
426,139,71007,1,0,0:0:0:0:
359,288,71154,1,2,0:0:0:0:
360,310,71227,1,0,0:0:0:0:
361,333,71300,2,0,L|297:337,1,45.4999979171754,8|0,0:0|0:0,0:0:0:0:
242,186,71446,2,0,L|178:190,1,45.4999979171754,0|0,0:0|0:0,0:0:0:0:
9,360,71593,6,0,L|99:354,1,90.9999958343508,8|0,0:0|0:0,0:0:0:0:
122,332,71812,1,0,0:0:0:0:
145,310,71885,2,0,L|140:246,1,45.4999979171754,0|0,0:0|0:0,0:0:0:0:
57,159,72032,2,0,L|59:204,1,45.4999979171754,2|0,0:0|0:0,0:0:0:0:
193,76,72178,6,0,L|191:31,1,45.4999979171754,8|0,0:0|0:0,0:0:0:0:
280,208,72324,1,8,0:0:0:0:
300,218,72397,1,0,0:0:0:0:
321,229,72471,2,0,L|366:226,1,45.4999979171754,2|0,0:0|0:0,0:0:0:0:
190,307,72617,2,0,L|144:309,1,45.4999979171754,2|0,0:0|0:0,0:0:0:0:
363,378,72764,6,0,L|360:332,1,45.4999979171754,8|0,0:0|0:0,0:0:0:0:
199,167,72910,1,2,0:0:0:0:
197,189,72983,1,0,0:0:0:0:
196,212,73056,1,0,1:0:0:0:
338,119,73203,1,8,0:0:0:0:
431,261,73349,6,0,L|433:306,1,45.4999979171754,0|0,1:0|0:0,0:0:0:0:
338,119,73495,2,0,L|335:73,1,45.4999979171754,2|0,0:0|0:0,0:0:0:0:
508,232,73642,6,0,L|510:277,1,45.4999979171754,8|0,0:0|0:0,0:0:0:0:
415,90,73788,2,0,L|412:44,1,45.4999979171754,2|0,0:0|0:0,0:0:0:0:
354,290,73934,6,0,L|356:335,3,45.4999979171754,8|0|2|0,0:0|0:0|0:0|0:0,0:0:0:0:
196,212,74227,1,2,0:0:0:0:
118,370,74373,6,0,L|73:372,3,45.4999979171754,8|0|2|0,0:0|0:0|0:0|0:0,0:0:0:0:
196,212,74666,1,2,0:0:0:0:
38,134,74812,2,0,L|36:89,3,45.4999979171754,8|0|8|0,0:0|0:0|0:0|0:0,0:0:0:0:
196,212,75105,5,2,0:0:0:0:
176,223,75178,1,0,0:0:0:0:
154,228,75251,1,0,0:0:0:0:
132,226,75324,1,0,0:0:0:0:
111,217,75398,1,8,0:0:0:0:
130,205,75471,1,0,0:0:0:0:
152,200,75544,1,0,0:0:0:0:
174,202,75617,1,0,0:0:0:0:
196,212,75690,5,4,0:2:0:0:
237,228,75763,1,0,0:0:0:0:
280,217,75836,1,0,0:0:0:0:
309,183,75909,1,0,0:0:0:0:
311,138,75982,1,0,0:0:0:0:
287,101,76055,1,0,0:0:0:0:
245,85,76129,2,0,P|222:87|203:99,1,45.4999979171754,0|0,0:0|0:0,0:0:0:0:
244,157,76276,5,4,0:0:0:0:
442,83,76422,2,0,L|449:202,1,105.000004005432,0|0,0:0|0:0,0:0:0:0:
448,187,76642,1,0,0:0:0:0:
448,187,76715,1,2,0:0:0:0:
286,321,76861,2,0,L|279:216,1,105.000004005432,8|2,0:0|0:0,0:0:0:0:
404,382,77154,2,0,L|399:319,1,52.5000020027161,8|0,0:0|0:0,0:0:0:0:
456,282,77300,1,2,0:0:0:0:
435,5,77446,6,0,L|330:11,1,105.000004005432,8|0,0:0|0:0,0:0:0:0:
150,102,77739,2,0,L|212:97,1,52.5000020027161,2|0,0:0|0:0,0:0:0:0:
244,157,77885,1,10,0:0:0:0:
39,41,78032,2,0,L|32:145,1,105.000004005432,0|2,0:0|0:0,0:0:0:0:
55,166,78251,1,0,0:0:0:0:
79,186,78324,1,8,0:0:0:0:
171,0,78471,1,2,0:0:0:0:
286,170,78617,6,0,L|279:274,1,105.000004005432,4|0,0:0|0:0,0:0:0:0:
99,322,78910,2,0,L|94:259,1,52.5000020027161,0|0,0:0|0:0,0:0:0:0:
154,228,79056,1,2,0:0:0:0:
164,384,79203,1,8,0:0:0:0:
244,157,79349,2,0,L|239:94,1,52.5000020027161,2|0,0:0|0:0,0:0:0:0:
279,275,79495,2,0,L|274:337,1,52.5000020027161,8|0,0:0|0:0,0:0:0:0:
334,369,79641,1,2,0:0:0:0:
501,238,79788,6,0,L|396:231,1,105.000004005432,8|0,0:0|0:0,0:0:0:0:
240,104,80081,2,0,L|244:157,1,52.5000020027161,2|0,0:0|0:0,0:0:0:0:
376,274,80227,2,0,L|389:64,1,210.000008010865,8|2,0:0|0:0,0:0:0:0:
240,104,80666,2,0,L|244:157,1,52.5000020027161,8|0,0:0|0:0,0:0:0:0:
194,211,80812,2,0,L|197:263,1,52.5000020027161,2|0,0:0|0:0,0:0:0:0:
32,145,80959,5,8,0:0:0:0:
129,10,81105,2,0,L|119:167,1,157.500006008148,2|0,0:0|0:0,0:0:0:0:
92,193,81398,1,2,0:0:0:0:
200,315,81544,2,0,L|197:263,1,52.5000020027161,0|0,0:0|0:0,0:0:0:0:
243,51,81690,2,0,L|239:104,1,52.5000020027161,2|0,0:0|0:0,0:0:0:0:
315,123,81837,1,8,3:3:0:0:
315,123,81910,1,8,3:3:0:0:
315,123,81983,1,8,3:3:0:0:
480,280,82129,6,0,L|354:272,1,105.000004005432,12|2,3:3|0:0,0:0:0:0:
95,321,82422,2,0,L|199:314,1,105.000004005432,0|2,0:0|0:0,0:0:0:0:
221,330,82642,1,0,0:0:0:0:
241,345,82715,2,0,L|345:351,1,105.000004005432,0|2,0:0|0:0,0:0:0:0:
394,99,83007,2,0,L|390:152,1,52.5000020027161,8|0,0:0|0:0,0:0:0:0:
315,123,83154,1,2,0:0:0:0:
92,193,83300,5,4,0:2:0:0:
56,66,83446,2,0,L|213:75,1,157.500006008148,0|0,0:0|0:0,0:0:0:0:
239,103,83739,1,0,0:0:0:0:
99,298,83885,2,0,L|92:193,1,105.000004005432,8|0,0:0|0:0,0:0:0:0:
52,13,84178,2,0,L|55:65,1,52.5000020027161,2|0,0:0|0:0,0:0:0:0:
8,128,84324,1,2,0:0:0:0:
199,314,84471,6,0,L|194:240,3,52.5000020027161,4|0|2|0,0:2|0:0|0:0|0:0,0:0:0:0:
178,81,84764,2,0,L|244:114,1,52.5000020027161,0|0,0:0|0:0,0:0:0:0:
390,180,84910,2,0,L|345:208,3,52.5000020027161,8|0|0|0,0:0|0:0|0:0|0:0,0:0:0:0:
199,314,85203,6,0,L|194:240,1,52.5000020027161,2|0,0:0|0:0,0:0:0:0:
300,295,85349,2,0,L|303:347,1,52.5000020027161,8|0,0:0|0:0,0:0:0:0:
407,380,85495,2,0,L|404:328,1,52.5000020027161,0|0,0:0|0:0,0:0:0:0:
469,132,85642,5,4,0:0:0:0:
178,81,85788,2,0,L|335:90,1,157.500006008148
357,67,86081,1,2,0:0:0:0:
300,295,86227,1,8,0:0:0:0:
390,180,86373,1,2,0:0:0:0:
178,81,86520,2,0,L|181:133,1,52.5000020027161,8|0,0:0|0:0,0:0:0:0:
128,184,86666,1,2,0:0:0:0:
303,347,86812,6,0,L|294:205,1,105.000004005432,8|0,0:0|0:0,0:0:0:0:
88,47,87105,2,0,L|91:99,1,52.5000020027161,2|0,0:0|0:0,0:0:0:0:
206,316,87251,2,0,L|49:307,1,157.500006008148,8|0,0:0|0:0,0:0:0:0:
25,278,87544,1,2,0:0:0:0:
128,184,87690,2,0,L|131:236,1,52.5000020027161,8|0,0:0|0:0,0:0:0:0:
177,80,87837,2,0,L|174:28,1,52.5000020027161,2|0,0:0|0:0,0:0:0:0:
411,145,87983,6,0,L|269:153,1,105.000004005432,4|0,0:0|0:0,0:0:0:0:
401,290,88276,2,0,L|453:286,2,52.5000020027161,0|0|2,0:0|0:0|0:0,0:0:0:0:
345,41,88568,5,8,0:0:0:0:
306,151,88715,1,2,0:0:0:0:
306,151,88788,1,0,0:0:0:0:
306,151,88861,2,0,L|254:154,1,52.5000020027161,8|0,0:0|0:0,0:0:0:0:
128,184,89007,1,2,0:0:0:0:
288,371,89154,6,0,L|281:266,1,105.000004005432,8|0,0:0|0:0,0:0:0:0:
124,131,89446,2,0,L|128:184,1,52.5000020027161,2|0,0:0|0:0,0:0:0:0:
49,307,89593,2,0,L|206:316,1,157.500006008148,8|0,0:0|0:0,0:0:0:0:
184,286,89885,1,2,0:0:0:0:
397,237,90032,2,0,L|401:290,1,52.5000020027161,8|0,0:0|0:0,0:0:0:0:
357,348,90178,1,2,0:0:0:0:
299,46,90324,6,0,L|305:150,1,105.000004005432,12|2,0:0|0:0,0:0:0:0:
128,184,90617,2,0,L|124:131,1,52.5000020027161,0|0,0:0|0:0,0:0:0:0:
178,79,90764,1,8,0:0:0:0:
206,316,90910,2,0,L|101:322,1,105.000004005432,0|2,0:0|0:0,0:0:0:0:
376,205,91203,1,8,0:0:0:0:
428,208,91276,1,8,0:0:0:0:
480,211,91349,1,8,0:0:0:0:
305,150,91495,6,0,L|299:46,1,105.000004005432,8|2,0:0|0:0,0:0:0:0:
428,208,91788,2,0,L|434:312,1,105.000004005432,0|2,0:0|0:0,0:0:0:0:
410,341,92007,1,0,0:0:0:0:
386,369,92081,2,0,L|302:373,1,52.5000020027161,0|0,0:0|0:0,0:0:0:0:
101,322,92227,2,0,L|153:318,1,52.5000020027161,2|0,0:0|0:0,0:0:0:0:
293,230,92373,2,0,L|188:236,1,105.000004005432,0|2,0:0|0:0,0:0:0:0:
26,57,92666,6,0,L|32:161,1,105.000004005432,10|0,0:0|0:0,0:0:0:0:
101,322,92959,2,0,L|97:269,1,52.5000020027161,0|0,0:0|0:0,0:0:0:0:
152,213,93105,1,2,0:0:0:0:
139,13,93251,2,0,L|142:65,1,52.5000020027161,0|0,0:0|0:0,0:0:0:0:
303,99,93398,2,0,L|299:46,1,52.5000020027161,0|0,0:0|0:0,0:0:0:0:
183,132,93544,2,0,L|189:236,1,105.000004005432,2|0,0:0|0:0,0:0:0:0:
434,312,93837,5,8,0:0:0:0:
432,286,93910,1,0,0:0:0:0:
431,260,93983,2,0,L|427:207,1,52.5000020027161,0|0,0:0|0:0,0:0:0:0:
302,98,94129,2,0,L|306:151,1,52.5000020027161,2|0,0:0|0:0,0:0:0:0:
232,314,94276,5,8,0:0:0:0:
258,312,94349,1,0,0:0:0:0:
285,310,94422,2,0,L|337:306,1,52.5000020027161,0|0,0:0|0:0,0:0:0:0:
183,132,94568,2,0,L|186:184,1,52.5000020027161,2|0,0:0|0:0,0:0:0:0:
306,151,94715,1,8,0:0:0:0:
304,124,94788,1,0,0:0:0:0:
303,99,94861,1,8,0:0:0:0:
301,73,94934,1,0,0:0:0:0:
299,47,95007,5,6,0:0:0:0:
183,132,95154,1,0,0:0:0:0:
26,57,95300,2,0,L|32:161,1,105.000004005432,0|0,0:0|0:0,0:0:0:0:
165,319,95593,5,8,0:0:0:0:
163,292,95666,1,0,0:0:0:0:
161,266,95739,1,0,0:0:0:0:
152,109,95885,1,0,0:0:0:0:
152,109,96032,1,0,0:0:0:0:
428,207,96178,6,0,L|323:200,1,105.000004005432,2|0,0:0|0:0,0:0:0:0:
323,200,96471,1,0,1:0:0:0:
60,312,96617,6,0,L|164:318,1,105.000004005432,8|0,0:0|0:0,0:0:0:0:
257,115,96910,2,0,L|152:108,1,105.000004005432,2|10,0:0|0:0,0:0:0:0:
152,108,97203,1,0,0:0:0:0:
317,305,97349,6,0,L|323:200,1,105.000004005432,2|0,0:0|0:0,0:0:0:0:
380,125,97642,1,0,1:0:0:0:
380,125,97788,1,2,0:0:0:0:
341,383,97934,5,8,0:0:0:0:
314,381,98007,1,0,0:0:0:0:
288,379,98080,1,0,0:0:0:0:
428,207,98227,2,0,L|421:311,1,105.000004005432,2|0,0:0|0:0,0:0:0:0:
380,125,98520,6,0,L|138:111,1,210.000008010865,2|0,0:0|1:0,0:0:0:0:
11,157,98959,2,0,L|220:144,1,210.000008010865,8|2,0:0|0:0,0:0:0:0:
323,200,99398,2,0,L|317:305,1,105.000004005432,8|8,0:0|0:0,0:0:0:0:
317,304,99617,1,8,0:0:0:0:
317,304,99690,1,8,0:0:0:0:
484,126,99837,6,0,L|478:21,1,105.000004005432,0|0,0:0|1:0,0:0:0:0:
478,21,100056,1,0,0:0:0:0:
478,21,100129,1,0,0:0:0:0:
275,118,100276,2,0,L|170:112,1,105.000004005432,0|0,1:0|0:0,0:0:0:0:
409,259,100568,2,0,L|472:255,2,52.5000020027161,0|0|0,1:0|0:0|0:0,0:0:0:0:
212,348,100861,6,0,L|218:243,1,105.000004005432,2|0,0:0|0:0,0:0:0:0:
277,65,101154,1,0,1:0:0:0:
275,91,101227,1,0,0:0:0:0:
274,117,101300,1,0,0:0:0:0:
126,286,101446,2,0,P|70:260|46:210,1,105.000004005432,8|0,0:0|0:0,0:0:0:0:
70,128,101739,1,8,0:0:0:0:
92,113,101812,1,0,0:0:0:0:
117,105,101885,1,0,0:0:0:0:
143,104,101958,1,0,0:0:0:0:
169,111,102032,6,0,P|203:140|211:171,1,52.5000020027161,8|0,1:3|0:0,0:0:0:0:
104,373,102178,1,0,0:0:0:0:
325,384,102324,5,0,0:0:0:0:
130,197,102471,1,2,0:0:0:0:
130,197,102544,1,0,0:0:0:0:
130,197,102617,1,0,0:0:0:0:
389,121,102764,1,8,0:0:0:0:
217,243,102910,5,2,0:0:0:0:
476,319,103057,1,0,0:0:0:0:
412,58,103203,5,8,0:0:0:0:
366,184,103349,1,0,0:0:0:0:
452,144,103495,5,8,0:0:0:0:
326,98,103641,1,0,0:0:0:0:
418,39,103788,5,2,0:0:0:0:
359,202,103934,1,0,0:0:0:0:
33,84,104081,1,2,0:0:0:0:
182,46,104373,6,0,L|172:203,1,157.500006008148,6|0,0:0|0:0,0:0:0:0:
142,276,104666,2,0,P|102:244|93:194,1,105.000004005432,8|0,0:0|0:0,0:0:0:0:
202,128,104959,2,0,P|242:161|251:211,1,105.000004005432,8|0,0:0|0:0,0:0:0:0:
77,39,105251,2,0,L|181:45,1,105.000004005432,0|0,0:0|0:0,0:0:0:0:
433,168,105544,6,0,L|275:158,1,157.500006008148,6|0,0:0|0:0,0:0:0:0:
202,127,105837,2,0,P|233:87|283:77,1,105.000004005432,8|0,0:0|0:0,0:0:0:0:
350,187,106130,2,0,P|317:227|266:236,1,105.000004005432,8|0,0:0|0:0,0:0:0:0:
388,65,106422,1,0,0:0:0:0:
414,66,106495,1,0,0:0:0:0:
440,68,106568,1,0,0:0:0:0:
466,69,106641,1,0,0:0:0:0:
492,71,106715,6,0,L|483:212,1,105.000004005432,6|0,0:0|0:0,0:0:0:0:
422,270,107007,1,8,0:0:0:0:
420,296,107080,1,0,0:0:0:0:
418,322,107153,1,0,0:0:0:0:
261,342,107300,2,0,L|267:237,1,105.000004005432,2|0,0:0|0:0,0:0:0:0:
195,23,107593,2,0,L|201:127,1,105.000004005432,8|0,0:0|0:0,0:0:0:0:
33,245,107885,6,0,L|137:238,1,105.000004005432,2|0,0:0|0:0,0:0:0:0:
201,127,108178,1,8,0:0:0:0:
267,237,108324,1,0,0:0:0:0:
265,263,108397,1,0,0:0:0:0:
264,289,108471,2,0,L|368:295,1,105.000004005432,2|0,0:0|0:0,0:0:0:0:
410,297,108690,1,0,0:0:0:0:
449,286,108763,1,8,0:0:0:0:
475,254,108836,1,0,0:0:0:0:
476,212,108909,1,8,0:0:0:0:
452,179,108982,1,0,0:0:0:0:
412,167,109056,6,0,L|254:157,1,157.500006008148,6|0,0:0|0:0,0:0:0:0:
181,127,109349,2,0,P|213:86|263:77,1,105.000004005432,8|0,0:0|0:0,0:0:0:0:
329,187,109642,2,0,P|296:227|246:236,1,105.000004005432,8|0,0:0|0:0,0:0:0:0:
205,222,109861,1,0,0:0:0:0:
166,210,109934,2,0,P|115:219|83:259,1,105.000004005432,0|0,0:0|0:0,0:0:0:0:
45,35,110227,6,0,L|38:139,1,105.000004005432,6|0,0:0|0:0,0:0:0:0:
77,364,110520,2,0,L|83:259,1,105.000004005432,8|0,0:0|0:0,0:0:0:0:
181,127,110812,5,8,0:0:0:0:
172,320,110959,1,0,0:0:0:0:
169,346,111032,1,0,0:0:0:0:
167,372,111105,1,0,0:0:0:0:
246,236,111251,2,0,L|298:239,1,52.5000020027161,0|0,0:0|0:0,0:0:0:0:
500,249,111398,6,0,L|447:245,3,52.5000020027161,2|0|0|0,0:0|0:0|0:0|0:0,0:0:0:0:
376,199,111690,1,0,0:0:0:0:
426,75,111837,6,0,L|422:127,3,52.5000020027161,8|0|2|0,0:0|0:0|0:0|0:0,0:0:0:0:
376,199,112129,1,0,0:0:0:0:
386,0,112276,1,0,0:0:0:0:
258,96,112422,2,0,L|310:99,1,52.5000020027161,0|0,0:0|0:0,0:0:0:0:
447,245,112568,5,4,1:2:0:0:
445,271,112641,1,0,0:0:0:0:
443,297,112714,1,0,0:0:0:0:
442,323,112787,1,0,0:0:0:0:
440,349,112861,5,8,0:0:0:0:
417,318,112934,1,0,0:0:0:0:
382,301,113007,1,0,0:0:0:0:
343,303,113080,1,0,0:0:0:0:
310,323,113154,1,2,0:0:0:0:
260,331,113227,1,0,0:0:0:0:
224,296,113300,1,0,0:0:0:0:
230,246,113373,1,0,0:0:0:0:
273,221,113446,6,0,L|84:210,1,157.500006008148,6|0,0:0|2:0,0:0:0:0:
84,240,113739,6,0,L|80:292,3,52.5000020027161,4|0|0|0,1:2|0:0|0:0|0:0,0:0:0:0:
92,105,114032,2,0,L|48:76,3,52.5000020027161,8|0|0|0,0:0|0:0|0:0|0:0,0:0:0:0:
204,179,114324,2,0,L|250:155,3,52.5000020027161,8|0|0|0,0:0|0:0|0:0|0:0,0:0:0:0:
186,2,114617,6,0,L|182:54,1,52.5000020027161,8|0,0:0|0:0,0:0:0:0:
311,41,114764,2,0,L|307:93,1,52.5000020027161,8|0,0:0|0:0,0:0:0:0:
436,80,114910,6,0,L|432:132,3,52.5000020027161,4|0|0|0,1:2|0:0|0:0|0:0,0:0:0:0:
447,245,115203,2,0,L|490:273,3,52.5000020027161,8|0|0|0,0:0|0:0|0:0|0:0,0:0:0:0:
341,200,115495,2,0,L|294:223,3,52.5000020027161,8|0|0|0,0:0|0:0|0:0|0:0,0:0:0:0:
317,350,115788,6,0,L|165:341,1,105.000004005432,8|0,0:0|0:0,0:0:0:0:
182,54,116081,6,0,L|185:1,3,52.5000020027161,4|0|0|0,1:2|0:0|0:0|0:0,0:0:0:0:
63,84,116373,2,0,L|19:112,1,52.5000020027161,8|0,0:0|0:0,0:0:0:0:
151,176,116520,2,0,L|197:199,1,52.5000020027161,8|0,0:0|0:0,0:0:0:0:
75,281,116666,6,0,L|72:333,3,52.5000020027161,8|0|0|0,0:0|0:0|0:0|0:0,0:0:0:0:
47,252,116959,2,0,L|41:357,1,105.000004005432,8|0,0:0|0:0,0:0:0:0:
294,223,117251,6,0,L|297:170,3,52.5000020027161,8|0|0|0,1:3|0:0|0:0|0:0,0:0:0:0:
366,96,117544,2,0,L|418:99,1,52.5000020027161,2|0,0:0|0:0,0:0:0:0:
493,168,117690,2,0,L|489:220,1,52.5000020027161,8|0,1:3|0:0,0:0:0:0:
421,295,117837,2,0,L|368:291,3,52.5000020027161,0|0|2|0,0:0|0:0|0:0|0:0,0:0:0:0:
395,196,118129,5,8,0:0:0:0:
395,196,118203,1,0,0:0:0:0:
395,196,118276,1,0,0:0:0:0:
132,107,118422,5,4,0:0:0:0:
102,123,118495,1,0,0:0:0:0:
83,152,118568,1,0,0:0:0:0:
79,186,118641,1,0,0:0:0:0:
92,218,118714,1,2,0:0:0:0:
118,241,118787,1,0,0:0:0:0:
152,249,118861,2,0,P|184:242|200:227,5,52.5000020027161,8|0|0|0|2|0,0:0|0:0|0:0|0:0|0:0|0:0,0:0:0:0:
205,119,119300,2,0,P|221:140|225:166,3,52.5000020027161,8|0|0|0,0:0|0:0|0:0|0:0,0:0:0:0:
289,313,119593,5,12,0:0:0:0:
329,310,119666,1,0,0:0:0:0:
368,308,119739,1,0,0:0:0:0:
407,306,119812,1,0,0:0:0:0:
447,303,119885,2,0,L|499:300,1,52.5000020027161,2|0,0:0|0:0,0:0:0:0:
493,168,120032,5,8,0:0:0:0:
453,171,120105,1,0,0:0:0:0:
414,173,120178,1,0,0:0:0:0:
375,175,120251,1,0,0:0:0:0:
335,178,120324,2,0,L|283:181,1,52.5000020027161,2|0,0:0|0:0,0:0:0:0:
46,262,120471,5,8,0:0:0:0:
86,259,120544,1,0,0:0:0:0:
125,257,120617,1,0,0:0:0:0:
164,255,120690,1,0,0:0:0:0:
204,252,120763,5,4,0:0:0:0:
314,93,120910,2,0,L|366:96,1,52.5000020027161,0|0,1:0|1:0,0:0:0:0:
151,176,121056,1,8,0:0:0:0:
217,95,121203,2,0,L|220:43,1,52.5000020027161,0|0,1:0|1:0,0:0:0:0:
204,252,121349,6,0,L|201:304,3,52.5000020027161,8|0|0|0,0:0|1:0|1:0|0:0,0:0:0:0:
98,100,121642,2,0,L|101:48,3,52.5000020027161,4|0|0|0,1:2|0:0|0:0|0:0,0:0:0:0:
151,176,121934,5,4,1:2:0:0:
308,166,122080,1,0,1:0:0:0:
308,166,122153,1,0,1:0:0:0:
308,166,122227,2,0,L|301:270,1,105.000004005432,8|0,1:3|1:0,0:0:0:0:
464,358,122520,5,4,1:2:0:0:
467,318,122593,1,0,1:0:0:0:
469,279,122666,1,0,1:0:0:0:
471,240,122739,1,0,1:0:0:0:
474,201,122812,2,0,P|427:181|389:249,1,105.000004005432,10|0,1:3|1:0,0:0:0:0:
295,375,123105,5,8,0:0:0:0:
296,348,123178,1,0,0:0:0:0:
298,322,123251,1,8,0:0:0:0:
226,119,123398,1,2,0:0:0:0:
45,201,123544,5,2,0:0:0:0:
71,199,123617,1,0,0:0:0:0:
97,197,123690,2,0,L|92:270,1,52.5000020027161,8|0,0:0|0:0,0:0:0:0:
161,384,123837,2,0,L|164:331,1,52.5000020027161,0|0,0:0|0:0,0:0:0:0:
229,66,123983,2,0,L|224:139,1,52.5000020027161,8|0,0:0|0:0,0:0:0:0:
380,351,124129,5,0,0:0:0:0:
384,281,124202,1,0,0:0:0:0:
388,211,124275,1,8,0:0:0:0:
101,47,124568,5,8,0:0:0:0:
103,378,124861,1,8,0:0:0:0:
388,211,125154,1,8,0:0:0:0:
199,208,125446,6,0,L|191:326,1,119.000002269745,4|8,0:0|0:0,0:0:0:0:
286,278,125739,1,0,0:0:0:0:
112,138,125885,1,8,0:0:0:0:
313,47,126032,6,0,L|305:165,1,119.000002269745,0|8,0:0|0:0,0:0:0:0:
388,211,126324,1,2,0:0:0:0:
388,211,126398,1,0,0:0:0:0:
388,211,126471,1,0,0:0:0:0:
191,326,126617,6,0,L|72:318,1,119.000002269745,0|0,0:0|0:0,0:0:0:0:
53,294,126837,1,0,0:0:0:0:
35,270,126910,1,2,0:0:0:0:
269,284,127056,1,8,0:0:0:0:
119,19,127203,6,0,L|111:137,1,119.000002269745,0|8,0:0|0:0,0:0:0:0:
129,161,127422,1,0,0:0:0:0:
146,184,127495,2,0,P|209:190|256:130,1,119.000002269745,2|0,0:0|0:0,0:0:0:0:
512,352,127788,6,0,L|393:344,1,119.000002269745,4|8,0:2|0:0,0:0:0:0:
269,284,128081,1,0,0:0:0:0:
463,47,128227,2,0,L|470:165,1,119.000002269745,8|0,0:0|0:0,0:0:0:0:
388,211,128520,1,8,0:0:0:0:
388,211,128593,1,0,0:0:0:0:
388,211,128666,1,2,0:0:0:0:
373,0,128812,1,0,0:0:0:0:
198,119,128959,6,0,L|79:126,1,119.000002269745,0|8,0:0|0:0,0:0:0:0:
274,352,129251,1,2,0:0:0:0:
392,343,129397,1,8,0:0:0:0:
174,246,129544,2,0,P|139:294|133:353,1,119.000002269745,0|8,0:0|0:0,0:0:0:0:
309,141,129837,1,2,0:0:0:0:
309,111,129910,1,0,0:0:0:0:
302,82,129983,1,0,0:0:0:0:
288,56,130056,1,0,0:0:0:0:
268,34,130129,5,4,0:2:0:0:
79,126,130276,1,0,0:0:0:0:
198,119,130422,1,0,0:0:0:0:
133,353,130568,2,0,P|139:294|174:246,1,119.000002269745,8|0,0:0|0:0,0:0:0:0:
231,341,130861,1,8,0:0:0:0:
421,104,131007,1,2,0:0:0:0:
421,104,131081,1,0,0:0:0:0:
421,104,131154,1,0,0:0:0:0:
392,344,131300,6,0,L|384:225,1,119.000002269745,2|8,0:0|0:0,0:0:0:0:
301,82,131593,2,0,L|298:23,2,59.5000011348725,0|0|8,0:0|0:0|0:0,0:0:0:0:
79,126,131885,5,2,0:0:0:0:
174,246,132032,1,8,0:0:0:0:
298,23,132178,2,0,L|301:82,1,59.5000011348725,0|0,0:0|0:0,0:0:0:0:
380,165,132324,2,0,L|383:224,1,59.5000011348725,0|2,0:0|0:0,0:0:0:0:
197,312,132471,5,4,0:2:0:0:
161,315,132544,1,0,0:0:0:0:
129,301,132617,1,8,0:0:0:0:
108,273,132690,1,0,0:0:0:0:
102,238,132763,1,2,0:0:0:0:
114,205,132836,1,0,0:0:0:0:
141,182,132910,1,8,0:0:0:0:
161,137,132983,1,0,0:0:0:0:
154,89,133056,5,2,0:0:0:0:
120,53,133129,1,0,0:0:0:0:
73,41,133202,1,8,0:0:0:0:
27,58,133275,1,0,0:0:0:0:
0,97,133349,2,0,P|-3:132|4:160,1,59.5000011348725,2|0,0:0|0:0,0:0:0:0:
79,126,133495,1,0,0:0:0:0:
174,246,133642,5,4,0:2:0:0:
298,23,133788,1,8,0:0:0:0:
378,166,133934,2,0,L|381:225,1,59.5000011348725,2|0,0:0|0:0,0:0:0:0:
443,274,134081,1,8,0:0:0:0:
495,66,134227,2,0,L|376:73,1,119.000002269745,2|8,0:0|0:0,0:0:0:0:
141,182,134520,1,8,0:0:0:0:
200,178,134593,1,8,0:0:0:0:
259,174,134666,1,8,0:0:0:0:
319,170,134739,1,0,0:0:0:0:
378,166,134812,6,0,L|390:355,1,178.500003404617,4|0,0:2|0:0,0:0:0:0:
320,380,135105,2,0,L|312:261,1,119.000002269745,0|8,0:0|0:0,0:0:0:0:
148,63,135398,2,0,L|140:181,1,119.000002269745,0|8,0:0|0:0,0:0:0:0:
374,72,135690,2,0,L|379:13,1,59.5000011348725,2|0,0:0|0:0,0:0:0:0:
303,40,135837,1,0,0:0:0:0:
21,189,135983,6,0,L|139:181,1,119.000002269745,0|8,0:0|0:0,0:0:0:0:
311,261,136276,2,0,L|370:265,2,59.5000011348725,2|0|8,0:0|0:0|0:0,0:0:0:0:
29,70,136568,6,0,L|147:62,1,119.000002269745,2|8,0:0|0:0,0:0:0:0:
164,78,136788,1,0,0:0:0:0:
180,94,136861,1,0,0:0:0:0:
100,290,137007,1,8,0:0:0:0:
311,261,137154,5,2,0:0:0:0:
298,253,137227,1,0,0:0:0:0:
283,249,137300,1,8,0:0:0:0:
268,249,137373,1,0,0:0:0:0:
254,251,137446,1,0,0:0:0:0:
240,258,137519,1,0,0:0:0:0:
229,267,137593,1,8,0:0:0:0:
220,278,137666,1,0,0:0:0:0:
213,291,137739,5,2,0:0:0:0:
247,340,137812,1,0,0:0:0:0:
301,362,137885,1,0,0:0:0:0:
358,350,137958,1,0,0:0:0:0:
400,308,138031,1,2,0:0:0:0:
411,251,138104,1,0,0:0:0:0:
388,197,138178,1,0,0:0:0:0:
339,164,138251,1,0,0:0:0:0:
281,164,138324,6,0,L|163:172,1,119.000002269745,2|8,0:0|0:0,0:0:0:0:
0,384,138617,2,0,L|118:376,1,119.000002269745,0|8,0:0|0:0,0:0:0:0:
41,248,138910,1,2,0:0:0:0:
37,203,138983,1,0,0:0:0:0:
34,158,139056,2,0,L|30:99,1,59.5000011348725,0|0,0:0|0:0,0:0:0:0:
151,22,139203,1,2,0:0:0:0:
155,67,139276,1,0,0:0:0:0:
158,112,139349,2,0,L|162:171,1,59.5000011348725,0|0,0:0|0:0,0:0:0:0:
311,261,139495,5,4,0:2:0:0:
367,67,139642,1,8,0:0:0:0:
507,212,139788,2,0,L|502:271,2,59.5000011348725,0|0|8,0:0|0:0|0:0,0:0:0:0:
281,164,140081,2,0,L|163:172,1,119.000002269745,2|8,0:0|0:0,0:0:0:0:
41,248,140373,2,0,L|36:307,2,59.5000011348725,0|0|8,0:0|0:0|0:0,0:0:0:0:
155,67,140666,6,0,L|273:59,1,119.000002269745,2|0,0:0|0:0,0:0:0:0:
507,212,140959,2,0,L|389:204,1,119.000002269745,2|0,0:0|0:0,0:0:0:0:
364,230,141178,1,0,0:0:0:0:
340,256,141251,2,0,L|332:374,1,119.000002269745,8|2,0:0|0:0,0:0:0:0:
445,118,141544,2,0,L|437:0,1,119.000002269745,8|2,0:0|0:0,0:0:0:0:
155,67,141837,6,0,L|237:61,1,59.5000011348725,2|0,0:0|0:0,0:0:0:0:
151,195,141983,2,0,L|125:249,1,59.5000011348725,8|0,0:0|0:0,0:0:0:0:
41,127,142129,2,0,L|7:77,1,59.5000011348725,0|0,0:0|0:0,0:0:0:0:
295,57,142276,5,8,0:0:0:0:
165,320,142422,1,2,0:0:0:0:
151,195,142568,1,0,0:0:0:0:
458,302,142715,2,0,L|463:384,1,59.5000011348725,2|0,0:0|0:0,0:0:0:0:
340,256,142861,2,0,L|335:196,1,59.5000011348725,8|0,0:0|0:0,0:0:0:0:
437,0,143007,5,10,0:0:0:0:
438,14,143080,1,0,0:0:0:0:
439,29,143153,1,0,0:0:0:0:
440,44,143226,1,0,0:0:0:0:
441,59,143299,1,10,0:0:0:0:
442,74,143372,1,0,0:0:0:0:
443,89,143446,1,0,0:0:0:0:
444,103,143519,1,0,0:0:0:0:
445,118,143593,6,0,L|385:113,1,59.5000011348725,10|0,0:0|0:0,0:0:0:0:
335,196,143739,2,0,L|275:201,1,59.5000011348725,0|0,0:0|0:0,0:0:0:0:
101,122,143885,2,0,L|41:127,1,59.5000011348725,2|0,0:0|0:0,0:0:0:0:
20,325,144032,2,0,L|80:320,1,59.5000011348725,0|0,0:0|0:0,0:0:0:0:
261,238,144178,6,0,L|269:120,1,119.000002269745,6|8,0:0|0:0,0:0:0:0:
31,226,144471,1,0,0:0:0:0:
155,0,144617,2,0,L|273:8,1,119.000002269745,8|2,0:0|0:0,0:0:0:0:
273,8,144837,1,0,0:0:0:0:
273,8,144910,1,8,0:0:0:0:
504,121,145056,2,0,L|386:113,1,119.000002269745,0|8,0:0|0:0,0:0:0:0:
358,136,145276,1,0,0:0:0:0:
331,159,145349,6,0,L|323:277,1,119.000002269745,4|8,1:2|0:0,0:0:0:0:
447,24,145642,1,0,0:0:0:0:
440,285,145788,2,0,L|322:277,1,119.000002269745,8|2,0:0|0:0,0:0:0:0:
187,161,146081,1,8,0:0:0:0:
33,347,146227,2,0,L|139:340,1,59.5000011348725,0|0,0:0|0:0,0:0:0:0:
224,270,146373,1,8,0:0:0:0:
195,42,146520,6,0,L|187:160,1,119.000002269745,4|8,1:2|0:0,0:0:0:0:
264,384,146812,1,0,0:0:0:0:
504,121,146959,2,0,L|386:113,1,119.000002269745,8|2,0:0|0:0,0:0:0:0:
364,91,147178,1,0,0:0:0:0:
343,69,147251,1,8,0:0:0:0:
322,277,147398,1,0,0:0:0:0:
351,279,147471,1,0,0:0:0:0:
381,281,147544,1,8,0:0:0:0:
411,283,147617,1,0,0:0:0:0:
440,285,147690,5,4,1:2:0:0:
186,160,147837,1,8,0:0:0:0:
343,69,147983,1,0,0:0:0:0:
184,357,148129,1,8,0:0:0:0:
59,103,148276,1,2,0:0:0:0:
275,200,148422,1,8,0:0:0:0:
81,338,148568,1,0,0:0:0:0:
87,308,148641,1,0,0:0:0:0:
102,283,148714,1,2,0:0:0:0:
125,264,148787,1,0,0:0:0:0:
153,254,148861,6,0,L|35:246,1,119.000002269745,4|8,1:2|0:0,0:0:0:0:
184,357,149154,1,0,0:0:0:0:
378,169,149300,2,0,L|386:51,1,119.000002269745,8|2,0:0|0:0,0:0:0:0:
275,200,149593,2,0,L|270:259,1,59.5000011348725,8|0,0:0|0:0,0:0:0:0:
177,111,149739,2,0,L|59:103,1,119.000002269745,0|8,0:0|0:0,0:0:0:0:
368,348,150032,6,0,L|486:356,1,119.000002269745,4|8,1:2|0:0,0:0:0:0:
153,254,150324,2,0,L|35:246,1,119.000002269745,0|8,0:0|0:0,0:0:0:0:
347,22,150618,1,4,1:2:0:0:
345,45,150691,1,0,0:0:0:0:
343,69,150764,1,8,0:0:0:0:
342,93,150837,1,0,0:0:0:0:
340,116,150910,2,0,L|458:124,1,119.000002269745,0|8,0:0|0:0,0:0:0:0:
125,22,151203,5,4,1:2:0:0:
153,254,151349,2,0,L|164:75,1,178.500003404617,0|0,0:0|0:2,0:0:0:0:
145,49,151642,1,8,0:0:0:0:
26,127,151788,2,0,L|34:245,1,119.000002269745,0|2,0:0|0:0,0:0:0:0:
22,273,152007,1,0,0:0:0:0:
11,301,152081,1,8,0:0:0:0:
89,384,152227,1,0,0:0:0:0:
191,133,152373,6,0,L|309:125,1,119.000002269745,4|8,1:2|0:0,0:0:0:0:
367,347,152666,2,0,L|485:355,1,119.000002269745,0|8,0:0|0:0,0:0:0:0:
271,245,152959,2,0,L|153:253,1,119.000002269745,2|8,0:0|0:0,0:0:0:0:
346,4,153251,1,0,0:0:0:0:
397,34,153324,1,0,0:0:0:0:
429,84,153397,1,0,0:0:0:0:
435,143,153470,1,0,0:0:0:0:
413,198,153543,5,4,1:2:0:0:
71,141,153690,2,0,L|189:133,1,119.000002269745,8|0,0:0|0:0,0:0:0:0:
209,110,153910,1,0,0:0:0:0:
228,87,153983,1,8,0:0:0:0:
271,245,154129,2,0,L|279:363,1,119.000002269745,2|8,0:0|0:0,0:0:0:0:
62,259,154422,2,0,L|70:141,1,119.000002269745,0|8,0:0|0:0,0:0:0:0:
148,354,154715,5,2,0:0:0:0:
167,21,154861,1,0,0:0:0:0:
445,203,155007,1,2,0:0:0:0:
158,188,155154,5,0,0:0:0:0:
158,188,155227,1,0,0:0:0:0:
158,188,155300,1,8,0:0:0:0:
369,304,155446,1,0,0:0:0:0:
369,304,155520,1,0,0:0:0:0:
369,304,155593,1,8,0:0:0:0:
364,64,155739,1,0,0:0:0:0:
278,362,155885,5,4,0:2:0:0:
262,321,155958,1,0,0:0:0:0:
264,277,156031,1,8,0:0:0:0:
283,237,156104,1,0,0:0:0:0:
317,209,156177,1,0,0:0:0:0:
359,196,156250,1,0,0:0:0:0:
403,202,156324,1,8,0:0:0:0:
441,225,156397,1,0,0:0:0:0:
467,260,156471,5,2,0:0:0:0:
422,286,156544,1,0,0:0:0:0:
371,282,156617,1,8,0:0:0:0:
332,249,156690,1,0,0:0:0:0:
318,200,156763,1,2,0:0:0:0:
335,152,156836,1,0,0:0:0:0:
376,122,156910,1,8,0:0:0:0:
427,121,156983,1,0,0:0:0:0:
470,149,157056,5,2,0:0:0:0:
264,26,157203,1,8,0:0:0:0:
264,26,157276,1,8,0:0:0:0:
264,26,157349,1,8,0:0:0:0:
158,188,157495,1,8,0:0:0:0:
77,35,157642,2,0,L|69:153,1,105.000004005432,0|0,1:0|1:0,0:0:0:0:
158,188,157934,2,0,L|151:278,1,90.9999958343508,2|2,0:0|0:0,0:0:0:0:
0,384,158227,6,0,L|9:244,1,140,4|0,0:2|0:0,0:0:0:0:
262,321,158812,1,4,0:2:0:0:
8,244,159105,2,0,L|13:174,1,70,0|0,0:0|0:0,0:0:0:0:
77,35,159398,6,0,L|216:44,1,140,8|0,0:0|0:0,0:0:0:0:
474,142,159983,2,0,L|334:151,1,140,8|0,0:0|0:0,0:0:0:0:
284,227,160422,1,0,0:0:0:0:
284,227,160495,1,0,0:0:0:0:
284,227,160568,5,2,0:0:0:0:
392,27,160715,1,2,0:0:0:0:
192,228,160861,5,2,0:0:0:0:
474,142,161008,1,2,0:0:0:0:
100,229,161154,5,2,0:0:0:0:
450,281,161300,1,2,0:0:0:0:
79,318,161447,5,2,0:0:0:0:
23,279,161520,1,0,0:0:0:0:
9,212,161593,1,2,0:0:0:0:
45,154,161666,1,0,0:0:0:0:
111,135,161739,1,8,0:1:0:0:
111,135,162032,5,8,0:1:0:0:
450,281,162324,1,8,0:0:0:0:
261,320,162617,1,8,0:0:0:0:
306,18,162910,6,0,L|312:115,1,97.9999970092774,4|8,0:2|0:0,0:0:0:0:
299,136,163129,1,0,0:0:0:0:
286,157,163203,1,0,0:0:0:0:
197,76,163349,1,8,0:0:0:0:
18,212,163495,2,0,L|115:205,1,97.9999970092774,0|8,0:0|0:0,0:0:0:0:
136,219,163714,1,0,0:0:0:0:
157,232,163788,1,0,0:0:0:0:
128,45,163934,2,0,P|123:68|126:93,1,48.9999985046387,8|0,0:0|0:0,0:0:0:0:
245,236,164081,5,2,2:3:0:0:
269,234,164154,1,2,2:3:0:0:
294,232,164227,2,0,L|342:228,1,48.9999985046387,8|0,2:3|2:3,0:0:0:0:
198,353,164373,2,0,L|109:347,1,48.9999985046387,0|0,2:3|0:0,0:0:0:0:
102,305,164520,1,8,0:0:0:0:
305,316,164666,2,0,L|402:309,1,97.9999970092774,0|8,0:0|0:0,0:0:0:0:
312,115,164959,2,0,L|318:212,1,97.9999970092774,0|8,0:0|0:0,0:0:0:0:
450,52,165251,6,0,L|353:45,1,97.9999970092774,2|8,2:3|2:3,0:0:0:0:
329,31,165471,1,0,2:3:0:0:
305,17,165544,2,0,L|312:115,1,97.9999970092774,0|8,2:3|0:0,0:0:0:0:
398,166,165837,1,0,0:0:0:0:
197,76,165983,1,8,0:0:0:0:
241,187,166129,1,0,0:0:0:0:
243,211,166202,1,0,0:0:0:0:
245,236,166275,1,8,0:0:0:0:
88,33,166422,5,0,2:3:0:0:
89,57,166495,1,0,2:3:0:0:
91,81,166568,2,0,L|95:130,1,48.9999985046387,8|0,2:3|2:3,0:0:0:0:
33,217,166715,1,0,2:3:0:0:
32,241,166788,1,0,2:3:0:0:
30,265,166861,2,0,L|26:314,1,48.9999985046387,8|0,2:3|2:3,0:0:0:0:
170,336,167007,5,2,0:0:0:0:
203,363,167080,1,0,0:0:0:0:
245,375,167153,1,8,0:0:0:0:
288,370,167226,1,0,0:0:0:0:
327,349,167299,1,2,0:0:0:0:
360,320,167373,1,0,0:0:0:0:
402,308,167446,1,0,0:0:0:0:
446,313,167519,1,0,0:0:0:0:
484,334,167593,6,0,L|475:216,1,97.9999970092774,4|8,1:2|0:0,0:0:0:0:
312,115,167885,1,0,0:0:0:0:
312,115,167959,1,0,0:0:0:0:
312,115,168032,1,8,0:0:0:0:
245,236,168178,2,0,L|343:229,1,97.9999970092774,0|8,0:0|0:0,0:0:0:0:
478,101,168471,2,0,L|409:105,1,48.9999985046387,0|0,0:0|0:0,0:0:0:0:
364,60,168617,1,8,0:0:0:0:
169,191,168764,5,2,2:3:0:0:
152,223,168837,1,2,2:3:0:0:
153,260,168910,1,8,2:3:0:0:
170,292,168983,1,0,2:3:0:0:
200,312,169056,1,0,2:3:0:0:
245,236,169203,1,8,0:0:0:0:
66,71,169349,2,0,L|164:64,1,97.9999970092774,0|8,0:0|0:0,0:0:0:0:
189,86,169568,1,0,0:0:0:0:
214,108,169642,2,0,L|312:115,1,97.9999970092774,0|8,0:0|0:0,0:0:0:0:
238,333,169934,6,0,L|245:235,1,97.9999970092774,4|8,1:2|0:0,0:0:0:0:
395,131,170227,2,0,L|392:83,2,48.9999985046387,0|0|8,0:0|0:0|0:0,0:0:0:0:
406,300,170520,6,0,L|327:294,1,48.9999985046387,2|0,2:3|2:3,0:0:0:0:
189,336,170666,2,0,L|237:332,1,48.9999985046387,8|0,2:3|2:3,0:0:0:0:
401,216,170812,1,8,2:3:0:0:
413,216,170885,1,0,0:0:0:0:
425,217,170958,1,0,0:0:0:0:
437,218,171031,1,0,0:0:0:0:
449,219,171104,5,2,0:0:0:0:
371,384,171251,1,2,0:0:0:0:
277,128,171398,5,2,0:0:0:0:
357,296,171545,1,2,0:0:0:0:
392,83,171690,6,0,L|397:161,1,48.9999985046387,8|0,0:0|0:0,0:0:0:0:
237,332,171837,2,0,L|242:253,1,48.9999985046387,8|0,0:0|0:0,0:0:0:0:
168,191,171983,2,0,L|164:239,3,48.9999985046387,8|0|0|0,0:1|0:0|0:0|0:0,0:0:0:0:
179,36,172276,5,2,0:0:0:0:
60,208,172422,1,2,0:0:0:0:
277,128,172568,5,2,0:0:0:0:
0,150,172715,1,2,0:0:0:0:
16,139,172788,1,0,0:0:0:0:
32,128,172861,5,8,0:0:0:0:
88,288,173007,1,8,0:0:0:0:
179,36,173154,5,8,0:0:0:0:
163,239,173300,1,8,0:0:0:0:
357,296,173446,5,0,0:0:0:0:
168,331,173593,1,2,0:0:0:0:
168,331,173666,1,0,0:0:0:0:
168,331,173739,1,2,0:0:0:0:
268,366,173885,1,2,0:0:0:0:
276,127,174032,5,8,0:0:0:0:
319,150,174105,1,0,0:0:0:0:
365,136,174178,1,8,0:0:0:0:
388,94,174251,1,0,0:0:0:0:
375,48,174325,1,8,0:0:0:0:
332,25,174398,1,0,0:0:0:0:
286,39,174471,1,8,0:0:0:0:
263,81,174544,1,0,0:0:0:0:
276,127,174617,5,2,0:0:0:0:
357,296,174764,1,2,0:0:0:0:
459,50,174910,5,2,0:0:0:0:
250,244,175056,1,2,0:0:0:0:
255,225,175129,1,0,0:0:0:0:
261,206,175203,5,8,0:0:0:0:
496,300,175349,1,8,0:0:0:0:
233,381,175495,5,8,0:0:0:0:
474,291,175642,1,8,0:0:0:0:
276,127,175788,5,2,0:0:0:0:
227,131,175861,1,0,0:0:0:0:
191,163,175934,1,2,0:0:0:0:
178,209,176007,1,0,0:0:0:0:
193,255,176080,1,2,0:0:0:0:
232,283,176153,1,0,0:0:0:0:
280,285,176227,1,2,0:0:0:0:
321,260,176300,1,0,0:0:0:0:
341,216,176373,5,4,0:0:0:0:
45,294,176666,2,0,L|39:384,1,90.9999958343508
80,73,176959,5,2,0:0:0:0:
337,47,177105,1,2,0:0:0:0:
228,330,177251,1,2,0:0:0:0:
229,306,177324,1,0,0:0:0:0:
231,282,177397,1,2,0:0:0:0:
459,50,177544,5,8,0:0:0:0:
227,131,177690,1,8,0:0:0:0:
414,292,177837,1,2,0:0:0:0:
415,268,177910,1,0,0:0:0:0:
417,244,177983,1,2,0:0:0:0:
255,46,178129,5,2,0:0:0:0:
231,282,178275,1,2,0:0:0:0:
38,142,178422,1,2,0:0:0:0:
39,118,178495,1,0,0:0:0:0:
41,94,178568,1,2,0:0:0:0:
459,50,178715,6,0,L|464:128,1,48.9999985046387,8|0,0:0|0:0,0:0:0:0:
373,318,178861,2,0,L|369:269,1,48.9999985046387,8|0,0:0|0:0,0:0:0:0:
227,131,179007,1,12,0:0:0:0:
227,131,179300,5,8,2:3:0:0:
169,301,179446,1,0,2:3:0:0:
169,301,179520,1,0,0:0:0:0:
169,301,179593,1,0,0:0:0:0:
63,21,179739,5,8,2:3:0:0:
121,191,179885,1,0,2:3:0:0:
121,191,179959,1,0,0:0:0:0:
121,191,180032,1,0,0:0:0:0:
24,116,180178,5,8,2:3:0:0:
227,131,180324,1,8,2:3:0:0:
227,131,180617,5,8,0:0:0:0:
121,191,180764,1,8,0:0:0:0:
121,191,180910,1,8,0:0:0:0:
225,380,181056,2,0,L|231:282,1,97.9999970092774,8|8,0:0|0:0,0:0:0:0:
90,182,181349,2,0,L|96:279,1,97.9999970092774,4|8,0:0|0:0,0:0:0:0:
0,384,181642,5,4,0:2:0:0:
315,227,182812,1,4,0:0:0:0:
22,33,183983,1,4,0:2:0:0:
0,384,185154,1,4,0:0:0:0:
90,182,185446,6,0,L|96:279,1,97.9999970092774,8|8,0:3|0:3,0:0:0:0:
156,330,185739,1,4,0:3:0:0:
249,79,186032,6,0,L|255:176,1,97.9999970092774,8|8,0:3|0:3,0:0:0:0:
315,227,186325,1,4,0:2:0:0:
302,0,187495,1,4,0:2:0:0:
112,125,188666,1,4,0:2:0:0:
315,227,189690,5,8,0:3:0:0:
315,227,189764,1,0,0:0:0:0:
315,227,189836,1,4,0:0:0:0:
294,353,189983,1,0,0:0:0:0:
175,146,190129,5,8,0:0:0:0:
196,272,190276,1,8,0:0:0:0:
76,227,190422,5,0,1:0:0:0:
67,250,190495,1,0,1:0:0:0:
65,274,190568,1,0,1:0:0:0:
68,298,190641,1,0,1:0:0:0:
78,321,190714,1,4,0:2:0:0:
175,146,190861,1,0,0:0:0:0:
294,353,191007,6,0,L|391:359,1,97.9999970092774,4|0,0:0|0:0,0:0:0:0:
196,272,191300,1,8,0:0:0:0:
261,199,191446,2,0,L|267:102,1,97.9999970092774,0|0,1:0|0:0,0:0:0:0:
267,101,191739,1,2,0:0:0:0:
442,168,191885,2,0,L|448:265,1,97.9999970092774,8|0,0:0|0:0,0:0:0:0:
364,106,192178,6,0,L|358:9,1,97.9999970092774,4|0,0:2|0:0,0:0:0:0:
175,73,192471,1,8,0:0:0:0:
264,188,192617,1,0,1:0:0:0:
74,154,192764,2,0,L|68:57,1,97.9999970092774,0|2,1:0|0:0,0:0:0:0:
166,197,193056,2,0,L|172:294,1,97.9999970092774,8|0,0:0|0:0,0:0:0:0:
267,101,193349,6,0,L|364:107,1,97.9999970092774,4|0,0:2|0:0,0:0:0:0:
448,265,193642,1,8,0:0:0:0:
448,265,193788,1,0,1:0:0:0:
342,356,193934,2,0,L|348:259,1,97.9999970092774,0|2,0:0|0:0,0:0:0:0:
442,168,194227,2,0,L|448:71,1,97.9999970092774,8|0,0:0|0:0,0:0:0:0:
260,3,194520,6,0,L|266:100,1,97.9999970092774,6|0,0:0|0:0,0:0:0:0:
175,73,194812,2,0,L|181:170,1,97.9999970092774,8|8,0:0|0:0,0:0:0:0:
90,143,195105,1,0,1:0:0:0:
91,167,195178,1,0,0:0:0:0:
93,191,195251,1,0,1:0:0:0:
94,216,195324,1,0,0:0:0:0:
96,240,195397,1,4,0:2:0:0:
5,213,195544,1,0,0:0:0:0:
102,337,195690,6,0,L|199:343,1,97.9999970092774,4|0,0:2|0:0,0:0:0:0:
199,343,195983,1,8,0:0:0:0:
181,170,196129,1,0,1:0:0:0:
251,252,196276,2,0,L|348:258,1,97.9999970092774,0|2,0:0|0:0,0:0:0:0:
232,78,196568,2,0,L|135:72,1,97.9999970092774,8|0,0:0|0:0,0:0:0:0:
358,9,196861,6,0,L|364:106,1,97.9999970092774,4|0,0:2|0:0,0:0:0:0:
364,106,197154,1,8,0:0:0:0:
445,314,197300,2,0,L|451:217,1,97.9999970092774,0|0,1:0|0:0,0:0:0:0:
451,216,197593,1,2,0:0:0:0:
299,282,197739,2,0,L|305:379,1,97.9999970092774,8|0,0:0|0:0,0:0:0:0:
292,184,198032,6,0,L|195:178,1,97.9999970092774,4|0,0:2|0:0,0:0:0:0:
96,240,198324,1,8,0:0:0:0:
96,240,198471,1,0,1:0:0:0:
111,0,198617,2,0,L|105:97,1,97.9999970092774,0|2,0:0|0:0,0:0:0:0:
292,184,198910,2,0,L|286:87,1,97.9999970092774,8|0,0:0|0:0,0:0:0:0:
300,66,199129,1,0,0:0:0:0:
315,46,199203,5,4,0:0:0:0:
331,274,199349,1,0,0:0:0:0:
437,152,199495,5,8,0:0:0:0:
209,168,199641,1,0,0:0:0:0:
201,172,199715,1,0,0:0:0:0:
194,177,199788,1,8,0:0:0:0:
208,382,199934,1,8,0:0:0:0:
208,382,200007,1,0,0:0:0:0:
208,382,200081,2,0,L|204:323,1,48.9999985046387,8|0,0:0|0:0,0:0:0:0:
100,289,200227,2,0,L|96:240,1,48.9999985046387,0|0,1:0|1:0,0:0:0:0:
104,97,200373,5,2,0:0:0:0:
306,174,200520,2,0,L|209:168,1,97.9999970092774,4|0,0:2|0:0,0:0:0:0:
201,172,200739,1,0,0:0:0:0:
194,177,200812,1,4,0:2:0:0:
437,152,200959,2,0,L|443:55,1,97.9999970092774,0|2,0:0|0:0,0:0:0:0:
443,54,201178,1,0,0:0:0:0:
443,54,201251,1,8,0:0:0:0:
306,174,201398,1,0,0:0:0:0:
479,233,201544,5,2,0:0:0:0:
342,353,201690,2,0,L|348:256,1,97.9999970092774,4|0,0:2|0:0,0:0:0:0:
360,247,201910,1,0,0:0:0:0:
372,239,201983,1,4,0:2:0:0:
214,70,202129,2,0,L|208:167,1,97.9999970092774,0|2,0:0|0:0,0:0:0:0:
195,384,202422,1,8,0:0:0:0:
196,359,202495,1,0,0:0:0:0:
198,335,202568,1,8,0:0:0:0:
199,310,202641,1,0,0:0:0:0:
201,286,202715,6,0,L|104:280,1,97.9999970092774,2|4,0:0|0:2,0:0:0:0:
309,125,203007,1,0,0:0:0:0:
308,150,203080,1,0,0:0:0:0:
306,174,203153,1,4,0:2:0:0:
472,330,203300,2,0,L|478:233,1,97.9999970092774,0|2,0:0|0:0,0:0:0:0:
342,353,203593,2,0,L|337:275,1,48.9999985046387,8|0,0:0|0:0,0:0:0:0:
293,246,203739,1,0,0:0:0:0:
104,280,203885,6,0,L|201:286,1,97.9999970092774,2|0,0:0|0:0,0:0:0:0:
129,110,204178,2,0,L|32:116,1,97.9999970092774,8|0,0:0|0:0,0:0:0:0:
31,116,204398,1,0,0:0:0:0:
31,116,204471,1,0,1:0:0:0:
207,184,204617,1,0,1:0:0:0:
178,0,204764,1,8,0:0:0:0:
186,22,204837,1,0,0:0:0:0:
200,42,204910,1,0,0:0:0:0:
219,58,204983,1,0,0:0:0:0:
241,68,205056,5,2,0:0:0:0:
471,55,205203,2,0,L|374:61,1,97.9999970092774,4|0,0:2|0:0,0:0:0:0:
373,61,205423,1,0,0:0:0:0:
373,61,205496,1,4,0:2:0:0:
314,178,205642,2,0,L|411:172,1,97.9999970092774,0|2,0:0|0:0,0:0:0:0:
429,189,205861,1,0,0:0:0:0:
446,206,205934,2,0,P|463:265|417:319,1,97.9999970092774,8|8,0:0|0:0,0:0:0:0:
213,281,206227,6,0,L|207:184,1,97.9999970092774,2|4,0:0|0:2,0:0:0:0:
206,183,206520,1,0,0:0:0:0:
322,360,206666,2,0,L|325:301,1,48.9999985046387,4|0,0:2|0:0,0:0:0:0:
371,254,206812,1,0,0:0:0:0:
228,362,206959,1,2,0:0:0:0:
46,288,207105,1,8,0:0:0:0:
48,312,207178,1,0,0:0:0:0:
50,337,207251,1,8,0:0:0:0:
62,57,207398,6,0,L|56:154,1,97.9999970092774,2|4,0:0|0:2,0:0:0:0:
255,77,207690,2,0,L|251:135,1,48.9999985046387,0|0,0:0|0:0,0:0:0:0:
206,183,207836,1,4,0:2:0:0:
368,99,207983,1,0,0:0:0:0:
215,0,208129,1,2,0:0:0:0:
327,219,208276,1,8,0:0:0:0:
327,219,208349,1,0,0:0:0:0:
327,219,208422,1,8,0:0:0:0:
461,13,208568,6,0,L|457:61,1,48.9999985046387,2|0,0:0|0:0,0:0:0:0:
451,300,208715,2,0,L|410:272,1,48.9999985046387,8|8,0:0|0:0,0:0:0:0:
208,147,208861,2,0,L|260:121,1,48.9999985046387,8|0,0:0|0:0,0:0:0:0:
380,143,209007,1,8,0:0:0:0:
351,377,209154,5,2,0:0:0:0:
327,219,209300,1,8,0:0:0:0:
203,319,209447,1,8,0:0:0:0:
154,322,209520,1,0,0:0:0:0:
105,325,209593,1,8,0:0:0:0:
56,328,209666,1,0,0:0:0:0:
7,331,209739,6,0,L|11:283,1,48.9999985046387,2|0,0:0|0:0,0:0:0:0:
102,119,209885,1,4,0:2:0:0:
134,216,210032,2,0,P|81:220|48:212,1,48.9999985046387
36,77,210178,1,4,0:2:0:0:
72,45,210251,1,0,0:0:0:0:
120,42,210324,1,0,0:0:0:0:
161,67,210397,1,0,0:0:0:0:
178,112,210471,1,2,0:0:0:0:
214,143,210544,1,0,0:0:0:0:
262,146,210617,1,8,0:0:0:0:
303,121,210690,1,0,0:0:0:0:
320,76,210764,2,0,L|324:28,1,48.9999985046387,8|0,0:0|0:0,0:0:0:0:
488,69,210910,6,0,L|484:117,1,48.9999985046387,2|0,0:0|0:0,0:0:0:0:
372,225,211056,2,0,L|376:177,3,48.9999985046387,4|0|0|0,0:2|0:0|0:0|0:0,0:0:0:0:
461,216,211349,1,4,0:2:0:0:
453,263,211422,1,0,0:0:0:0:
421,300,211495,1,0,0:0:0:0:
375,315,211568,1,0,0:0:0:0:
328,304,211642,2,0,P|288:267|281:242,1,48.9999985046387,2|0,0:0|0:0,0:0:0:0:
214,143,211788,2,0,P|202:195|184:214,1,48.9999985046387,8|0,0:0|0:0,0:0:0:0:
132,323,211935,2,0,P|183:306|208:313,1,48.9999985046387,8|0,0:0|0:0,0:0:0:0:
102,119,212081,5,2,0:0:0:0:
77,116,212154,1,0,0:0:0:0:
53,114,212227,1,4,0:2:0:0:
28,112,212300,1,0,0:0:0:0:
4,110,212373,2,0,L|8:158,1,48.9999985046387,0|0,0:0|0:0,0:0:0:0:
132,323,212520,1,4,0:2:0:0:
118,285,212593,1,0,0:0:0:0:
85,263,212666,1,0,0:0:0:0:
45,266,212739,1,0,0:0:0:0:
15,293,212812,1,2,0:0:0:0:
8,332,212885,1,0,0:0:0:0:
27,368,212959,2,0,L|75:372,1,48.9999985046387,8|0,0:0|0:0,0:0:0:0:
328,304,213105,2,0,L|280:308,1,48.9999985046387,8|0,0:0|0:0,0:0:0:0:
151,125,213251,6,0,L|155:173,1,48.9999985046387,2|0,0:0|0:0,0:0:0:0:
302,120,213398,2,0,L|298:72,1,48.9999985046387,4|0,0:2|0:2,0:2:0:0:
181,147,213544,6,0,L|185:195,1,48.9999985046387
332,142,213691,2,0,L|328:94,1,48.9999985046387,4|0,0:2|0:2,0:2:0:0:
201,39,213837,5,2,0:0:0:0:
154,26,213910,1,0,0:0:0:0:
107,37,213983,1,8,0:0:0:0:
70,68,214056,1,0,0:0:0:0:
52,114,214129,2,0,L|56:162,1,48.9999985046387,2|0,0:0|0:0,0:0:0:0:
132,323,214276,2,0,L|128:275,1,48.9999985046387,8|0,0:0|0:0,0:0:0:0:
287,223,214422,5,2,0:0:0:0:
474,316,214568,1,4,0:2:0:0:
437,312,214641,1,0,0:0:0:0:
400,309,214714,1,0,0:0:0:0:
364,306,214787,1,0,0:0:0:0:
327,303,214861,2,0,L|331:351,1,48.9999985046387,4|0,0:2|0:0,0:0:0:0:
406,223,215007,5,0,0:0:0:0:
231,339,215154,1,2,3:0:0:0:
218,129,215300,1,8,0:0:0:0:
218,129,215373,1,0,0:0:0:0:
218,129,215446,1,8,0:0:0:0:
406,223,215593,5,2,0:0:0:0:
293,22,215739,2,0,L|297:70,1,48.9999985046387,4|0,0:2|0:0,0:0:0:0:
370,43,215885,1,0,0:0:0:0:
226,226,216032,2,0,L|217:128,1,97.9999970092774,4|0,0:2|0:0,0:0:0:0:
447,64,216324,1,2,0:0:0:0:
387,294,216471,2,0,L|391:342,3,48.9999985046387,8|0|8|0,0:0|0:0|0:0|0:0,0:0:0:0:
405,222,216764,5,2,0:0:0:0:
369,220,216837,1,0,0:0:0:0:
337,236,216910,1,8,0:0:0:0:
316,266,216983,1,0,0:0:0:0:
313,302,217056,1,0,0:0:0:0:
136,360,217203,5,8,0:0:0:0:
132,323,217276,1,0,0:0:0:0:
129,286,217349,1,2,0:0:0:0:
126,250,217422,1,0,0:0:0:0:
123,213,217495,1,8,0:0:0:0:
226,30,217642,5,0,0:0:0:0:
223,54,217715,1,0,0:0:0:0:
221,78,217788,1,8,0:0:0:0:
219,103,217861,1,0,0:0:0:0:
217,127,217934,1,2,0:0:0:0:
74,116,218081,6,0,L|70:68,3,48.9999985046387,8|0|0|0,0:0|0:0|0:0|0:0,0:0:0:0:
15,207,218373,2,0,L|11:255,1,48.9999985046387,8|0,0:0|0:0,0:0:0:0:
123,213,218520,1,2,0:0:0:0:
171,217,218593,1,0,0:0:0:0:
220,221,218666,1,0,0:0:0:0:
269,225,218739,1,0,0:0:0:0:
318,229,218812,1,2,0:0:0:0:
512,0,219105,5,8,0:1:0:0:
489,169,219251,1,0,0:0:0:0:
354,64,219398,1,8,0:0:0:0:
512,0,219544,1,0,0:0:0:0:
498,20,219617,1,0,0:0:0:0:
484,40,219690,1,2,0:0:0:0:
494,298,219837,1,0,0:0:0:0:
494,298,219910,1,0,0:0:0:0:
494,298,219983,1,8,0:0:0:0:
494,298,220276,5,8,0:1:0:0:
318,229,220422,2,0,L|322:277,1,48.9999985046387,0|0,0:0|0:0,0:0:0:0:
362,161,220568,2,0,L|353:63,1,97.9999970092774,8|0,0:0|0:0,0:0:0:0:
278,345,220861,1,2,0:0:0:0:
80,249,221007,1,0,0:0:0:0:
80,249,221081,1,0,0:0:0:0:
80,249,221154,1,8,0:0:0:0:
80,249,221446,5,8,0:1:0:0:
318,229,221593,1,0,0:0:0:0:
60,174,221739,5,0,0:0:0:0:
298,194,221886,1,0,0:0:0:0:
40,98,222032,5,8,0:1:0:0:
63,94,222105,1,0,0:0:0:0:
88,98,222178,1,0,0:0:0:0:
109,110,222251,1,0,0:0:0:0:
125,128,222324,1,0,0:0:0:0:
35,370,222471,1,0,0:0:0:0:
33,346,222544,1,0,0:0:0:0:
31,322,222617,5,2,0:0:0:0:
246,307,222764,1,0,0:0:0:0:
7,234,222910,5,8,0:0:0:0:
152,380,223057,1,0,0:0:0:0:
207,181,223203,5,2,0:0:0:0:
130,267,223349,1,2,0:0:0:0:
193,172,223495,5,8,0:0:0:0:
143,275,223641,1,0,0:0:0:0:
62,19,223788,5,8,0:1:0:0:
244,69,223934,1,0,0:0:0:0:
232,47,224007,1,0,0:0:0:0:
221,24,224081,1,8,0:0:0:0:
193,172,224227,1,0,0:0:0:0:
342,4,224373,5,2,0:0:0:0:
412,217,224520,1,0,0:0:0:0:
193,172,224666,1,8,0:0:0:0:
193,172,224959,6,0,L|291:163,1,97.9999970092774,8|0,0:1|0:0,0:0:0:0:
464,309,225251,2,0,L|366:300,1,97.9999970092774,8|0,0:0|0:0,0:0:0:0:
376,110,225544,5,2,0:0:0:0:
242,259,225691,1,0,0:0:0:0:
244,283,225764,1,0,0:0:0:0:
246,307,225837,1,8,0:0:0:0:
179,68,226129,5,4,0:2:0:0:
154,70,226202,1,0,0:0:0:0:
130,72,226275,1,0,0:0:0:0:
105,74,226348,1,0,0:0:0:0:
81,76,226422,2,0,P|63:116|82:157,1,48.9999985046387,8|0,0:0|0:0,0:0:0:0:
134,316,226568,5,4,1:2:0:0:
132,291,226641,1,0,0:0:0:0:
130,267,226714,1,0,0:0:0:0:
193,172,226861,1,8,0:0:0:0:
366,300,227007,1,4,1:2:0:0:
390,302,227080,1,0,0:0:0:0:
414,304,227153,1,0,0:0:0:0:
439,306,227226,1,0,0:0:0:0:
463,308,227300,5,2,0:0:0:0:
457,260,227373,1,0,0:0:0:0:
429,221,227446,1,2,0:0:0:0:
386,198,227519,1,0,0:0:0:0:
338,199,227592,1,8,0:0:0:0:
295,222,227665,1,0,0:0:0:0:
268,263,227739,1,8,0:0:0:0:
263,311,227812,1,0,0:0:0:0:
282,356,227885,5,6,0:0:0:0:
324,332,227958,1,0,0:0:0:0:
351,292,228032,1,0,0:0:0:0:
356,244,228105,1,0,0:0:0:0:
338,199,228178,1,4,0:2:0:0:
319,154,228251,1,0,0:0:0:0:
324,106,228324,1,0,0:0:0:0:
351,66,228398,1,0,0:0:0:0:
393,42,228471,5,2,0:0:0:0:
179,68,228617,2,0,L|188:166,1,97.9999970092774,8|0,0:0|0:0,0:0:0:0:
187,165,228837,1,0,0:0:0:0:
187,165,228910,1,8,0:0:0:0:
0,0,229056,6,0,L|98:9,1,97.9999970092774,2|8,0:0|0:0,0:0:0:0:
17,208,229349,2,0,L|12:159,1,48.9999985046387,2|0,0:0|0:0,0:0:0:0:
60,103,229495,1,8,0:0:0:0:
130,267,229642,6,0,L|139:374,2,105.000004005432,0|8|2,1:0|0:0|0:0,0:0:0:0:
130,267,230007,1,0,0:0:0:0:
130,267,230081,1,4,0:2:0:0:
292,155,230227,2,0,L|184:164,1,105.000004005432,0|8,0:0|0:0,0:0:0:0:
356,244,230520,1,0,0:0:0:0:
382,241,230593,1,0,0:0:0:0:
408,239,230666,1,8,0:0:0:0:
391,7,230812,5,4,0:2:0:0:
393,36,230885,1,8,0:0:0:0:
395,65,230958,1,4,0:2:0:0:
397,94,231031,1,8,0:0:0:0:
399,123,231104,1,2,0:0:0:0:
401,152,231177,1,0,0:0:0:0:
404,181,231250,1,8,0:0:0:0:
406,210,231324,1,0,0:0:0:0:
408,239,231398,6,0,L|412:291,1,52.5000020027161,2|0,0:0|0:0,0:0:0:0:
258,359,231544,1,8,0:0:0:0:
260,334,231617,1,0,0:0:0:0:
262,310,231690,2,0,L|324:315,1,52.5000020027161,2|0,0:0|0:0,0:0:0:0:
512,384,231837,1,8,0:0:0:0:
292,155,231983,5,4,0:2:0:0:
239,159,232056,1,0,0:0:0:0:
187,164,232129,1,8,0:0:0:0:
135,169,232202,1,8,0:0:0:0:
82,174,232276,1,8,0:0:0:0:
35,155,232349,1,0,0:0:0:0:
14,108,232422,1,8,0:0:0:0:
34,61,232495,1,0,0:0:0:0:
80,42,232568,6,0,L|84:94,1,52.5000020027161,2|0,0:0|0:0,0:0:0:0:
162,247,232715,2,0,L|156:299,1,52.5000020027161,0|0,0:0|0:0,0:0:0:0:
179,68,232861,2,0,L|283:58,1,105.000004005432,2|0,0:0|0:0,0:0:0:0:
448,169,233154,6,0,L|280:153,1,157.500006008148,4|0,0:0|0:0,0:0:0:0:
310,171,233446,2,0,L|319:275,1,105.000004005432,0|8,0:0|0:0,0:0:0:0:
430,379,233739,1,2,0:0:0:0:
432,352,233812,1,0,0:0:0:0:
434,326,233885,1,0,0:0:0:0:
436,300,233958,1,0,0:0:0:0:
439,274,234032,2,0,L|491:269,1,52.5000020027161,2|0,0:0|0:0,0:0:0:0:
444,72,234178,2,0,L|391:67,1,52.5000020027161,0|0,0:0|0:0,0:0:0:0:
310,171,234324,6,0,L|319:275,1,105.000004005432,2|8,0:0|0:0,0:0:0:0:
169,172,234617,1,2,0:0:0:0:
171,145,234690,1,8,0:0:0:0:
173,119,234763,1,8,0:0:0:0:
175,93,234836,1,0,0:0:0:0:
178,67,234909,5,2,0:0:0:0:
16,229,235056,1,2,0:0:0:0:
237,287,235203,1,0,0:0:0:0:
200,273,235276,1,0,0:0:0:0:
161,276,235349,1,8,0:0:0:0:
128,297,235422,1,0,0:0:0:0:
106,329,235495,5,8,0:0:0:0:
143,343,235568,1,0,0:0:0:0:
182,340,235641,1,8,0:0:0:0:
215,319,235714,1,0,0:0:0:0:
237,287,235788,1,0,0:0:0:0:
279,104,235934,5,8,0:0:0:0:
317,97,236007,1,0,0:0:0:0:
353,110,236080,1,8,0:0:0:0:
378,141,236153,1,0,0:0:0:0:
383,179,236226,1,0,0:0:0:0:
402,359,236373,5,8,0:0:0:0:
440,365,236446,1,0,0:0:0:0:
476,352,236519,1,0,0:0:0:0:
501,321,236592,1,0,0:0:0:0:
506,283,236666,6,0,L|454:278,1,52.5000020027161,2|0,0:0|0:0,0:0:0:0:
383,179,236812,2,0,L|330:183,1,52.5000020027161,0|0,0:0|0:0,0:0:0:0:
237,287,236959,2,0,L|184:282,1,52.5000020027161,2|0,0:0|0:0,0:0:0:0:
114,183,237105,2,0,L|61:187,1,52.5000020027161,0|0,0:0|0:0,0:0:0:0:
216,27,237251,5,2,0:0:0:0:
217,40,237324,1,0,0:0:0:0:
218,53,237397,1,8,0:0:0:0:
219,66,237470,1,0,0:0:0:0:
220,79,237543,1,0,0:0:0:0:
221,92,237616,1,0,0:0:0:0:
222,105,237690,1,8,0:0:0:0:
223,118,237763,1,0,0:0:0:0:
225,131,237836,5,4,1:2:0:0:
225,131,239885,5,0,0:0:0:0:
198,133,239958,1,0,0:0:0:0:
172,135,240031,1,0,0:0:0:0:
146,137,240104,1,0,0:0:0:0:
120,140,240177,1,4,1:2:0:0:
120,140,242081,6,0,L|72:136,1,48.9999985046387,8|0,0:0|0:0,0:0:0:0:
168,76,242227,1,0,0:0:0:0:
193,106,242300,1,0,0:0:0:0:
201,144,242373,1,0,0:0:0:0:
189,181,242446,1,0,0:0:0:0:
161,208,242519,1,8,0:1:0:0:
161,208,243398,5,0,0:0:0:0:
135,237,243471,1,0,0:0:0:0:
128,275,243544,1,0,0:0:0:0:
139,312,243617,1,0,0:0:0:0:
168,339,243690,1,4,1:2:0:0:
168,339,244422,6,0,L|216:343,1,48.9999985046387,8|0,0:0|0:0,0:0:0:0:
385,329,244568,1,0,0:0:0:0:
397,328,244641,1,0,0:0:0:0:
409,327,244714,1,0,0:0:0:0:
421,326,244787,1,0,0:0:0:0:
434,325,244860,5,4,0:2:0:0:
161,208,245007,1,0,0:0:0:0:
201,271,245154,1,2,0:0:0:0:
377,74,245300,5,8,0:0:0:0:
236,205,245447,1,0,0:0:0:0:
248,203,245520,1,0,0:0:0:0:
260,202,245593,1,2,0:0:0:0:
272,201,245666,1,0,0:0:0:0:
284,200,245739,1,8,0:0:0:0:
193,17,245886,1,0,0:0:0:0:
181,19,245959,1,0,0:0:0:0:
169,20,246032,5,2,0:0:0:0:
377,74,246178,1,2,0:0:0:0:
121,145,246324,5,8,0:0:0:0:
285,46,246471,1,2,0:0:0:0:
469,102,246617,6,0,L|465:150,1,48.9999985046387,2|0,0:0|0:0,0:0:0:0:
280,152,246764,2,0,L|284:200,1,48.9999985046387,2|0,0:0|0:0,0:0:0:0:
397,328,246910,2,0,L|388:230,1,97.9999970092774,8|2,0:0|0:0,0:0:0:0:
119,351,247203,6,0,L|216:342,1,97.9999970092774,4|0,0:0|0:0,0:0:0:0:
216,342,247495,1,8,0:0:0:0:
121,145,247642,1,2,0:0:0:0:
121,145,247788,1,0,0:0:0:0:
85,246,247934,6,0,L|182:237,1,97.9999970092774,2|8,0:0|0:0,0:0:0:0:
182,236,248227,1,2,0:0:0:0:
377,74,248373,5,4,1:2:0:0:
285,46,248520,1,0,0:0:0:0:
469,102,248666,2,0,L|478:200,1,97.9999970092774,8|2,0:0|0:0,0:0:0:0:
477,199,248885,1,0,0:0:0:0:
477,199,248959,1,0,0:0:0:0:
292,297,249105,2,0,L|283:199,1,97.9999970092774,2|8,0:0|0:0,0:0:0:0:
300,176,249324,1,0,0:0:0:0:
318,152,249398,1,0,0:0:0:0:
340,384,249544,5,4,1:2:0:0:
340,384,249690,1,0,0:0:0:0:
123,286,249837,2,0,L|114:188,1,97.9999970092774,0|2,0:0|0:0,0:0:0:0:
0,384,250129,5,0,0:0:0:0:
123,286,250276,2,0,L|221:277,1,97.9999970092774,2|8,0:0|0:0,0:0:0:0:
220,277,250568,1,0,0:0:0:0:
7,99,250715,6,0,L|16:197,1,97.9999970092774,4|0,1:2|0:0,0:0:0:0:
123,286,251007,2,0,L|114:384,1,97.9999970092774,8|0,0:0|0:0,0:0:0:0:
194,168,251300,2,0,L|185:70,1,97.9999970092774,2|2,0:0|0:0,0:0:0:0:
324,194,251593,2,0,L|337:341,1,146.999995513916,8|0,0:0|0:0,0:0:0:0:
313,357,251885,5,2,0:0:0:0:
508,210,252032,2,0,L|514:278,1,48.9999985046387,0|0,0:0|0:0,0:0:0:0:
436,240,252178,1,8,0:0:0:0:
472,47,252324,5,2,0:0:0:0:
288,112,252471,1,0,0:0:0:0:
277,90,252544,1,0,0:0:0:0:
273,65,252617,2,0,L|277:16,1,48.9999985046387,8|0,0:0|0:0,0:0:0:0:
240,187,252764,5,2,0:0:0:0:
243,216,252837,1,0,0:0:0:0:
246,245,252910,1,8,0:0:0:0:
248,275,252983,1,0,0:0:0:0:
251,304,253056,1,2,0:0:0:0:
65,192,253203,6,0,L|133:185,1,48.9999985046387,0|0,0:0|0:0,0:0:0:0:
95,264,253349,1,8,0:0:0:0:
35,120,253495,5,2,0:0:0:0:
71,116,253568,1,0,0:0:0:0:
108,113,253641,1,0,0:0:0:0:
144,109,253714,1,0,0:0:0:0:
181,106,253787,1,8,0:0:0:0:
386,201,253934,1,2,0:0:0:0:
350,197,254007,1,0,0:0:0:0:
313,194,254080,1,8,0:0:0:0:
277,190,254153,1,0,0:0:0:0:
240,187,254227,5,2,0:0:0:0:
243,216,254300,1,0,0:0:0:0:
246,245,254373,1,0,0:0:0:0:
248,275,254446,1,0,0:0:0:0:
251,304,254520,2,0,L|245:352,1,48.9999985046387,2|0,0:0|0:0,0:0:0:0:
405,279,254666,1,8,0:0:0:0:
441,261,254739,1,0,0:0:0:0:
465,229,254812,5,2,0:0:0:0:
469,188,254885,1,0,0:0:0:0:
453,151,254958,1,0,0:0:0:0:
421,127,255031,1,2,0:0:0:0:
382,122,255105,1,2,0:0:0:0:
345,139,255178,1,0,0:0:0:0:
321,171,255251,1,8,0:0:0:0:
317,212,255324,1,0,0:0:0:0:
332,248,255398,5,0,0:0:0:0:
328,244,255471,1,0,0:0:0:0:
324,240,255544,1,0,0:0:0:0:
319,237,255617,1,0,0:0:0:0:
313,234,255690,1,2,0:0:0:0:
308,231,255763,1,0,0:0:0:0:
302,229,255837,1,8,0:0:0:0:
296,228,255910,1,0,0:0:0:0:
290,228,255983,1,2,0:0:0:0:
284,228,256056,1,0,0:0:0:0:
277,228,256129,1,0,0:0:0:0:
271,230,256202,1,2,0:0:0:0:
266,232,256276,1,2,0:0:0:0:
260,234,256349,1,0,0:0:0:0:
255,237,256422,1,8,0:0:0:0:
250,241,256495,1,2,0:0:0:0:
245,245,256568,5,2,0:0:0:0:
35,120,256715,1,8,0:0:0:0:
45,147,256788,1,8,0:0:0:0:
55,174,256861,1,2,0:0:0:0:
32,365,257007,2,0,L|37:316,1,48.9999985046387,8|0,0:0|0:0,0:0:0:0:
149,60,257154,6,0,L|143:108,1,48.9999985046387,2|0,0:0|0:0,0:0:0:0:
168,383,257300,2,0,L|162:334,1,48.9999985046387,8|8,0:0|0:0,0:0:0:0:
255,100,257446,1,2,0:0:0:0:
255,100,257520,1,0,0:0:0:0:
255,100,257593,1,8,0:0:0:0:
417,298,257739,5,2,0:0:0:0:
152,220,257885,1,10,0:0:0:0:
352,29,258032,2,0,L|346:77,3,48.9999985046387,2|0|8|0,0:0|0:0|0:1|0:0,0:0:0:0:
255,100,258324,5,0,0:0:0:0:
287,150,258397,1,0,0:0:0:0:
344,169,258470,1,8,0:0:0:0:
401,150,258543,1,8,0:0:0:0:
435,100,258616,1,6,0:0:0:0:
512,384,258910,5,8,0:0:0:0:
152,220,259056,1,8,0:0:0:0:
91,260,259349,5,8,0:0:0:0:
413,30,259495,1,8,0:0:0:0:
349,0,259788,5,10,1:3:0:0:
332,301,259934,1,8,0:0:0:0:
79,135,260081,5,10,0:0:0:0:
254,148,260227,1,8,0:0:0:0:
154,293,260373,1,8,1:3:0:0:
120,326,260446,1,0,0:0:0:0:
72,330,260519,1,2,0:0:0:0:
33,302,260592,1,0,0:0:0:0:
20,256,260666,6,0,L|25:207,1,48.9999985046387,8|0,1:3|0:0,0:0:0:0:
138,14,260812,2,0,L|133:63,1,48.9999985046387,8|0,0:0|0:0,0:0:0:0:
204,227,260959,1,10,0:0:0:0:
277,220,261032,1,0,0:0:0:0:
350,214,261105,1,0,0:0:0:0:
423,207,261178,1,0,0:0:0:0:
496,201,261251,5,4,0:0:0:0:
256,192,261324,12,0,263593,0:0:0:0:
496,201,264764,5,0,0:0:0:0:
502,118,265056,6,0,L|496:201,1,83.9999974365235,8|8,0:0|0:0,0:0:0:0:
436,251,265349,1,4,0:2:0:0:
342,13,265642,6,0,L|336:96,1,83.9999974365235,8|8,0:0|0:0,0:0:0:0:
277,148,265935,1,2,0:2:0:0:
277,148,266959,5,0,0:0:0:0:
84,40,267105,6,0,L|251:50,1,167.999994873047,4|8,0:1|0:0,0:0:0:0:
277,148,267544,2,0,L|109:137,1,167.999994873047,2|0,0:0|0:0,0:0:0:0:
134,234,267983,1,8,0:0:0:0:
134,234,268276,6,0,L|129:283,3,48.9999985046387,2|0|8|0,0:0|0:0|0:0|0:0,0:0:0:0:
109,137,268568,2,0,L|69:108,1,48.9999985046387,0|0,0:0|0:0,0:0:0:0:
205,163,268715,2,0,L|249:142,3,48.9999985046387,8|0|2|0,0:0|0:0|0:0|0:0,0:0:0:0:
250,320,269007,6,0,L|294:340,1,48.9999985046387,8|0,0:0|0:0,0:0:0:0:
292,233,269154,2,0,L|336:253,3,48.9999985046387,8|0|0|0,0:0|0:0|0:0|0:0,0:0:0:0:
395,336,269446,5,8,0:0:0:0:
414,319,269519,1,0,0:0:0:0:
427,299,269592,1,0,0:0:0:0:
436,276,269665,1,0,0:0:0:0:
439,252,269738,1,8,0:0:0:0:
435,228,269811,1,0,0:0:0:0:
426,205,269885,1,0,0:0:0:0:
412,185,269958,1,0,0:0:0:0:
393,169,270032,6,0,L|398:120,1,48.9999985046387,2|0,0:0|0:0,0:0:0:0:
244,94,270178,2,0,L|249:143,1,48.9999985046387,2|2,0:0|0:0,0:0:0:0:
245,368,270324,6,0,L|250:319,1,48.9999985046387,8|0,0:0|0:0,0:0:0:0:
64,59,270471,2,0,L|69:108,1,48.9999985046387,2|0,0:0|0:0,0:0:0:0:
0,384,270617,6,0,L|13:250,1,119.000002269745,4|8,0:0|0:0,0:0:0:0:
154,77,270910,1,0,0:0:0:0:
155,86,270983,1,0,0:0:0:0:
156,96,271056,1,8,0:0:0:0:
368,331,271203,2,0,L|249:318,1,119.000002269745,2|8,0:0|0:0,0:0:0:0:
134,234,271495,2,0,L|127:293,1,59.5000011348725,2|0,0:0|0:0,0:0:0:0:
71,338,271642,1,8,0:0:0:0:
264,184,271788,6,0,L|382:196,1,119.000002269745,4|8,1:2|0:0,0:0:0:0:
212,70,272081,1,0,0:0:0:0:
183,73,272154,1,0,0:0:0:0:
153,76,272227,1,8,0:0:0:0:
338,93,272373,2,0,L|457:106,1,119.000002269745,2|8,0:0|0:0,0:0:0:0:
471,124,272593,1,8,0:0:0:0:
485,142,272666,1,2,0:0:0:0:
264,184,272812,1,8,0:0:0:0:
411,355,272959,5,6,0:0:0:0:
338,93,273105,1,8,0:0:0:0:
143,299,273251,2,0,L|136:358,1,59.5000011348725,2|0,0:0|0:0,0:0:0:0:
68,320,273398,1,8,0:0:0:0:
35,64,273544,2,0,L|153:76,1,119.000002269745,2|8,0:0|0:0,0:0:0:0:
382,196,273837,1,2,0:0:0:0:
352,192,273910,1,0,0:0:0:0:
322,189,273983,1,0,0:0:0:0:
293,186,274056,1,0,0:0:0:0:
264,183,274129,5,4,1:2:0:0:
272,242,274202,1,0,0:0:0:0:
308,289,274275,1,8,0:0:0:0:
362,312,274348,1,8,0:0:0:0:
420,307,274421,1,2,0:0:0:0:
469,274,274494,1,0,0:0:0:0:
496,222,274568,1,8,0:0:0:0:
494,163,274641,1,0,0:0:0:0:
464,112,274715,5,2,0:0:0:0:
264,183,274861,1,8,0:0:0:0:
382,196,275007,1,2,0:0:0:0:
68,320,275154,2,0,L|75:261,1,59.5000011348725,0|0,0:0|0:0,0:0:0:0:
42,4,275300,6,0,L|57:133,1,119.000002269745,4|8,0:0|0:0,0:0:0:0:
188,272,275593,1,0,0:0:0:0:
188,272,275666,1,0,0:0:0:0:
188,272,275739,1,8,0:0:0:0:
271,90,275885,2,0,L|152:75,1,119.000002269745,2|8,0:0|0:0,0:0:0:0:
180,331,276178,2,0,L|187:272,1,59.5000011348725,2|0,0:0|0:0,0:0:0:0:
138,204,276324,1,8,0:0:0:0:
382,196,276471,6,0,L|367:314,1,119.000002269745,4|8,1:2|0:0,0:0:0:0:
510,118,276764,2,0,L|495:0,1,119.000002269745,2|8,0:0|0:0,0:0:0:0:
271,90,277056,2,0,L|264:149,3,59.5000011348725,2|0|8|0,0:0|0:0|0:0|0:0,0:0:0:0:
131,145,277349,2,0,L|138:204,1,59.5000011348725,2|0,0:0|0:0,0:0:0:0:
240,344,277495,2,0,L|247:285,1,59.5000011348725,8|0,0:0|0:0,0:0:0:0:
217,0,277642,5,4,0:0:0:0:
187,3,277715,1,0,0:0:0:0:
157,7,277788,1,8,0:0:0:0:
128,10,277861,1,8,0:0:0:0:
98,14,277934,1,2,0:0:0:0:
270,90,278081,5,8,0:0:0:0:
300,93,278154,1,0,0:0:0:0:
330,97,278227,1,2,0:0:0:0:
359,100,278300,1,0,0:0:0:0:
389,104,278373,1,8,0:0:0:0:
466,236,278520,6,0,L|459:295,1,59.5000011348725,2|0,0:0|0:0,0:0:0:0:
367,314,278666,2,0,L|360:373,1,59.5000011348725,8|0,0:0|0:0,0:0:0:0:
101,283,278812,5,8,0:1:0:0:
59,243,278885,1,0,0:0:0:0:
51,186,278958,1,8,0:0:0:0:
80,135,279031,1,0,0:0:0:0:
134,114,279104,1,0,0:0:0:0:
190,131,279177,1,0,0:0:0:0:
223,180,279251,1,8,0:0:0:0:
219,238,279324,1,0,0:0:0:0:
179,281,279397,5,8,0:1:0:0:
98,14,279544,1,8,0:0:0:0:
376,39,279690,1,8,0:0:0:0:
382,98,279763,1,8,0:0:0:0:
389,157,279836,1,8,0:0:0:0:
396,216,279909,1,8,0:0:0:0:
403,275,279983,6,0,L|273:258,1,125.999996154785,6|8,0:0|0:0,0:0:0:0:
500,117,280276,1,0,0:0:0:0:
512,380,280422,2,0,L|500:289,1,62.9999980773926,8|0,0:0|0:0,0:0:0:0:
389,157,280568,2,0,L|259:140,1,125.999996154785,2|8,0:0|0:0,0:0:0:0:
13,219,280861,2,0,L|142:202,1,125.999996154785,2|8,0:0|0:0,0:0:0:0:
146,62,281154,5,4,1:2:0:0:
129,344,281300,1,8,0:0:0:0:
129,344,281373,1,0,0:0:0:0:
129,344,281446,1,0,0:0:0:0:
13,219,281593,2,0,L|28:94,1,125.999996154785,8|2,0:0|0:0,0:0:0:0:
262,187,281885,2,0,L|137:202,1,125.999996154785,0|2,0:0|0:0,0:0:0:0:
137,202,282178,1,8,0:0:0:0:
244,22,282324,5,4,0:0:0:0:
276,26,282397,1,0,0:0:0:0:
309,30,282470,1,8,0:0:0:0:
342,34,282543,1,0,0:0:0:0:
375,38,282616,1,0,0:0:0:0:
130,204,282764,2,0,L|279:184,1,132.999996448517,8|2,0:0|0:0,0:0:0:0:
285,209,282983,1,0,0:0:0:0:
308,232,283056,2,0,L|457:251,1,132.999996448517,8|2,0:0|0:0,0:0:0:0:
146,62,283349,1,8,0:0:0:0:
146,62,283422,1,0,0:0:0:0:
146,62,283495,6,0,L|14:78,1,132.999996448517,4|8,1:2|0:0,0:0:0:0:
244,22,283788,1,0,0:0:0:0:
129,202,283934,2,0,L|146:334,1,132.999996448517,8|2,0:0|0:0,0:0:0:0:
146,333,284154,1,0,0:0:0:0:
146,333,284227,1,8,0:0:0:0:
383,150,284373,2,0,L|400:19,1,132.999996448517,2|8,0:0|0:0,0:0:0:0:
512,384,284666,5,4,0:0:0:0:
479,379,284739,1,0,0:0:0:0:
446,375,284812,1,8,0:0:0:0:
413,371,284885,1,0,0:0:0:0:
380,367,284958,1,0,0:0:0:0:
129,202,285105,5,8,0:0:0:0:
161,206,285178,1,0,0:0:0:0:
194,210,285251,1,2,0:0:0:0:
227,214,285324,1,0,0:0:0:0:
260,218,285397,1,8,0:0:0:0:
382,149,285544,2,0,L|401:11,1,140,2|8,0:0|0:0,0:0:0:0:
31,279,285837,6,0,L|13:140,1,140,4|8,1:2|0:0,0:0:0:0:
248,83,286129,1,0,0:0:0:0:
180,316,286276,1,8,0:0:0:0:
172,54,286422,2,0,P|192:25|222:8,1,70,2|0,0:0|3:0,0:0:0:0:
310,32,286568,2,0,P|325:63|325:97,1,70,8|0,3:0|0:0,0:0:0:0:
260,162,286715,2,0,P|225:159|196:142,2,70,2|0|8,0:0|0:0|0:0,0:0:0:0:
290,278,287007,5,6,0:0:0:0:
326,273,287080,1,0,0:0:0:0:
362,268,287153,1,0,0:0:0:0:
399,263,287226,1,0,0:0:0:0:
435,259,287299,1,8,0:0:0:0:
129,202,287446,5,6,0:0:0:0:
124,238,287519,1,0,0:0:0:0:
119,274,287592,1,0,0:0:0:0:
114,311,287665,1,0,0:0:0:0:
110,347,287738,1,8,0:0:0:0:
349,162,287885,2,0,L|330:16,1,146.999995513916,8|0,0:0|0:0,0:0:0:0:
512,68,288178,5,2,0:0:0:0:
435,259,288324,2,0,L|444:186,1,73.4999977569581,8|8,0:0|0:0,0:0:0:0:
349,162,288471,2,0,L|330:307,1,146.999995513916,2|8,0:0|0:0,0:0:0:0:
151,158,288764,2,0,L|134:33,1,125.999996154785,8|8,0:0|0:0,0:0:0:0:
132,303,289056,2,0,L|256:319,1,105.000004005432,2|0,0:0|0:0,0:0:0:0:
16,215,289349,1,4,0:0:0:0:
349,162,289642,6,0,L|335:266,1,105.000004005432,0|8,0:0|0:0,0:0:0:0:
330,16,289934,1,2,0:0:0:0:
330,16,290227,2,0,L|225:29,1,105.000004005432,2|0,0:0|0:0,0:0:0:0:
214,47,290446,1,8,0:0:0:0:
202,64,290520,6,0,L|188:168,1,105.000004005432,2|0,0:0|0:0,0:0:0:0:
178,366,290812,2,0,L|149:147,1,210.000008010865,2|8,0:0|0:0,0:0:0:0:
32,257,291251,2,0,L|136:270,1,105.000004005432,0|8,0:0|0:0,0:0:0:0:
136,270,291544,1,0,0:0:0:0:
296,170,291690,6,0,L|321:364,1,195.999994018555,4|8,0:0|0:0,0:0:0:0:
321,364,292129,1,8,0:0:0:0:
460,64,292276,2,0,L|434:258,1,195.999994018555,4|8,0:2|0:0,0:0:0:0:
434,258,292715,1,8,0:0:0:0:
512,384,292861,1,8,0:0:0:0:
296,170,293300,5,0,0:0:0:0:
296,170,293373,1,0,0:0:0:0:
296,170,293446,2,0,P|238:203|184:187,1,90.9999958343508,2|0,0:0|0:0,0:0:0:0:
176,97,293739,2,0,P|211:69|256:65,1,90.9999958343508,2|0,0:0|0:0,0:0:0:0:
100,186,294032,6,0,L|122:360,2,167.999994873047,4|0|0,0:2|0:0|0:0,0:0:0:0:
100,186,294910,1,0,0:0:0:0:
4,331,295051,2,0,L|0:365,2,35,2|0|8,0:0|0:0|0:0,0:0:0:0:
121,352,295356,6,0,L|252:369,1,105,0|0,0:0|0:0,0:0:0:0:
255,356,295643,2,0,L|242:262,2,70,8|0|0,0:0|0:0|0:0,0:0:0:0:
371,242,296194,2,0,L|360:321,1,70,8|0,0:0|0:0,0:0:0:0:
512,384,296650,6,0,L|493:241,1,140,4|2,0:0|0:0,0:0:0:0:
493,245,298152,5,8,0:0:0:0:
428,204,298520,1,0,0:0:0:0:
353,220,298893,1,8,0:0:0:0:
311,284,299351,1,0,0:0:0:0:
368,106,299906,5,4,0:0:0:0:
256,192,299990,12,4,309344,0:3:0:0:
256,192,309428,12,4,310523,0:0:0:0:
