osu file format v14

[General]
AudioFilename: audio.mp3
AudioLeadIn: 0
PreviewTime: 260885
Countdown: 0
SampleSet: Normal
StackLeniency: 0.7
Mode: 1
LetterboxInBreaks: 0
WidescreenStoryboard: 1

[Editor]
Bookmarks: 186324,295125
DistanceSpacing: 1.5
BeatDivisor: 4
GridSize: 32
TimelineZoom: 1.800005

[Metadata]
Title:Road of Resistance
TitleUnicode:Road of Resistance
Artist:BABYMETAL
ArtistUnicode:BABYMETAL
Creator:4sbet1
Version:Inner Oni
Source:
Tags:metal jmetal j-metal japanese dragonforce herman li sam totman ktsune suzuka nakamoto yui mizuno moa kikuchi su-metal yuimetal moametal
BeatmapID:3810616
BeatmapSetID:1854392

[Difficulty]
HPDrainRate:5
CircleSize:5
OverallDifficulty:7
ApproachRate:5
SliderMultiplier:1.4
SliderTickRate:1

[Events]
//Background and Video events
0,0,"BG_RoR.jpg",0,70
//Break Periods
2,47354,52832
//Storyboard Layer 0 (Background)
//Storyboard Layer 1 (Fail)
//Storyboard Layer 2 (Pass)
//Storyboard Layer 3 (Foreground)
//Storyboard Layer 4 (Overlay)
//Storyboard Sound Samples

[TimingPoints]
1091,301.507537688442,4,1,0,40,1,0
1091,-138.69625520111,4,1,0,40,0,0
7064,291.26213592233,4,1,0,60,1,0
7064,-125.609756097561,4,1,0,60,0,0
8520,293.398533007335,4,1,0,60,1,8
8520,-124.695121951219,4,1,0,60,0,8
9400,298.507462686567,4,1,0,60,1,0
9400,-122.560975609756,4,1,0,60,0,0
11743,291.26213592233,4,1,0,60,1,0
11743,-125.609756097561,4,1,0,60,0,0
12908,292.682926829268,4,1,0,60,1,0
12908,-125,4,1,0,60,0,0
15249,296.73590504451,4,1,0,60,1,0
15249,-123.292682926829,4,1,0,60,0,0
16422,294.117647058824,4,1,0,60,1,0
16422,-124.390243902439,4,1,0,60,0,0
17598,292.682926829268,4,1,0,60,1,0
17598,-125,4,1,0,60,0,0
19793,310.880829015544,4,1,0,60,1,8
19793,-117.682926829268,4,1,0,60,0,8
19948,287.081339712919,4,1,0,60,1,0
19948,-127.439024390244,4,1,0,60,0,0
20378,292.682926829268,4,1,0,60,1,8
20378,-125,4,1,0,60,0,8
21088,-125,4,1,0,60,0,0
21109,292.682926829268,4,1,0,60,1,0
21109,-125,4,1,0,60,0,0
21673,-123.078540429834,4,1,0,61,0,0
22112,-119.293699961253,4,1,0,62,0,0
22185,-118.494955119742,4,1,0,62,0,0
22258,-117.652970215917,4,1,0,62,0,0
22331,-116.769807330748,4,1,0,63,0,0
22405,-115.834685831223,4,1,0,63,0,0
22478,-114.875058398814,4,1,0,64,0,0
22551,-113.880734665966,4,1,0,64,0,0
22624,-112.853916859758,4,1,0,64,0,0
22697,-111.796815218928,4,1,0,65,0,0
22770,-110.711638121768,4,1,0,65,0,0
22844,-109.585193319965,4,1,0,66,0,0
22917,-108.450127273947,4,1,0,66,0,0
22990,-107.293538660187,4,1,0,67,0,0
23063,-106.117540682469,4,1,0,67,0,0
23136,-104.924204190718,4,1,0,68,0,0
23209,-103.715551595557,4,1,0,68,0,0
23283,-102.476728036483,4,1,0,69,0,0
23356,-101.243146670742,4,1,0,69,0,0
23429,-100,4,1,0,70,0,0
32230,300,4,1,0,70,1,8
32230,-97.5609756097561,4,1,0,70,0,8
32529,292.682926829268,4,1,0,70,1,8
32529,-100,4,1,0,70,0,8
32822,292.682926829268,4,1,0,70,1,0
32822,-100,4,1,0,70,0,0
37504,290.556900726392,4,1,0,70,1,0
37504,-100.731707317073,4,1,0,70,0,0
38666,292.682926829268,4,1,0,70,1,0
39818,-100,4,1,0,70,0,0
39965,-101.326605115484,4,1,0,70,0,0
40111,-102.661604822926,4,1,0,70,0,0
40257,-104.01419343722,4,1,0,70,0,0
40404,-105.394051048187,4,1,0,70,0,0
40550,-106.782640226273,4,1,0,70,0,0
40696,-108.189524363954,4,1,0,70,0,0
40843,-109.624772128584,4,1,0,70,0,0
40916,-110.344573918007,4,1,0,70,0,0
40989,-111.069101962327,4,1,0,70,0,0
41135,-112.532461150732,4,1,0,70,0,0
41282,-114.025322536937,4,1,0,70,0,0
41428,-115.527630564077,4,1,0,70,0,0
41559,-115.527630564077,4,1,0,70,0,0
41600,324.324324324324,4,1,0,70,1,8
41600,-105.706032572562,4,1,0,70,0,0
41640,-106.476442854864,4,1,0,70,0,0
41721,-107.252468067447,4,1,0,70,0,0
41873,-107.252468067447,4,1,0,70,0,0
41924,401.33779264214,4,1,0,70,1,8
41924,-87.9395585263478,4,1,0,70,0,0
42124,-89.5305691164814,4,1,0,70,0,0
42325,292.682926829268,4,1,0,70,1,0
42325,-125,4,1,0,40,0,0
45800,-166.666666666667,4,1,0,40,0,0
55166,-111.111111111111,4,1,0,70,0,0
56352,-111.111111111111,4,1,0,70,0,0
56425,-110.380233097325,4,1,0,70,0,0
56499,-109.64473398706,4,1,0,70,0,0
56572,-108.924447244309,4,1,0,71,0,0
56645,-108.209353693401,4,1,0,71,0,0
56718,-107.499409859089,4,1,0,71,0,0
56791,-106.794572709549,4,1,0,71,0,0
56864,-106.094799650814,4,1,0,72,0,0
56938,-105.390566055491,4,1,0,72,0,0
57011,-104.700863054552,4,1,0,73,0,0
57084,-104.016098372128,4,1,0,73,0,0
57157,-103.336231117265,4,1,0,74,0,0
57230,-102.661220810168,4,1,0,75,0,0
57523,-100,4,1,0,80,0,0
57544,292.682926829268,4,1,0,80,1,0
57544,-100,4,1,0,100,0,1
76275,-100,4,1,0,100,0,0
76312,-100,4,1,0,80,0,0
93815,-100,4,1,0,80,0,0
93888,-100.658977962889,4,1,0,79,0,0
93962,-101.33141531116,4,1,0,79,0,0
94035,-101.999167007544,4,1,0,78,0,0
94108,-102.671319040454,4,1,0,77,0,0
94254,-104.028940295929,4,1,0,76,0,0
94327,-104.714468087506,4,1,0,76,0,0
94401,-105.413997535067,4,1,0,75,0,0
94474,-106.108652548623,4,1,0,74,0,0
94547,-106.807885185637,4,1,0,74,0,0
94620,-107.511725611638,4,1,0,73,0,0
94693,-108.22020419094,4,1,0,73,0,0
94766,-108.933351487952,4,1,0,72,0,0
94840,-109.661064559307,4,1,0,71,0,0
94913,-110.383706808622,4,1,0,71,0,0
94986,-111.111111111111,4,1,0,70,0,0
98498,-111.111111111111,4,1,0,70,0,0
98644,-109.654637189995,4,1,0,70,0,0
98718,-108.924447244309,4,1,0,71,0,0
98791,-108.209353693401,4,1,0,71,0,0
98937,-106.794572709549,4,1,0,71,0,0
99010,-106.094799650814,4,1,0,72,0,0
99083,-105.400048521278,4,1,0,72,0,0
99230,-104.016098372128,4,1,0,73,0,0
99376,-102.661220810168,4,1,0,75,0,0
99449,-101.991027377106,4,1,0,76,0,0
99522,-101.325611145406,4,1,0,77,0,0
99596,-100.65591516516,4,1,0,78,0,0
99669,-100,4,1,0,80,0,0
125446,292.682926829268,4,1,0,100,1,1
158226,-100,4,1,0,100,0,0
158790,-102.667854418058,4,1,0,80,0,0
159376,-105.411627423196,4,1,0,80,0,0
159961,-108.223856182552,4,1,0,80,0,0
160546,-100,4,1,0,80,0,0
181677,-125,4,1,0,60,0,0
189668,-125,4,1,0,60,0,0
189742,-124.166581031174,4,1,0,60,0,0
189815,-123.350943800831,4,1,0,60,0,0
189961,-121.738834433154,4,1,0,61,0,0
190107,-120.151855298341,4,1,0,61,0,0
190254,-118.578892685505,4,1,0,62,0,0
190400,-117.040860779638,4,1,0,63,0,0
190473,-116.280751896619,4,1,0,63,0,0
190546,-115.526503690127,4,1,0,64,0,0
190620,-114.767846408156,4,1,0,65,0,0
190693,-114.025227258839,4,1,0,65,0,0
190985,-111.111111111111,4,1,0,70,0,0
199181,-111.111111111111,4,1,0,70,0,0
199327,-109.653401352028,4,1,0,70,0,0
199473,-108.216678460093,4,1,0,71,0,0
199620,-106.790963025357,4,1,0,71,0,0
199693,-106.090619965694,4,1,0,72,0,0
199766,-105.395307171574,4,1,0,72,0,0
199839,-104.704982803978,4,1,0,73,0,0
199912,-104.01960544693,4,1,0,73,0,0
199985,-103.33913410223,4,1,0,74,0,0
200059,-102.654306902308,4,1,0,75,0,0
200132,-101.983592055162,4,1,0,76,0,0
200205,-101.317662138831,4,1,0,77,0,0
200278,-100.656477780528,4,1,0,78,0,0
200351,-100,4,1,0,80,0,0
237872,-125,4,1,0,70,0,0
244839,-125,4,1,0,70,0,0
244912,-124.115809733661,4,1,0,70,0,0
244985,-123.239107053467,4,1,0,70,0,0
245059,-122.357954120539,4,1,0,70,0,0
245132,-121.496085365152,4,1,0,70,0,0
245205,-120.641464277854,4,1,0,70,0,0
245278,-119.794013447619,4,1,0,71,0,0
245351,-118.95365652731,4,1,0,71,0,0
245424,-118.120318215444,4,1,0,71,0,0
245498,-117.282651645807,4,1,0,71,0,0
245571,-116.463222360331,4,1,0,71,0,0
245644,-115.650590892873,4,1,0,71,0,0
245717,-114.844685962897,4,1,0,71,0,0
245790,-114.045437249593,4,1,0,72,0,0
245864,-113.241962407233,4,1,0,72,0,0
245937,-112.455907745567,4,1,0,72,0,0
246010,-111.676303018132,4,1,0,72,0,0
246083,-110.903081597332,4,1,0,73,0,0
246156,-110.136177737716,4,1,0,73,0,0
246229,-109.375526561427,4,1,0,73,0,0
246303,-108.610771614252,4,1,0,73,0,0
246376,-107.86251804609,4,1,0,74,0,0
246449,-107.12032674335,4,1,0,74,0,0
246522,-106.38413616965,4,1,0,75,0,0
246595,-105.65388558742,4,1,0,75,0,0
246668,-104.929515044979,4,1,0,76,0,0
246742,-104.201162359489,4,1,0,76,0,0
246815,-103.488453657507,4,1,0,77,0,0
246888,-102.781448945258,4,1,0,77,0,0
246961,-102.080091300328,4,1,0,78,0,0
247034,-101.384324525071,4,1,0,78,0,0
247107,-100.694093135106,4,1,0,79,0,0
247181,-100,4,1,0,80,0,0
261287,-125,4,1,0,20,0,0
263519,-125,4,1,0,60,0,0
264726,-125,4,1,0,60,0,0
267067,-100,4,1,0,100,0,0
267668,-125,4,1,0,70,0,0
267815,-123.579054716094,4,1,0,70,0,0
267961,-122.186890155593,4,1,0,70,0,0
268107,-120.813447358377,4,1,0,71,0,0
268254,-119.449188482931,4,1,0,71,0,0
268327,-118.778532857978,4,1,0,71,0,0
268400,-118.112360643671,4,1,0,71,0,0
268473,-117.450633849914,4,1,0,72,0,0
268546,-116.793314900636,4,1,0,72,0,0
268620,-116.131452305713,4,1,0,72,0,0
268693,-115.482897060507,4,1,0,72,0,0
268766,-114.838638864469,4,1,0,73,0,0
268839,-114.198641747601,4,1,0,73,0,0
268912,-113.562870126618,4,1,0,73,0,0
268985,-112.931288799761,4,1,0,74,0,0
269059,-112.295296757941,4,1,0,74,0,0
269132,-111.67204812949,4,1,0,75,0,0
269205,-111.052885964001,4,1,0,75,0,0
269278,-110.437776540524,4,1,0,76,0,0
269351,-109.826686494865,4,1,0,76,0,0
269424,-109.21958281487,4,1,0,77,0,0
269498,-108.608197807396,4,1,0,78,0,0
269571,-108.009022702044,4,1,0,78,0,0
269644,-107.413736556396,4,1,0,79,0,0
269717,-106.822307725415,4,1,0,80,0,0
269790,-106.234704893604,4,1,0,81,0,0
269864,-105.642925909272,4,1,0,82,0,0
269937,-105.062933780968,4,1,0,83,0,0
270010,-104.486675226504,4,1,0,85,0,0
270083,-103.91412021066,4,1,0,86,0,0
270156,-103.345239006956,4,1,0,88,0,0
270229,-102.780002193698,4,1,0,89,0,0
270303,-102.210712170932,4,1,0,91,0,0
270376,-101.652726003836,4,1,0,93,0,0
270449,-101.098297363332,4,1,0,95,0,0
270522,-100.547398012436,4,1,0,97,0,0
270595,-100,4,1,0,100,0,0
270616,-100,4,1,0,100,0,1
289348,-100,4,1,0,100,0,0
289385,-111.111111111111,4,1,0,80,0,0
294031,-111.111111111111,4,1,0,80,0,0
294909,283.018867924528,4,1,0,80,1,8
294909,-119.308364067771,4,1,0,77,0,0
295032,-119.308364067771,4,1,0,77,0,0
295050,300,4,1,0,77,1,0
295050,-113.236834927126,4,1,0,77,0,0
295106,-113.236834927126,4,1,0,76,0,0
295125,-113.601161875293,4,1,0,76,0,0
295181,-113.601161875293,4,1,0,76,0,0
295201,307.692307692308,4,1,0,76,1,8
295201,-111.122253705968,4,1,0,76,0,0
295337,-111.122253705968,4,1,0,75,0,0
295355,287.081339712919,4,1,0,75,1,8
295355,-119.888415647188,4,1,0,75,0,0
295619,-119.888415647188,4,1,0,75,0,0
295642,355.029585798817,4,1,0,75,1,8
295642,-98.1422557233242,4,1,0,75,0,0
295972,-98.1422557233242,4,1,0,73,0,0
295997,392.156862745098,4,1,0,73,1,8
295997,-90.2119363104873,4,1,0,73,0,0
296165,-90.2119363104873,4,1,0,73,0,0
296193,441.176470588235,4,1,0,73,1,8
296193,-80.8643716405132,4,1,0,73,0,0
296383,-80.8643716405132,4,1,0,72,0,0
296413,472.44094488189,4,1,0,72,1,8
296413,-76.2279392540979,4,1,0,72,0,0
296599,-76.2279392540979,4,1,0,71,0,0
296649,800,4,1,0,71,1,0
296649,-45.473824674536,4,1,0,71,0,0
297405,-45.473824674536,4,1,0,68,0,0
297449,703.812316715542,4,1,0,68,1,0
297449,-53.4903148627746,4,1,0,68,0,0
298108,-53.4903148627746,4,1,0,66,0,0
298166,736.648250460405,4,1,0,66,1,8
298166,-52.6997488559347,4,1,0,66,0,0
298488,-52.6997488559347,4,1,0,65,0,0
298529,745.80484773151,4,1,0,65,1,8
298529,-52.8683253001818,4,1,0,65,0,0
298855,-52.8683253001818,4,1,0,63,0,0
298912,915.33180778032,4,1,0,63,1,8
298912,-43.7891245852736,4,1,0,63,0,0
299312,-43.7891245852736,4,1,0,62,0,0
299350,1107.0110701107,4,1,0,62,1,8
299350,-36.8926586062473,4,1,0,62,0,0
299856,-36.8926586062473,4,1,0,40,0,0
299899,337.078651685393,4,1,0,40,1,0
299899,-124.04181184669,4,1,0,40,0,0
309316,-69.4634146341463,4,1,0,100,0,0

[HitObjects]
256,192,1091,12,0,4106,0:0:0:0:
256,192,4709,5,4,0:0:0:0:
256,192,7064,1,4,0:0:0:0:
256,192,8520,1,8,0:0:0:0:
256,192,8813,1,0,0:0:0:0:
256,192,9400,1,4,0:0:0:0:
256,192,11743,1,4,0:0:0:0:
256,192,12908,1,0,0:0:0:0:
256,192,13200,1,0,0:0:0:0:
256,192,13347,1,0,0:0:0:0:
256,192,13493,1,8,0:0:0:0:
256,192,13786,1,8,0:0:0:0:
256,192,13932,1,8,0:0:0:0:
256,192,14078,1,4,0:0:0:0:
256,192,14956,1,0,0:0:0:0:
256,192,15054,1,0,0:0:0:0:
256,192,15151,1,0,0:0:0:0:
256,192,15249,1,8,0:0:0:0:
256,192,15694,1,0,0:0:0:0:
256,192,16139,1,0,0:0:0:0:
256,192,16422,1,4,0:0:0:0:
256,192,17010,1,8,0:0:0:0:
256,192,17598,1,4,0:0:0:0:
256,192,17793,1,8,0:0:0:0:
256,192,17890,1,0,0:0:0:0:
256,192,18085,1,8,0:0:0:0:
256,192,18183,1,0,0:0:0:0:
256,192,18280,1,0,0:0:0:0:
256,192,18378,1,0,0:0:0:0:
256,192,18476,1,0,0:0:0:0:
256,192,18768,1,4,0:0:0:0:
256,192,19793,1,0,0:0:0:0:
256,192,19870,1,0,0:0:0:0:
256,192,19948,1,8,0:0:0:0:
256,192,20235,1,0,0:0:0:0:
256,192,20378,1,8,0:0:0:0:
256,192,20670,1,0,0:0:0:0:
256,192,20817,1,8,0:0:0:0:
256,192,21109,1,4,0:0:0:0:
256,192,21694,1,8,0:0:0:0:
256,192,22133,1,0,0:0:0:0:
256,192,22206,1,0,0:0:0:0:
256,192,22279,1,8,0:0:0:0:
256,192,22352,1,0,0:0:0:0:
256,192,22426,1,8,0:0:0:0:
256,192,22499,1,0,0:0:0:0:
256,192,22572,1,8,0:0:0:0:
256,192,22645,1,8,0:0:0:0:
256,192,22718,1,0,0:0:0:0:
256,192,22791,1,0,0:0:0:0:
256,192,22865,1,8,0:0:0:0:
256,192,22938,1,0,0:0:0:0:
256,192,23011,1,0,0:0:0:0:
256,192,23084,1,0,0:0:0:0:
256,192,23157,1,8,0:0:0:0:
256,192,23230,1,8,0:0:0:0:
256,192,23304,1,8,0:0:0:0:
256,192,23450,1,0,0:0:0:0:
256,192,23523,1,0,0:0:0:0:
256,192,23596,1,0,0:0:0:0:
256,192,23743,1,0,0:0:0:0:
256,192,23816,1,0,0:0:0:0:
256,192,23889,1,0,0:0:0:0:
256,192,24182,1,8,0:0:0:0:
256,192,24328,1,0,0:0:0:0:
256,192,24401,1,0,0:0:0:0:
256,192,24474,1,0,0:0:0:0:
256,192,24621,1,8,0:0:0:0:
256,192,25206,1,8,0:0:0:0:
256,192,25791,1,0,0:0:0:0:
256,192,25865,1,0,0:0:0:0:
256,192,25938,1,0,0:0:0:0:
256,192,26084,1,0,0:0:0:0:
256,192,26157,1,0,0:0:0:0:
256,192,26230,1,0,0:0:0:0:
256,192,26523,1,8,0:0:0:0:
256,192,26669,1,0,0:0:0:0:
256,192,26743,1,0,0:0:0:0:
256,192,26816,1,0,0:0:0:0:
256,192,26962,1,8,0:0:0:0:
256,192,27401,1,0,0:0:0:0:
256,192,27474,1,0,0:0:0:0:
256,192,27548,1,8,0:0:0:0:
256,192,27694,1,0,0:0:0:0:
256,192,28133,1,8,0:0:0:0:
256,192,28206,1,8,0:0:0:0:
256,192,28279,1,8,0:0:0:0:
256,192,28426,1,8,0:0:0:0:
256,192,28499,1,8,0:0:0:0:
256,192,28572,1,8,0:0:0:0:
256,192,28865,1,0,0:0:0:0:
256,192,29011,1,8,0:0:0:0:
256,192,29084,1,8,0:0:0:0:
256,192,29157,1,8,0:0:0:0:
256,192,29304,1,0,0:0:0:0:
256,192,29889,1,8,0:0:0:0:
256,192,30182,1,0,0:0:0:0:
256,192,30474,1,0,0:0:0:0:
256,192,30548,1,0,0:0:0:0:
256,192,30621,1,0,0:0:0:0:
256,192,30767,1,0,0:0:0:0:
256,192,30840,1,0,0:0:0:0:
256,192,30913,1,0,0:0:0:0:
256,192,31206,1,8,0:0:0:0:
256,192,31352,1,0,0:0:0:0:
256,192,31426,1,0,0:0:0:0:
256,192,31499,1,0,0:0:0:0:
256,192,31645,1,8,0:0:0:0:
256,192,32084,1,0,0:0:0:0:
256,192,32157,1,0,0:0:0:0:
256,192,32230,1,8,0:0:0:0:
256,192,32380,1,8,0:0:0:0:
256,192,32530,1,8,0:0:0:0:
256,192,32675,1,8,0:0:0:0:
256,192,32821,1,0,0:0:0:0:
256,192,32895,1,0,0:0:0:0:
256,192,32968,1,0,0:0:0:0:
256,192,33114,1,0,0:0:0:0:
256,192,33187,1,0,0:0:0:0:
256,192,33261,1,0,0:0:0:0:
256,192,33553,1,8,0:0:0:0:
256,192,33700,1,0,0:0:0:0:
256,192,33773,1,0,0:0:0:0:
256,192,33846,1,0,0:0:0:0:
256,192,33992,1,8,0:0:0:0:
256,192,34578,1,8,0:0:0:0:
256,192,35163,1,0,0:0:0:0:
256,192,35236,1,0,0:0:0:0:
256,192,35309,1,0,0:0:0:0:
256,192,35456,1,0,0:0:0:0:
256,192,35529,1,0,0:0:0:0:
256,192,35602,1,0,0:0:0:0:
256,192,35895,1,8,0:0:0:0:
256,192,36041,1,0,0:0:0:0:
256,192,36114,1,0,0:0:0:0:
256,192,36187,1,0,0:0:0:0:
256,192,36334,1,8,0:0:0:0:
256,192,36773,1,0,0:0:0:0:
256,192,36846,1,0,0:0:0:0:
256,192,36919,1,8,0:0:0:0:
256,192,37065,1,8,0:0:0:0:
256,192,37358,1,0,0:0:0:0:
256,192,37504,1,8,0:0:0:0:
256,192,37576,1,8,0:0:0:0:
256,192,37649,1,8,0:0:0:0:
256,192,37794,1,8,0:0:0:0:
256,192,37867,1,8,0:0:0:0:
256,192,37939,1,8,0:0:0:0:
256,192,38230,1,0,0:0:0:0:
256,192,38375,1,8,0:0:0:0:
256,192,38448,1,8,0:0:0:0:
256,192,38520,1,8,0:0:0:0:
256,192,38666,1,0,0:0:0:0:
256,192,39105,1,0,0:0:0:0:
256,192,39178,1,0,0:0:0:0:
256,192,39251,1,8,0:0:0:0:
256,192,39397,1,0,0:0:0:0:
256,192,39690,1,0,0:0:0:0:
256,192,39836,1,8,0:0:0:0:
256,192,39983,1,0,0:0:0:0:
256,192,40129,1,0,0:0:0:0:
256,192,40275,1,8,0:0:0:0:
256,192,40422,1,0,0:0:0:0:
256,192,40568,1,0,0:0:0:0:
256,192,40714,1,8,0:0:0:0:
256,192,40861,1,0,0:0:0:0:
256,192,40934,1,0,0:0:0:0:
256,192,41007,1,0,0:0:0:0:
256,192,41153,5,8,0:0:0:0:
256,192,41300,1,0,0:0:0:0:
256,192,41446,1,0,0:0:0:0:
256,192,41600,1,8,0:0:0:0:
256,192,41681,1,8,0:0:0:0:
256,192,41762,1,8,0:0:0:0:
256,192,41924,1,0,0:0:0:0:
256,192,42124,1,0,0:0:0:0:
256,192,42325,12,0,47154,0:0:0:0:
256,192,54032,12,0,55056,0:0:0:0:
256,192,55203,5,8,0:0:0:0:
256,192,55276,1,8,0:0:0:0:
256,192,55349,1,0,0:0:0:0:
256,192,55422,1,0,0:0:0:0:
256,192,55495,1,0,0:0:0:0:
256,192,55568,1,0,0:0:0:0:
256,192,55642,1,8,0:0:0:0:
256,192,55715,1,8,0:0:0:0:
256,192,55788,1,0,0:0:0:0:
256,192,55861,1,0,0:0:0:0:
256,192,55934,1,0,0:0:0:0:
256,192,56007,1,0,0:0:0:0:
256,192,56081,1,8,0:0:0:0:
256,192,56373,1,8,0:0:0:0:
256,192,56446,1,0,0:0:0:0:
256,192,56520,1,0,0:0:0:0:
256,192,56593,1,0,0:0:0:0:
256,192,56666,1,8,0:0:0:0:
256,192,56739,1,0,0:0:0:0:
256,192,56812,1,0,0:0:0:0:
256,192,56885,1,0,0:0:0:0:
256,192,56959,1,8,0:0:0:0:
256,192,57032,1,8,0:0:0:0:
256,192,57105,1,0,0:0:0:0:
256,192,57178,1,0,0:0:0:0:
256,192,57251,1,8,0:0:0:0:
256,192,57544,1,0,0:0:0:0:
256,192,57617,1,0,0:0:0:0:
256,192,57690,1,8,0:0:0:0:
256,192,57763,1,8,0:0:0:0:
256,192,57836,1,8,0:0:0:0:
256,192,57909,1,0,0:0:0:0:
256,192,57983,1,0,0:0:0:0:
256,192,58056,1,0,0:0:0:0:
256,192,58129,1,8,0:0:0:0:
256,192,58202,1,0,0:0:0:0:
256,192,58275,1,8,0:0:0:0:
256,192,58348,1,8,0:0:0:0:
256,192,58422,1,0,0:0:0:0:
256,192,58495,1,0,0:0:0:0:
256,192,58568,1,0,0:0:0:0:
256,192,58641,1,0,0:0:0:0:
256,192,58714,1,8,0:0:0:0:
256,192,58787,1,0,0:0:0:0:
256,192,58861,1,8,0:0:0:0:
256,192,58934,1,8,0:0:0:0:
256,192,59007,1,8,0:0:0:0:
256,192,59080,1,8,0:0:0:0:
256,192,59153,1,0,0:0:0:0:
256,192,59226,1,0,0:0:0:0:
256,192,59300,1,8,0:0:0:0:
256,192,59373,1,0,0:0:0:0:
256,192,59446,1,8,0:0:0:0:
256,192,59519,1,8,0:0:0:0:
256,192,59592,1,0,0:0:0:0:
256,192,59665,1,0,0:0:0:0:
256,192,59739,1,8,0:0:0:0:
256,192,59812,1,8,0:0:0:0:
256,192,59885,1,0,0:0:0:0:
256,192,59958,1,0,0:0:0:0:
256,192,60031,1,8,0:0:0:0:
256,192,60104,1,8,0:0:0:0:
256,192,60178,1,0,0:0:0:0:
256,192,60251,1,0,0:0:0:0:
256,192,60324,1,0,0:0:0:0:
256,192,60397,1,0,0:0:0:0:
256,192,60470,1,8,0:0:0:0:
256,192,60544,1,8,0:0:0:0:
256,192,60617,1,0,0:0:0:0:
256,192,60665,1,8,0:0:0:0:
256,192,60714,1,8,0:0:0:0:
256,192,60763,1,0,0:0:0:0:
256,192,60836,1,0,0:0:0:0:
256,192,60909,1,8,0:0:0:0:
256,192,60983,1,8,0:0:0:0:
256,192,61056,1,0,0:0:0:0:
256,192,61129,1,0,0:0:0:0:
256,192,61202,1,0,0:0:0:0:
256,192,61275,1,0,0:0:0:0:
256,192,61348,1,8,0:0:0:0:
256,192,61422,1,0,0:0:0:0:
256,192,61495,1,8,0:0:0:0:
256,192,61568,1,8,0:0:0:0:
256,192,61641,1,8,0:0:0:0:
256,192,61714,1,8,0:0:0:0:
256,192,61787,1,0,0:0:0:0:
256,192,61861,1,0,0:0:0:0:
256,192,61934,1,8,0:0:0:0:
256,192,62007,1,8,0:0:0:0:
256,192,62080,1,0,0:0:0:0:
256,192,62226,1,8,0:0:0:0:
256,192,62300,1,8,0:0:0:0:
256,192,62373,1,8,0:0:0:0:
256,192,62446,1,0,0:0:0:0:
256,192,62519,1,8,0:0:0:0:
256,192,62592,1,8,0:0:0:0:
256,192,62665,1,0,0:0:0:0:
256,192,62739,1,0,0:0:0:0:
256,192,62812,1,8,0:0:0:0:
256,192,62885,1,0,0:0:0:0:
256,192,62958,1,0,0:0:0:0:
256,192,63031,1,8,0:0:0:0:
256,192,63104,1,8,0:0:0:0:
256,192,63178,1,0,0:0:0:0:
256,192,63251,1,0,0:0:0:0:
256,192,63324,1,0,0:0:0:0:
256,192,63397,1,8,0:0:0:0:
256,192,63470,1,8,0:0:0:0:
256,192,63543,1,0,0:0:0:0:
256,192,63617,1,8,0:0:0:0:
256,192,63690,1,8,0:0:0:0:
256,192,63763,1,8,0:0:0:0:
256,192,63836,1,0,0:0:0:0:
256,192,63909,1,0,0:0:0:0:
256,192,63983,1,8,0:0:0:0:
256,192,64056,1,0,0:0:0:0:
256,192,64129,1,0,0:0:0:0:
256,192,64202,1,8,0:0:0:0:
256,192,64275,1,8,0:0:0:0:
256,192,64348,1,8,0:0:0:0:
256,192,64422,1,0,0:0:0:0:
256,192,64495,1,0,0:0:0:0:
256,192,64568,1,8,0:0:0:0:
256,192,64641,1,0,0:0:0:0:
256,192,64714,1,8,0:0:0:0:
256,192,64787,1,8,0:0:0:0:
256,192,64861,1,0,0:0:0:0:
256,192,64934,1,0,0:0:0:0:
256,192,65007,1,8,0:0:0:0:
256,192,65080,1,0,0:0:0:0:
256,192,65153,1,8,0:0:0:0:
256,192,65226,1,8,0:0:0:0:
256,192,65300,1,0,0:0:0:0:
256,192,65373,1,0,0:0:0:0:
256,192,65446,1,8,0:0:0:0:
256,192,65519,1,8,0:0:0:0:
256,192,65592,1,8,0:0:0:0:
256,192,65665,1,8,0:0:0:0:
256,192,65739,1,0,0:0:0:0:
256,192,65812,1,0,0:0:0:0:
256,192,65885,1,0,0:0:0:0:
256,192,65958,1,0,0:0:0:0:
256,192,66031,1,8,0:0:0:0:
256,192,66104,1,0,0:0:0:0:
256,192,66178,1,0,0:0:0:0:
256,192,66251,1,0,0:0:0:0:
256,192,66324,1,8,0:0:0:0:
256,192,66397,1,8,0:0:0:0:
256,192,66470,1,8,0:0:0:0:
256,192,66543,1,8,0:0:0:0:
256,192,66617,1,0,0:0:0:0:
256,192,66690,1,0,0:0:0:0:
256,192,66763,1,8,0:0:0:0:
256,192,66836,1,8,0:0:0:0:
256,192,66909,1,0,0:0:0:0:
256,192,67056,1,8,0:0:0:0:
256,192,67275,1,0,0:0:0:0:
256,192,67348,1,8,0:0:0:0:
256,192,67495,1,0,0:0:0:0:
256,192,67641,1,8,0:0:0:0:
256,192,67714,1,8,0:0:0:0:
256,192,67787,1,0,0:0:0:0:
256,192,67934,1,8,0:0:0:0:
256,192,68080,1,0,0:0:0:0:
256,192,68226,1,8,0:0:0:0:
256,192,68373,1,0,0:0:0:0:
256,192,68446,1,0,0:0:0:0:
256,192,68519,1,8,0:0:0:0:
256,192,68665,1,0,0:0:0:0:
256,192,68739,1,0,0:0:0:0:
256,192,68812,1,8,0:0:0:0:
256,192,68885,1,0,0:0:0:0:
256,192,69031,1,0,0:0:0:0:
256,192,69104,1,8,0:0:0:0:
256,192,69251,1,0,0:0:0:0:
256,192,69397,1,8,0:0:0:0:
256,192,69617,1,0,0:0:0:0:
256,192,69690,1,8,0:0:0:0:
256,192,69836,1,0,0:0:0:0:
256,192,69983,1,8,0:0:0:0:
256,192,70056,1,0,0:0:0:0:
256,192,70129,1,0,0:0:0:0:
256,192,70275,1,8,0:0:0:0:
256,192,70422,1,0,0:0:0:0:
256,192,70568,1,8,0:0:0:0:
256,192,70714,1,0,0:0:0:0:
256,192,70787,1,0,0:0:0:0:
256,192,70861,1,8,0:0:0:0:
256,192,71007,1,0,0:0:0:0:
256,192,71153,1,8,0:0:0:0:
256,192,71226,1,0,0:0:0:0:
256,192,71373,1,0,0:0:0:0:
256,192,71446,1,8,0:0:0:0:
256,192,71592,1,8,0:0:0:0:
256,192,71665,1,8,0:0:0:0:
256,192,71739,1,0,0:0:0:0:
256,192,71812,1,0,0:0:0:0:
256,192,71885,1,0,0:0:0:0:
256,192,71958,1,0,0:0:0:0:
256,192,72031,1,8,0:0:0:0:
256,192,72104,1,8,0:0:0:0:
256,192,72178,1,0,0:0:0:0:
256,192,72251,1,0,0:0:0:0:
256,192,72324,1,0,0:0:0:0:
256,192,72397,1,0,0:0:0:0:
256,192,72470,1,8,0:0:0:0:
256,192,72543,1,8,0:0:0:0:
256,192,72617,1,0,0:0:0:0:
256,192,72690,1,0,0:0:0:0:
256,192,72763,1,8,0:0:0:0:
256,192,72836,1,8,0:0:0:0:
256,192,72909,1,8,0:0:0:0:
256,192,72983,1,0,0:0:0:0:
256,192,73056,1,0,0:0:0:0:
256,192,73129,1,0,0:0:0:0:
256,192,73202,1,8,0:0:0:0:
256,192,73275,1,8,0:0:0:0:
256,192,73348,1,8,0:0:0:0:
256,192,73422,1,0,0:0:0:0:
256,192,73495,1,0,0:0:0:0:
256,192,73568,1,0,0:0:0:0:
256,192,73641,1,8,0:0:0:0:
256,192,73714,1,8,0:0:0:0:
256,192,73787,1,0,0:0:0:0:
256,192,73861,1,0,0:0:0:0:
256,192,73934,1,8,0:0:0:0:
256,192,74007,1,8,0:0:0:0:
256,192,74080,1,0,0:0:0:0:
256,192,74153,1,8,0:0:0:0:
256,192,74226,1,0,0:0:0:0:
256,192,74300,1,0,0:0:0:0:
256,192,74373,1,8,0:0:0:0:
256,192,74446,1,8,0:0:0:0:
256,192,74519,1,0,0:0:0:0:
256,192,74592,1,8,0:0:0:0:
256,192,74665,1,0,0:0:0:0:
256,192,74739,1,0,0:0:0:0:
256,192,74812,1,8,0:0:0:0:
256,192,74885,1,8,0:0:0:0:
256,192,74958,1,0,0:0:0:0:
256,192,75031,1,0,0:0:0:0:
256,192,75104,1,8,0:0:0:0:
256,192,75178,1,0,0:0:0:0:
256,192,75251,1,0,0:0:0:0:
256,192,75324,1,0,0:0:0:0:
256,192,75397,1,8,0:0:0:0:
256,192,75470,1,0,0:0:0:0:
256,192,75543,1,0,0:0:0:0:
256,192,75617,1,0,0:0:0:0:
256,192,75690,1,8,0:0:0:0:
256,192,75763,1,8,0:0:0:0:
256,192,75836,1,0,0:0:0:0:
256,192,75909,1,0,0:0:0:0:
256,192,75983,1,8,0:0:0:0:
256,192,76056,1,0,0:0:0:0:
256,192,76129,1,8,0:0:0:0:
256,192,76202,1,8,0:0:0:0:
256,192,76275,1,0,0:0:0:0:
256,192,76422,1,8,0:0:0:0:
256,192,76641,1,0,0:0:0:0:
256,192,76714,1,8,0:0:0:0:
256,192,76861,1,0,0:0:0:0:
256,192,77007,1,8,0:0:0:0:
256,192,77080,1,8,0:0:0:0:
256,192,77153,1,0,0:0:0:0:
256,192,77300,1,8,0:0:0:0:
256,192,77446,1,0,0:0:0:0:
256,192,77592,1,8,0:0:0:0:
256,192,77665,1,8,0:0:0:0:
256,192,77739,1,0,0:0:0:0:
256,192,77812,1,0,0:0:0:0:
256,192,77885,1,8,0:0:0:0:
256,192,78031,1,0,0:0:0:0:
256,192,78178,1,8,0:0:0:0:
256,192,78251,1,0,0:0:0:0:
256,192,78397,1,0,0:0:0:0:
256,192,78470,1,8,0:0:0:0:
256,192,78617,1,0,0:0:0:0:
256,192,78763,1,8,0:0:0:0:
256,192,78909,1,0,0:0:0:0:
256,192,78983,1,0,0:0:0:0:
256,192,79056,1,8,0:0:0:0:
256,192,79202,1,0,0:0:0:0:
256,192,79348,1,8,0:0:0:0:
256,192,79422,1,8,0:0:0:0:
256,192,79495,1,0,0:0:0:0:
256,192,79568,1,0,0:0:0:0:
256,192,79641,1,8,0:0:0:0:
256,192,79787,1,0,0:0:0:0:
256,192,79934,1,8,0:0:0:0:
256,192,80080,1,0,0:0:0:0:
256,192,80153,1,0,0:0:0:0:
256,192,80226,1,8,0:0:0:0:
256,192,80300,1,8,0:0:0:0:
256,192,80373,1,0,0:0:0:0:
256,192,80519,1,8,0:0:0:0:
256,192,80592,1,0,0:0:0:0:
256,192,80665,1,0,0:0:0:0:
256,192,80812,1,8,0:0:0:0:
256,192,80958,1,0,0:0:0:0:
256,192,81104,1,8,0:0:0:0:
256,192,81251,1,0,0:0:0:0:
256,192,81324,1,0,0:0:0:0:
256,192,81397,1,8,0:0:0:0:
256,192,81470,1,8,0:0:0:0:
256,192,81543,1,0,0:0:0:0:
256,192,81690,1,8,0:0:0:0:
256,192,81763,1,0,0:0:0:0:
256,192,81909,1,0,0:0:0:0:
256,192,81983,1,8,0:0:0:0:
256,192,82129,1,0,0:0:0:0:
256,192,82275,1,8,0:0:0:0:
256,192,82422,1,0,0:0:0:0:
256,192,82495,1,0,0:0:0:0:
256,192,82568,1,8,0:0:0:0:
256,192,82714,1,0,0:0:0:0:
256,192,82787,1,0,0:0:0:0:
256,192,82861,1,8,0:0:0:0:
256,192,82934,1,0,0:0:0:0:
256,192,83007,1,0,0:0:0:0:
256,192,83080,1,0,0:0:0:0:
256,192,83153,1,8,0:0:0:0:
256,192,83300,1,0,0:0:0:0:
256,192,83446,1,8,0:0:0:0:
256,192,83592,1,0,0:0:0:0:
256,192,83665,1,0,0:0:0:0:
256,192,83739,1,8,0:0:0:0:
256,192,83885,1,0,0:0:0:0:
256,192,84031,1,8,0:0:0:0:
256,192,84104,1,8,0:0:0:0:
256,192,84178,1,0,0:0:0:0:
256,192,84251,1,0,0:0:0:0:
256,192,84324,1,8,0:0:0:0:
256,192,84397,1,8,0:0:0:0:
256,192,84470,1,0,0:0:0:0:
256,192,84617,1,8,0:0:0:0:
256,192,84690,1,8,0:0:0:0:
256,192,84763,1,0,0:0:0:0:
256,192,84909,1,8,0:0:0:0:
256,192,84983,1,0,0:0:0:0:
256,192,85056,1,0,0:0:0:0:
256,192,85129,1,8,0:0:0:0:
256,192,85202,1,0,0:0:0:0:
256,192,85275,1,0,0:0:0:0:
256,192,85348,1,8,0:0:0:0:
256,192,85422,1,8,0:0:0:0:
256,192,85495,1,8,0:0:0:0:
256,192,85568,1,8,0:0:0:0:
256,192,85641,1,0,0:0:0:0:
256,192,85787,1,8,0:0:0:0:
256,192,86007,1,0,0:0:0:0:
256,192,86080,1,8,0:0:0:0:
256,192,86226,1,0,0:0:0:0:
256,192,86373,1,8,0:0:0:0:
256,192,86446,1,8,0:0:0:0:
256,192,86519,1,0,0:0:0:0:
256,192,86665,1,8,0:0:0:0:
256,192,86812,1,0,0:0:0:0:
256,192,86958,1,8,0:0:0:0:
256,192,87031,1,8,0:0:0:0:
256,192,87104,1,0,0:0:0:0:
256,192,87178,1,0,0:0:0:0:
256,192,87251,1,8,0:0:0:0:
256,192,87397,1,0,0:0:0:0:
256,192,87543,1,8,0:0:0:0:
256,192,87617,1,0,0:0:0:0:
256,192,87763,1,0,0:0:0:0:
256,192,87836,1,8,0:0:0:0:
256,192,87983,1,0,0:0:0:0:
256,192,88129,1,8,0:0:0:0:
256,192,88275,1,0,0:0:0:0:
256,192,88348,1,0,0:0:0:0:
256,192,88422,1,8,0:0:0:0:
256,192,88568,1,0,0:0:0:0:
256,192,88714,1,8,0:0:0:0:
256,192,88787,1,8,0:0:0:0:
256,192,88861,1,0,0:0:0:0:
256,192,88934,1,0,0:0:0:0:
256,192,89007,1,8,0:0:0:0:
256,192,89153,1,0,0:0:0:0:
256,192,89300,1,8,0:0:0:0:
256,192,89446,1,0,0:0:0:0:
256,192,89519,1,0,0:0:0:0:
256,192,89592,1,8,0:0:0:0:
256,192,89665,1,8,0:0:0:0:
256,192,89739,1,0,0:0:0:0:
256,192,89885,1,8,0:0:0:0:
256,192,89958,1,0,0:0:0:0:
256,192,90031,1,0,0:0:0:0:
256,192,90178,1,8,0:0:0:0:
256,192,90324,1,0,0:0:0:0:
256,192,90470,1,8,0:0:0:0:
256,192,90617,1,0,0:0:0:0:
256,192,90690,1,0,0:0:0:0:
256,192,90763,1,8,0:0:0:0:
256,192,90836,1,8,0:0:0:0:
256,192,90909,1,0,0:0:0:0:
256,192,91056,1,8,0:0:0:0:
256,192,91129,1,0,0:0:0:0:
256,192,91275,1,0,0:0:0:0:
256,192,91348,1,8,0:0:0:0:
256,192,91495,1,0,0:0:0:0:
256,192,91641,1,8,0:0:0:0:
256,192,91787,1,0,0:0:0:0:
256,192,91861,1,0,0:0:0:0:
256,192,91934,1,8,0:0:0:0:
256,192,92080,1,0,0:0:0:0:
256,192,92153,1,0,0:0:0:0:
256,192,92226,1,8,0:0:0:0:
256,192,92300,1,0,0:0:0:0:
256,192,92373,1,0,0:0:0:0:
256,192,92446,1,0,0:0:0:0:
256,192,92519,1,8,0:0:0:0:
256,192,92592,1,8,0:0:0:0:
256,192,92665,1,0,0:0:0:0:
256,192,92812,1,8,0:0:0:0:
256,192,92958,1,0,0:0:0:0:
256,192,93031,1,0,0:0:0:0:
256,192,93104,1,8,0:0:0:0:
256,192,93251,1,0,0:0:0:0:
256,192,93397,1,8,0:0:0:0:
256,192,93470,1,8,0:0:0:0:
256,192,93543,1,0,0:0:0:0:
256,192,93690,1,8,0:0:0:0:
256,192,93836,1,8,0:0:0:0:
256,192,93909,1,8,0:0:0:0:
256,192,93983,1,0,0:0:0:0:
256,192,94056,1,0,0:0:0:0:
256,192,94129,1,8,0:0:0:0:
256,192,94275,1,8,0:0:0:0:
256,192,94348,1,0,0:0:0:0:
256,192,94422,1,0,0:0:0:0:
256,192,94495,1,0,0:0:0:0:
256,192,94568,1,8,0:0:0:0:
256,192,94641,1,8,0:0:0:0:
256,192,94714,1,0,0:0:0:0:
256,192,94787,1,0,0:0:0:0:
256,192,94861,1,8,0:0:0:0:
256,192,94934,1,8,0:0:0:0:
256,192,95007,1,0,0:0:0:0:
256,192,95300,1,0,0:0:0:0:
256,192,95446,1,0,0:0:0:0:
256,192,95592,1,8,0:0:0:0:
256,192,95812,1,8,0:0:0:0:
256,192,95885,1,0,0:0:0:0:
256,192,96031,1,0,0:0:0:0:
256,192,96178,1,8,0:0:0:0:
256,192,96324,1,0,0:0:0:0:
256,192,96397,1,0,0:0:0:0:
256,192,96470,1,0,0:0:0:0:
256,192,96617,1,8,0:0:0:0:
256,192,96763,1,0,0:0:0:0:
256,192,96909,1,8,0:0:0:0:
256,192,97056,1,0,0:0:0:0:
256,192,97129,1,0,0:0:0:0:
256,192,97202,1,0,0:0:0:0:
256,192,97275,1,0,0:0:0:0:
256,192,97348,1,8,0:0:0:0:
256,192,97641,1,0,0:0:0:0:
256,192,97787,1,0,0:0:0:0:
256,192,97934,1,8,0:0:0:0:
256,192,98080,1,0,0:0:0:0:
256,192,98153,1,8,0:0:0:0:
256,192,98226,1,0,0:0:0:0:
256,192,98373,1,0,0:0:0:0:
256,192,98519,1,8,0:0:0:0:
256,192,98665,1,0,0:0:0:0:
256,192,98739,1,0,0:0:0:0:
256,192,98812,1,0,0:0:0:0:
256,192,98958,1,8,0:0:0:0:
256,192,99031,1,8,0:0:0:0:
256,192,99104,1,0,0:0:0:0:
256,192,99251,1,0,0:0:0:0:
256,192,99397,1,8,0:0:0:0:
256,192,99470,1,0,0:0:0:0:
256,192,99543,1,8,0:0:0:0:
256,192,99617,1,8,0:0:0:0:
256,192,99690,1,0,0:0:0:0:
256,192,99836,1,8,0:0:0:0:
256,192,99983,1,0,0:0:0:0:
256,192,100056,1,0,0:0:0:0:
256,192,100129,1,8,0:0:0:0:
256,192,100275,1,0,0:0:0:0:
256,192,100422,1,8,0:0:0:0:
256,192,100495,1,8,0:0:0:0:
256,192,100568,1,0,0:0:0:0:
256,192,100641,1,0,0:0:0:0:
256,192,100714,1,8,0:0:0:0:
256,192,100787,1,8,0:0:0:0:
256,192,100861,1,0,0:0:0:0:
256,192,101007,1,8,0:0:0:0:
256,192,101153,1,0,0:0:0:0:
256,192,101226,1,0,0:0:0:0:
256,192,101300,1,8,0:0:0:0:
256,192,101446,1,0,0:0:0:0:
256,192,101519,1,0,0:0:0:0:
256,192,101592,1,8,0:0:0:0:
256,192,101665,1,0,0:0:0:0:
256,192,101739,1,8,0:0:0:0:
256,192,101885,1,0,0:0:0:0:
256,192,102031,1,8,0:0:0:0:
256,192,102104,1,8,0:0:0:0:
256,192,102178,1,0,0:0:0:0:
256,192,102251,1,0,0:0:0:0:
256,192,102324,1,8,0:0:0:0:
256,192,102397,1,0,0:0:0:0:
256,192,102470,1,8,0:0:0:0:
256,192,102543,1,8,0:0:0:0:
256,192,102617,1,0,0:0:0:0:
256,192,102690,1,0,0:0:0:0:
256,192,102763,1,8,0:0:0:0:
256,192,102836,1,0,0:0:0:0:
256,192,102909,1,8,0:0:0:0:
256,192,102983,1,8,0:0:0:0:
256,192,103056,1,0,0:0:0:0:
256,192,103129,1,0,0:0:0:0:
256,192,103202,1,8,0:0:0:0:
256,192,103275,1,0,0:0:0:0:
256,192,103348,1,0,0:0:0:0:
256,192,103422,1,0,0:0:0:0:
256,192,103495,1,8,0:0:0:0:
256,192,103568,1,0,0:0:0:0:
256,192,103641,1,0,0:0:0:0:
256,192,103714,1,0,0:0:0:0:
256,192,103787,1,8,0:0:0:0:
256,192,103861,1,8,0:0:0:0:
256,192,103934,1,0,0:0:0:0:
256,192,104007,1,0,0:0:0:0:
256,192,104080,1,8,0:0:0:0:
256,192,104153,1,0,0:0:0:0:
256,192,104226,1,8,0:0:0:0:
256,192,104300,1,8,0:0:0:0:
256,192,104373,1,0,0:0:0:0:
256,192,104665,1,12,0:0:0:0:
256,192,104958,1,12,0:0:0:0:
256,192,105104,1,0,0:0:0:0:
256,192,105178,1,0,0:0:0:0:
256,192,105251,1,8,0:0:0:0:
256,192,105397,1,8,0:0:0:0:
256,192,105543,1,0,0:0:0:0:
256,192,105836,1,12,0:0:0:0:
256,192,106129,1,12,0:0:0:0:
256,192,106275,1,0,0:0:0:0:
256,192,106348,1,0,0:0:0:0:
256,192,106422,1,8,0:0:0:0:
256,192,106568,1,0,0:0:0:0:
256,192,106714,1,0,0:0:0:0:
256,192,106934,1,0,0:0:0:0:
256,192,107007,1,8,0:0:0:0:
256,192,107153,1,0,0:0:0:0:
256,192,107300,1,8,0:0:0:0:
256,192,107446,1,0,0:0:0:0:
256,192,107519,1,0,0:0:0:0:
256,192,107592,1,8,0:0:0:0:
256,192,107739,1,8,0:0:0:0:
256,192,107885,1,0,0:0:0:0:
256,192,107958,1,0,0:0:0:0:
256,192,108031,1,0,0:0:0:0:
256,192,108104,1,0,0:0:0:0:
256,192,108178,1,8,0:0:0:0:
256,192,108324,1,0,0:0:0:0:
256,192,108470,1,8,0:0:0:0:
256,192,108543,1,8,0:0:0:0:
256,192,108617,1,8,0:0:0:0:
256,192,108690,1,0,0:0:0:0:
256,192,108763,1,8,0:0:0:0:
256,192,108836,1,8,0:0:0:0:
256,192,108909,1,0,0:0:0:0:
256,192,108983,1,0,0:0:0:0:
256,192,109056,1,0,0:0:0:0:
256,192,109348,1,12,0:0:0:0:
256,192,109641,1,12,0:0:0:0:
256,192,109787,1,0,0:0:0:0:
256,192,109861,1,0,0:0:0:0:
256,192,109934,1,8,0:0:0:0:
256,192,110080,1,8,0:0:0:0:
256,192,110226,1,0,0:0:0:0:
256,192,110519,1,8,0:0:0:0:
256,192,110812,1,8,0:0:0:0:
256,192,110958,1,8,0:0:0:0:
256,192,111031,1,0,0:0:0:0:
256,192,111104,1,8,0:0:0:0:
256,192,111251,1,8,0:0:0:0:
256,192,111397,1,0,0:0:0:0:
256,192,111617,1,0,0:0:0:0:
256,192,111690,1,8,0:0:0:0:
256,192,111836,1,0,0:0:0:0:
256,192,111983,1,8,0:0:0:0:
256,192,112129,1,0,0:0:0:0:
256,192,112202,1,0,0:0:0:0:
256,192,112275,1,8,0:0:0:0:
256,192,112422,1,0,0:0:0:0:
256,192,112568,1,8,0:0:0:0:
256,192,112641,1,8,0:0:0:0:
256,192,112714,1,8,0:0:0:0:
256,192,112787,1,0,0:0:0:0:
256,192,112861,1,8,0:0:0:0:
256,192,112934,1,8,0:0:0:0:
256,192,113007,1,0,0:0:0:0:
256,192,113080,1,0,0:0:0:0:
256,192,113153,1,8,0:0:0:0:
256,192,113226,1,0,0:0:0:0:
256,192,113300,1,0,0:0:0:0:
256,192,113373,1,0,0:0:0:0:
256,192,113446,1,8,0:0:0:0:
256,192,113739,1,8,0:0:0:0:
256,192,113812,1,8,0:0:0:0:
256,192,113885,1,0,0:0:0:0:
256,192,113958,1,0,0:0:0:0:
256,192,114031,1,8,0:0:0:0:
256,192,114104,1,0,0:0:0:0:
256,192,114178,1,0,0:0:0:0:
256,192,114251,1,0,0:0:0:0:
256,192,114324,1,8,0:0:0:0:
256,192,114397,1,8,0:0:0:0:
256,192,114470,1,0,0:0:0:0:
256,192,114543,1,0,0:0:0:0:
256,192,114617,1,8,0:0:0:0:
256,192,114690,1,0,0:0:0:0:
256,192,114763,1,8,0:0:0:0:
256,192,114836,1,0,0:0:0:0:
256,192,114909,1,8,0:0:0:0:
256,192,114983,1,8,0:0:0:0:
256,192,115056,1,0,0:0:0:0:
256,192,115129,1,0,0:0:0:0:
256,192,115202,1,8,0:0:0:0:
256,192,115275,1,0,0:0:0:0:
256,192,115348,1,0,0:0:0:0:
256,192,115422,1,0,0:0:0:0:
256,192,115495,1,8,0:0:0:0:
256,192,115568,1,8,0:0:0:0:
256,192,115641,1,0,0:0:0:0:
256,192,115714,1,0,0:0:0:0:
256,192,115787,1,8,0:0:0:0:
256,192,115861,1,8,0:0:0:0:
256,192,115934,1,8,0:0:0:0:
256,192,116007,1,0,0:0:0:0:
256,192,116080,1,8,0:0:0:0:
256,192,116153,1,8,0:0:0:0:
256,192,116226,1,0,0:0:0:0:
256,192,116300,1,0,0:0:0:0:
256,192,116373,1,8,0:0:0:0:
256,192,116446,1,0,0:0:0:0:
256,192,116519,1,8,0:0:0:0:
256,192,116592,1,8,0:0:0:0:
256,192,116665,1,0,0:0:0:0:
256,192,116739,1,0,0:0:0:0:
256,192,116812,1,0,0:0:0:0:
256,192,116885,1,0,0:0:0:0:
256,192,116958,1,8,0:0:0:0:
256,192,117031,1,8,0:0:0:0:
256,192,117104,1,0,0:0:0:0:
256,192,117178,1,0,0:0:0:0:
256,192,117251,1,8,0:0:0:0:
256,192,117324,1,0,0:0:0:0:
256,192,117397,1,0,0:0:0:0:
256,192,117470,1,0,0:0:0:0:
256,192,117543,1,8,0:0:0:0:
256,192,117617,1,0,0:0:0:0:
256,192,117690,1,8,0:0:0:0:
256,192,117763,1,8,0:0:0:0:
256,192,117836,1,0,0:0:0:0:
256,192,117909,1,0,0:0:0:0:
256,192,117983,1,8,0:0:0:0:
256,192,118056,1,0,0:0:0:0:
256,192,118129,1,8,0:0:0:0:
256,192,118202,1,8,0:0:0:0:
256,192,118275,1,0,0:0:0:0:
256,192,118348,1,0,0:0:0:0:
256,192,118422,1,8,0:0:0:0:
256,192,118495,1,8,0:0:0:0:
256,192,118568,1,0,0:0:0:0:
256,192,118641,1,0,0:0:0:0:
256,192,118714,1,0,0:0:0:0:
256,192,118787,1,0,0:0:0:0:
256,192,118861,1,8,0:0:0:0:
256,192,118934,1,8,0:0:0:0:
256,192,119007,1,0,0:0:0:0:
256,192,119080,1,0,0:0:0:0:
256,192,119153,1,0,0:0:0:0:
256,192,119226,1,0,0:0:0:0:
256,192,119300,1,8,0:0:0:0:
256,192,119373,1,8,0:0:0:0:
256,192,119446,1,0,0:0:0:0:
256,192,119519,1,0,0:0:0:0:
256,192,119592,1,8,0:0:0:0:
256,192,119665,1,8,0:0:0:0:
256,192,119739,1,0,0:0:0:0:
256,192,119812,1,8,0:0:0:0:
256,192,119885,1,0,0:0:0:0:
256,192,119958,1,0,0:0:0:0:
256,192,120031,1,8,0:0:0:0:
256,192,120104,1,8,0:0:0:0:
256,192,120178,1,0,0:0:0:0:
256,192,120251,1,8,0:0:0:0:
256,192,120324,1,0,0:0:0:0:
256,192,120397,1,0,0:0:0:0:
256,192,120470,1,8,0:0:0:0:
256,192,120543,1,8,0:0:0:0:
256,192,120617,1,8,0:0:0:0:
256,192,120690,1,8,0:0:0:0:
256,192,120763,1,0,0:0:0:0:
256,192,120836,1,0,0:0:0:0:
256,192,120909,1,8,0:0:0:0:
256,192,120983,1,8,0:0:0:0:
256,192,121056,1,0,0:0:0:0:
256,192,121129,1,8,0:0:0:0:
256,192,121202,1,0,0:0:0:0:
256,192,121275,1,0,0:0:0:0:
256,192,121348,1,8,0:0:0:0:
256,192,121422,1,8,0:0:0:0:
256,192,121495,1,8,0:0:0:0:
256,192,121568,1,8,0:0:0:0:
256,192,121641,1,0,0:0:0:0:
256,192,121714,1,0,0:0:0:0:
256,192,121787,1,0,0:0:0:0:
256,192,121861,1,0,0:0:0:0:
256,192,121934,1,8,0:0:0:0:
256,192,122007,1,0,0:0:0:0:
256,192,122080,1,8,0:0:0:0:
256,192,122153,1,8,0:0:0:0:
256,192,122226,1,0,0:0:0:0:
256,192,122300,1,0,0:0:0:0:
256,192,122373,1,0,0:0:0:0:
256,192,122446,1,0,0:0:0:0:
256,192,122519,1,8,0:0:0:0:
256,192,122592,1,8,0:0:0:0:
256,192,122665,1,0,0:0:0:0:
256,192,122739,1,0,0:0:0:0:
256,192,122812,1,8,0:0:0:0:
256,192,122885,1,0,0:0:0:0:
256,192,122958,1,0,0:0:0:0:
256,192,123031,1,0,0:0:0:0:
256,192,123104,1,8,0:0:0:0:
256,192,123178,1,8,0:0:0:0:
256,192,123251,1,0,0:0:0:0:
256,192,123324,1,0,0:0:0:0:
256,192,123397,1,0,0:0:0:0:
256,192,123470,1,0,0:0:0:0:
256,192,123543,1,8,0:0:0:0:
256,192,123617,1,8,0:0:0:0:
256,192,123690,1,0,0:0:0:0:
256,192,123763,1,0,0:0:0:0:
256,192,123836,1,8,0:0:0:0:
256,192,123909,1,8,0:0:0:0:
256,192,123983,1,8,0:0:0:0:
256,192,124056,1,0,0:0:0:0:
256,192,124129,1,0,0:0:0:0:
256,192,124202,1,0,0:0:0:0:
256,192,124275,1,8,0:0:0:0:
256,192,124568,1,4,0:0:0:0:
256,192,124861,1,4,0:0:0:0:
256,192,125153,1,12,0:0:0:0:
256,192,125446,1,4,0:0:0:0:
256,192,125592,1,8,0:0:0:0:
256,192,125738,1,0,0:0:0:0:
256,192,125811,1,0,0:0:0:0:
256,192,125885,1,8,0:0:0:0:
256,192,126031,1,0,0:0:0:0:
256,192,126177,1,8,0:0:0:0:
256,192,126250,1,0,0:0:0:0:
256,192,126397,1,0,0:0:0:0:
256,192,126470,1,8,0:0:0:0:
256,192,126543,1,8,0:0:0:0:
256,192,126616,1,0,0:0:0:0:
256,192,126763,1,8,0:0:0:0:
256,192,126909,1,0,0:0:0:0:
256,192,126982,1,0,0:0:0:0:
256,192,127055,1,8,0:0:0:0:
256,192,127202,1,0,0:0:0:0:
256,192,127348,1,8,0:0:0:0:
256,192,127421,1,8,0:0:0:0:
256,192,127494,1,0,0:0:0:0:
256,192,127567,1,0,0:0:0:0:
256,192,127641,1,8,0:0:0:0:
256,192,127714,1,8,0:0:0:0:
256,192,127787,1,0,0:0:0:0:
256,192,127933,1,8,0:0:0:0:
256,192,128080,1,0,0:0:0:0:
256,192,128153,1,0,0:0:0:0:
256,192,128226,1,8,0:0:0:0:
256,192,128372,1,0,0:0:0:0:
256,192,128519,1,8,0:0:0:0:
256,192,128592,1,0,0:0:0:0:
256,192,128738,1,0,0:0:0:0:
256,192,128811,1,8,0:0:0:0:
256,192,128885,1,8,0:0:0:0:
256,192,128958,1,0,0:0:0:0:
256,192,129104,1,8,0:0:0:0:
256,192,129250,1,0,0:0:0:0:
256,192,129324,1,0,0:0:0:0:
256,192,129397,1,8,0:0:0:0:
256,192,129543,1,0,0:0:0:0:
256,192,129689,1,8,0:0:0:0:
256,192,129763,1,0,0:0:0:0:
256,192,129836,1,0,0:0:0:0:
256,192,129909,1,0,0:0:0:0:
256,192,129982,1,8,0:0:0:0:
256,192,130055,1,8,0:0:0:0:
256,192,130128,1,0,0:0:0:0:
256,192,130275,1,8,0:0:0:0:
256,192,130421,1,0,0:0:0:0:
256,192,130494,1,0,0:0:0:0:
256,192,130567,1,8,0:0:0:0:
256,192,130714,1,0,0:0:0:0:
256,192,130860,1,8,0:0:0:0:
256,192,130933,1,8,0:0:0:0:
256,192,131006,1,0,0:0:0:0:
256,192,131080,1,0,0:0:0:0:
256,192,131153,1,8,0:0:0:0:
256,192,131299,1,0,0:0:0:0:
256,192,131446,1,8,0:0:0:0:
256,192,131592,1,0,0:0:0:0:
256,192,131665,1,0,0:0:0:0:
256,192,131738,1,8,0:0:0:0:
256,192,131885,1,0,0:0:0:0:
256,192,132031,1,8,0:0:0:0:
256,192,132104,1,8,0:0:0:0:
256,192,132177,1,0,0:0:0:0:
256,192,132324,1,8,0:0:0:0:
256,192,132470,1,0,0:0:0:0:
256,192,132543,1,0,0:0:0:0:
256,192,132616,1,8,0:0:0:0:
256,192,132689,1,0,0:0:0:0:
256,192,132763,1,0,0:0:0:0:
256,192,132836,1,0,0:0:0:0:
256,192,132909,1,8,0:0:0:0:
256,192,132982,1,8,0:0:0:0:
256,192,133055,1,0,0:0:0:0:
256,192,133128,1,0,0:0:0:0:
256,192,133202,1,8,0:0:0:0:
256,192,133275,1,0,0:0:0:0:
256,192,133348,1,0,0:0:0:0:
256,192,133421,1,0,0:0:0:0:
256,192,133494,1,8,0:0:0:0:
256,192,133567,1,8,0:0:0:0:
256,192,133641,1,0,0:0:0:0:
256,192,133714,1,0,0:0:0:0:
256,192,133787,1,8,0:0:0:0:
256,192,133860,1,0,0:0:0:0:
256,192,133933,1,8,0:0:0:0:
256,192,134006,1,0,0:0:0:0:
256,192,134080,1,8,0:0:0:0:
256,192,134153,1,8,0:0:0:0:
256,192,134226,1,0,0:0:0:0:
256,192,134299,1,0,0:0:0:0:
256,192,134372,1,8,0:0:0:0:
256,192,134446,1,8,0:0:0:0:
256,192,134519,1,8,0:0:0:0:
256,192,134592,1,8,0:0:0:0:
256,192,134665,1,0,0:0:0:0:
256,192,134738,1,0,0:0:0:0:
256,192,134811,1,0,0:0:0:0:
256,192,134958,1,8,0:0:0:0:
256,192,135104,1,0,0:0:0:0:
256,192,135177,1,0,0:0:0:0:
256,192,135250,1,8,0:0:0:0:
256,192,135397,1,0,0:0:0:0:
256,192,135543,1,8,0:0:0:0:
256,192,135616,1,0,0:0:0:0:
256,192,135689,1,0,0:0:0:0:
256,192,135836,1,8,0:0:0:0:
256,192,135909,1,8,0:0:0:0:
256,192,135982,1,0,0:0:0:0:
256,192,136128,1,8,0:0:0:0:
256,192,136275,1,0,0:0:0:0:
256,192,136348,1,0,0:0:0:0:
256,192,136421,1,8,0:0:0:0:
256,192,136567,1,0,0:0:0:0:
256,192,136641,1,0,0:0:0:0:
256,192,136714,1,8,0:0:0:0:
256,192,136787,1,8,0:0:0:0:
256,192,136860,1,0,0:0:0:0:
256,192,137006,1,8,0:0:0:0:
256,192,137153,1,0,0:0:0:0:
256,192,137226,1,0,0:0:0:0:
256,192,137299,1,8,0:0:0:0:
256,192,137372,1,0,0:0:0:0:
256,192,137446,1,0,0:0:0:0:
256,192,137519,1,0,0:0:0:0:
256,192,137592,1,8,0:0:0:0:
256,192,137665,1,8,0:0:0:0:
256,192,137738,1,0,0:0:0:0:
256,192,137811,1,0,0:0:0:0:
256,192,137885,1,8,0:0:0:0:
256,192,137958,1,0,0:0:0:0:
256,192,138031,1,8,0:0:0:0:
256,192,138104,1,0,0:0:0:0:
256,192,138177,1,8,0:0:0:0:
256,192,138250,1,8,0:0:0:0:
256,192,138324,1,0,0:0:0:0:
256,192,138397,1,0,0:0:0:0:
256,192,138470,1,8,0:0:0:0:
256,192,138543,1,0,0:0:0:0:
256,192,138616,1,0,0:0:0:0:
256,192,138689,1,0,0:0:0:0:
256,192,138763,1,8,0:0:0:0:
256,192,138836,1,8,0:0:0:0:
256,192,138909,1,0,0:0:0:0:
256,192,138982,1,0,0:0:0:0:
256,192,139055,1,8,0:0:0:0:
256,192,139128,1,8,0:0:0:0:
256,192,139202,1,0,0:0:0:0:
256,192,139275,1,8,0:0:0:0:
256,192,139348,1,8,0:0:0:0:
256,192,139421,1,8,0:0:0:0:
256,192,139494,1,0,0:0:0:0:
256,192,139641,1,8,0:0:0:0:
256,192,139787,1,0,0:0:0:0:
256,192,139860,1,0,0:0:0:0:
256,192,139933,1,8,0:0:0:0:
256,192,140080,1,0,0:0:0:0:
256,192,140226,1,8,0:0:0:0:
256,192,140299,1,8,0:0:0:0:
256,192,140372,1,0,0:0:0:0:
256,192,140446,1,0,0:0:0:0:
256,192,140519,1,8,0:0:0:0:
256,192,140665,1,0,0:0:0:0:
256,192,140811,1,8,0:0:0:0:
256,192,140958,1,0,0:0:0:0:
256,192,141031,1,0,0:0:0:0:
256,192,141104,1,8,0:0:0:0:
256,192,141250,1,0,0:0:0:0:
256,192,141397,1,8,0:0:0:0:
256,192,141470,1,8,0:0:0:0:
256,192,141543,1,0,0:0:0:0:
256,192,141689,1,0,0:0:0:0:
256,192,141836,1,8,0:0:0:0:
256,192,141909,1,0,0:0:0:0:
256,192,141982,1,8,0:0:0:0:
256,192,142055,1,8,0:0:0:0:
256,192,142128,1,0,0:0:0:0:
256,192,142202,1,0,0:0:0:0:
256,192,142275,1,8,0:0:0:0:
256,192,142348,1,0,0:0:0:0:
256,192,142421,1,8,0:0:0:0:
256,192,142494,1,8,0:0:0:0:
256,192,142567,1,0,0:0:0:0:
256,192,142641,1,0,0:0:0:0:
256,192,142714,1,8,0:0:0:0:
256,192,142787,1,8,0:0:0:0:
256,192,142860,1,8,0:0:0:0:
256,192,142933,1,8,0:0:0:0:
256,192,143006,1,0,0:0:0:0:
256,192,143080,1,0,0:0:0:0:
256,192,143153,1,0,0:0:0:0:
256,192,143226,1,0,0:0:0:0:
256,192,143299,1,8,0:0:0:0:
256,192,143372,1,0,0:0:0:0:
256,192,143445,1,0,0:0:0:0:
256,192,143519,1,0,0:0:0:0:
256,192,143592,1,8,0:0:0:0:
256,192,143665,1,8,0:0:0:0:
256,192,143738,1,0,0:0:0:0:
256,192,143811,1,0,0:0:0:0:
256,192,143885,1,8,0:0:0:0:
256,192,143958,1,8,0:0:0:0:
256,192,144031,1,8,0:0:0:0:
256,192,144104,1,8,0:0:0:0:
256,192,144177,1,0,0:0:0:0:
256,192,144250,1,0,0:0:0:0:
256,192,144324,1,8,0:0:0:0:
256,192,144397,1,0,0:0:0:0:
256,192,144470,1,0,0:0:0:0:
256,192,144543,1,0,0:0:0:0:
256,192,144616,1,8,0:0:0:0:
256,192,144689,1,8,0:0:0:0:
256,192,144763,1,0,0:0:0:0:
256,192,144836,1,0,0:0:0:0:
256,192,144909,1,8,0:0:0:0:
256,192,144982,1,0,0:0:0:0:
256,192,145055,1,8,0:0:0:0:
256,192,145128,1,0,0:0:0:0:
256,192,145202,1,8,0:0:0:0:
256,192,145275,1,8,0:0:0:0:
256,192,145348,1,0,0:0:0:0:
256,192,145421,1,0,0:0:0:0:
256,192,145494,1,8,0:0:0:0:
256,192,145567,1,0,0:0:0:0:
256,192,145641,1,0,0:0:0:0:
256,192,145714,1,0,0:0:0:0:
256,192,145787,1,8,0:0:0:0:
256,192,145860,1,8,0:0:0:0:
256,192,145933,1,0,0:0:0:0:
256,192,146006,1,0,0:0:0:0:
256,192,146080,1,8,0:0:0:0:
256,192,146153,1,0,0:0:0:0:
256,192,146226,1,8,0:0:0:0:
256,192,146299,1,0,0:0:0:0:
256,192,146372,1,8,0:0:0:0:
256,192,146445,1,8,0:0:0:0:
256,192,146519,1,0,0:0:0:0:
256,192,146592,1,0,0:0:0:0:
256,192,146665,1,8,0:0:0:0:
256,192,146738,1,0,0:0:0:0:
256,192,146811,1,0,0:0:0:0:
256,192,146885,1,0,0:0:0:0:
256,192,146958,1,8,0:0:0:0:
256,192,147031,1,8,0:0:0:0:
256,192,147104,1,0,0:0:0:0:
256,192,147177,1,0,0:0:0:0:
256,192,147250,1,8,0:0:0:0:
256,192,147324,1,0,0:0:0:0:
256,192,147397,1,8,0:0:0:0:
256,192,147470,1,0,0:0:0:0:
256,192,147543,1,8,0:0:0:0:
256,192,147616,1,8,0:0:0:0:
256,192,147689,1,0,0:0:0:0:
256,192,147763,1,0,0:0:0:0:
256,192,147836,1,8,0:0:0:0:
256,192,147909,1,0,0:0:0:0:
256,192,147982,1,0,0:0:0:0:
256,192,148055,1,0,0:0:0:0:
256,192,148128,1,8,0:0:0:0:
256,192,148202,1,8,0:0:0:0:
256,192,148275,1,0,0:0:0:0:
256,192,148348,1,0,0:0:0:0:
256,192,148421,1,8,0:0:0:0:
256,192,148494,1,0,0:0:0:0:
256,192,148567,1,8,0:0:0:0:
256,192,148641,1,0,0:0:0:0:
256,192,148714,1,8,0:0:0:0:
256,192,148787,1,8,0:0:0:0:
256,192,148860,1,0,0:0:0:0:
256,192,148933,1,0,0:0:0:0:
256,192,149006,1,8,0:0:0:0:
256,192,149080,1,0,0:0:0:0:
256,192,149153,1,0,0:0:0:0:
256,192,149226,1,0,0:0:0:0:
256,192,149299,1,8,0:0:0:0:
256,192,149372,1,8,0:0:0:0:
256,192,149445,1,0,0:0:0:0:
256,192,149519,1,0,0:0:0:0:
256,192,149592,1,8,0:0:0:0:
256,192,149665,1,0,0:0:0:0:
256,192,149738,1,0,0:0:0:0:
256,192,149811,1,0,0:0:0:0:
256,192,149885,1,8,0:0:0:0:
256,192,149958,1,8,0:0:0:0:
256,192,150031,1,0,0:0:0:0:
256,192,150104,1,0,0:0:0:0:
256,192,150177,1,8,0:0:0:0:
256,192,150250,1,0,0:0:0:0:
256,192,150324,1,0,0:0:0:0:
256,192,150397,1,0,0:0:0:0:
256,192,150470,1,8,0:0:0:0:
256,192,150543,1,8,0:0:0:0:
256,192,150616,1,0,0:0:0:0:
256,192,150689,1,0,0:0:0:0:
256,192,150763,1,8,0:0:0:0:
256,192,150836,1,0,0:0:0:0:
256,192,150909,1,8,0:0:0:0:
256,192,150982,1,0,0:0:0:0:
256,192,151055,1,8,0:0:0:0:
256,192,151128,1,8,0:0:0:0:
256,192,151202,1,0,0:0:0:0:
256,192,151275,1,0,0:0:0:0:
256,192,151348,1,8,0:0:0:0:
256,192,151421,1,0,0:0:0:0:
256,192,151494,1,8,0:0:0:0:
256,192,151567,1,8,0:0:0:0:
256,192,151641,1,0,0:0:0:0:
256,192,151714,1,8,0:0:0:0:
256,192,151787,1,0,0:0:0:0:
256,192,151860,1,0,0:0:0:0:
256,192,151933,1,8,0:0:0:0:
256,192,152006,1,0,0:0:0:0:
256,192,152080,1,0,0:0:0:0:
256,192,152153,1,0,0:0:0:0:
256,192,152226,1,8,0:0:0:0:
256,192,152299,1,8,0:0:0:0:
256,192,152372,1,0,0:0:0:0:
256,192,152445,1,0,0:0:0:0:
256,192,152519,1,8,0:0:0:0:
256,192,152592,1,0,0:0:0:0:
256,192,152665,1,0,0:0:0:0:
256,192,152738,1,0,0:0:0:0:
256,192,152811,1,8,0:0:0:0:
256,192,152885,1,8,0:0:0:0:
256,192,152958,1,0,0:0:0:0:
256,192,153031,1,0,0:0:0:0:
256,192,153104,1,8,0:0:0:0:
256,192,153177,1,0,0:0:0:0:
256,192,153250,1,8,0:0:0:0:
256,192,153324,1,0,0:0:0:0:
256,192,153397,1,8,0:0:0:0:
256,192,153470,1,8,0:0:0:0:
256,192,153543,1,0,0:0:0:0:
256,192,153689,1,8,0:0:0:0:
256,192,153909,1,0,0:0:0:0:
256,192,153982,1,8,0:0:0:0:
256,192,154128,1,0,0:0:0:0:
256,192,154202,1,0,0:0:0:0:
256,192,154275,1,8,0:0:0:0:
256,192,154348,1,8,0:0:0:0:
256,192,154421,1,0,0:0:0:0:
256,192,154567,1,8,0:0:0:0:
256,192,154714,1,0,0:0:0:0:
256,192,154860,1,8,0:0:0:0:
256,192,155006,1,0,0:0:0:0:
256,192,155080,1,0,0:0:0:0:
256,192,155153,1,8,0:0:0:0:
256,192,155299,1,0,0:0:0:0:
256,192,155372,1,0,0:0:0:0:
256,192,155445,1,8,0:0:0:0:
256,192,155519,1,0,0:0:0:0:
256,192,155592,1,8,0:0:0:0:
256,192,155738,1,0,0:0:0:0:
256,192,155885,1,8,0:0:0:0:
256,192,155958,1,8,0:0:0:0:
256,192,156031,1,0,0:0:0:0:
256,192,156104,1,0,0:0:0:0:
256,192,156177,1,0,0:0:0:0:
256,192,156250,1,0,0:0:0:0:
256,192,156324,1,8,0:0:0:0:
256,192,156397,1,8,0:0:0:0:
256,192,156470,1,0,0:0:0:0:
256,192,156543,1,0,0:0:0:0:
256,192,156616,1,0,0:0:0:0:
256,192,156689,1,0,0:0:0:0:
256,192,156763,1,8,0:0:0:0:
256,192,156836,1,8,0:0:0:0:
256,192,156909,1,8,0:0:0:0:
256,192,156982,1,8,0:0:0:0:
256,192,157055,1,0,0:0:0:0:
256,192,157128,1,0,0:0:0:0:
256,192,157202,1,8,0:0:0:0:
256,192,157275,1,8,0:0:0:0:
256,192,157348,1,8,0:0:0:0:
256,192,157421,1,0,0:0:0:0:
256,192,157494,1,8,0:0:0:0:
256,192,157567,1,8,0:0:0:0:
256,192,157641,1,0,0:0:0:0:
256,192,157787,1,0,0:0:0:0:
256,192,157933,1,8,0:0:0:0:
256,192,158080,1,8,0:0:0:0:
256,192,158226,1,4,0:0:0:0:
256,192,158811,1,8,0:0:0:0:
256,192,159397,1,4,0:0:0:0:
256,192,159982,1,12,0:0:0:0:
256,192,160567,1,8,0:0:0:0:
256,192,160641,1,0,0:0:0:0:
256,192,160714,1,8,0:0:0:0:
256,192,160787,1,0,0:0:0:0:
256,192,160860,1,8,0:0:0:0:
256,192,160933,1,8,0:0:0:0:
256,192,161006,1,0,0:0:0:0:
256,192,161080,1,0,0:0:0:0:
256,192,161153,1,8,0:0:0:0:
256,192,161226,1,0,0:0:0:0:
256,192,161299,1,8,0:0:0:0:
256,192,161372,1,8,0:0:0:0:
256,192,161445,1,0,0:0:0:0:
256,192,161519,1,0,0:0:0:0:
256,192,161592,1,8,0:0:0:0:
256,192,161665,1,8,0:0:0:0:
256,192,161738,1,0,0:0:0:0:
256,192,162031,1,0,0:0:0:0:
256,192,162324,1,8,0:0:0:0:
256,192,162616,1,8,0:0:0:0:
256,192,162909,1,4,0:0:0:0:
256,192,163055,1,0,0:0:0:0:
256,192,163128,1,0,0:0:0:0:
256,192,163202,1,8,0:0:0:0:
256,192,163348,1,8,0:0:0:0:
256,192,163494,1,0,0:0:0:0:
256,192,163641,1,8,0:0:0:0:
256,192,163714,1,0,0:0:0:0:
256,192,163787,1,8,0:0:0:0:
256,192,163933,1,8,0:0:0:0:
256,192,164080,1,0,0:0:0:0:
256,192,164226,1,8,0:0:0:0:
256,192,164299,1,8,0:0:0:0:
256,192,164372,1,0,0:0:0:0:
256,192,164519,1,8,0:0:0:0:
256,192,164665,1,0,0:0:0:0:
256,192,164738,1,0,0:0:0:0:
256,192,164811,1,8,0:0:0:0:
256,192,164885,1,8,0:0:0:0:
256,192,164958,1,0,0:0:0:0:
256,192,165104,1,8,0:0:0:0:
256,192,165250,1,0,0:0:0:0:
256,192,165397,1,0,0:0:0:0:
256,192,165470,1,0,0:0:0:0:
256,192,165543,1,8,0:0:0:0:
256,192,165689,1,8,0:0:0:0:
256,192,165836,1,0,0:0:0:0:
256,192,165909,1,8,0:0:0:0:
256,192,165982,1,8,0:0:0:0:
256,192,166055,1,8,0:0:0:0:
256,192,166128,1,0,0:0:0:0:
256,192,166275,1,0,0:0:0:0:
256,192,166421,1,8,0:0:0:0:
256,192,166494,1,8,0:0:0:0:
256,192,166567,1,0,0:0:0:0:
256,192,166641,1,0,0:0:0:0:
256,192,166714,1,8,0:0:0:0:
256,192,166787,1,0,0:0:0:0:
256,192,166860,1,0,0:0:0:0:
256,192,166933,1,0,0:0:0:0:
256,192,167006,1,8,0:0:0:0:
256,192,167080,1,8,0:0:0:0:
256,192,167153,1,0,0:0:0:0:
256,192,167226,1,0,0:0:0:0:
256,192,167299,1,8,0:0:0:0:
256,192,167372,1,8,0:0:0:0:
256,192,167445,1,8,0:0:0:0:
256,192,167519,1,8,0:0:0:0:
256,192,167592,1,0,0:0:0:0:
256,192,167738,1,0,0:0:0:0:
256,192,167811,1,0,0:0:0:0:
256,192,167885,1,8,0:0:0:0:
256,192,168031,1,8,0:0:0:0:
256,192,168177,1,0,0:0:0:0:
256,192,168324,1,8,0:0:0:0:
256,192,168397,1,0,0:0:0:0:
256,192,168470,1,8,0:0:0:0:
256,192,168616,1,0,0:0:0:0:
256,192,168689,1,0,0:0:0:0:
256,192,168763,1,8,0:0:0:0:
256,192,168909,1,8,0:0:0:0:
256,192,168982,1,8,0:0:0:0:
256,192,169055,1,0,0:0:0:0:
256,192,169202,1,8,0:0:0:0:
256,192,169348,1,0,0:0:0:0:
256,192,169421,1,0,0:0:0:0:
256,192,169494,1,8,0:0:0:0:
256,192,169567,1,8,0:0:0:0:
256,192,169641,1,0,0:0:0:0:
256,192,169787,1,8,0:0:0:0:
256,192,169933,5,0,0:0:0:0:
256,192,170080,1,0,0:0:0:0:
256,192,170153,1,0,0:0:0:0:
256,192,170226,1,8,0:0:0:0:
256,192,170372,1,0,0:0:0:0:
256,192,170519,1,8,0:0:0:0:
256,192,170592,1,0,0:0:0:0:
256,192,170665,1,8,0:0:0:0:
256,192,170738,1,8,0:0:0:0:
256,192,170811,1,0,0:0:0:0:
256,192,170958,1,0,0:0:0:0:
256,192,171104,5,8,0:0:0:0:
256,192,171141,1,8,0:0:0:0:
256,192,171250,1,0,0:0:0:0:
256,192,171287,1,0,0:0:0:0:
256,192,171397,1,8,0:0:0:0:
256,192,171433,1,8,0:0:0:0:
256,192,171543,1,0,0:0:0:0:
256,192,171580,1,0,0:0:0:0:
256,192,171689,1,8,0:0:0:0:
256,192,171763,1,0,0:0:0:0:
256,192,171836,1,8,0:0:0:0:
256,192,171909,1,8,0:0:0:0:
256,192,171982,1,0,0:0:0:0:
256,192,172055,1,0,0:0:0:0:
256,192,172128,1,0,0:0:0:0:
256,192,172202,1,0,0:0:0:0:
256,192,172275,1,8,0:0:0:0:
256,192,172348,1,0,0:0:0:0:
256,192,172421,1,8,0:0:0:0:
256,192,172494,1,0,0:0:0:0:
256,192,172567,1,8,0:0:0:0:
256,192,172641,1,8,0:0:0:0:
256,192,172714,1,0,0:0:0:0:
256,192,172787,1,0,0:0:0:0:
256,192,172860,1,8,0:0:0:0:
256,192,172933,1,0,0:0:0:0:
256,192,173006,1,8,0:0:0:0:
256,192,173080,1,8,0:0:0:0:
256,192,173153,1,0,0:0:0:0:
256,192,173226,1,8,0:0:0:0:
256,192,173299,1,0,0:0:0:0:
256,192,173372,1,0,0:0:0:0:
256,192,173445,1,8,0:0:0:0:
256,192,173519,1,0,0:0:0:0:
256,192,173592,1,8,0:0:0:0:
256,192,173665,1,8,0:0:0:0:
256,192,173738,1,0,0:0:0:0:
256,192,173811,1,0,0:0:0:0:
256,192,173885,1,0,0:0:0:0:
256,192,173958,1,0,0:0:0:0:
256,192,174031,1,8,0:0:0:0:
256,192,174104,1,8,0:0:0:0:
256,192,174177,1,0,0:0:0:0:
256,192,174250,1,8,0:0:0:0:
256,192,174324,1,0,0:0:0:0:
256,192,174397,1,8,0:0:0:0:
256,192,174470,1,0,0:0:0:0:
256,192,174543,1,0,0:0:0:0:
256,192,174616,1,8,0:0:0:0:
256,192,174689,1,0,0:0:0:0:
256,192,174763,1,8,0:0:0:0:
256,192,174836,1,0,0:0:0:0:
256,192,174909,1,8,0:0:0:0:
256,192,174982,1,8,0:0:0:0:
256,192,175055,1,0,0:0:0:0:
256,192,175128,1,0,0:0:0:0:
256,192,175202,1,8,0:0:0:0:
256,192,175275,1,0,0:0:0:0:
256,192,175348,1,8,0:0:0:0:
256,192,175421,1,8,0:0:0:0:
256,192,175494,1,0,0:0:0:0:
256,192,175567,1,8,0:0:0:0:
256,192,175641,1,0,0:0:0:0:
256,192,175714,1,0,0:0:0:0:
256,192,175787,1,8,0:0:0:0:
256,192,175860,1,8,0:0:0:0:
256,192,175933,1,0,0:0:0:0:
256,192,176006,1,0,0:0:0:0:
256,192,176080,1,8,0:0:0:0:
256,192,176153,1,0,0:0:0:0:
256,192,176226,1,8,0:0:0:0:
256,192,176299,1,8,0:0:0:0:
256,192,176372,1,0,0:0:0:0:
256,192,176445,1,8,0:0:0:0:
256,192,176519,1,8,0:0:0:0:
256,192,176592,1,8,0:0:0:0:
256,192,176665,1,0,0:0:0:0:
256,192,176738,1,0,0:0:0:0:
256,192,176811,1,0,0:0:0:0:
256,192,176885,1,0,0:0:0:0:
256,192,176958,1,8,0:0:0:0:
256,192,177031,1,0,0:0:0:0:
256,192,177104,1,8,0:0:0:0:
256,192,177177,1,0,0:0:0:0:
256,192,177250,1,8,0:0:0:0:
256,192,177324,1,8,0:0:0:0:
256,192,177397,1,0,0:0:0:0:
256,192,177470,1,0,0:0:0:0:
256,192,177543,1,8,0:0:0:0:
256,192,177616,1,0,0:0:0:0:
256,192,177689,1,8,0:0:0:0:
256,192,177763,1,8,0:0:0:0:
256,192,177836,1,0,0:0:0:0:
256,192,177909,1,8,0:0:0:0:
256,192,177982,1,0,0:0:0:0:
256,192,178055,1,0,0:0:0:0:
256,192,178128,1,8,0:0:0:0:
256,192,178202,1,0,0:0:0:0:
256,192,178275,1,8,0:0:0:0:
256,192,178348,1,8,0:0:0:0:
256,192,178421,1,0,0:0:0:0:
256,192,178494,1,0,0:0:0:0:
256,192,178567,1,0,0:0:0:0:
256,192,178641,1,0,0:0:0:0:
256,192,178714,1,8,0:0:0:0:
256,192,178787,1,8,0:0:0:0:
256,192,178860,1,0,0:0:0:0:
256,192,178933,1,0,0:0:0:0:
256,192,179006,1,8,0:0:0:0:
256,192,179080,1,0,0:0:0:0:
256,192,179153,1,8,0:0:0:0:
256,192,179226,1,8,0:0:0:0:
256,192,179299,1,0,0:0:0:0:
256,192,179372,1,0,0:0:0:0:
256,192,179445,1,8,0:0:0:0:
256,192,179519,1,8,0:0:0:0:
256,192,179592,1,8,0:0:0:0:
256,192,179665,1,8,0:0:0:0:
256,192,179738,1,0,0:0:0:0:
256,192,179811,1,0,0:0:0:0:
256,192,179885,1,8,0:0:0:0:
256,192,179958,1,8,0:0:0:0:
256,192,180031,1,8,0:0:0:0:
256,192,180104,1,8,0:0:0:0:
256,192,180177,1,0,0:0:0:0:
256,192,180324,1,8,0:0:0:0:
256,192,180616,1,0,0:0:0:0:
256,192,180689,1,0,0:0:0:0:
256,192,180763,1,8,0:0:0:0:
256,192,180836,1,0,0:0:0:0:
256,192,180909,1,8,0:0:0:0:
256,192,180982,1,0,0:0:0:0:
256,192,181055,1,8,0:0:0:0:
256,192,181128,1,8,0:0:0:0:
256,192,181202,1,8,0:0:0:0:
256,192,181275,1,8,0:0:0:0:
256,192,181348,1,0,0:0:0:0:
256,192,181494,1,8,0:0:0:0:
256,192,181641,1,4,0:0:0:0:
256,192,182811,1,0,0:0:0:0:
256,192,183982,1,4,0:0:0:0:
256,192,185153,1,4,0:0:0:0:
256,192,185445,1,0,0:0:0:0:
256,192,185592,1,0,0:0:0:0:
256,192,185738,1,8,0:0:0:0:
256,192,186031,1,8,0:0:0:0:
256,192,186177,1,8,0:0:0:0:
256,192,186324,1,4,0:0:0:0:
256,192,187494,1,4,0:0:0:0:
256,192,188080,1,8,0:0:0:0:
256,192,188665,1,4,0:0:0:0:
256,192,189689,1,0,0:0:0:0:
256,192,189763,1,0,0:0:0:0:
256,192,189836,1,0,0:0:0:0:
256,192,189982,1,0,0:0:0:0:
256,192,190128,1,8,0:0:0:0:
256,192,190275,1,0,0:0:0:0:
256,192,190421,1,8,0:0:0:0:
256,192,190494,1,8,0:0:0:0:
256,192,190567,1,0,0:0:0:0:
256,192,190641,1,0,0:0:0:0:
256,192,190714,1,8,0:0:0:0:
256,192,191006,1,0,0:0:0:0:
256,192,191299,1,8,0:0:0:0:
256,192,191445,1,0,0:0:0:0:
256,192,191738,1,0,0:0:0:0:
256,192,191885,1,8,0:0:0:0:
256,192,192177,1,0,0:0:0:0:
256,192,192250,1,0,0:0:0:0:
256,192,192324,1,0,0:0:0:0:
256,192,192470,1,8,0:0:0:0:
256,192,192616,1,0,0:0:0:0:
256,192,192689,1,0,0:0:0:0:
256,192,192763,1,0,0:0:0:0:
256,192,192909,1,0,0:0:0:0:
256,192,193055,1,8,0:0:0:0:
256,192,193348,1,0,0:0:0:0:
256,192,193641,1,8,0:0:0:0:
256,192,193787,1,0,0:0:0:0:
256,192,194080,1,0,0:0:0:0:
256,192,194226,1,8,0:0:0:0:
256,192,194519,1,0,0:0:0:0:
256,192,194665,1,0,0:0:0:0:
256,192,194811,1,8,0:0:0:0:
256,192,194958,1,0,0:0:0:0:
256,192,195104,1,0,0:0:0:0:
256,192,195177,1,0,0:0:0:0:
256,192,195250,1,0,0:0:0:0:
256,192,195397,1,8,0:0:0:0:
256,192,195689,1,0,0:0:0:0:
256,192,195982,1,8,0:0:0:0:
256,192,196128,1,0,0:0:0:0:
256,192,196421,1,0,0:0:0:0:
256,192,196567,1,8,0:0:0:0:
256,192,196860,1,8,0:0:0:0:
256,192,196933,1,8,0:0:0:0:
256,192,197006,1,8,0:0:0:0:
256,192,197153,1,0,0:0:0:0:
256,192,197299,1,8,0:0:0:0:
256,192,197372,1,8,0:0:0:0:
256,192,197445,1,8,0:0:0:0:
256,192,197592,1,0,0:0:0:0:
256,192,197738,1,8,0:0:0:0:
256,192,198031,1,0,0:0:0:0:
256,192,198324,1,8,0:0:0:0:
256,192,198470,1,0,0:0:0:0:
256,192,198763,1,0,0:0:0:0:
256,192,198909,1,8,0:0:0:0:
256,192,199055,1,0,0:0:0:0:
256,192,199128,1,0,0:0:0:0:
256,192,199202,1,8,0:0:0:0:
256,192,199348,1,0,0:0:0:0:
256,192,199494,1,8,0:0:0:0:
256,192,199641,1,0,0:0:0:0:
256,192,199714,1,0,0:0:0:0:
256,192,199787,1,8,0:0:0:0:
256,192,199860,1,0,0:0:0:0:
256,192,199933,1,8,0:0:0:0:
256,192,200006,1,0,0:0:0:0:
256,192,200080,1,8,0:0:0:0:
256,192,200153,1,8,0:0:0:0:
256,192,200226,1,8,0:0:0:0:
256,192,200299,1,8,0:0:0:0:
256,192,200372,1,0,0:0:0:0:
256,192,200519,1,8,0:0:0:0:
256,192,200665,1,0,0:0:0:0:
256,192,200738,1,0,0:0:0:0:
256,192,200811,1,8,0:0:0:0:
256,192,200958,1,0,0:0:0:0:
256,192,201104,1,8,0:0:0:0:
256,192,201177,1,0,0:0:0:0:
256,192,201250,1,0,0:0:0:0:
256,192,201397,1,8,0:0:0:0:
256,192,201543,1,0,0:0:0:0:
256,192,201689,1,8,0:0:0:0:
256,192,201836,1,0,0:0:0:0:
256,192,201909,1,0,0:0:0:0:
256,192,201982,1,8,0:0:0:0:
256,192,202128,1,0,0:0:0:0:
256,192,202275,1,8,0:0:0:0:
256,192,202348,1,8,0:0:0:0:
256,192,202421,1,0,0:0:0:0:
256,192,202494,1,0,0:0:0:0:
256,192,202567,1,8,0:0:0:0:
256,192,202714,1,0,0:0:0:0:
256,192,202860,1,8,0:0:0:0:
256,192,203006,1,0,0:0:0:0:
256,192,203080,1,0,0:0:0:0:
256,192,203153,1,8,0:0:0:0:
256,192,203299,1,0,0:0:0:0:
256,192,203445,1,8,0:0:0:0:
256,192,203519,1,8,0:0:0:0:
256,192,203592,1,0,0:0:0:0:
256,192,203738,1,8,0:0:0:0:
256,192,203811,1,0,0:0:0:0:
256,192,203885,1,0,0:0:0:0:
256,192,204031,1,8,0:0:0:0:
256,192,204177,1,0,0:0:0:0:
256,192,204250,1,8,0:0:0:0:
256,192,204324,1,8,0:0:0:0:
256,192,204397,1,8,0:0:0:0:
256,192,204470,1,0,0:0:0:0:
256,192,204616,1,8,0:0:0:0:
256,192,204689,1,8,0:0:0:0:
256,192,204763,1,0,0:0:0:0:
256,192,204909,1,8,0:0:0:0:
256,192,205055,5,0,0:0:0:0:
256,192,205202,1,8,0:0:0:0:
256,192,205348,1,0,0:0:0:0:
256,192,205421,1,0,0:0:0:0:
256,192,205494,1,8,0:0:0:0:
256,192,205641,1,0,0:0:0:0:
256,192,205787,1,8,0:0:0:0:
256,192,205860,1,0,0:0:0:0:
256,192,205933,1,0,0:0:0:0:
256,192,206080,1,8,0:0:0:0:
256,192,206226,1,0,0:0:0:0:
256,192,206372,1,8,0:0:0:0:
256,192,206519,1,0,0:0:0:0:
256,192,206592,1,0,0:0:0:0:
256,192,206665,1,8,0:0:0:0:
256,192,206811,1,0,0:0:0:0:
256,192,206958,1,8,0:0:0:0:
256,192,207031,1,8,0:0:0:0:
256,192,207104,1,0,0:0:0:0:
256,192,207177,1,0,0:0:0:0:
256,192,207250,1,8,0:0:0:0:
256,192,207397,1,0,0:0:0:0:
256,192,207543,1,8,0:0:0:0:
256,192,207689,1,0,0:0:0:0:
256,192,207763,1,0,0:0:0:0:
256,192,207836,1,8,0:0:0:0:
256,192,207982,1,0,0:0:0:0:
256,192,208128,1,8,0:0:0:0:
256,192,208202,1,8,0:0:0:0:
256,192,208275,1,0,0:0:0:0:
256,192,208421,1,8,0:0:0:0:
256,192,208567,1,0,0:0:0:0:
256,192,208641,1,0,0:0:0:0:
256,192,208714,1,8,0:0:0:0:
256,192,208787,1,0,0:0:0:0:
256,192,208860,1,0,0:0:0:0:
256,192,208933,1,0,0:0:0:0:
256,192,209006,1,8,0:0:0:0:
256,192,209080,1,8,0:0:0:0:
256,192,209153,1,0,0:0:0:0:
256,192,209226,1,0,0:0:0:0:
256,192,209299,1,8,0:0:0:0:
256,192,209372,1,0,0:0:0:0:
256,192,209445,1,8,0:0:0:0:
256,192,209519,1,0,0:0:0:0:
256,192,209592,1,8,0:0:0:0:
256,192,209665,1,8,0:0:0:0:
256,192,209738,5,0,0:0:0:0:
256,192,209885,1,8,0:0:0:0:
256,192,210031,1,0,0:0:0:0:
256,192,210104,1,0,0:0:0:0:
256,192,210177,1,8,0:0:0:0:
256,192,210324,1,0,0:0:0:0:
256,192,210470,1,8,0:0:0:0:
256,192,210543,1,0,0:0:0:0:
256,192,210616,1,0,0:0:0:0:
256,192,210763,1,8,0:0:0:0:
256,192,210836,1,8,0:0:0:0:
256,192,210909,1,0,0:0:0:0:
256,192,211055,1,8,0:0:0:0:
256,192,211202,1,0,0:0:0:0:
256,192,211275,1,0,0:0:0:0:
256,192,211348,1,8,0:0:0:0:
256,192,211494,1,0,0:0:0:0:
256,192,211641,1,8,0:0:0:0:
256,192,211714,1,8,0:0:0:0:
256,192,211787,1,0,0:0:0:0:
256,192,211860,1,0,0:0:0:0:
256,192,211933,1,8,0:0:0:0:
256,192,212006,1,0,0:0:0:0:
256,192,212080,1,0,0:0:0:0:
256,192,212226,1,8,0:0:0:0:
256,192,212372,1,0,0:0:0:0:
256,192,212445,1,0,0:0:0:0:
256,192,212519,1,8,0:0:0:0:
256,192,212665,1,0,0:0:0:0:
256,192,212811,1,8,0:0:0:0:
256,192,212885,1,8,0:0:0:0:
256,192,212958,1,0,0:0:0:0:
256,192,213104,1,8,0:0:0:0:
256,192,213177,1,0,0:0:0:0:
256,192,213250,1,0,0:0:0:0:
256,192,213397,1,8,0:0:0:0:
256,192,213543,1,0,0:0:0:0:
256,192,213616,1,8,0:0:0:0:
256,192,213689,1,8,0:0:0:0:
256,192,213763,1,8,0:0:0:0:
256,192,213836,1,0,0:0:0:0:
256,192,213982,1,8,0:0:0:0:
256,192,214055,1,8,0:0:0:0:
256,192,214128,1,0,0:0:0:0:
256,192,214275,1,8,0:0:0:0:
256,192,214348,1,0,0:0:0:0:
256,192,214421,5,0,0:0:0:0:
256,192,214567,1,8,0:0:0:0:
256,192,214714,1,0,0:0:0:0:
256,192,214787,1,0,0:0:0:0:
256,192,214860,1,8,0:0:0:0:
256,192,215006,1,0,0:0:0:0:
256,192,215153,1,8,0:0:0:0:
256,192,215226,1,0,0:0:0:0:
256,192,215299,1,0,0:0:0:0:
256,192,215445,1,8,0:0:0:0:
256,192,215519,1,8,0:0:0:0:
256,192,215592,1,0,0:0:0:0:
256,192,215738,1,8,0:0:0:0:
256,192,215885,1,0,0:0:0:0:
256,192,215958,1,0,0:0:0:0:
256,192,216031,1,8,0:0:0:0:
256,192,216177,1,0,0:0:0:0:
256,192,216324,1,8,0:0:0:0:
256,192,216397,1,8,0:0:0:0:
256,192,216470,1,0,0:0:0:0:
256,192,216543,1,0,0:0:0:0:
256,192,216616,1,8,0:0:0:0:
256,192,216763,1,8,0:0:0:0:
256,192,216836,1,8,0:0:0:0:
256,192,216909,1,0,0:0:0:0:
256,192,216982,1,0,0:0:0:0:
256,192,217055,1,0,0:0:0:0:
256,192,217128,1,0,0:0:0:0:
256,192,217202,1,8,0:0:0:0:
256,192,217275,1,8,0:0:0:0:
256,192,217348,1,0,0:0:0:0:
256,192,217421,1,0,0:0:0:0:
256,192,217494,1,0,0:0:0:0:
256,192,217567,1,0,0:0:0:0:
256,192,217641,1,8,0:0:0:0:
256,192,217714,1,8,0:0:0:0:
256,192,217787,1,0,0:0:0:0:
256,192,217860,1,0,0:0:0:0:
256,192,217933,1,8,0:0:0:0:
256,192,218006,1,0,0:0:0:0:
256,192,218080,1,8,0:0:0:0:
256,192,218153,1,8,0:0:0:0:
256,192,218226,1,0,0:0:0:0:
256,192,218299,1,0,0:0:0:0:
256,192,218372,1,8,0:0:0:0:
256,192,218445,1,0,0:0:0:0:
256,192,218519,1,8,0:0:0:0:
256,192,218592,1,8,0:0:0:0:
256,192,218665,1,0,0:0:0:0:
256,192,218738,1,0,0:0:0:0:
256,192,218811,1,8,0:0:0:0:
256,192,218885,1,8,0:0:0:0:
256,192,218958,1,8,0:0:0:0:
256,192,219031,1,8,0:0:0:0:
256,192,219104,1,0,0:0:0:0:
256,192,219250,1,8,0:0:0:0:
256,192,219324,1,0,0:0:0:0:
256,192,219397,1,8,0:0:0:0:
256,192,219543,1,0,0:0:0:0:
256,192,219689,1,8,0:0:0:0:
256,192,219763,1,8,0:0:0:0:
256,192,219836,1,8,0:0:0:0:
256,192,219982,1,0,0:0:0:0:
256,192,220128,1,0,0:0:0:0:
256,192,220275,1,8,0:0:0:0:
256,192,220421,1,0,0:0:0:0:
256,192,220494,1,0,0:0:0:0:
256,192,220567,1,8,0:0:0:0:
256,192,220714,1,8,0:0:0:0:
256,192,220787,1,0,0:0:0:0:
256,192,220860,1,8,0:0:0:0:
256,192,221006,1,8,0:0:0:0:
256,192,221153,1,0,0:0:0:0:
256,192,221299,1,0,0:0:0:0:
256,192,221445,1,8,0:0:0:0:
256,192,221519,1,8,0:0:0:0:
256,192,221592,1,0,0:0:0:0:
256,192,221665,1,0,0:0:0:0:
256,192,221738,1,8,0:0:0:0:
256,192,221885,1,0,0:0:0:0:
256,192,222031,1,8,0:0:0:0:
256,192,222104,1,8,0:0:0:0:
256,192,222177,1,0,0:0:0:0:
256,192,222226,1,8,0:0:0:0:
256,192,222275,1,8,0:0:0:0:
256,192,222324,1,0,0:0:0:0:
256,192,222470,1,0,0:0:0:0:
256,192,222616,1,8,0:0:0:0:
256,192,222763,1,0,0:0:0:0:
256,192,222836,1,0,0:0:0:0:
256,192,222909,1,8,0:0:0:0:
256,192,223055,1,0,0:0:0:0:
256,192,223128,1,0,0:0:0:0:
256,192,223202,1,8,0:0:0:0:
256,192,223238,1,8,0:0:0:0:
256,192,223348,1,0,0:0:0:0:
256,192,223385,1,0,0:0:0:0:
256,192,223494,1,8,0:0:0:0:
256,192,223531,1,8,0:0:0:0:
256,192,223641,1,8,0:0:0:0:
256,192,223677,1,8,0:0:0:0:
256,192,223787,1,0,0:0:0:0:
256,192,223933,1,8,0:0:0:0:
256,192,224006,1,0,0:0:0:0:
256,192,224080,1,8,0:0:0:0:
256,192,224226,1,0,0:0:0:0:
256,192,224372,1,8,0:0:0:0:
256,192,224445,1,8,0:0:0:0:
256,192,224519,1,8,0:0:0:0:
256,192,224592,1,8,0:0:0:0:
256,192,224665,1,0,0:0:0:0:
256,192,224811,1,0,0:0:0:0:
256,192,224958,1,8,0:0:0:0:
256,192,225031,1,0,0:0:0:0:
256,192,225104,1,0,0:0:0:0:
256,192,225177,1,0,0:0:0:0:
256,192,225250,1,8,0:0:0:0:
256,192,225397,1,8,0:0:0:0:
256,192,225470,1,0,0:0:0:0:
256,192,225543,1,8,0:0:0:0:
256,192,225689,1,8,0:0:0:0:
256,192,225836,1,0,0:0:0:0:
256,192,225982,1,0,0:0:0:0:
256,192,226128,1,8,0:0:0:0:
256,192,226202,1,8,0:0:0:0:
256,192,226275,1,0,0:0:0:0:
256,192,226348,1,8,0:0:0:0:
256,192,226421,1,0,0:0:0:0:
256,192,226494,1,0,0:0:0:0:
256,192,226567,1,8,0:0:0:0:
256,192,226641,1,8,0:0:0:0:
256,192,226714,1,0,0:0:0:0:
256,192,226787,1,8,0:0:0:0:
256,192,226860,1,0,0:0:0:0:
256,192,226933,1,0,0:0:0:0:
256,192,227006,1,8,0:0:0:0:
256,192,227080,1,0,0:0:0:0:
256,192,227153,1,0,0:0:0:0:
256,192,227226,1,0,0:0:0:0:
256,192,227299,1,8,0:0:0:0:
256,192,227336,1,8,0:0:0:0:
256,192,227445,1,8,0:0:0:0:
256,192,227482,1,8,0:0:0:0:
256,192,227592,1,0,0:0:0:0:
256,192,227628,1,0,0:0:0:0:
256,192,227738,1,8,0:0:0:0:
256,192,227775,1,8,0:0:0:0:
256,192,227885,1,0,0:0:0:0:
256,192,227933,1,8,0:0:0:0:
256,192,227982,1,8,0:0:0:0:
256,192,228031,1,0,0:0:0:0:
256,192,228177,1,8,0:0:0:0:
256,192,228226,1,8,0:0:0:0:
256,192,228275,1,0,0:0:0:0:
256,192,228324,1,0,0:0:0:0:
256,192,228470,1,8,0:0:0:0:
256,192,228543,1,8,0:0:0:0:
256,192,228616,1,0,0:0:0:0:
256,192,228689,1,8,0:0:0:0:
256,192,228763,1,0,0:0:0:0:
256,192,228836,1,0,0:0:0:0:
256,192,228909,1,8,0:0:0:0:
256,192,228982,1,8,0:0:0:0:
256,192,229055,1,0,0:0:0:0:
256,192,229128,1,0,0:0:0:0:
256,192,229202,1,8,0:0:0:0:
256,192,229275,1,0,0:0:0:0:
256,192,229348,1,0,0:0:0:0:
256,192,229421,1,0,0:0:0:0:
256,192,229494,1,8,0:0:0:0:
256,192,229567,1,8,0:0:0:0:
256,192,229641,1,0,0:0:0:0:
256,192,229714,1,0,0:0:0:0:
256,192,229787,1,8,0:0:0:0:
256,192,229860,1,8,0:0:0:0:
256,192,229933,1,0,0:0:0:0:
256,192,230006,1,0,0:0:0:0:
256,192,230080,1,8,0:0:0:0:
256,192,230153,1,8,0:0:0:0:
256,192,230226,1,8,0:0:0:0:
256,192,230299,1,8,0:0:0:0:
256,192,230372,1,0,0:0:0:0:
256,192,230445,1,0,0:0:0:0:
256,192,230519,1,8,0:0:0:0:
256,192,230592,1,8,0:0:0:0:
256,192,230665,1,0,0:0:0:0:
256,192,230738,1,0,0:0:0:0:
256,192,230811,1,8,0:0:0:0:
256,192,230885,1,8,0:0:0:0:
256,192,230958,1,8,0:0:0:0:
256,192,231031,1,0,0:0:0:0:
256,192,231104,1,8,0:0:0:0:
256,192,231177,1,8,0:0:0:0:
256,192,231250,1,0,0:0:0:0:
256,192,231324,1,0,0:0:0:0:
256,192,231397,1,8,0:0:0:0:
256,192,231470,1,0,0:0:0:0:
256,192,231543,1,8,0:0:0:0:
256,192,231616,1,8,0:0:0:0:
256,192,231689,1,0,0:0:0:0:
256,192,231763,1,0,0:0:0:0:
256,192,231836,1,8,0:0:0:0:
256,192,231909,1,8,0:0:0:0:
256,192,231982,1,0,0:0:0:0:
256,192,232055,1,0,0:0:0:0:
256,192,232128,1,0,0:0:0:0:
256,192,232202,1,0,0:0:0:0:
256,192,232275,1,8,0:0:0:0:
256,192,232348,1,8,0:0:0:0:
256,192,232421,1,0,0:0:0:0:
256,192,232494,1,8,0:0:0:0:
256,192,232567,1,0,0:0:0:0:
256,192,232641,1,0,0:0:0:0:
256,192,232714,1,8,0:0:0:0:
256,192,232787,1,8,0:0:0:0:
256,192,232860,1,0,0:0:0:0:
256,192,232933,1,0,0:0:0:0:
256,192,233006,1,0,0:0:0:0:
256,192,233080,1,0,0:0:0:0:
256,192,233153,1,8,0:0:0:0:
256,192,233226,1,8,0:0:0:0:
256,192,233299,1,8,0:0:0:0:
256,192,233372,1,8,0:0:0:0:
256,192,233445,1,0,0:0:0:0:
256,192,233519,1,0,0:0:0:0:
256,192,233592,1,0,0:0:0:0:
256,192,233665,1,0,0:0:0:0:
256,192,233738,1,8,0:0:0:0:
256,192,233811,1,8,0:0:0:0:
256,192,233885,1,0,0:0:0:0:
256,192,233958,1,0,0:0:0:0:
256,192,234031,1,8,0:0:0:0:
256,192,234104,1,0,0:0:0:0:
256,192,234177,1,8,0:0:0:0:
256,192,234250,1,8,0:0:0:0:
256,192,234324,1,0,0:0:0:0:
256,192,234397,1,0,0:0:0:0:
256,192,234470,1,8,0:0:0:0:
256,192,234543,1,8,0:0:0:0:
256,192,234616,1,8,0:0:0:0:
256,192,234689,1,8,0:0:0:0:
256,192,234763,1,0,0:0:0:0:
256,192,234836,1,0,0:0:0:0:
256,192,234909,1,8,0:0:0:0:
256,192,234982,1,8,0:0:0:0:
256,192,235055,1,8,0:0:0:0:
256,192,235128,1,8,0:0:0:0:
256,192,235202,1,0,0:0:0:0:
256,192,235275,1,0,0:0:0:0:
256,192,235348,1,8,0:0:0:0:
256,192,235421,1,0,0:0:0:0:
256,192,235494,1,8,0:0:0:0:
256,192,235567,1,8,0:0:0:0:
256,192,235641,1,0,0:0:0:0:
256,192,235714,1,0,0:0:0:0:
256,192,235787,1,8,0:0:0:0:
256,192,235860,1,0,0:0:0:0:
256,192,235933,1,8,0:0:0:0:
256,192,236006,1,8,0:0:0:0:
256,192,236080,1,0,0:0:0:0:
256,192,236153,1,0,0:0:0:0:
256,192,236226,1,8,0:0:0:0:
256,192,236299,1,0,0:0:0:0:
256,192,236372,1,8,0:0:0:0:
256,192,236445,1,8,0:0:0:0:
256,192,236519,1,0,0:0:0:0:
256,192,236592,1,0,0:0:0:0:
256,192,236665,1,8,0:0:0:0:
256,192,236738,1,8,0:0:0:0:
256,192,236811,1,8,0:0:0:0:
256,192,236885,1,8,0:0:0:0:
256,192,236958,1,0,0:0:0:0:
256,192,237031,1,0,0:0:0:0:
256,192,237104,1,0,0:0:0:0:
256,192,237177,1,0,0:0:0:0:
256,192,237250,1,8,0:0:0:0:
256,192,237324,1,0,0:0:0:0:
256,192,237397,1,8,0:0:0:0:
256,192,237470,1,0,0:0:0:0:
256,192,237543,1,8,0:0:0:0:
256,192,237616,1,8,0:0:0:0:
256,192,237689,1,0,0:0:0:0:
256,192,237763,1,0,0:0:0:0:
256,192,237836,1,8,0:0:0:0:
256,192,239885,1,4,0:0:0:0:
256,192,240177,1,4,0:0:0:0:
256,192,242080,1,0,0:0:0:0:
256,192,242153,1,0,0:0:0:0:
256,192,242226,1,8,0:0:0:0:
256,192,242299,1,8,0:0:0:0:
256,192,242372,1,0,0:0:0:0:
256,192,242519,1,4,0:0:0:0:
256,192,243397,1,8,0:0:0:0:
256,192,243470,1,8,0:0:0:0:
256,192,243543,1,8,0:0:0:0:
256,192,243689,1,4,0:0:0:0:
256,192,244421,1,0,0:0:0:0:
256,192,244494,1,0,0:0:0:0:
256,192,244567,1,8,0:0:0:0:
256,192,244714,1,0,0:0:0:0:
256,192,244860,1,8,0:0:0:0:
256,192,244933,1,8,0:0:0:0:
256,192,245006,1,0,0:0:0:0:
256,192,245080,1,0,0:0:0:0:
256,192,245153,1,8,0:0:0:0:
256,192,245226,1,0,0:0:0:0:
256,192,245299,1,8,0:0:0:0:
256,192,245372,1,8,0:0:0:0:
256,192,245445,1,0,0:0:0:0:
256,192,245519,1,0,0:0:0:0:
256,192,245592,1,8,0:0:0:0:
256,192,245665,1,0,0:0:0:0:
256,192,245738,1,8,0:0:0:0:
256,192,245811,1,8,0:0:0:0:
256,192,245885,1,0,0:0:0:0:
256,192,245958,1,0,0:0:0:0:
256,192,246031,1,8,0:0:0:0:
256,192,246104,1,0,0:0:0:0:
256,192,246177,1,8,0:0:0:0:
256,192,246250,1,0,0:0:0:0:
256,192,246324,1,8,0:0:0:0:
256,192,246397,1,8,0:0:0:0:
256,192,246470,1,0,0:0:0:0:
256,192,246543,1,0,0:0:0:0:
256,192,246616,1,8,0:0:0:0:
256,192,246689,1,0,0:0:0:0:
256,192,246763,1,0,0:0:0:0:
256,192,246836,1,0,0:0:0:0:
256,192,246909,1,8,0:0:0:0:
256,192,246982,1,8,0:0:0:0:
256,192,247055,1,8,0:0:0:0:
256,192,247128,1,8,0:0:0:0:
256,192,247202,1,0,0:0:0:0:
256,192,247348,1,0,0:0:0:0:
256,192,247494,1,8,0:0:0:0:
256,192,247714,1,8,0:0:0:0:
256,192,247787,1,0,0:0:0:0:
256,192,247933,1,8,0:0:0:0:
256,192,248006,1,8,0:0:0:0:
256,192,248080,1,0,0:0:0:0:
256,192,248226,1,0,0:0:0:0:
256,192,248372,1,8,0:0:0:0:
256,192,248519,1,8,0:0:0:0:
256,192,248592,1,0,0:0:0:0:
256,192,248665,1,8,0:0:0:0:
256,192,248811,1,0,0:0:0:0:
256,192,248885,1,0,0:0:0:0:
256,192,248958,1,8,0:0:0:0:
256,192,249104,1,0,0:0:0:0:
256,192,249177,1,0,0:0:0:0:
256,192,249250,1,0,0:0:0:0:
256,192,249397,1,8,0:0:0:0:
256,192,249543,1,0,0:0:0:0:
256,192,249689,1,0,0:0:0:0:
256,192,249836,1,8,0:0:0:0:
256,192,250055,1,8,0:0:0:0:
256,192,250128,1,0,0:0:0:0:
256,192,250275,1,8,0:0:0:0:
256,192,250421,1,0,0:0:0:0:
256,192,250494,1,0,0:0:0:0:
256,192,250567,1,0,0:0:0:0:
256,192,250641,1,0,0:0:0:0:
256,192,250714,1,8,0:0:0:0:
256,192,250860,1,8,0:0:0:0:
256,192,250933,1,0,0:0:0:0:
256,192,251006,1,8,0:0:0:0:
256,192,251153,1,0,0:0:0:0:
256,192,251299,1,8,0:0:0:0:
256,192,251372,1,8,0:0:0:0:
256,192,251445,1,0,0:0:0:0:
256,192,251519,1,0,0:0:0:0:
256,192,251592,1,8,0:0:0:0:
256,192,251885,1,8,0:0:0:0:
256,192,251958,1,8,0:0:0:0:
256,192,252031,1,0,0:0:0:0:
256,192,252104,1,0,0:0:0:0:
256,192,252177,1,0,0:0:0:0:
256,192,252250,1,0,0:0:0:0:
256,192,252324,1,8,0:0:0:0:
256,192,252397,1,8,0:0:0:0:
256,192,252470,1,0,0:0:0:0:
256,192,252543,1,0,0:0:0:0:
256,192,252616,1,0,0:0:0:0:
256,192,252689,1,0,0:0:0:0:
256,192,252763,1,8,0:0:0:0:
256,192,252836,1,8,0:0:0:0:
256,192,252909,1,0,0:0:0:0:
256,192,252982,1,0,0:0:0:0:
256,192,253055,1,8,0:0:0:0:
256,192,253128,1,8,0:0:0:0:
256,192,253202,1,0,0:0:0:0:
256,192,253275,1,0,0:0:0:0:
256,192,253348,1,0,0:0:0:0:
256,192,253421,1,0,0:0:0:0:
256,192,253494,1,8,0:0:0:0:
256,192,253567,1,8,0:0:0:0:
256,192,253641,1,0,0:0:0:0:
256,192,253714,1,0,0:0:0:0:
256,192,253787,1,0,0:0:0:0:
256,192,253860,1,0,0:0:0:0:
256,192,253933,1,8,0:0:0:0:
256,192,254006,1,8,0:0:0:0:
256,192,254080,1,0,0:0:0:0:
256,192,254153,1,0,0:0:0:0:
256,192,254226,1,8,0:0:0:0:
256,192,254299,1,8,0:0:0:0:
256,192,254372,1,0,0:0:0:0:
256,192,254445,1,8,0:0:0:0:
256,192,254519,1,0,0:0:0:0:
256,192,254592,1,0,0:0:0:0:
256,192,254665,1,0,0:0:0:0:
256,192,254738,1,0,0:0:0:0:
256,192,254811,1,8,0:0:0:0:
256,192,254885,1,0,0:0:0:0:
256,192,254958,1,8,0:0:0:0:
256,192,255031,1,8,0:0:0:0:
256,192,255104,1,0,0:0:0:0:
256,192,255177,1,8,0:0:0:0:
256,192,255250,1,0,0:0:0:0:
256,192,255324,1,0,0:0:0:0:
256,192,255397,1,8,0:0:0:0:
256,192,255470,1,8,0:0:0:0:
256,192,255543,1,0,0:0:0:0:
256,192,255616,1,8,0:0:0:0:
256,192,255689,1,0,0:0:0:0:
256,192,255763,1,0,0:0:0:0:
256,192,255836,1,8,0:0:0:0:
256,192,255909,1,8,0:0:0:0:
256,192,255982,1,0,0:0:0:0:
256,192,256055,1,8,0:0:0:0:
256,192,256128,1,8,0:0:0:0:
256,192,256202,1,0,0:0:0:0:
256,192,256275,1,8,0:0:0:0:
256,192,256348,1,8,0:0:0:0:
256,192,256421,1,0,0:0:0:0:
256,192,256494,1,0,0:0:0:0:
256,192,256567,1,8,0:0:0:0:
256,192,256641,1,8,0:0:0:0:
256,192,256714,1,0,0:0:0:0:
256,192,256787,1,8,0:0:0:0:
256,192,256860,1,0,0:0:0:0:
256,192,256933,1,0,0:0:0:0:
256,192,257006,1,8,0:0:0:0:
256,192,257080,1,8,0:0:0:0:
256,192,257153,1,0,0:0:0:0:
256,192,257226,1,8,0:0:0:0:
256,192,257299,1,0,0:0:0:0:
256,192,257372,1,0,0:0:0:0:
256,192,257445,1,8,0:0:0:0:
256,192,257519,1,8,0:0:0:0:
256,192,257592,1,0,0:0:0:0:
256,192,257665,1,0,0:0:0:0:
256,192,257738,1,8,0:0:0:0:
256,192,257811,1,0,0:0:0:0:
256,192,257885,1,8,0:0:0:0:
256,192,257958,1,8,0:0:0:0:
256,192,258031,1,0,0:0:0:0:
256,192,258104,1,0,0:0:0:0:
256,192,258177,1,8,0:0:0:0:
256,192,258250,1,8,0:0:0:0:
256,192,258324,1,0,0:0:0:0:
256,192,258397,1,0,0:0:0:0:
256,192,258470,1,0,0:0:0:0:
256,192,258543,1,0,0:0:0:0:
256,192,258616,1,8,0:0:0:0:
256,192,258689,1,8,0:0:0:0:
256,192,258763,1,0,0:0:0:0:
256,192,258836,1,0,0:0:0:0:
256,192,258909,1,8,0:0:0:0:
256,192,258982,1,0,0:0:0:0:
256,192,259055,1,8,0:0:0:0:
256,192,259128,1,8,0:0:0:0:
256,192,259202,1,0,0:0:0:0:
256,192,259275,1,0,0:0:0:0:
256,192,259348,1,8,0:0:0:0:
256,192,259421,1,0,0:0:0:0:
256,192,259494,1,8,0:0:0:0:
256,192,259567,1,8,0:0:0:0:
256,192,259641,1,0,0:0:0:0:
256,192,259714,1,0,0:0:0:0:
256,192,259787,1,8,0:0:0:0:
256,192,259860,1,0,0:0:0:0:
256,192,259933,1,8,0:0:0:0:
256,192,260006,1,8,0:0:0:0:
256,192,260080,1,0,0:0:0:0:
256,192,260153,1,0,0:0:0:0:
256,192,260226,1,8,0:0:0:0:
256,192,260299,1,8,0:0:0:0:
256,192,260372,1,0,0:0:0:0:
256,192,260445,1,8,0:0:0:0:
256,192,260519,1,8,0:0:0:0:
256,192,260592,1,0,0:0:0:0:
256,192,260665,1,8,0:0:0:0:
256,192,260738,1,8,0:0:0:0:
256,192,260811,1,0,0:0:0:0:
256,192,260885,1,0,0:0:0:0:
256,192,260958,1,8,0:0:0:0:
256,192,261031,1,0,0:0:0:0:
256,192,261104,1,0,0:0:0:0:
256,192,261177,1,0,0:0:0:0:
256,192,261250,1,8,0:0:0:0:
256,192,263592,5,4,0:0:0:0:
256,192,264763,5,4,0:0:0:0:
256,192,265055,1,8,0:0:0:0:
256,192,265202,1,8,0:0:0:0:
256,192,265348,1,0,0:0:0:0:
256,192,265641,1,8,0:0:0:0:
256,192,265787,1,0,0:0:0:0:
256,192,265933,1,4,0:0:0:0:
256,192,267104,1,12,0:0:0:0:
256,192,267689,1,8,0:0:0:0:
256,192,267836,1,0,0:0:0:0:
256,192,267982,1,8,0:0:0:0:
256,192,268128,1,0,0:0:0:0:
256,192,268275,1,8,0:0:0:0:
256,192,268348,1,0,0:0:0:0:
256,192,268421,1,8,0:0:0:0:
256,192,268494,1,8,0:0:0:0:
256,192,268567,1,0,0:0:0:0:
256,192,268641,1,0,0:0:0:0:
256,192,268714,1,8,0:0:0:0:
256,192,268787,1,0,0:0:0:0:
256,192,268860,1,8,0:0:0:0:
256,192,268933,1,8,0:0:0:0:
256,192,269006,1,0,0:0:0:0:
256,192,269080,1,0,0:0:0:0:
256,192,269153,1,8,0:0:0:0:
256,192,269226,1,8,0:0:0:0:
256,192,269299,1,0,0:0:0:0:
256,192,269372,1,8,0:0:0:0:
256,192,269445,1,0,0:0:0:0:
256,192,269519,1,0,0:0:0:0:
256,192,269592,1,8,0:0:0:0:
256,192,269665,1,0,0:0:0:0:
256,192,269738,1,8,0:0:0:0:
256,192,269811,1,0,0:0:0:0:
256,192,269885,1,8,0:0:0:0:
256,192,269958,1,8,0:0:0:0:
256,192,270031,1,0,0:0:0:0:
256,192,270104,1,0,0:0:0:0:
256,192,270177,1,8,0:0:0:0:
256,192,270250,1,8,0:0:0:0:
256,192,270324,1,8,0:0:0:0:
256,192,270397,1,8,0:0:0:0:
256,192,270470,1,0,0:0:0:0:
256,192,270543,1,0,0:0:0:0:
256,192,270616,1,0,0:0:0:0:
256,192,270763,1,8,0:0:0:0:
256,192,270909,1,0,0:0:0:0:
256,192,270982,1,0,0:0:0:0:
256,192,271055,1,8,0:0:0:0:
256,192,271202,1,0,0:0:0:0:
256,192,271348,1,8,0:0:0:0:
256,192,271421,1,0,0:0:0:0:
256,192,271494,1,0,0:0:0:0:
256,192,271641,1,8,0:0:0:0:
256,192,271714,1,8,0:0:0:0:
256,192,271787,1,0,0:0:0:0:
256,192,271933,1,8,0:0:0:0:
256,192,272080,1,0,0:0:0:0:
256,192,272153,1,0,0:0:0:0:
256,192,272226,1,8,0:0:0:0:
256,192,272372,1,0,0:0:0:0:
256,192,272445,1,0,0:0:0:0:
256,192,272519,1,8,0:0:0:0:
256,192,272592,1,8,0:0:0:0:
256,192,272665,1,0,0:0:0:0:
256,192,272811,1,8,0:0:0:0:
256,192,272958,1,0,0:0:0:0:
256,192,273031,1,0,0:0:0:0:
256,192,273104,1,8,0:0:0:0:
256,192,273177,1,0,0:0:0:0:
256,192,273250,1,0,0:0:0:0:
256,192,273324,1,0,0:0:0:0:
256,192,273397,1,8,0:0:0:0:
256,192,273470,1,8,0:0:0:0:
256,192,273543,1,0,0:0:0:0:
256,192,273616,1,0,0:0:0:0:
256,192,273689,1,8,0:0:0:0:
256,192,273763,1,0,0:0:0:0:
256,192,273836,1,8,0:0:0:0:
256,192,273909,1,0,0:0:0:0:
256,192,273982,1,8,0:0:0:0:
256,192,274055,1,8,0:0:0:0:
256,192,274128,1,0,0:0:0:0:
256,192,274202,1,0,0:0:0:0:
256,192,274275,1,8,0:0:0:0:
256,192,274348,1,0,0:0:0:0:
256,192,274421,1,0,0:0:0:0:
256,192,274494,1,0,0:0:0:0:
256,192,274567,1,8,0:0:0:0:
256,192,274641,1,8,0:0:0:0:
256,192,274714,1,0,0:0:0:0:
256,192,274787,1,0,0:0:0:0:
256,192,274860,1,8,0:0:0:0:
256,192,274933,1,8,0:0:0:0:
256,192,275006,1,0,0:0:0:0:
256,192,275080,1,8,0:0:0:0:
256,192,275153,1,8,0:0:0:0:
256,192,275226,1,8,0:0:0:0:
256,192,275299,1,0,0:0:0:0:
256,192,275445,1,8,0:0:0:0:
256,192,275592,1,0,0:0:0:0:
256,192,275665,1,0,0:0:0:0:
256,192,275738,1,8,0:0:0:0:
256,192,275885,1,0,0:0:0:0:
256,192,276031,1,8,0:0:0:0:
256,192,276104,1,8,0:0:0:0:
256,192,276177,1,0,0:0:0:0:
256,192,276250,1,0,0:0:0:0:
256,192,276324,1,8,0:0:0:0:
256,192,276470,1,0,0:0:0:0:
256,192,276616,1,8,0:0:0:0:
256,192,276763,1,0,0:0:0:0:
256,192,276836,1,0,0:0:0:0:
256,192,276909,1,8,0:0:0:0:
256,192,277055,1,0,0:0:0:0:
256,192,277202,1,8,0:0:0:0:
256,192,277275,1,8,0:0:0:0:
256,192,277348,1,0,0:0:0:0:
256,192,277494,1,0,0:0:0:0:
256,192,277641,1,8,0:0:0:0:
256,192,277714,1,0,0:0:0:0:
256,192,277787,1,8,0:0:0:0:
256,192,277860,1,8,0:0:0:0:
256,192,277933,1,0,0:0:0:0:
256,192,278006,1,0,0:0:0:0:
256,192,278080,1,8,0:0:0:0:
256,192,278153,1,0,0:0:0:0:
256,192,278226,1,8,0:0:0:0:
256,192,278299,1,8,0:0:0:0:
256,192,278372,1,0,0:0:0:0:
256,192,278445,1,0,0:0:0:0:
256,192,278519,1,8,0:0:0:0:
256,192,278592,1,8,0:0:0:0:
256,192,278665,1,8,0:0:0:0:
256,192,278738,1,8,0:0:0:0:
256,192,278811,1,0,0:0:0:0:
256,192,278885,1,0,0:0:0:0:
256,192,278958,1,0,0:0:0:0:
256,192,279031,1,0,0:0:0:0:
256,192,279104,1,8,0:0:0:0:
256,192,279177,1,0,0:0:0:0:
256,192,279250,1,0,0:0:0:0:
256,192,279324,1,0,0:0:0:0:
256,192,279397,1,8,0:0:0:0:
256,192,279470,1,8,0:0:0:0:
256,192,279543,1,0,0:0:0:0:
256,192,279616,1,0,0:0:0:0:
256,192,279689,1,8,0:0:0:0:
256,192,279763,1,8,0:0:0:0:
256,192,279836,1,8,0:0:0:0:
256,192,279909,1,8,0:0:0:0:
256,192,279982,1,0,0:0:0:0:
256,192,280055,1,0,0:0:0:0:
256,192,280128,1,8,0:0:0:0:
256,192,280202,1,0,0:0:0:0:
256,192,280275,1,0,0:0:0:0:
256,192,280348,1,0,0:0:0:0:
256,192,280421,1,8,0:0:0:0:
256,192,280494,1,8,0:0:0:0:
256,192,280567,1,0,0:0:0:0:
256,192,280641,1,0,0:0:0:0:
256,192,280714,1,8,0:0:0:0:
256,192,280787,1,0,0:0:0:0:
256,192,280860,1,8,0:0:0:0:
256,192,280933,1,0,0:0:0:0:
256,192,281006,1,8,0:0:0:0:
256,192,281080,1,8,0:0:0:0:
256,192,281153,1,0,0:0:0:0:
256,192,281226,1,0,0:0:0:0:
256,192,281299,1,8,0:0:0:0:
256,192,281372,1,0,0:0:0:0:
256,192,281445,1,0,0:0:0:0:
256,192,281519,1,0,0:0:0:0:
256,192,281592,1,8,0:0:0:0:
256,192,281665,1,8,0:0:0:0:
256,192,281738,1,0,0:0:0:0:
256,192,281811,1,0,0:0:0:0:
256,192,281885,1,8,0:0:0:0:
256,192,281958,1,0,0:0:0:0:
256,192,282031,1,8,0:0:0:0:
256,192,282104,1,0,0:0:0:0:
256,192,282177,1,8,0:0:0:0:
256,192,282250,1,8,0:0:0:0:
256,192,282324,1,0,0:0:0:0:
256,192,282397,1,0,0:0:0:0:
256,192,282470,1,8,0:0:0:0:
256,192,282543,1,0,0:0:0:0:
256,192,282616,1,0,0:0:0:0:
256,192,282689,1,0,0:0:0:0:
256,192,282763,1,8,0:0:0:0:
256,192,282836,1,8,0:0:0:0:
256,192,282909,1,0,0:0:0:0:
256,192,282982,1,0,0:0:0:0:
256,192,283055,1,8,0:0:0:0:
256,192,283128,1,0,0:0:0:0:
256,192,283202,1,8,0:0:0:0:
256,192,283275,1,0,0:0:0:0:
256,192,283348,1,8,0:0:0:0:
256,192,283421,1,8,0:0:0:0:
256,192,283494,1,0,0:0:0:0:
256,192,283567,1,0,0:0:0:0:
256,192,283641,1,8,0:0:0:0:
256,192,283714,1,0,0:0:0:0:
256,192,283787,1,0,0:0:0:0:
256,192,283860,1,0,0:0:0:0:
256,192,283933,1,8,0:0:0:0:
256,192,284006,1,8,0:0:0:0:
256,192,284080,1,0,0:0:0:0:
256,192,284153,1,0,0:0:0:0:
256,192,284226,1,8,0:0:0:0:
256,192,284299,1,0,0:0:0:0:
256,192,284372,1,8,0:0:0:0:
256,192,284445,1,0,0:0:0:0:
256,192,284519,1,8,0:0:0:0:
256,192,284592,1,8,0:0:0:0:
256,192,284665,1,0,0:0:0:0:
256,192,284738,1,0,0:0:0:0:
256,192,284811,1,8,0:0:0:0:
256,192,284885,1,0,0:0:0:0:
256,192,284958,1,0,0:0:0:0:
256,192,285031,1,0,0:0:0:0:
256,192,285104,1,8,0:0:0:0:
256,192,285177,1,8,0:0:0:0:
256,192,285250,1,0,0:0:0:0:
256,192,285324,1,0,0:0:0:0:
256,192,285397,1,8,0:0:0:0:
256,192,285470,1,0,0:0:0:0:
256,192,285543,1,0,0:0:0:0:
256,192,285616,1,0,0:0:0:0:
256,192,285689,1,8,0:0:0:0:
256,192,285763,1,8,0:0:0:0:
256,192,285836,1,0,0:0:0:0:
256,192,285909,1,0,0:0:0:0:
256,192,285982,1,8,0:0:0:0:
256,192,286055,1,0,0:0:0:0:
256,192,286128,1,0,0:0:0:0:
256,192,286202,1,0,0:0:0:0:
256,192,286275,1,8,0:0:0:0:
256,192,286348,1,8,0:0:0:0:
256,192,286421,1,0,0:0:0:0:
256,192,286494,1,0,0:0:0:0:
256,192,286567,1,8,0:0:0:0:
256,192,286641,1,0,0:0:0:0:
256,192,286714,1,8,0:0:0:0:
256,192,286787,1,0,0:0:0:0:
256,192,286860,1,8,0:0:0:0:
256,192,286933,1,8,0:0:0:0:
256,192,287006,1,0,0:0:0:0:
256,192,287080,1,0,0:0:0:0:
256,192,287153,1,8,0:0:0:0:
256,192,287226,1,0,0:0:0:0:
256,192,287299,1,8,0:0:0:0:
256,192,287372,1,8,0:0:0:0:
256,192,287445,1,0,0:0:0:0:
256,192,287519,1,8,0:0:0:0:
256,192,287592,1,0,0:0:0:0:
256,192,287665,1,0,0:0:0:0:
256,192,287738,1,8,0:0:0:0:
256,192,287811,1,0,0:0:0:0:
256,192,287885,1,0,0:0:0:0:
256,192,287958,1,0,0:0:0:0:
256,192,288031,1,8,0:0:0:0:
256,192,288104,1,8,0:0:0:0:
256,192,288177,1,0,0:0:0:0:
256,192,288250,1,0,0:0:0:0:
256,192,288324,1,8,0:0:0:0:
256,192,288397,1,0,0:0:0:0:
256,192,288470,1,0,0:0:0:0:
256,192,288543,1,0,0:0:0:0:
256,192,288616,1,8,0:0:0:0:
256,192,288689,1,8,0:0:0:0:
256,192,288763,1,0,0:0:0:0:
256,192,288836,1,0,0:0:0:0:
256,192,288909,1,8,0:0:0:0:
256,192,288982,1,0,0:0:0:0:
256,192,289055,1,8,0:0:0:0:
256,192,289128,1,0,0:0:0:0:
256,192,289202,1,8,0:0:0:0:
256,192,289275,1,8,0:0:0:0:
256,192,289348,1,0,0:0:0:0:
256,192,289787,1,0,0:0:0:0:
256,192,289933,1,8,0:0:0:0:
256,192,290372,1,8,0:0:0:0:
256,192,290445,1,8,0:0:0:0:
256,192,290519,1,0,0:0:0:0:
256,192,290665,1,8,0:0:0:0:
256,192,290811,1,0,0:0:0:0:
256,192,291104,1,8,0:0:0:0:
256,192,291397,1,0,0:0:0:0:
256,192,291689,1,4,0:0:0:0:
256,192,291982,1,8,0:0:0:0:
256,192,292128,1,8,0:0:0:0:
256,192,292275,1,4,0:0:0:0:
256,192,292567,1,8,0:0:0:0:
256,192,292714,1,8,0:0:0:0:
256,192,292860,1,4,0:0:0:0:
256,192,293299,1,8,0:0:0:0:
256,192,293372,1,8,0:0:0:0:
256,192,293445,1,0,0:0:0:0:
256,192,293592,1,0,0:0:0:0:
256,192,293738,1,8,0:0:0:0:
256,192,293885,1,8,0:0:0:0:
256,192,294031,1,4,0:0:0:0:
256,192,294909,1,0,0:0:0:0:
256,192,295050,1,0,0:0:0:0:
256,192,295125,1,0,0:0:0:0:
256,192,295201,1,8,0:0:0:0:
256,192,295355,1,0,0:0:0:0:
256,192,295642,1,8,0:0:0:0:
256,192,295997,1,8,0:0:0:0:
256,192,296193,1,8,0:0:0:0:
256,192,296413,1,8,0:0:0:0:
256,192,296649,1,4,0:0:0:0:
256,192,297449,1,8,0:0:0:0:
256,192,298166,1,8,0:0:0:0:
256,192,298529,1,8,0:0:0:0:
256,192,298912,1,8,0:0:0:0:
256,192,299350,1,8,0:0:0:0:
256,192,299899,12,0,308494,0:0:0:0:
256,192,309337,5,12,0:0:0:0:
