osu file format v14

[General]
AudioFilename: audio.mp3
AudioLeadIn: 0
PreviewTime: 124495
Countdown: 0
SampleSet: Drum
StackLeniency: 0.7
Mode: 2
LetterboxInBreaks: 0
WidescreenStoryboard: 0

[Editor]
DistanceSpacing: 1
BeatDivisor: 4
GridSize: 32
TimelineZoom: 1.979999

[Metadata]
Title:Road of Resistance
TitleUnicode:Road of Resistance
Artist:BABYMETAL
ArtistUnicode:BABYMETAL
Creator:-Aku
Version:Aku & Du5t's Revolution
Source:
Tags:Herman Li Sam Totman Dragonforce bad_mapper dust Du5t IDu5t idust collaboration ror Monstrata japanese metal suzuka nakamoto yui mizuno moa kikuchi su-metal yuimetal moametal
BeatmapID:2510135
BeatmapSetID:1183643

[Difficulty]
HPDrainRate:6
CircleSize:4
OverallDifficulty:9.6
ApproachRate:9.6
SliderMultiplier:1.7
SliderTickRate:2

[Events]
//Background and Video events
0,0,"bg.jpg",0,0
//Break Periods
2,47346,53231
//Storyboard Layer 0 (Background)
//Storyboard Layer 1 (Fail)
//Storyboard Layer 2 (Pass)
//Storyboard Layer 3 (Foreground)
//Storyboard Layer 4 (Overlay)
//Storyboard Sound Samples

[TimingPoints]
1091,301.507537688442,4,1,5,50,1,0
4710,-100,4,3,1,70,0,0
7064,291.26213592233,4,3,1,70,1,0
8520,293.398533007335,4,3,1,70,1,8
9400,298.507462686567,4,3,1,70,1,0
11743,291.26213592233,4,3,1,70,1,0
12908,292.682926829268,4,3,1,70,1,0
15249,296.73590504451,4,3,0,70,1,0
16422,294.117647058824,4,3,1,70,1,0
17585,292.682926829268,4,3,1,70,1,0
17731,-100,4,3,1,5,0,0
17780,-100,4,3,1,70,0,0
18170,-100,4,3,0,70,0,0
18755,-100,4,3,1,70,0,0
19793,310.880829015544,4,3,1,70,1,8
19948,287.081339712919,4,3,1,70,1,0
20378,292.682926829268,4,3,1,70,1,8
21109,292.682926829268,4,3,1,70,1,0
22865,-100,4,3,0,70,0,0
23157,-100,4,3,1,70,0,0
32230,300,4,3,1,70,1,8
32529,292.682926829268,4,3,1,70,1,8
32822,292.682926829268,4,3,1,70,1,0
37504,290.556900726392,4,3,1,70,1,0
38654,292.682926829268,4,3,1,70,1,0
39251,292.682926829268,4,3,1,70,1,0
39836,-90.9090909090909,4,3,1,50,0,0
41600,324.324324324324,4,3,1,50,1,8
41924,393.442622950819,4,3,1,50,1,8
42317,292.682926829268,4,3,1,70,1,0
45829,-100,4,3,1,50,0,0
46121,-100,4,3,1,40,0,0
46414,-100,4,3,1,30,0,0
46707,-100,4,3,1,20,0,0
46999,-100,4,3,1,10,0,0
47146,-100,4,3,1,50,0,0
53740,292.682926829268,4,3,1,70,1,0
53740,-100,4,3,1,15,0,0
54033,-100,4,3,1,25,0,0
54326,-100,4,3,1,35,0,0
54618,-100,4,3,1,45,0,0
54911,-100,4,3,1,55,0,0
55057,-100,4,3,1,10,0,0
55203,292.682926829268,4,3,1,70,1,0
55203,-83.3333333333333,4,3,1,70,0,0
57544,-83.3333333333333,4,3,1,85,0,1
76276,-83.3333333333333,4,3,1,75,0,0
103202,-83.3333333333333,4,3,0,70,0,0
103276,-83.3333333333333,4,3,1,75,0,0
113446,-83.3333333333333,4,1,5,70,0,0
113739,-83.3333333333333,4,3,1,75,0,0
123690,-83.3333333333333,4,3,0,70,0,0
123763,-83.3333333333333,4,3,1,70,0,0
124276,-83.3333333333333,4,3,0,70,0,0
124861,-83.3333333333333,4,3,1,70,0,0
125446,-83.3333333333333,4,3,2,85,0,1
158227,-83.3333333333333,4,3,1,70,0,0
160568,-83.3333333333333,4,2,0,60,0,0
161154,-83.3333333333333,4,1,5,40,0,0
161739,-83.3333333333333,4,3,2,50,0,0
162910,-83.3333333333333,4,3,2,70,0,0
172276,-83.3333333333333,4,3,2,85,0,1
176959,-83.3333333333333,4,3,2,90,0,1
179300,-83.3333333333333,4,3,2,70,0,0
181056,-83.3333333333333,4,3,0,70,0,0
181203,-83.3333333333333,4,3,2,70,0,0
181349,-83.3333333333333,4,3,0,70,0,0
181495,-83.3333333333333,4,3,2,70,0,0
181642,-83.3333333333333,4,1,5,70,0,0
189837,-83.3333333333333,4,3,1,85,0,0
189910,-83.3333333333333,4,3,1,70,0,0
191007,-83.3333333333333,4,3,2,55,0,0
195690,-83.3333333333333,4,3,2,70,0,0
200373,-83.3333333333333,4,3,2,80,0,0
227885,-83.3333333333333,4,1,5,70,0,0
227959,-83.3333333333333,4,3,2,80,0,0
228471,-83.3333333333333,4,3,2,80,0,1
237837,-83.3333333333333,4,3,2,65,0,0
244861,-83.3333333333333,4,3,2,70,0,0
247203,-83.3333333333333,4,3,2,80,0,0
256568,-83.3333333333333,4,3,2,80,0,1
258910,-83.3333333333333,4,3,2,90,0,1
260081,-76.9230769230769,4,3,2,90,0,1
261251,-83.3333333333333,4,2,5,70,0,0
264763,-83.3333333333333,4,3,1,70,0,0
267690,-83.3333333333333,4,3,2,70,0,0
269446,-83.3333333333333,4,3,0,70,0,0
269520,-83.3333333333333,4,3,2,70,0,0
270617,-83.3333333333333,4,3,2,85,0,1
287885,-83.3333333333333,4,3,0,85,0,1
288178,-83.3333333333333,4,3,2,80,0,1
288763,-83.3333333333333,4,3,0,80,0,1
288837,-83.3333333333333,4,3,2,80,0,1
289349,-83.3333333333333,4,3,2,80,0,0
292568,-83.3333333333333,4,3,0,70,0,0
293007,-83.3333333333333,4,3,2,70,0,0
293446,-83.3333333333333,4,3,1,70,0,0
294032,-83.3333333333333,4,1,5,70,0,0
294617,-83.3333333333333,4,3,2,70,0,0
294910,283.018867924528,4,3,2,70,1,0
295051,300,4,3,1,70,1,8
295202,307.692307692308,4,3,1,70,1,0
295356,287.081339712919,4,3,1,70,1,8
295356,-83.3333333333333,4,3,1,70,0,8
295643,355.029585798817,4,3,0,70,1,8
295998,392.156862745098,4,3,1,70,1,8
296194,441.176470588235,4,3,1,70,1,8
296414,472.44094488189,4,3,1,70,1,8
296650,400,4,3,1,70,1,0
296650,-90.9090909090909,4,3,1,70,0,0
297450,703.812316715542,4,3,1,70,1,8
298152,736.196319018405,4,3,2,70,1,8
298520,745.341614906832,4,3,2,70,1,8
298893,916.030534351145,4,3,2,70,1,8
299351,1111.11111111111,4,3,2,70,1,8
299906,337.078651685393,4,3,1,70,1,1
309344,-100,4,3,1,70,0,0
309934,287.081339712919,4,3,1,70,1,0
310060,447.76119402985,4,3,1,70,1,0

[Colours]
Combo1 : 255,255,149
Combo2 : 32,32,255
Combo3 : 32,155,255

[HitObjects]
256,192,1091,12,2,4106,0:0:0:0:
121,293,4709,6,0,L|379:207,2,255,4|0|0,0:0|0:0|0:0,0:0:0:0:
433,192,6141,1,0,0:0:0:0:
303,194,6443,1,0,0:0:0:0:
433,192,6744,1,0,0:0:0:0:
18,96,7064,6,0,L|255:225,2,255,4|0|0,0:2|0:0|0:0,0:0:0:0:
306,64,9400,6,0,L|40:177,2,255,4|0|0,0:0|0:0|0:0,0:0:0:0:
430,193,10892,1,0,0:0:0:0:
302,193,11191,1,0,0:0:0:0:
430,193,11489,1,0,0:0:0:0:
84,186,11743,6,0,L|323:291,2,255,4|0|0,0:2|0:0|0:0,0:0:0:0:
450,133,12908,2,0,L|450:48,1,85
322,37,13200,1,0,1:0:0:0:
450,37,13347,1,2,2:3:0:0:
226,55,13493,2,0,B|152:55|152:55|248:55,1,170,8|8,1:3|0:0,0:0:0:0:
354,55,13932,1,0,0:0:0:0:
82,352,14078,6,0,L|316:230,2,255,4|0|8,0:0|0:0|0:0,0:0:0:0:
18,288,15054,1,0,0:0:0:0:
82,352,15151,1,0,0:0:0:0:
248,22,15249,6,0,L|480:147,2,255,10|8|0,0:0|0:3|0:0,0:0:0:0:
163,21,16287,1,0,0:0:0:0:
390,135,16422,6,0,L|157:256,2,255,4|0|0,0:0|0:0|0:0,0:0:0:0:
219,330,17585,2,0,L|373:330,1,113.333333333333,8|0,0:0|0:0,0:0:0:0:
163,260,17877,2,0,L|99:260,2,56.6666666666667,10|0|0,0:0|0:0|0:0,0:0:0:0:
335,217,18170,2,0,L|356:162,1,56.6666666666667,8|0,0:0|0:0,0:0:0:0:
379,95,18365,1,0,0:0:0:0:
207,167,18463,2,0,L|186:112,1,56.6666666666667,8|0,0:0|2:0,0:0:0:0:
163,45,18658,1,0,0:0:0:0:
432,288,18755,6,0,L|205:166,2,255,4|0|0,0:2|0:0|0:0,0:0:0:0:
496,224,19793,2,0,L|496:160,1,42.5
294,174,19948,6,0,L|103:174,1,170,8|2,0:0|0:0,0:0:0:0:
389,326,20378,2,0,P|450:288|390:249,1,170,8|2,0:0|0:0,0:0:0:0:
133,49,20817,2,0,L|128:133,1,85,8|0,0:0|0:0,0:0:0:0:
399,301,21109,6,0,L|143:178,2,255,2|2|0,0:0|0:0|0:0,0:0:0:0:
479,224,22133,2,0,L|413:224,1,42.5
233,192,22279,6,0,L|167:192,1,42.5,8|0,0:0|0:0,0:0:0:0:
256,114,22426,1,0,0:0:0:0:
256,72,22499,1,0,0:0:0:0:
164,60,22572,1,8,0:0:0:0:
113,60,22645,1,0,0:0:0:0:
113,60,22718,1,0,0:0:0:0:
164,60,22791,1,0,0:0:0:0:
383,128,22865,5,8,0:0:0:0:
447,128,22938,1,0,0:0:0:0:
447,128,23011,1,0,0:0:0:0:
383,128,23084,1,0,0:0:0:0:
191,192,23157,1,8,0:0:0:0:
127,192,23230,1,0,0:0:0:0:
351,224,23304,1,0,0:0:0:0:
351,224,23377,1,0,0:0:0:0:
96,352,23450,6,0,B|22:352|22:352|118:352,1,170
187,352,23816,1,0,0:0:0:0:
256,352,23889,2,0,B|256:160,1,170,2|8,0:0|0:0,0:0:0:0:
122,164,24328,1,0,0:0:0:0:
79,163,24401,1,0,0:0:0:0:
36,165,24474,1,0,0:0:0:0:
320,64,24621,6,0,L|512:0,2,170,4|0|0,0:1|0:0|0:0,0:0:0:0:
96,64,25499,1,0,0:0:0:0:
480,160,25791,6,0,L|288:160,1,170,8|0,0:0|0:0,0:0:0:0:
379,256,26157,1,0,0:0:0:0:
448,288,26230,2,0,P|476:234|385:221,1,170,10|8,0:0|0:0,0:0:0:0:
258,261,26669,1,0,0:0:0:0:
215,261,26742,1,0,0:0:0:0:
172,261,26815,1,0,0:0:0:0:
379,125,26962,5,4,0:1:0:0:
464,192,27108,2,0,P|472:128|392:68,1,170
324,69,27474,1,0,0:0:0:0:
253,74,27548,1,2,0:0:0:0:
480,192,27694,2,0,B|480:384,1,170,8|0,0:0|0:0,0:0:0:0:
128,320,28133,6,0,B|54:320|54:320|150:320,1,170,4|8,0:2|0:0,0:0:0:0:
219,320,28499,1,0,0:0:0:0:
288,224,28572,2,0,B|362:224|362:224|266:224,1,170,2|0,0:0|0:0,0:0:0:0:
124,221,29011,1,0,0:0:0:0:
79,221,29084,1,0,0:0:0:0:
79,221,29157,1,0,0:0:0:0:
304,32,29304,6,0,L|496:96,2,170,4|0|0,0:1|0:0|0:0,0:0:0:0:
128,32,30182,1,0,0:0:0:0:
480,160,30474,6,0,L|480:352,1,170,4|0,0:2|0:0,0:0:0:0:
408,321,30840,1,0,0:0:0:0:
339,325,30913,2,0,L|339:155,1,170,2|2,0:0|0:0,0:0:0:0:
480,64,31352,1,8,0:0:0:0:
480,64,31425,1,0,0:0:0:0:
437,66,31498,1,0,0:0:0:0:
160,64,31645,5,4,0:1:0:0:
64,160,31791,2,0,P|20:99|86:61,1,170
160,64,32157,1,0,0:0:0:0:
384,64,32230,2,0,L|384:160,1,85,8|0,0:0|0:0,0:0:0:0:
256,192,32530,2,0,L|256:320,1,85,8|2,0:0|0:0,0:0:0:0:
480,352,32822,6,0,L|288:352,1,170,4|8,0:2|0:0,0:0:0:0:
379,259,33187,1,0,0:0:0:0:
448,260,33261,2,0,L|448:68,1,170,2|2,0:0|0:0,0:0:0:0:
320,96,33700,1,8,0:0:0:0:
368,96,33773,1,0,0:0:0:0:
416,96,33846,1,0,0:0:0:0:
208,32,33992,6,0,L|48:144,2,170,4|0|0,0:1|0:0|0:0,0:0:0:0:
416,96,34870,1,0,0:0:0:0:
32,320,35163,6,0,B|32:256|32:256|160:256,1,170,4|8,0:2|0:0,0:0:0:0:
213,256,35529,1,0,0:0:0:0:
288,256,35602,2,0,P|352:192|288:160,1,170,2|2,0:0|0:0,0:0:0:0:
160,96,36041,2,0,L|85:98,2,42.5,8|0|0,0:0|0:0|0:0,0:0:0:0:
384,64,36334,6,0,B|480:128|480:128|480:288,1,255,4|2,0:1|0:0,0:0:0:0:
416,288,36846,1,0,0:0:0:0:
192,288,36919,1,8,0:0:0:0:
96,288,37065,2,0,B|22:288|22:288|118:288,1,170,2|0,0:0|0:0,0:0:0:0:
416,96,37504,6,0,P|461:156|395:194,1,170,4|8,0:2|0:0,0:0:0:0:
325,192,37867,1,0,0:0:0:0:
256,192,37939,2,0,L|256:0,1,170,2|2,0:0|0:0,0:0:0:0:
400,32,38376,1,8,0:0:0:0:
359,33,38448,1,0,0:0:0:0:
317,32,38521,1,0,0:0:0:0:
96,32,38654,6,0,P|32:128|64:160,1,170,4|0,0:1|0:0,0:0:0:0:
256,192,39093,2,0,L|256:256,1,42.5,2|0,0:0|0:0,0:0:0:0:
32,320,39251,2,0,L|133:320,1,85,8|2,0:0|0:0,0:0:0:0:
352,320,39543,2,0,L|352:224,1,85
33,96,39836,6,0,L|143:96,2,93.5000028533936,4|0|8,0:0|0:0|0:0,0:0:0:0:
336,31,40275,2,0,L|458:31,2,93.5000028533936,4|0|8,0:0|0:0|0:0,0:0:0:0:
126,96,40714,2,0,L|15:96,2,93.5000028533936,4|0|8,0:0|0:0|0:0,0:0:0:0:
402,288,41153,2,0,L|290:288,2,93.5000028533936,4|0|8,0:0|0:0|0:0,0:0:0:0:
64,352,41600,6,0,L|64:256,1,85,4|0,0:0|0:0,0:0:0:0:
209,64,41924,1,4,0:0:0:0:
83,64,42120,1,0,0:0:0:0:
480,64,42317,1,12,0:0:0:0:
256,192,42463,12,0,47146,1:0:0:0:
256,192,53740,12,0,55057,0:0:0:0:
170,234,55203,6,0,L|103:229,1,50.9999984436036,2|0,0:0|0:0,0:0:0:0:
326,211,55349,2,0,L|334:146,1,50.9999984436036
253,156,55495,2,0,L|260:85,1,50.9999984436036,8|0,0:0|0:0,0:0:0:0:
427,69,55642,2,0,L|485:71,1,50.9999984436036,2|0,0:0|0:0,0:0:0:0:
259,312,55788,2,0,L|249:239,1,50.9999984436036
330,247,55934,2,0,L|324:184,1,50.9999984436036,8|0,0:0|0:0,0:0:0:0:
166,198,56081,2,0,P|119:173|150:82,1,152.999995330811,6|0,0:2|0:0,0:0:0:0:
305,125,56373,6,0,L|467:107,1,152.999995330811,8|0,0:0|0:0,0:0:0:0:
276,64,56666,2,0,L|108:50,1,152.999995330811,8|0,0:0|0:0,0:0:0:0:
348,313,56959,2,0,P|434:309|465:233,1,152.999995330811,8|0,0:0|0:0,0:0:0:0:
204,163,57251,2,0,L|364:147,1,152.999995330811,8|0,0:0|0:0,0:0:0:0:
130,304,57544,5,4,0:2:0:0:
77,273,57617,1,0,0:0:0:0:
48,219,57690,1,0,0:0:0:0:
48,157,57764,1,0,0:0:0:0:
80,105,57837,1,8,0:0:0:0:
135,78,57910,1,0,0:0:0:0:
320,65,57983,2,0,L|328:136,1,50.9999984436036,2|0,0:0|0:0,0:0:0:0:
165,200,58129,6,0,L|104:193,1,50.9999984436036
311,254,58276,2,0,L|367:248,1,50.9999984436036,2|0,0:0|0:0,0:0:0:0:
181,301,58422,2,0,L|107:300,1,50.9999984436036,8|0,0:0|0:0,0:0:0:0:
79,304,58568,2,0,L|138:304,1,50.9999984436036
355,334,58715,5,4,0:2:0:0:
411,311,58788,1,0,0:0:0:0:
447,262,58861,1,0,0:0:0:0:
454,201,58934,1,0,0:0:0:0:
431,144,59007,1,8,0:0:0:0:
382,105,59081,1,0,0:0:0:0:
207,80,59154,2,0,L|201:133,1,50.9999984436036,2|0,0:0|0:0,0:0:0:0:
364,207,59300,6,0,L|308:215,1,50.9999984436036,8|0,0:0|0:0,0:0:0:0:
125,249,59446,2,0,L|183:258,1,50.9999984436036,2|0,0:0|0:0,0:0:0:0:
360,293,59593,2,0,L|417:299,1,50.9999984436036,8|0,0:0|0:0,0:0:0:0:
412,299,59739,2,0,L|341:291,1,50.9999984436036
135,166,59885,6,0,L|131:97,1,50.9999984436036,4|0,0:2|0:0,0:0:0:0:
191,52,60032,2,0,L|249:55,1,50.9999984436036
191,52,60178,2,0,L|127:49,1,50.9999984436036,8|0,0:0|0:0,0:0:0:0:
292,107,60324,2,0,L|356:110,1,50.9999984436036,2|0,0:0|0:0,0:0:0:0:
145,211,60471,6,0,L|154:275,1,50.9999984436036
347,228,60617,2,0,L|362:301,1,50.9999984436036,2|0,0:0|0:0,0:0:0:0:
126,344,60764,1,8,0:0:0:0:
71,317,60837,1,0,0:0:0:0:
45,261,60910,1,0,0:0:0:0:
69,205,60983,1,0,0:0:0:0:
259,98,61056,6,0,L|150:92,1,101.999996887207,4|0,0:2|0:0,0:0:0:0:
208,86,61276,1,0,0:0:0:0:
361,44,61349,2,0,L|421:46,1,50.9999984436036,8|0,0:0|0:0,0:0:0:0:
206,152,61495,2,0,L|194:214,1,50.9999984436036,4|0,0:2|0:0,0:0:0:0:
279,201,61642,6,0,L|212:192,1,50.9999984436036
140,249,61788,2,0,L|214:258,1,50.9999984436036,2|0,0:0|0:0,0:0:0:0:
340,134,61934,2,0,L|429:133,1,50.9999984436036,8|0,0:0|0:0,0:0:0:0:
190,53,62081,2,0,L|134:53,1,50.9999984436036
369,323,62227,5,2,0:0:0:0:
415,290,62300,1,0,0:0:0:0:
436,232,62373,1,0,1:0:0:0:
422,172,62446,1,0,1:0:0:0:
329,184,62520,2,0,L|315:119,1,50.9999984436036,8|0,0:0|0:0,0:0:0:0:
408,107,62666,2,0,L|396:53,1,50.9999984436036,8|0,0:0|0:0,0:0:0:0:
198,302,62812,5,2,0:0:0:0:
152,269,62885,1,0,0:0:0:0:
131,211,62958,1,0,1:0:0:0:
145,151,63031,1,0,1:0:0:0:
238,171,63105,2,0,L|252:106,1,50.9999984436036,8|0,0:0|0:0,0:0:0:0:
158,87,63251,2,0,L|170:34,1,50.9999984436036,8|0,0:0|0:0,0:0:0:0:
362,267,63398,6,0,L|372:211,1,50.9999984436036,2|0,0:0|0:0,0:0:0:0:
298,206,63544,2,0,L|214:207,1,50.9999984436036,0|0,1:0|1:0,0:0:0:0:
408,155,63690,2,0,L|459:155,1,50.9999984436036,8|0,0:0|0:0,0:0:0:0:
258,95,63837,2,0,L|175:94,1,50.9999984436036,8|0,0:0|0:0,0:0:0:0:
380,305,63983,6,0,L|372:235,1,50.9999984436036,2|0,0:0|0:0,0:0:0:0:
301,233,64129,2,0,L|316:137,1,50.9999984436036,0|0,1:0|1:0,0:0:0:0:
474,112,64276,2,0,L|409:105,1,50.9999984436036,8|0,0:0|0:0,0:0:0:0:
241,73,64422,2,0,L|176:76,1,50.9999984436036,8|0,0:0|0:0,0:0:0:0:
429,149,64568,6,0,L|435:212,1,50.9999984436036,6|0,0:0|0:0,0:0:0:0:
188,179,64715,2,0,L|123:182,1,50.9999984436036,2|0,0:0|0:0,0:0:0:0:
205,202,64861,2,0,L|265:199,1,50.9999984436036,8|0,0:0|0:0,0:0:0:0:
187,226,65007,2,0,L|181:277,1,50.9999984436036,8|0,0:0|0:0,0:0:0:0:
446,281,65154,6,0,L|496:284,1,50.9999984436036,6|0,0:0|0:0,0:0:0:0:
123,193,65300,2,0,L|58:193,1,50.9999984436036,2|0,0:0|0:0,0:0:0:0:
142,176,65446,2,0,L|204:178,1,50.9999984436036,8|0,0:0|0:0,0:0:0:0:
123,193,65593,2,0,L|56:192,1,50.9999984436036,8|0,0:0|0:0,0:0:0:0:
293,85,65739,6,0,L|307:154,1,50.9999984436036,10|0,0:0|0:0,0:0:0:0:
236,170,65885,2,0,L|208:226,1,50.9999984436036
294,221,66032,2,0,L|332:269,1,50.9999984436036,10|0,0:0|0:0,0:0:0:0:
187,267,66178,2,0,L|130:285,1,50.9999984436036
307,315,66324,6,0,L|371:324,1,50.9999984436036,10|0,0:0|0:0,0:0:0:0:
141,338,66471,2,0,L|67:343,1,50.9999984436036
384,133,66617,2,0,L|452:131,1,50.9999984436036,10|0,0:0|0:0,0:0:0:0:
114,91,66764,2,0,L|43:94,1,50.9999984436036
323,280,66910,5,4,0:2:0:0:
436,275,67056,2,0,L|436:155,1,101.999996887207,8|0,0:0|0:0,0:0:0:0:
216,154,67349,1,2,0:0:0:0:
343,117,67495,1,8,0:0:0:0:
219,99,67642,1,0,0:0:0:0:
352,180,67788,2,0,L|414:186,2,50.9999984436036,8|0|0,0:0|0:0|0:0,0:0:0:0:
123,292,68081,6,0,L|9:297,2,101.999996887207,4|8|0,0:2|0:0|0:0,0:0:0:0:
330,93,68520,1,2,0:0:0:0:
202,142,68666,1,8,0:0:0:0:
329,187,68812,1,0,0:0:0:0:
198,216,68959,2,0,L|141:216,2,50.9999984436036,8|0|0,0:0|0:0|0:0,0:0:0:0:
416,287,69251,5,4,0:2:0:0:
286,242,69398,2,0,L|456:117,1,203.999993774414,8|2,0:0|0:0,0:0:0:0:
191,85,69837,2,0,L|128:86,1,50.9999984436036,8|0,0:0|0:0,0:0:0:0:
297,162,69983,2,0,L|362:159,1,50.9999984436036
139,272,70129,2,0,L|23:266,1,101.999996887207,8|0,0:0|0:0,0:0:0:0:
274,293,70422,6,0,L|280:180,1,101.999996887207,4|8,0:2|0:0,0:0:0:0:
146,180,70715,1,0,0:0:0:0:
372,102,70861,2,0,L|142:94,1,203.999993774414,4|2,0:2|0:0,0:0:0:0:
310,187,71300,1,8,0:0:0:0:
79,243,71446,1,0,0:0:0:0:
340,309,71593,6,0,L|343:241,1,50.9999984436036,8|0,0:0|0:0,0:0:0:0:
275,244,71739,2,0,L|278:171,1,50.9999984436036
208,180,71885,2,0,L|210:117,1,50.9999984436036
365,91,72032,2,0,L|370:28,1,50.9999984436036,2|0,0:0|0:0,0:0:0:0:
176,309,72178,6,0,L|168:244,1,50.9999984436036,8|0,0:0|0:0,0:0:0:0:
239,240,72324,2,0,L|233:175,1,50.9999984436036,8|0,0:0|0:0,0:0:0:0:
75,146,72471,2,0,L|68:85,1,50.9999984436036,2|0,0:0|0:0,0:0:0:0:
276,72,72617,2,0,L|283:137,1,50.9999984436036,2|0,0:0|0:0,0:0:0:0:
208,180,72764,2,0,L|202:122,1,50.9999984436036,8|0,0:0|0:0,0:0:0:0:
401,318,72910,6,0,L|393:258,1,50.9999984436036,2|0,0:0|0:0,0:0:0:0:
320,257,73056,2,0,L|313:192,1,50.9999984436036,0|0,1:0|0:0,0:0:0:0:
473,103,73203,2,0,L|483:177,1,50.9999984436036,8|0,0:0|0:0,0:0:0:0:
260,177,73349,6,0,L|268:246,1,50.9999984436036,0|0,1:0|0:0,0:0:0:0:
425,262,73495,2,0,L|433:323,1,50.9999984436036,2|0,0:0|0:0,0:0:0:0:
212,337,73642,2,0,L|153:330,1,50.9999984436036,8|0,0:0|0:0,0:0:0:0:
390,92,73788,2,0,L|461:89,1,50.9999984436036,2|0,0:0|0:0,0:0:0:0:
234,137,73934,6,0,L|160:134,1,50.9999984436036,8|0,0:0|0:0,0:0:0:0:
234,137,74081,2,0,L|295:140,1,50.9999984436036,2|0,0:0|0:0,0:0:0:0:
98,53,74227,2,0,L|33:56,1,50.9999984436036,2|0,0:0|0:0,0:0:0:0:
258,205,74373,2,0,L|326:210,1,50.9999984436036,8|0,0:0|0:0,0:0:0:0:
258,205,74520,6,0,L|193:199,1,50.9999984436036,2|0,0:0|0:0,0:0:0:0:
399,300,74666,2,0,L|464:299,1,50.9999984436036,2|0,0:0|0:0,0:0:0:0:
231,290,74812,2,0,L|160:292,1,50.9999984436036,8|0,0:0|0:0,0:0:0:0:
129,293,74959,2,0,L|183:290,1,50.9999984436036,8|0,0:0|0:0,0:0:0:0:
377,180,75105,6,0,L|438:179,1,50.9999984436036,2|0,0:0|0:0,0:0:0:0:
428,179,75251,2,0,L|375:181,1,50.9999984436036
148,120,75398,2,0,L|74:121,1,50.9999984436036,8|0,0:0|0:0,0:0:0:0:
98,120,75544,2,0,L|159:120,1,50.9999984436036
316,53,75690,6,0,L|324:115,1,50.9999984436036,4|0,0:2|0:0,0:0:0:0:
127,181,75837,2,0,L|116:244,1,50.9999984436036
349,299,75983,2,0,L|412:296,1,50.9999984436036
113,345,76129,2,0,L|48:348,1,50.9999984436036
448,352,76276,6,0,P|480:288|448:256,1,101.999996887207,4|0,0:0|0:0,0:0:0:0:
339,195,76568,1,0,0:0:0:0:
288,195,76641,1,0,0:0:0:0:
339,195,76714,1,2,0:0:0:0:
480,160,76861,2,0,L|480:32,1,101.999996887207,8|2,0:0|0:0,0:0:0:0:
320,64,77154,2,0,L|192:64,1,101.999996887207,8|2,0:0|0:0,0:0:0:0:
448,288,77446,6,0,L|320:288,2,101.999996887207,8|0|2,0:0|0:0|0:0,0:0:0:0:
160,288,77885,2,0,P|103:216|175:159,1,203.999993774414,10|2,0:0|0:0,0:0:0:0:
320,160,78324,2,0,L|384:157,1,50.9999984436036,8|0,0:0|0:0,0:0:0:0:
160,128,78471,2,0,L|160:32,1,50.9999984436036,2|0,0:0|0:0,0:0:0:0:
448,288,78617,6,0,P|479:251|465:178,1,101.999996887207,4|0,0:0|0:0,0:0:0:0:
351,64,78910,1,0,0:0:0:0:
300,64,78983,1,0,0:0:0:0:
351,64,79056,1,2,0:0:0:0:
480,288,79203,2,0,L|352:288,1,101.999996887207,8|2,0:0|0:0,0:0:0:0:
173,192,79495,2,0,L|301:192,1,101.999996887207,8|2,0:0|0:0,0:0:0:0:
16,96,79788,6,0,L|144:96,2,101.999996887207,8|0|2,0:0|0:0|0:0,0:0:0:0:
320,320,80227,2,0,L|64:320,1,203.999993774414,8|2,0:0|0:0,0:0:0:0:
244,222,80666,2,0,L|308:219,1,50.9999984436036,8|0,0:0|0:0,0:0:0:0:
116,190,80812,2,0,L|114:127,1,50.9999984436036,2|0,0:0|0:0,0:0:0:0:
346,151,80959,6,0,P|429:131|377:63,1,203.999993774414,8|0,0:0|0:0,0:0:0:0:
224,64,81398,1,2,0:0:0:0:
173,64,81471,1,0,0:0:0:0:
224,64,81544,1,0,0:0:0:0:
358,67,81690,1,2,0:0:0:0:
128,160,81837,2,0,L|128:288,1,101.999996887207,8|8,3:3|3:3,0:0:0:0:
448,224,82129,6,0,L|320:224,1,101.999996887207,12|2,3:3|0:0,0:0:0:0:
480,128,82422,1,0,0:0:0:0:
480,128,82495,1,0,0:0:0:0:
419,129,82568,1,2,0:0:0:0:
160,160,82715,2,0,L|32:160,1,101.999996887207,0|2,0:0|0:0,0:0:0:0:
352,320,83007,2,0,L|352:192,1,101.999996887207,8|2,0:0|0:0,0:0:0:0:
80,263,83300,5,4,0:2:0:0:
19,212,83373,1,0,0:0:0:0:
19,212,83446,1,0,0:0:0:0:
80,263,83519,1,0,0:0:0:0:
319,92,83593,2,0,L|447:92,1,101.999996887207,8|0,0:0|0:0,0:0:0:0:
289,197,83885,1,8,0:0:0:0:
393,183,84032,1,0,0:0:0:0:
260,194,84178,2,0,L|206:191,1,50.9999984436036,2|0,0:0|0:0,0:0:0:0:
403,256,84324,2,0,L|405:324,1,50.9999984436036,2|0,0:0|0:0,0:0:0:0:
217,335,84471,5,4,0:2:0:0:
88,203,84617,2,0,L|91:126,1,50.9999984436036,2|0,0:0|0:0,0:0:0:0:
274,155,84764,2,0,L|359:161,1,50.9999984436036
64,92,84910,1,8,0:0:0:0:
13,73,84983,1,0,0:0:0:0:
64,92,85056,5,0,0:0:0:0:
115,58,85129,1,0,0:0:0:0:
323,166,85203,2,0,L|323:70,1,50.9999984436036,2|0,0:0|0:0,0:0:0:0:
174,160,85349,2,0,L|110:162,1,50.9999984436036,8|0,0:0|0:0,0:0:0:0:
359,272,85495,2,0,L|422:275,1,50.9999984436036
92,318,85642,6,0,B|43:323|43:323|99:316,1,101.999996887207,4|0,0:0|0:0,0:0:0:0:
221,228,85934,1,0,0:0:0:0:
272,228,86007,1,0,0:0:0:0:
221,228,86080,1,2,0:0:0:0:
16,128,86227,2,0,L|144:128,1,101.999996887207,8|2,0:0|0:0,0:0:0:0:
336,64,86520,2,0,L|208:64,1,101.999996887207,8|2,0:0|0:0,0:0:0:0:
480,160,86812,6,0,L|352:160,2,101.999996887207,8|0|2,0:0|0:0|0:0,0:0:0:0:
128,288,87251,2,0,B|64:224|64:224|160:160,1,203.999993774414,8|2,0:0|0:0,0:0:0:0:
384,64,87690,2,0,L|386:0,1,50.9999984436036,8|0,0:0|0:0,0:0:0:0:
203,23,87837,2,0,L|138:27,1,50.9999984436036,2|0,0:0|0:0,0:0:0:0:
449,128,87983,6,0,B|449:258,1,101.999996887207,4|0,0:0|0:0,0:0:0:0:
326,260,88276,1,0,0:0:0:0:
326,260,88349,1,0,0:0:0:0:
387,260,88422,1,2,0:0:0:0:
160,192,88568,2,0,L|32:192,1,101.999996887207,8|2,0:0|0:0,0:0:0:0:
352,160,88861,2,0,L|352:32,1,101.999996887207,8|2,0:0|0:0,0:0:0:0:
96,32,89154,6,0,L|224:32,2,101.999996887207,8|0|2,0:0|0:0|0:0,0:0:0:0:
416,352,89593,2,0,L|160:352,1,203.999993774414,8|2,0:0|0:0,0:0:0:0:
347,264,90032,2,0,L|411:264,1,50.9999984436036,8|0,0:0|0:0,0:0:0:0:
221,232,90178,2,0,L|218:155,1,50.9999984436036,2|0,0:0|0:0,0:0:0:0:
436,200,90324,5,8,0:0:0:0:
496,181,90397,1,0,0:0:0:0:
496,181,90470,1,2,0:0:0:0:
436,200,90543,1,0,0:0:0:0:
267,96,90617,2,0,L|203:96,1,50.9999984436036
51,192,90764,1,8,0:0:0:0:
51,192,90837,1,0,0:0:0:0:
116,195,90910,5,0,0:0:0:0:
167,240,90983,1,0,0:0:0:0:
164,303,91056,1,2,0:0:0:0:
98,326,91129,1,0,0:0:0:0:
347,223,91203,1,8,0:0:0:0:
402,261,91276,1,8,0:0:0:0:
402,261,91349,1,8,0:0:0:0:
347,223,91422,1,0,0:0:0:0:
128,64,91495,6,0,L|0:64,2,101.999996887207,8|2|0,0:0|0:0|0:0,0:0:0:0:
76,132,91861,1,0,0:0:0:0:
26,143,91934,1,2,0:0:0:0:
288,248,92081,2,0,L|356:248,1,50.9999984436036
167,199,92227,2,0,L|158:127,1,50.9999984436036,2|0,0:0|0:0,0:0:0:0:
347,161,92373,2,0,L|459:161,1,101.999996887207,0|2,0:0|0:0,0:0:0:0:
128,64,92666,6,0,L|251:64,2,101.999996887207,10|0|0,0:0|0:0|0:0,0:0:0:0:
397,172,93105,1,2,0:0:0:0:
445,163,93178,1,0,0:0:0:0:
487,189,93251,1,0,0:0:0:0:
487,189,93324,1,0,0:0:0:0:
445,163,93397,1,0,0:0:0:0:
397,172,93470,1,0,0:0:0:0:
168,203,93544,1,2,0:0:0:0:
160,155,93617,1,0,0:0:0:0:
293,102,93690,1,0,0:0:0:0:
342,97,93763,1,0,0:0:0:0:
111,115,93837,5,8,0:0:0:0:
60,97,93910,1,0,0:0:0:0:
111,115,93983,1,0,0:0:0:0:
232,13,94129,1,2,0:0:0:0:
480,320,94276,2,0,P|470:253|331:235,1,203.999993774414,8|2,0:0|0:0,0:0:0:0:
79,249,94715,1,8,0:0:0:0:
21,221,94788,1,0,0:0:0:0:
21,221,94861,1,8,0:0:0:0:
77,243,94934,1,0,0:0:0:0:
245,116,95007,5,2,0:0:0:0:
296,109,95080,1,0,0:0:0:0:
245,116,95153,1,0,0:0:0:0:
119,79,95300,1,0,0:0:0:0:
324,204,95446,2,0,L|433:205,2,101.999996887207,0|8|0,0:0|0:0|0:0,0:0:0:0:
184,111,95885,2,0,L|312:111,1,101.999996887207
20,210,96178,6,0,L|244:242,1,203.999993774414,2|0,0:0|1:0,0:0:0:0:
98,318,96617,1,8,0:0:0:0:
305,136,96764,2,0,L|433:136,1,101.999996887207,0|2,0:0|0:0,0:0:0:0:
276,91,97056,2,0,L|153:91,1,101.999996887207,10|0,0:0|0:0,0:0:0:0:
409,204,97349,6,0,P|449:315|365:312,1,203.999993774414,2|0,0:0|1:0,0:0:0:0:
128,224,97788,2,0,L|128:96,1,101.999996887207,2|8,0:0|0:0,0:0:0:0:
346,32,98081,1,0,0:0:0:0:
450,32,98227,2,0,B|437:169,1,101.999996887207,2|0,0:0|0:0,0:0:0:0:
160,160,98520,5,2,0:0:0:0:
160,160,98593,1,0,0:0:0:0:
221,160,98666,1,0,0:0:0:0:
342,191,98812,1,0,1:0:0:0:
66,96,98959,2,0,L|286:60,1,203.999993774414,8|2,0:0|0:0,0:0:0:0:
139,186,99398,2,0,L|44:186,1,50.9999984436036,8|0,0:0|0:0,0:0:0:0:
266,246,99544,2,0,L|266:302,1,50.9999984436036,8|8,0:0|0:0,0:0:0:0:
42,252,99690,6,0,L|42:382,1,101.999996887207,8|0,0:0|0:0,0:0:0:0:
111,353,99910,1,0,0:0:0:0:
179,355,99983,2,0,L|36:351,1,101.999996887207,0|0,1:0|0:0,0:0:0:0:
296,113,100276,2,0,L|296:251,1,101.999996887207,0|0,1:0|0:0,0:0:0:0:
227,212,100495,1,0,0:0:0:0:
158,184,100568,2,0,L|158:64,1,101.999996887207,0|0,1:0|0:0,0:0:0:0:
402,47,100861,6,0,L|270:47,1,101.999996887207,2|0,0:0|0:0,0:0:0:0:
431,147,101154,1,0,1:0:0:0:
482,162,101227,1,0,0:0:0:0:
431,147,101300,1,0,0:0:0:0:
178,348,101446,1,8,0:0:0:0:
128,301,101519,1,0,0:0:0:0:
128,301,101592,1,0,0:0:0:0:
178,348,101665,1,0,0:0:0:0:
341,160,101739,2,0,L|340:92,1,50.9999984436036,8|0,0:0|0:0,0:0:0:0:
157,109,101885,2,0,L|87:109,1,50.9999984436036
408,259,102032,5,8,1:3:0:0:
472,231,102105,1,0,0:0:0:0:
472,231,102178,1,0,0:0:0:0:
408,259,102251,1,0,0:0:0:0:
243,63,102324,2,0,L|179:63,1,50.9999984436036
414,274,102471,1,2,0:0:0:0:
478,302,102544,1,0,0:0:0:0:
478,302,102617,5,0,0:0:0:0:
414,274,102690,1,0,0:0:0:0:
160,140,102764,2,0,L|160:204,1,50.9999984436036,8|0,0:0|0:0,0:0:0:0:
362,250,102910,2,0,L|432:243,1,50.9999984436036,2|0,0:0|0:0,0:0:0:0:
184,293,103056,2,0,L|115:280,1,50.9999984436036
303,144,103203,5,8,0:0:0:0:
354,159,103276,1,0,0:0:0:0:
303,180,103349,1,0,0:0:0:0:
252,200,103422,1,0,0:0:0:0:
410,270,103495,1,8,0:0:0:0:
471,293,103568,1,0,0:0:0:0:
471,293,103641,1,0,0:0:0:0:
410,270,103714,1,0,0:0:0:0:
192,316,103788,5,2,0:0:0:0:
192,316,103861,1,0,0:0:0:0:
243,306,103934,1,0,0:0:0:0:
294,298,104007,1,0,0:0:0:0:
76,184,104081,2,0,B|-14:147|130:92,1,152.999995330811,2|0,0:0|0:0,0:0:0:0:
373,287,104373,6,0,L|485:281,1,101.999996887207,2|0,0:0|0:0,0:0:0:0:
47,308,104666,2,0,L|35:200,1,101.999996887207,8|0,0:0|0:0,0:0:0:0:
463,199,104959,2,0,L|471:75,1,101.999996887207,8|0,0:0|0:0,0:0:0:0:
338,54,105251,2,0,L|453:41,1,101.999996887207
205,212,105544,6,0,L|89:200,1,101.999996887207,2|0,0:0|0:0,0:0:0:0:
472,297,105837,2,0,L|479:179,1,101.999996887207,8|0,0:0|0:0,0:0:0:0:
41,295,106129,2,0,L|26:187,1,101.999996887207,8|0,0:0|0:0,0:0:0:0:
254,151,106422,1,0,0:0:0:0:
46,111,106568,1,0,0:0:0:0:
306,299,106715,6,0,P|368:284|317:185,1,203.999993774414,2|8,0:0|0:0,0:0:0:0:
191,179,107154,1,0,0:0:0:0:
399,89,107300,2,0,L|182:69,1,203.999993774414,2|8,0:0|0:0,0:0:0:0:
320,42,107739,1,0,0:0:0:0:
93,302,107885,6,0,L|81:189,1,101.999996887207,2|0,0:0|0:0,0:0:0:0:
218,153,108178,1,8,0:0:0:0:
95,106,108324,2,0,L|158:98,1,50.9999984436036
317,233,108471,2,0,L|389:240,1,50.9999984436036,2|0,0:0|0:0,0:0:0:0:
303,249,108617,2,0,L|242:243,1,50.9999984436036
422,134,108764,2,0,L|485:139,1,50.9999984436036,8|0,0:0|0:0,0:0:0:0:
250,74,108910,2,0,L|177:70,1,50.9999984436036,8|0,0:0|0:0,0:0:0:0:
459,334,109056,6,0,L|466:221,1,101.999996887207,2|0,0:0|0:0,0:0:0:0:
120,237,109349,2,0,L|19:224,1,101.999996887207,8|0,0:0|0:0,0:0:0:0:
387,149,109642,2,0,L|506:140,1,101.999996887207,8|0,0:0|0:0,0:0:0:0:
357,65,109934,2,0,L|464:55,1,101.999996887207
189,343,110227,6,0,L|180:233,1,101.999996887207,2|0,0:0|0:0,0:0:0:0:
428,194,110520,2,0,L|214:167,1,203.999993774414,8|8,0:0|0:0,0:0:0:0:
328,115,110959,1,0,0:0:0:0:
198,87,111105,1,0,0:0:0:0:
415,62,111251,1,0,0:0:0:0:
180,273,111398,5,2,0:0:0:0:
309,258,111544,2,0,L|372:251,2,50.9999984436036
170,179,111837,1,8,0:0:0:0:
393,126,111983,2,0,L|459:122,2,50.9999984436036,2|0|0,0:0|0:0|0:0,0:0:0:0:
184,171,112276,2,0,L|319:173,1,101.999996887207
294,166,112495,1,0,0:0:0:0:
105,293,112568,6,0,L|45:294,1,50.9999984436036,4|0,1:2|0:0,0:0:0:0:
54,293,112715,2,0,L|118:293,1,50.9999984436036
265,207,112861,2,0,L|336:205,1,50.9999984436036,8|0,0:0|0:0,0:0:0:0:
316,205,113007,2,0,L|251:205,1,50.9999984436036
451,78,113154,6,0,L|502:77,1,50.9999984436036,2|0,0:0|0:0,0:0:0:0:
297,80,113300,2,0,L|236:81,1,50.9999984436036
431,300,113446,2,0,P|489:278|466:175,1,152.999995330811,6|0,0:0|0:0,0:0:0:0:
239,157,113739,6,0,L|169:158,1,50.9999984436036,4|0,1:2|0:0,0:0:0:0:
138,158,113885,2,0,L|204:157,1,50.9999984436036
397,117,114032,2,0,L|466:115,1,50.9999984436036,8|0,0:0|0:0,0:0:0:0:
448,115,114178,2,0,L|380:117,1,50.9999984436036
186,207,114324,6,0,L|191:271,1,50.9999984436036,8|0,0:0|0:0,0:0:0:0:
257,241,114471,2,0,L|263:296,1,50.9999984436036
104,63,114617,2,0,L|109:125,1,50.9999984436036,8|0,0:0|0:0,0:0:0:0:
292,129,114764,2,0,L|299:191,1,50.9999984436036,8|0,0:0|0:0,0:0:0:0:
58,302,114910,5,4,1:2:0:0:
32,247,114983,1,0,0:0:0:0:
43,186,115056,1,0,0:0:0:0:
98,157,115129,1,0,0:0:0:0:
302,235,115203,2,0,L|378:232,1,50.9999984436036,8|0,0:0|0:0,0:0:0:0:
404,231,115349,2,0,L|346:232,1,50.9999984436036
120,63,115495,6,0,L|63:65,1,50.9999984436036,8|0,0:0|0:0,0:0:0:0:
70,64,115642,2,0,L|143:63,1,50.9999984436036
316,150,115788,2,0,L|249:152,1,50.9999984436036,8|0,0:0|0:0,0:0:0:0:
214,153,115934,2,0,L|151:155,1,50.9999984436036
368,306,116081,5,4,1:2:0:0:
420,273,116154,1,0,0:0:0:0:
448,218,116227,1,0,0:0:0:0:
436,158,116300,1,0,0:0:0:0:
261,185,116373,2,0,L|249:121,1,50.9999984436036,8|0,0:0|0:0,0:0:0:0:
429,73,116520,2,0,L|416:8,1,50.9999984436036
212,64,116666,6,0,L|154:64,1,50.9999984436036,8|0,0:0|0:0,0:0:0:0:
161,64,116812,2,0,L|234:64,1,50.9999984436036
419,221,116959,2,0,L|412:287,1,50.9999984436036,8|0,0:0|0:0,0:0:0:0:
340,290,117105,2,0,L|264:298,1,50.9999984436036
69,221,117251,6,0,L|12:216,1,50.9999984436036,8|0,1:3|0:0,0:0:0:0:
69,221,117398,2,0,L|134:225,1,50.9999984436036
298,118,117544,2,0,L|367:122,1,50.9999984436036,2|0,0:0|0:0,0:0:0:0:
182,73,117690,2,0,L|121:69,1,50.9999984436036,8|0,1:3|0:0,0:0:0:0:
314,181,117837,6,0,L|375:182,1,50.9999984436036
365,181,117983,2,0,L|293:182,1,50.9999984436036,2|0,0:0|0:0,0:0:0:0:
147,255,118129,2,0,L|133:312,1,50.9999984436036,8|0,0:0|0:0,0:0:0:0:
307,303,118276,2,0,L|381:305,1,50.9999984436036
50,311,118422,6,0,L|47:247,1,50.9999984436036,4|0,0:0|0:0,0:0:0:0:
116,199,118568,2,0,L|178:196,1,50.9999984436036
95,133,118715,2,0,L|33:139,1,50.9999984436036,2|0,0:0|0:0,0:0:0:0:
215,210,118861,2,0,L|226:281,1,50.9999984436036,8|0,0:0|0:0,0:0:0:0:
151,156,119007,5,0,0:0:0:0:
203,150,119081,1,0,0:0:0:0:
254,144,119154,1,2,0:0:0:0:
203,150,119227,1,0,0:0:0:0:
61,68,119300,2,0,L|8:63,1,50.9999984436036,8|0,0:0|0:0,0:0:0:0:
61,68,119446,2,0,L|132:75,1,50.9999984436036
331,314,119593,6,0,L|336:253,1,50.9999984436036,12|0,0:0|0:0,0:0:0:0:
262,250,119739,2,0,L|200:255,1,50.9999984436036
212,254,119885,2,0,L|269:249,1,50.9999984436036,2|0,0:0|0:0,0:0:0:0:
490,116,120032,2,0,L|480:183,1,50.9999984436036,8|0,0:0|0:0,0:0:0:0:
405,141,120178,6,0,L|396:210,1,50.9999984436036
476,252,120324,2,0,L|407:254,1,50.9999984436036,2|0,0:0|0:0,0:0:0:0:
232,151,120471,2,0,L|175:154,1,50.9999984436036,8|0,0:0|0:0,0:0:0:0:
355,208,120617,2,0,L|414:216,1,50.9999984436036
146,290,120764,5,4,0:0:0:0:
250,233,120910,1,0,1:0:0:0:
200,226,120983,1,0,1:0:0:0:
151,216,121056,1,8,0:0:0:0:
450,164,121203,1,0,1:0:0:0:
347,103,121349,5,8,0:0:0:0:
398,97,121422,1,0,1:0:0:0:
449,89,121495,1,0,1:0:0:0:
153,170,121642,1,4,1:2:0:0:
255,247,121788,2,0,L|321:244,1,50.9999984436036
114,315,121934,6,0,L|49:319,1,50.9999984436036,4|0,1:2|0:0,0:0:0:0:
304,157,122081,2,0,L|379:155,1,50.9999984436036,0|0,1:0|1:0,0:0:0:0:
304,157,122227,2,0,L|236:158,1,50.9999984436036,8|0,1:3|1:0,0:0:0:0:
459,276,122373,1,0,1:0:0:0:
358,291,122520,6,0,L|305:291,1,50.9999984436036,4|0,1:2|1:0,0:0:0:0:
489,133,122666,2,0,L|495:196,1,50.9999984436036,0|0,1:0|1:0,0:0:0:0:
294,87,122812,1,10,1:3:0:0:
397,77,122959,1,0,1:0:0:0:
118,311,123105,6,0,L|106:255,1,50.9999984436036,8|0,0:0|0:0,0:0:0:0:
180,246,123251,2,0,L|166:182,1,50.9999984436036,8|0,0:0|0:0,0:0:0:0:
89,181,123398,2,0,L|81:115,1,50.9999984436036,2|0,0:0|0:0,0:0:0:0:
264,275,123544,2,0,L|332:268,1,50.9999984436036,2|0,0:0|0:0,0:0:0:0:
249,211,123690,6,0,L|189:206,1,50.9999984436036,8|0,0:0|0:0,0:0:0:0:
350,147,123837,2,0,L|357:207,1,50.9999984436036
200,96,123983,2,0,L|139:92,1,50.9999984436036,8|0,0:0|0:0,0:0:0:0:
363,48,124129,2,0,L|429:43,1,50.9999984436036
160,287,124276,5,8,0:0:0:0:
363,255,124568,1,8,0:0:0:0:
137,193,124861,1,8,0:0:0:0:
383,172,125154,2,0,B|457:153|457:153|363:155,1,152.999995330811,8|0,0:0|0:0,0:0:0:0:
160,64,125446,6,0,L|32:64,1,101.999996887207,4|8,0:0|0:0,0:0:0:0:
192,192,125739,1,0,0:0:0:0:
253,193,125812,1,0,0:0:0:0:
253,193,125885,1,8,0:0:0:0:
32,288,126032,2,0,L|160:288,1,101.999996887207,0|8,0:0|0:0,0:0:0:0:
358,288,126324,1,2,0:0:0:0:
358,288,126397,1,0,0:0:0:0:
297,288,126470,1,0,0:0:0:0:
89,201,126617,6,0,L|217:201,1,101.999996887207
59,104,126910,1,2,0:0:0:0:
110,104,126983,1,0,0:0:0:0:
161,104,127056,1,8,0:0:0:0:
381,34,127203,2,0,L|253:34,1,101.999996887207,0|8,0:0|0:0,0:0:0:0:
413,130,127495,2,0,L|285:130,1,101.999996887207,2|0,0:0|0:0,0:0:0:0:
32,32,127788,6,0,L|32:160,1,101.999996887207,4|8,0:2|0:0,0:0:0:0:
192,224,128081,1,0,0:0:0:0:
141,224,128154,1,0,0:0:0:0:
90,224,128227,1,8,0:0:0:0:
352,224,128373,2,0,L|480:224,1,101.999996887207,0|8,0:0|0:0,0:0:0:0:
304,320,128666,1,2,0:0:0:0:
253,320,128739,1,0,0:0:0:0:
201,319,128812,1,0,0:0:0:0:
448,64,128959,6,0,L|320:64,1,101.999996887207,0|8,0:0|0:0,0:0:0:0:
480,160,129251,2,0,L|352:160,1,101.999996887207,2|8,0:0|0:0,0:0:0:0:
97,68,129544,1,0,0:0:0:0:
36,103,129617,1,0,0:0:0:0:
36,103,129690,1,8,0:0:0:0:
97,64,129763,1,0,0:0:0:0:
290,191,129837,2,0,L|290:253,1,50.9999984436036,2|0,0:0|0:0,0:0:0:0:
132,287,129983,2,0,L|44:290,1,50.9999984436036
387,346,130129,6,0,P|448:322|373:247,1,203.999993774414,4|0,0:2|0:0,0:0:0:0:
170,164,130568,2,0,L|298:164,2,101.999996887207,8|0|8,0:0|0:0|0:0,0:0:0:0:
378,175,131007,1,2,0:0:0:0:
429,175,131080,1,0,0:0:0:0:
480,227,131153,1,0,0:0:0:0:
192,128,131300,6,0,L|192:0,1,101.999996887207,2|8,0:0|0:0,0:0:0:0:
352,32,131593,1,0,0:0:0:0:
403,32,131666,1,0,0:0:0:0:
352,32,131739,1,8,0:0:0:0:
94,30,131885,1,2,0:0:0:0:
32,73,131959,1,0,0:0:0:0:
32,73,132032,1,8,0:0:0:0:
93,46,132105,1,0,0:0:0:0:
335,170,132178,2,0,L|351:237,1,50.9999984436036
144,241,132324,2,0,L|132:309,1,50.9999984436036,0|2,0:0|0:0,0:0:0:0:
386,109,132471,5,4,0:2:0:0:
437,125,132544,1,0,0:0:0:0:
488,147,132617,1,8,0:0:0:0:
488,147,132690,1,0,0:0:0:0:
437,125,132763,1,2,0:0:0:0:
386,109,132837,1,0,0:0:0:0:
192,192,132910,2,0,L|192:256,1,50.9999984436036,8|0,0:0|0:0,0:0:0:0:
256,128,133056,6,0,L|352:128,1,50.9999984436036,2|0,0:0|0:0,0:0:0:0:
230,52,133203,2,0,L|152:51,1,50.9999984436036,8|0,0:0|0:0,0:0:0:0:
394,237,133349,1,2,0:0:0:0:
455,180,133422,1,0,0:0:0:0:
455,180,133495,1,0,0:0:0:0:
394,100,133568,1,0,0:0:0:0:
218,60,133642,5,4,0:2:0:0:
157,121,133715,1,0,0:0:0:0:
157,121,133788,1,8,0:0:0:0:
218,60,133861,1,0,0:0:0:0:
279,54,133934,1,2,0:0:0:0:
279,54,134007,1,0,0:0:0:0:
228,52,134080,1,8,0:0:0:0:
177,44,134153,1,0,0:0:0:0:
359,232,134227,5,2,0:0:0:0:
420,208,134300,1,0,0:0:0:0:
420,208,134373,1,8,0:0:0:0:
359,228,134446,1,8,0:0:0:0:
132,191,134520,1,8,0:0:0:0:
132,191,134593,1,8,0:0:0:0:
183,192,134666,1,8,0:0:0:0:
407,351,134812,6,0,B|407:243,1,101.999996887207,4|8,0:2|0:0,0:0:0:0:
275,235,135105,1,0,0:0:0:0:
224,241,135178,1,0,0:0:0:0:
275,235,135251,1,8,0:0:0:0:
480,160,135398,2,0,L|363:160,2,101.999996887207,0|8|2,0:0|0:0|0:0,0:0:0:0:
273,353,135837,2,0,P|212:263|299:246,1,203.999993774414,0|8,0:0|0:0,0:0:0:0:
402,177,136276,5,2,0:0:0:0:
351,177,136349,1,0,0:0:0:0:
300,179,136422,1,8,0:0:0:0:
434,169,136568,2,0,L|434:34,1,101.999996887207,2|8,0:0|0:0,0:0:0:0:
184,77,136861,2,0,L|56:77,1,101.999996887207,0|8,0:0|0:0,0:0:0:0:
429,51,137154,6,0,L|485:53,1,50.9999984436036,2|0,0:0|0:0,0:0:0:0:
297,106,137300,1,8,0:0:0:0:
236,128,137373,1,0,0:0:0:0:
236,128,137446,1,0,0:0:0:0:
297,106,137519,1,0,0:0:0:0:
359,105,137593,1,8,0:0:0:0:
420,145,137666,1,0,0:0:0:0:
420,145,137739,5,2,0:0:0:0:
359,105,137812,1,0,0:0:0:0:
192,319,137885,2,0,L|189:259,1,50.9999984436036
430,156,138032,2,0,L|433:96,1,50.9999984436036,2|0,0:0|0:0,0:0:0:0:
369,55,138178,2,0,L|297:54,1,50.9999984436036
130,79,138324,6,0,L|6:80,1,101.999996887207,2|8,0:0|0:0,0:0:0:0:
258,160,138617,2,0,L|258:280,1,101.999996887207,0|8,0:0|0:0,0:0:0:0:
30,318,138910,2,0,L|158:318,1,101.999996887207,2|0,0:0|0:0,0:0:0:0:
408,164,139203,2,0,L|408:54,1,101.999996887207,2|0,0:0|0:0,0:0:0:0:
134,46,139495,5,4,0:2:0:0:
70,75,139568,1,0,0:0:0:0:
38,127,139641,1,8,0:0:0:0:
70,75,139714,1,0,0:0:0:0:
134,46,139787,1,0,0:0:0:0:
274,198,139934,1,8,0:0:0:0:
64,224,140081,2,0,L|64:352,1,101.999996887207,2|8,0:0|0:0,0:0:0:0:
192,352,140373,1,0,0:0:0:0:
448,288,140520,2,0,L|224:288,1,203.999993774414,8|0,0:0|0:0,0:0:0:0:
379,223,140959,5,2,0:0:0:0:
430,224,141032,1,0,0:0:0:0:
379,223,141105,1,0,0:0:0:0:
175,165,141251,2,0,L|174:110,1,50.9999984436036,8|0,0:0|0:0,0:0:0:0:
246,142,141398,2,0,L|246:86,1,50.9999984436036,2|0,0:0|0:0,0:0:0:0:
115,95,141544,2,0,L|49:95,1,50.9999984436036,8|0,0:0|0:0,0:0:0:0:
293,77,141690,2,0,L|360:77,1,50.9999984436036,2|0,0:0|0:0,0:0:0:0:
93,98,141837,5,2,0:0:0:0:
32,135,141910,1,0,0:0:0:0:
32,135,141983,1,8,0:0:0:0:
93,98,142056,1,0,0:0:0:0:
161,308,142129,1,0,0:0:0:0:
230,308,142203,1,0,0:0:0:0:
448,256,142276,2,0,L|448:320,1,50.9999984436036,8|0,0:0|0:0,0:0:0:0:
387,241,142422,5,2,0:0:0:0:
326,216,142495,1,0,0:0:0:0:
326,216,142568,1,0,0:0:0:0:
387,237,142641,1,0,0:0:0:0:
147,60,142715,2,0,L|91:60,1,50.9999984436036,2|0,0:0|0:0,0:0:0:0:
321,103,142861,2,0,L|376:103,1,50.9999984436036,8|0,0:0|0:0,0:0:0:0:
238,86,143007,6,0,L|229:35,1,50.9999984436036,10|0,0:0|0:0,0:0:0:0:
304,87,143154,2,0,L|311:36,1,50.9999984436036
144,292,143300,1,10,0:0:0:0:
83,249,143373,1,0,0:0:0:0:
83,249,143446,1,0,0:0:0:0:
144,292,143519,1,0,0:0:0:0:
399,225,143593,6,0,L|399:160,1,50.9999984436036,10|0,0:0|0:0,0:0:0:0:
242,216,143739,2,0,L|242:154,1,50.9999984436036
412,132,143885,2,0,L|471:132,1,50.9999984436036,2|0,0:0|0:0,0:0:0:0:
219,99,144032,2,0,L|146:99,1,50.9999984436036
384,343,144178,5,6,0:0:0:0:
445,368,144251,1,0,0:0:0:0:
445,368,144324,1,8,0:0:0:0:
384,343,144397,1,0,0:0:0:0:
384,343,144471,1,0,0:0:0:0:
445,368,144544,1,0,0:0:0:0:
191,249,144617,1,8,0:0:0:0:
127,213,144690,1,0,0:0:0:0:
127,213,144763,5,2,0:0:0:0:
191,249,144836,1,0,0:0:0:0:
365,64,144910,2,0,L|428:63,1,50.9999984436036,8|0,0:0|0:0,0:0:0:0:
239,145,145056,1,0,0:0:0:0:
182,126,145129,1,0,0:0:0:0:
126,99,145202,1,8,0:0:0:0:
182,126,145275,1,0,0:0:0:0:
381,288,145349,6,0,L|381:230,1,50.9999984436036,4|0,1:2|0:0,0:0:0:0:
320,214,145495,1,8,0:0:0:0:
260,161,145568,1,0,0:0:0:0:
260,161,145641,1,0,0:0:0:0:
320,214,145714,1,0,0:0:0:0:
105,32,145788,1,8,0:0:0:0:
40,78,145861,1,0,0:0:0:0:
40,78,145934,5,2,0:0:0:0:
105,32,146007,1,0,0:0:0:0:
244,239,146081,2,0,L|257:324,1,50.9999984436036,8|0,0:0|0:0,0:0:0:0:
65,355,146227,2,0,L|51:279,1,50.9999984436036
247,331,146373,2,0,L|320:338,1,50.9999984436036,8|0,0:0|0:0,0:0:0:0:
78,348,146520,5,4,1:2:0:0:
17,302,146593,1,0,0:0:0:0:
17,302,146666,1,8,0:0:0:0:
79,342,146739,1,0,0:0:0:0:
79,342,146812,1,0,0:0:0:0:
19,153,146885,1,0,0:0:0:0:
280,34,146959,1,8,0:0:0:0:
341,66,147032,1,0,0:0:0:0:
341,66,147105,5,2,0:0:0:0:
280,168,147178,1,0,0:0:0:0:
134,61,147251,2,0,L|75:63,1,50.9999984436036,8|0,0:0|0:0,0:0:0:0:
266,135,147398,2,0,L|266:195,1,50.9999984436036
205,253,147544,2,0,L|129:255,1,50.9999984436036,8|0,0:0|0:0,0:0:0:0:
394,295,147690,5,4,1:2:0:0:
455,285,147763,1,0,0:0:0:0:
496,238,147836,1,8,0:0:0:0:
496,238,147909,1,0,0:0:0:0:
455,285,147982,1,0,0:0:0:0:
396,128,148055,1,0,0:0:0:0:
188,135,148129,2,0,L|126:134,1,50.9999984436036,8|0,0:0|0:0,0:0:0:0:
75,104,148276,6,0,L|75:31,1,50.9999984436036,2|0,0:0|0:0,0:0:0:0:
146,56,148422,2,0,L|147:1,1,50.9999984436036,8|0,0:0|0:0,0:0:0:0:
15,208,148568,2,0,L|21:130,1,50.9999984436036
187,253,148715,1,2,0:0:0:0:
248,255,148788,1,0,0:0:0:0:
473,293,148861,6,0,L|473:235,1,50.9999984436036,4|0,1:2|0:0,0:0:0:0:
412,219,149007,1,8,0:0:0:0:
378,157,149080,1,0,0:0:0:0:
411,98,149153,1,0,0:0:0:0:
472,83,149226,1,0,0:0:0:0:
286,39,149300,1,8,0:0:0:0:
235,37,149373,1,0,0:0:0:0:
184,35,149446,5,2,0:0:0:0:
184,35,149519,1,0,0:0:0:0:
329,115,149593,2,0,L|329:166,1,50.9999984436036,8|0,0:0|0:0,0:0:0:0:
144,326,149739,1,0,0:0:0:0:
82,290,149812,1,0,0:0:0:0:
82,224,149885,1,8,0:0:0:0:
145,179,149958,1,0,0:0:0:0:
303,326,150032,5,4,1:2:0:0:
364,285,150105,1,0,0:0:0:0:
364,219,150178,1,8,0:0:0:0:
303,179,150251,1,0,0:0:0:0:
242,148,150324,1,0,0:0:0:0:
304,179,150398,1,0,0:0:0:0:
456,117,150471,2,0,L|460:59,1,50.9999984436036,8|0,0:0|0:0,0:0:0:0:
235,318,150617,5,4,1:2:0:0:
174,322,150690,1,0,0:0:0:0:
174,322,150764,1,8,0:0:0:0:
235,318,150837,1,0,0:0:0:0:
436,221,150910,2,0,L|437:158,1,50.9999984436036
376,122,151056,2,0,L|312:119,1,50.9999984436036,8|0,0:0|0:0,0:0:0:0:
108,302,151203,5,4,1:2:0:0:
52,285,151276,1,0,0:0:0:0:
19,236,151349,1,0,0:0:0:0:
26,179,151422,1,0,0:0:0:0:
69,138,151495,1,2,0:0:0:0:
126,136,151568,1,0,0:0:0:0:
308,252,151642,1,8,0:0:0:0:
368,215,151715,1,0,0:0:0:0:
374,149,151788,5,0,0:0:0:0:
320,105,151861,1,0,0:0:0:0:
178,55,151934,2,0,L|115:58,1,50.9999984436036,2|0,0:0|0:0,0:0:0:0:
346,134,152081,2,0,L|345:71,1,50.9999984436036,8|0,0:0|0:0,0:0:0:0:
272,103,152227,2,0,L|271:40,1,50.9999984436036
423,236,152373,5,4,1:2:0:0:
474,182,152446,1,0,0:0:0:0:
474,182,152519,1,8,0:0:0:0:
423,133,152592,1,0,0:0:0:0:
361,126,152666,1,0,0:0:0:0:
300,127,152739,1,0,0:0:0:0:
249,177,152812,1,8,0:0:0:0:
249,177,152885,1,0,0:0:0:0:
416,305,152959,6,0,L|420:366,1,50.9999984436036,2|0,0:0|0:0,0:0:0:0:
237,370,153105,2,0,L|160:354,1,50.9999984436036,8|0,0:0|0:0,0:0:0:0:
402,282,153251,2,0,L|470:264,1,50.9999984436036
243,236,153398,2,0,L|240:181,1,50.9999984436036
480,160,153544,6,0,B|527:148|527:148|465:116,1,101.999996887207,4|8,1:2|0:0,0:0:0:0:
337,31,153837,1,0,0:0:0:0:
388,31,153910,1,0,0:0:0:0:
439,31,153983,1,8,0:0:0:0:
192,96,154129,2,0,L|64:96,1,101.999996887207,2|8,0:0|0:0,0:0:0:0:
224,192,154422,1,0,0:0:0:0:
275,192,154495,1,0,0:0:0:0:
96,192,154568,2,0,P|64:256|160:320,1,203.999993774414,8|0,0:0|0:0,0:0:0:0:
384,256,155007,5,2,0:0:0:0:
384,307,155080,1,0,0:0:0:0:
384,307,155153,1,0,0:0:0:0:
128,160,155300,1,8,0:0:0:0:
179,160,155373,1,0,0:0:0:0:
230,160,155446,1,0,0:0:0:0:
496,161,155593,1,8,0:0:0:0:
496,161,155666,1,0,0:0:0:0:
436,161,155739,1,0,0:0:0:0:
152,63,155885,6,0,L|152:128,1,50.9999984436036,4|0,0:2|0:0,0:0:0:0:
371,234,156032,1,8,0:0:0:0:
422,238,156105,1,0,0:0:0:0:
473,245,156178,1,0,0:0:0:0:
422,238,156251,1,0,0:0:0:0:
227,300,156324,2,0,L|163:300,1,50.9999984436036,8|0,0:0|0:0,0:0:0:0:
245,282,156471,6,0,L|311:282,1,50.9999984436036,2|0,0:0|0:0,0:0:0:0:
93,187,156617,1,8,0:0:0:0:
36,190,156690,1,0,0:0:0:0:
230,138,156764,1,2,0:0:0:0:
288,136,156837,1,0,0:0:0:0:
139,220,156910,1,8,0:0:0:0:
34,231,157056,5,2,0:0:0:0:
239,315,157203,1,8,0:0:0:0:
290,316,157276,1,8,0:0:0:0:
127,305,157349,2,0,L|-4:305,1,101.999996887207,8|8,0:0|0:0,0:0:0:0:
231,164,157642,2,0,L|231:285,1,101.999996887207,0|0,1:0|1:0,0:0:0:0:
107,17,157934,2,0,L|107:154,1,101.999996887207,2|2,0:0|0:0,0:0:0:0:
406,228,158227,6,0,P|472:192|293:80,1,407.999987548829,4|4,0:2|0:2,0:0:0:0:
88,272,159105,2,0,L|88:164,1,101.999996887207
430,285,159398,6,0,P|495:225|402:181,1,203.999993774414,8|0,0:0|0:0,0:0:0:0:
70,127,159983,2,0,L|294:127,1,203.999993774414,8|0,0:0|0:0,0:0:0:0:
172,175,160422,1,0,0:0:0:0:
304,290,160568,6,0,L|289:201,1,50.9999984436036,2|0,0:0|0:0,0:0:0:0:
207,290,160715,2,0,L|222:201,1,50.9999984436036,2|0,0:0|0:0,0:0:0:0:
352,280,160861,2,0,L|369:185,1,50.9999984436036,2|0,0:0|0:0,0:0:0:0:
160,280,161007,2,0,L|143:185,1,50.9999984436036,2|0,0:0|0:0,0:0:0:0:
388,262,161154,6,0,L|439:185,1,50.9999984436036,2|0,0:0|0:0,0:0:0:0:
124,262,161300,2,0,L|73:185,1,50.9999984436036,2|0,0:0|0:0,0:0:0:0:
406,260,161446,2,0,L|471:228,1,50.9999984436036,2|0,0:0|0:0,0:0:0:0:
106,260,161593,2,0,L|41:228,1,50.9999984436036,2|0,0:0|0:0,0:0:0:0:
453,335,161739,6,0,P|489:276|415:220,1,152.999995330811,8|0,0:1|0:0,0:0:0:0:
224,224,162032,2,0,P|188:165|262:109,1,152.999995330811,8|0,0:1|0:0,0:0:0:0:
480,128,162324,2,0,L|320:96,1,152.999995330811,8|0,0:0|0:0,0:0:0:0:
85,189,162617,2,0,L|254:157,1,152.999995330811,8|0,0:0|0:0,0:0:0:0:
394,280,162910,5,4,0:2:0:0:
264,244,163056,2,0,L|210:246,2,50.9999984436036,8|0|0,0:0|0:0|0:0,0:0:0:0:
391,182,163349,1,8,0:0:0:0:
145,153,163495,2,0,L|36:147,1,101.999996887207,0|8,0:0|0:0,0:0:0:0:
263,68,163788,2,0,L|153:58,1,101.999996887207,0|8,0:0|0:0,0:0:0:0:
374,263,164081,6,0,L|377:196,1,50.9999984436036,2|2,2:3|2:3,0:0:0:0:
306,203,164227,2,0,L|309:142,1,50.9999984436036,8|0,2:3|2:3,0:0:0:0:
381,126,164373,2,0,L|441:130,1,50.9999984436036,0|0,2:3|0:0,0:0:0:0:
227,130,164520,1,8,0:0:0:0:
329,171,164666,2,0,L|330:278,1,101.999996887207,0|8,0:0|0:0,0:0:0:0:
125,298,164959,1,0,0:0:0:0:
248,283,165105,1,8,0:0:0:0:
44,194,165251,5,2,2:3:0:0:
177,164,165398,2,0,L|234:159,2,50.9999984436036,8|0|0,2:3|2:3|2:3,0:0:0:0:
51,114,165690,1,8,0:0:0:0:
281,79,165837,2,0,L|403:72,1,101.999996887207,0|8,0:0|0:0,0:0:0:0:
168,278,166129,2,0,L|58:283,1,101.999996887207,0|8,0:0|0:0,0:0:0:0:
314,233,166422,6,0,L|378:235,1,50.9999984436036,0|0,2:3|2:3,0:0:0:0:
297,172,166568,2,0,L|238:168,1,50.9999984436036,8|0,2:3|2:3,0:0:0:0:
422,74,166715,2,0,L|431:138,1,50.9999984436036,0|0,2:3|2:3,0:0:0:0:
368,136,166861,2,0,L|311:139,1,50.9999984436036,8|0,2:3|2:3,0:0:0:0:
101,52,167007,6,0,L|113:113,1,50.9999984436036,2|0,0:0|0:0,0:0:0:0:
170,118,167154,2,0,L|244:110,1,50.9999984436036,8|0,0:0|0:0,0:0:0:0:
31,207,167300,2,0,L|26:280,1,50.9999984436036,2|0,0:0|0:0,0:0:0:0:
266,228,167446,2,0,L|336:222,1,50.9999984436036
56,142,167593,5,4,1:2:0:0:
149,149,167739,2,0,L|88:150,1,50.9999984436036,8|0,0:0|0:0,0:0:0:0:
48,149,167885,1,0,0:0:0:0:
263,282,168032,1,8,0:0:0:0:
54,64,168178,2,0,L|162:56,1,101.999996887207,0|8,0:0|0:0,0:0:0:0:
411,135,168471,2,0,L|305:140,1,101.999996887207,0|8,0:0|0:0,0:0:0:0:
47,308,168764,6,0,L|41:242,1,50.9999984436036,2|2,2:3|2:3,0:0:0:0:
204,238,168910,2,0,L|209:168,1,50.9999984436036,8|0,2:3|2:3,0:0:0:0:
31,136,169056,2,0,L|105:128,1,50.9999984436036,0|0,2:3|0:0,0:0:0:0:
308,114,169203,1,8,0:0:0:0:
206,121,169349,2,0,L|206:237,1,101.999996887207,0|8,0:0|0:0,0:0:0:0:
411,259,169642,1,0,0:0:0:0:
274,281,169788,1,8,0:0:0:0:
478,164,169934,5,4,1:2:0:0:
371,169,170081,2,0,L|432:169,1,50.9999984436036,8|0,0:0|0:0,0:0:0:0:
473,176,170227,1,0,0:0:0:0:
342,97,170373,1,8,0:0:0:0:
128,264,170520,2,0,L|71:260,1,50.9999984436036,2|0,2:3|2:3,0:0:0:0:
77,260,170666,2,0,L|129:263,1,50.9999984436036,8|0,2:3|2:3,0:0:0:0:
202,231,170812,2,0,L|196:171,1,50.9999984436036,8|0,2:3|0:0,0:0:0:0:
120,179,170959,2,0,L|135:118,1,50.9999984436036
338,266,171105,6,0,L|347:207,1,50.9999984436036,2|0,0:0|0:0,0:0:0:0:
275,196,171251,2,0,L|285:130,1,50.9999984436036,2|0,0:0|0:0,0:0:0:0:
210,131,171398,2,0,L|218:67,1,50.9999984436036,2|0,0:0|0:0,0:0:0:0:
144,71,171544,2,0,L|157:-4,1,50.9999984436036,2|0,0:0|0:0,0:0:0:0:
407,50,171690,6,0,L|344:53,1,50.9999984436036,8|0,0:0|0:0,0:0:0:0:
102,214,171837,2,0,L|178:226,1,50.9999984436036,8|0,0:0|0:0,0:0:0:0:
414,270,171983,1,8,0:1:0:0:
479,243,172056,1,0,0:0:0:0:
479,171,172129,1,0,0:0:0:0:
417,133,172203,1,0,0:0:0:0:
87,80,172276,6,0,L|17:77,1,50.9999984436036,2|0,0:0|0:0,0:0:0:0:
187,135,172422,2,0,L|250:139,1,50.9999984436036,2|0,0:0|0:0,0:0:0:0:
91,212,172568,2,0,L|28:209,1,50.9999984436036,2|0,0:0|0:0,0:0:0:0:
189,268,172715,2,0,L|264:272,1,50.9999984436036,2|0,0:0|0:0,0:0:0:0:
471,92,172861,6,0,L|405:89,1,50.9999984436036,8|0,0:0|0:0,0:0:0:0:
193,74,173007,2,0,L|122:70,1,50.9999984436036,8|0,0:0|0:0,0:0:0:0:
373,233,173154,2,0,L|377:167,1,50.9999984436036,8|0,0:0|0:0,0:0:0:0:
147,212,173300,2,0,L|212:217,1,50.9999984436036,8|0,0:0|0:0,0:0:0:0:
411,296,173446,6,0,L|471:298,1,50.9999984436036
281,296,173593,2,0,L|221:294,1,50.9999984436036,2|0,0:0|0:0,0:0:0:0:
46,237,173739,2,0,L|37:316,1,50.9999984436036,2|0,0:0|0:0,0:0:0:0:
226,156,173885,2,0,L|299:159,1,50.9999984436036,2|0,0:0|0:0,0:0:0:0:
85,53,174032,6,0,L|140:55,1,50.9999984436036,8|0,0:0|0:0,0:0:0:0:
296,53,174178,2,0,L|353:54,1,50.9999984436036,8|0,0:0|0:0,0:0:0:0:
146,170,174324,2,0,L|205:170,1,50.9999984436036,8|0,0:0|0:0,0:0:0:0:
369,209,174471,2,0,L|312:207,1,50.9999984436036,8|0,0:0|0:0,0:0:0:0:
48,236,174617,6,0,L|44:311,1,50.9999984436036,2|0,0:0|0:0,0:0:0:0:
208,263,174764,2,0,L|272:265,1,50.9999984436036,2|0,0:0|0:0,0:0:0:0:
92,144,174910,2,0,L|31:141,1,50.9999984436036,2|0,0:0|0:0,0:0:0:0:
199,59,175056,2,0,L|261:60,1,50.9999984436036,2|0,0:0|0:0,0:0:0:0:
452,255,175203,6,0,L|396:253,1,50.9999984436036,8|0,0:0|0:0,0:0:0:0:
193,152,175349,2,0,L|256:154,1,50.9999984436036,8|0,0:0|0:0,0:0:0:0:
450,82,175495,2,0,L|389:81,1,50.9999984436036,8|0,0:0|0:0,0:0:0:0:
198,242,175642,2,0,L|118:240,1,50.9999984436036,8|0,0:0|0:0,0:0:0:0:
350,185,175788,6,0,L|406:187,1,50.9999984436036,2|0,0:0|0:0,0:0:0:0:
250,182,175934,2,0,L|194:180,1,50.9999984436036,2|0,0:0|0:0,0:0:0:0:
54,114,176081,2,0,L|116:115,1,50.9999984436036,2|0,0:0|0:0,0:0:0:0:
261,109,176227,2,0,L|323:111,1,50.9999984436036,2|0,0:0|0:0,0:0:0:0:
103,315,176373,5,4,0:0:0:0:
42,294,176446,1,0,0:0:0:0:
42,294,176520,1,0,0:0:0:0:
103,315,176593,1,0,0:0:0:0:
253,243,176666,1,0,0:0:0:0:
253,243,176739,1,0,0:0:0:0:
192,223,176812,1,0,0:0:0:0:
141,224,176885,1,0,0:0:0:0:
414,321,176959,6,0,L|477:324,1,50.9999984436036,2|0,0:0|0:0,0:0:0:0:
306,223,177105,2,0,L|300:291,1,50.9999984436036,2|0,0:0|0:0,0:0:0:0:
481,176,177251,2,0,L|476:250,1,50.9999984436036,2|0,0:0|0:0,0:0:0:0:
318,112,177398,2,0,L|246:107,1,50.9999984436036,2|0,0:0|0:0,0:0:0:0:
76,220,177544,6,0,L|140:220,1,50.9999984436036,8|0,0:0|0:0,0:0:0:0:
292,158,177690,2,0,L|224:155,1,50.9999984436036,8|0,0:0|0:0,0:0:0:0:
31,73,177837,2,0,L|26:138,1,50.9999984436036,8|0,0:0|0:0,0:0:0:0:
229,29,177983,2,0,L|292:33,1,50.9999984436036,8|0,0:0|0:0,0:0:0:0:
459,252,178129,6,0,L|462:202,1,50.9999984436036,2|0,0:0|0:0,0:0:0:0:
291,219,178276,2,0,L|223:214,1,50.9999984436036,2|0,0:0|0:0,0:0:0:0:
79,98,178422,2,0,L|135:98,1,50.9999984436036,2|0,0:0|0:0,0:0:0:0:
306,87,178568,2,0,L|365:91,1,50.9999984436036,2|0,0:0|0:0,0:0:0:0:
119,212,178715,6,0,L|185:217,1,50.9999984436036,8|0,0:0|0:0,0:0:0:0:
415,280,178861,2,0,L|357:280,1,50.9999984436036,8|0,0:0|0:0,0:0:0:0:
174,328,179007,2,0,P|118:308|105:213,1,152.999995330811,12|0,0:0|0:0,0:0:0:0:
380,184,179300,5,8,2:3:0:0:
278,179,179446,1,0,2:3:0:0:
329,181,179520,1,0,0:0:0:0:
380,184,179593,1,0,0:0:0:0:
132,184,179739,1,8,2:3:0:0:
234,179,179885,1,0,2:3:0:0:
183,181,179959,1,0,0:0:0:0:
132,184,180032,1,0,0:0:0:0:
410,276,180178,1,8,2:3:0:0:
113,267,180324,1,8,2:3:0:0:
54,267,180617,5,8,0:0:0:0:
260,222,180764,1,8,0:0:0:0:
54,267,180910,1,8,0:0:0:0:
323,277,181056,1,8,0:0:0:0:
323,277,181203,1,8,0:0:0:0:
198,361,181349,1,4,0:0:0:0:
198,361,181495,1,8,0:0:0:0:
456,286,181642,6,0,L|226:66,2,305.999990661621,4|0|0,0:2|0:0|0:0,0:0:0:0:
76,335,182812,6,0,B|178:318|178:318|88:288|51:252|42:187|82:87|164:65|226:53|226:53|112:38,1,611.999981323243,4|0,0:0|0:0,0:0:0:0:
484,300,183983,6,0,L|250:79,2,305.999990661621,4|0|0,0:2|0:0|0:0,0:0:0:0:
91,312,185154,6,0,P|42:277|112:187,1,203.999993774414,4|8,0:0|0:3,0:0:0:0:
202,195,185593,1,8,0:3:0:0:
345,117,185739,2,0,L|127:93,1,203.999993774414,4|8,0:3|0:3,0:0:0:0:
283,44,186178,1,8,0:3:0:0:
58,279,186324,6,0,L|294:52,2,305.999990661621,4|0|0,0:2|0:0|0:0,0:0:0:0:
477,139,187495,6,0,L|252:361,2,305.999990661621,4|0|0,0:2|0:0|0:0,0:0:0:0:
63,314,188666,6,0,P|144:298|46:172,2,305.999990661621,4|0|0,0:2|0:0|0:0,0:0:0:0:
270,355,189690,2,0,L|270:299,1,50.9999984436036,8|0,0:3|0:0,0:0:0:0:
34,322,189837,6,0,L|31:208,1,101.999996887207,4|0,0:0|0:0,0:0:0:0:
164,190,190129,2,0,L|38:188,1,101.999996887207,8|8,0:0|0:0,0:0:0:0:
312,88,190422,2,0,L|313:31,1,50.9999984436036,0|0,1:0|1:0,0:0:0:0:
180,29,190568,2,0,L|114:26,1,50.9999984436036,0|0,1:0|1:0,0:0:0:0:
424,271,190715,2,0,P|472:226|411:160,1,152.999995330811,4|0,0:2|0:0,0:0:0:0:
224,128,191007,6,0,L|96:128,1,101.999996887207,4|0,0:0|0:0,0:0:0:0:
352,32,191300,1,8,0:0:0:0:
147,56,191446,2,0,L|33:57,2,101.999996887207,0|0|2,1:0|0:0|0:0,0:0:0:0:
358,284,191885,2,0,L|358:175,1,101.999996887207,8|0,0:0|0:0,0:0:0:0:
96,320,192178,6,0,P|32:256|128:224,1,203.999993774414,4|8,0:2|0:0,0:0:0:0:
352,96,192617,2,0,L|224:96,2,101.999996887207,0|0|2,1:0|1:0|0:0,0:0:0:0:
139,195,193056,2,0,L|141:323,1,101.999996887207,8|0,0:0|0:0,0:0:0:0:
380,297,193349,6,0,L|171:291,1,203.999993774414,4|8,0:2|0:0,0:0:0:0:
385,200,193788,2,0,L|513:200,2,101.999996887207,0|0|2,1:0|0:0|0:0,0:0:0:0:
143,154,194227,2,0,L|143:34,1,101.999996887207,8|0,0:0|0:0,0:0:0:0:
354,60,194520,5,2,0:0:0:0:
356,43,194666,1,0,0:0:0:0:
226,60,194812,1,8,0:0:0:0:
223,43,194959,1,8,0:0:0:0:
433,162,195105,1,0,1:0:0:0:
484,165,195178,1,0,0:0:0:0:
433,162,195251,1,0,1:0:0:0:
195,293,195398,2,0,L|323:293,1,101.999996887207,4|0,0:2|0:0,0:0:0:0:
32,134,195690,6,0,B|32:32|32:32|160:32,1,203.999993774414,4|8,0:2|0:0,0:0:0:0:
347,98,196129,2,0,L|475:98,2,101.999996887207,0|0|2,1:0|0:0|0:0,0:0:0:0:
127,264,196568,2,0,L|127:377,1,101.999996887207,8|0,0:0|0:0,0:0:0:0:
486,221,196861,6,0,L|246:221,1,203.999993774414,4|8,0:2|0:0,0:0:0:0:
26,221,197300,2,0,L|266:221,1,203.999993774414,0|2,1:0|0:0,0:0:0:0:
21,216,197739,2,0,L|21:88,1,101.999996887207,8|0,0:0|0:0,0:0:0:0:
337,69,198032,6,0,L|480:69,2,101.999996887207,4|0|8,0:2|0:0|0:0,0:0:0:0:
123,216,198471,2,0,L|-5:216,2,101.999996887207,0|0|2,1:0|0:0|0:0,0:0:0:0:
260,181,198910,2,0,L|260:290,1,101.999996887207,8|0,0:0|0:0,0:0:0:0:
199,299,199129,1,0,0:0:0:0:
45,250,199203,6,0,B|45:129,1,101.999996887207,4|0,0:0|0:0,0:0:0:0:
302,353,199495,2,0,L|200:353,1,101.999996887207,8|0,0:0|0:0,0:0:0:0:
481,273,199788,2,0,L|406:273,1,50.9999984436036,8|0,0:0|0:0,0:0:0:0:
202,264,199934,1,8,0:0:0:0:
140,236,200007,1,0,0:0:0:0:
108,177,200080,1,8,0:0:0:0:
117,104,200153,1,0,0:0:0:0:
158,50,200226,1,0,1:0:0:0:
224,34,200299,1,0,1:0:0:0:
416,32,200373,5,2,0:0:0:0:
318,32,200520,1,4,0:2:0:0:
441,47,200666,2,0,L|446:105,1,50.9999984436036
160,192,200812,2,0,P|96:224|192:288,1,203.999993774414,4|2,0:2|0:0,0:0:0:0:
292,256,201251,1,8,0:0:0:0:
241,256,201324,1,0,0:0:0:0:
190,256,201397,1,0,0:0:0:0:
448,160,201544,5,2,0:0:0:0:
320,160,201690,1,4,0:2:0:0:
454,153,201837,2,0,L|457:87,1,50.9999984436036
224,64,201983,2,0,P|154:108|235:149,1,203.999993774414,4|2,0:2|0:0,0:0:0:0:
370,225,202422,1,8,0:0:0:0:
421,267,202495,1,0,0:0:0:0:
370,225,202568,1,8,0:0:0:0:
64,320,202715,5,2,0:0:0:0:
182,320,202861,1,4,0:2:0:0:
58,312,203007,2,0,L|63:250,1,50.9999984436036
288,160,203154,2,0,L|64:160,1,203.999993774414,4|2,0:2|0:0,0:0:0:0:
218,64,203593,1,8,0:0:0:0:
269,64,203666,1,0,0:0:0:0:
320,64,203739,1,0,0:0:0:0:
96,352,203885,6,0,L|224:352,1,101.999996887207,2|0,0:0|0:0,0:0:0:0:
64,224,204178,2,0,L|137:224,1,50.9999984436036,8|0,0:0|0:0,0:0:0:0:
252,225,204324,2,0,L|119:224,1,101.999996887207,0|0,0:0|1:0,0:0:0:0:
282,128,204617,2,0,L|346:128,1,50.9999984436036,0|0,1:0|0:0,0:0:0:0:
171,144,204763,2,0,L|107:144,1,50.9999984436036,8|0,0:0|0:0,0:0:0:0:
267,230,204910,1,0,0:0:0:0:
52,60,205056,5,2,0:0:0:0:
151,58,205203,1,4,0:2:0:0:
34,76,205349,2,0,L|29:138,1,50.9999984436036
252,233,205495,2,0,P|327:165|233:136,1,203.999993774414,4|2,0:2|0:0,0:0:0:0:
122,323,205934,1,8,0:0:0:0:
71,293,206007,1,0,0:0:0:0:
122,323,206080,1,8,0:0:0:0:
343,127,206227,5,2,0:0:0:0:
215,127,206373,1,4,0:2:0:0:
339,141,206520,2,0,L|415:141,1,50.9999984436036
96,160,206666,2,0,P|43:98|131:35,1,203.999993774414,4|2,0:2|0:0,0:0:0:0:
254,224,207105,1,8,0:0:0:0:
304,226,207178,1,0,0:0:0:0:
254,224,207251,1,8,0:0:0:0:
35,160,207398,5,2,0:0:0:0:
160,160,207544,1,4,0:2:0:0:
30,167,207690,2,0,L|38:107,1,50.9999984436036
313,136,207837,2,0,P|374:100|280:75,1,203.999993774414,4|2,0:2|0:0,0:0:0:0:
150,116,208276,1,8,0:0:0:0:
99,116,208349,1,0,0:0:0:0:
48,116,208422,1,8,0:0:0:0:
253,256,208568,6,0,L|260:321,1,50.9999984436036,2|0,0:0|0:0,0:0:0:0:
178,271,208715,2,0,L|168:337,1,50.9999984436036,8|8,0:0|0:0,0:0:0:0:
354,134,208861,1,8,0:0:0:0:
237,98,209008,2,0,L|229:166,1,50.9999984436036,8|0,0:0|0:0,0:0:0:0:
393,118,209154,6,0,L|404:206,1,50.9999984436036,2|0,0:0|0:0,0:0:0:0:
250,164,209300,2,0,L|173:163,1,50.9999984436036,8|8,0:0|0:0,0:0:0:0:
434,336,209446,1,8,0:0:0:0:
495,301,209519,1,0,0:0:0:0:
495,301,209592,1,8,0:0:0:0:
434,336,209665,1,0,0:0:0:0:
252,245,209739,6,0,L|185:243,1,50.9999984436036,2|0,0:0|0:0,0:0:0:0:
371,149,209885,1,4,0:2:0:0:
436,161,209958,1,0,0:0:0:0:
436,161,210031,1,0,0:0:0:0:
372,148,210104,1,0,0:0:0:0:
180,305,210178,1,4,0:2:0:0:
180,305,210251,1,0,0:0:0:0:
241,325,210324,5,0,0:0:0:0:
300,333,210398,1,0,0:0:0:0:
461,340,210471,2,0,L|465:280,1,50.9999984436036,2|0,0:0|0:0,0:0:0:0:
256,175,210617,1,8,0:0:0:0:
314,138,210690,1,0,0:0:0:0:
371,101,210763,1,8,0:0:0:0:
371,101,210836,1,0,0:0:0:0:
224,67,210910,6,0,L|162:65,1,50.9999984436036,2|0,0:0|0:0,0:0:0:0:
368,44,211056,1,4,0:2:0:0:
428,68,211129,1,0,0:0:0:0:
433,132,211202,1,0,0:0:0:0:
378,165,211275,1,0,0:0:0:0:
192,192,211349,2,0,L|192:256,1,50.9999984436036,4|0,0:2|0:0,0:0:0:0:
256,288,211495,6,0,L|320:288,1,50.9999984436036
107,280,211642,2,0,L|100:343,1,50.9999984436036,2|0,0:0|0:0,0:0:0:0:
167,329,211788,2,0,L|160:392,1,50.9999984436036,8|0,0:0|0:0,0:0:0:0:
16,136,211934,2,0,L|23:199,1,50.9999984436036,8|0,0:0|0:0,0:0:0:0:
302,197,212081,6,0,L|364:198,1,50.9999984436036,2|0,0:0|0:0,0:0:0:0:
197,157,212227,1,4,0:2:0:0:
146,118,212300,1,0,0:0:0:0:
197,157,212373,1,0,0:0:0:0:
248,108,212446,1,0,0:0:0:0:
455,123,212520,1,4,0:2:0:0:
455,123,212593,1,0,0:0:0:0:
394,78,212666,5,0,0:0:0:0:
343,89,212739,1,0,0:0:0:0:
167,104,212812,2,0,L|88:103,1,50.9999984436036,2|0,0:0|0:0,0:0:0:0:
294,209,212959,2,0,L|300:278,1,50.9999984436036,8|0,0:0|0:0,0:0:0:0:
117,307,213105,2,0,L|35:312,1,50.9999984436036,8|0,0:0|0:0,0:0:0:0:
342,356,213251,6,0,B|400:353|400:353|315:337,1,101.999996887207,2|8,0:0|0:0,0:0:0:0:
141,210,213544,2,0,L|13:210,1,101.999996887207,0|8,0:0|0:0,0:0:0:0:
282,172,213837,2,0,L|357:171,1,50.9999984436036,2|0,0:0|0:0,0:0:0:0:
149,79,213983,2,0,L|85:79,1,50.9999984436036,8|0,0:0|0:0,0:0:0:0:
286,73,214129,2,0,L|262:21,1,50.9999984436036,2|0,0:0|0:0,0:0:0:0:
89,87,214276,2,0,L|111:24,1,50.9999984436036,8|0,0:0|0:0,0:0:0:0:
341,270,214422,6,0,L|405:270,1,50.9999984436036,2|0,0:0|0:0,0:0:0:0:
202,239,214568,1,4,0:2:0:0:
165,186,214641,1,0,0:0:0:0:
191,126,214714,1,0,0:0:0:0:
255,119,214787,1,0,0:0:0:0:
458,151,214861,1,4,0:2:0:0:
495,98,214934,1,0,0:0:0:0:
469,38,215007,5,0,0:0:0:0:
405,31,215080,1,0,0:0:0:0:
233,37,215154,2,0,L|162:36,1,50.9999984436036,2|0,3:0|3:0,0:0:0:0:
369,183,215300,1,8,0:0:0:0:
319,187,215373,1,0,0:0:0:0:
268,191,215446,1,8,0:0:0:0:
215,197,215520,1,0,0:0:0:0:
480,274,215593,6,0,L|491:336,1,50.9999984436036,2|0,0:0|0:0,0:0:0:0:
306,354,215739,2,0,L|242:354,1,50.9999984436036,4|0,0:2|0:0,0:0:0:0:
106,352,215885,2,0,L|42:352,1,50.9999984436036
320,269,216032,1,4,0:2:0:0:
378,240,216105,1,0,0:0:0:0:
372,176,216178,5,0,0:0:0:0:
310,159,216251,1,0,0:0:0:0:
162,150,216324,2,0,L|151:86,1,50.9999984436036,2|0,0:0|0:0,0:0:0:0:
374,137,216471,1,8,0:0:0:0:
433,120,216544,1,0,0:0:0:0:
433,120,216617,1,8,0:0:0:0:
374,137,216690,1,0,0:0:0:0:
229,73,216764,6,0,L|170:70,1,50.9999984436036,2|0,0:0|0:0,0:0:0:0:
375,229,216910,2,0,L|382:298,1,50.9999984436036,8|0,0:0|0:0,0:0:0:0:
317,325,217056,2,0,L|243:328,1,50.9999984436036
436,298,217202,2,0,L|455:367,1,50.9999984436036,8|0,0:0|0:0,0:0:0:0:
234,250,217349,2,0,L|138:250,1,50.9999984436036,2|0,0:0|0:0,0:0:0:0:
239,245,217495,2,0,L|335:245,1,50.9999984436036,8|0,0:0|0:0,0:0:0:0:
111,301,217642,2,0,L|87:373,1,50.9999984436036
274,356,217788,2,0,L|293:277,1,50.9999984436036,8|0,0:0|0:0,0:0:0:0:
82,199,217934,6,0,L|204:213,2,101.999996887207,2|8|0,0:0|0:0|0:0,0:0:0:0:
434,109,218373,2,0,L|312:123,2,101.999996887207,8|2|0,0:0|0:0|0:0,0:0:0:0:
114,157,218812,2,0,B|51:158|51:158|159:157,1,152.999995330811,2|0,0:0|0:0,0:0:0:0:
388,184,219105,5,8,0:1:0:0:
388,184,219251,1,0,0:0:0:0:
156,232,219398,1,8,0:0:0:0:
156,232,219544,1,0,0:0:0:0:
362,325,219690,2,0,B|374:260|374:260|261:230,1,152.999995330811,2|0,0:0|0:0,0:0:0:0:
82,215,219983,2,0,L|214:200,1,101.999996887207,8|0,0:0|0:0,0:0:0:0:
412,160,220276,5,8,0:1:0:0:
412,160,220422,1,0,0:0:0:0:
206,64,220568,1,8,0:0:0:0:
334,65,220715,1,0,0:0:0:0:
128,190,220861,1,2,0:0:0:0:
256,190,221007,1,0,0:0:0:0:
28,287,221154,2,0,L|193:310,1,152.999995330811,8|0,0:0|0:0,0:0:0:0:
380,290,221446,6,0,L|380:169,1,101.999996887207,8|0,0:1|0:0,0:0:0:0:
144,164,221739,2,0,L|277:155,1,101.999996887207
458,85,222032,2,0,L|359:78,1,50.9999984436036,8|0,0:1|0:0,0:0:0:0:
198,33,222178,2,0,L|280:27,1,50.9999984436036
416,61,222324,2,0,L|416:163,1,101.999996887207
148,218,222617,6,0,L|288:218,1,101.999996887207,2|0,0:0|0:0,0:0:0:0:
38,270,222910,2,0,L|38:410,1,101.999996887207,8|0,0:0|0:0,0:0:0:0:
355,342,223203,2,0,L|280:342,1,50.9999984436036,2|0,0:0|0:0,0:0:0:0:
159,259,223349,2,0,L|159:206,1,50.9999984436036,2|0,0:0|0:0,0:0:0:0:
345,172,223495,2,0,L|429:172,1,50.9999984436036,8|0,0:0|0:0,0:0:0:0:
233,118,223642,2,0,L|233:44,1,50.9999984436036
413,55,223788,5,8,0:1:0:0:
413,55,223934,1,0,0:0:0:0:
174,200,224081,1,8,0:0:0:0:
174,200,224227,1,0,0:0:0:0:
388,280,224373,2,0,L|220:256,1,152.999995330811,2|0,0:0|0:0,0:0:0:0:
66,228,224666,2,0,L|211:217,1,101.999996887207,8|0,0:0|0:0,0:0:0:0:
415,78,224959,5,8,0:1:0:0:
415,78,225105,1,0,0:0:0:0:
208,145,225251,1,8,0:0:0:0:
337,148,225398,1,0,0:0:0:0:
132,247,225544,1,2,0:0:0:0:
260,266,225690,1,0,0:0:0:0:
53,252,225837,2,0,B|-22:298|-22:298|79:332,1,152.999995330811,8|0,0:0|0:0,0:0:0:0:
312,270,226129,6,0,L|384:270,1,50.9999984436036,4|0,0:2|0:0,0:0:0:0:
185,220,226276,2,0,L|182:280,1,50.9999984436036
250,266,226422,2,0,L|244:335,1,50.9999984436036,8|0,0:0|0:0,0:0:0:0:
68,355,226568,2,0,L|17:355,1,50.9999984436036,4|0,1:2|0:0,0:0:0:0:
281,264,226715,5,0,0:0:0:0:
343,254,226788,1,0,0:0:0:0:
344,191,226861,1,8,0:0:0:0:
283,180,226934,1,0,0:0:0:0:
79,123,227007,2,0,L|12:123,1,50.9999984436036,4|0,1:2|0:0,0:0:0:0:
166,84,227154,1,0,0:0:0:0:
227,86,227227,1,0,0:0:0:0:
432,328,227300,6,0,L|441:269,1,50.9999984436036,2|0,0:0|0:0,0:0:0:0:
369,258,227446,2,0,L|379:192,1,50.9999984436036,2|0,0:0|0:0,0:0:0:0:
304,193,227593,2,0,L|312:129,1,50.9999984436036,8|0,0:0|0:0,0:0:0:0:
238,133,227739,2,0,L|251:58,1,50.9999984436036,8|0,0:0|0:0,0:0:0:0:
468,353,227885,6,0,L|192:79,1,356.999989105225,2|0,0:0|0:0,0:0:0:0:
72,211,228471,6,0,L|66:156,1,50.9999984436036,2|0,0:0|0:0,0:0:0:0:
137,150,228617,2,0,L|131:95,1,50.9999984436036,8|0,0:0|0:0,0:0:0:0:
64,56,228764,2,0,L|13:57,1,50.9999984436036
239,91,228910,2,0,L|248:21,1,50.9999984436036,8|0,0:0|0:0,0:0:0:0:
30,169,229056,6,0,L|26:107,1,50.9999984436036,2|0,0:0|0:0,0:0:0:0:
100,79,229203,2,0,L|103:18,1,50.9999984436036,8|0,0:0|0:0,0:0:0:0:
30,169,229349,2,0,L|26:107,1,50.9999984436036,2|0,0:0|0:0,0:0:0:0:
229,173,229495,2,0,L|284:172,1,50.9999984436036,8|0,0:0|0:0,0:0:0:0:
143,303,229642,6,0,L|137:241,1,50.9999984436036,0|0,1:0|0:0,0:0:0:0:
330,258,229788,2,0,L|340:192,1,50.9999984436036,8|0,0:0|0:0,0:0:0:0:
170,160,229934,2,0,L|238:148,1,50.9999984436036,2|0,0:0|0:0,0:0:0:0:
435,169,230081,1,4,0:2:0:0:
496,131,230154,1,0,0:0:0:0:
496,131,230227,5,0,0:0:0:0:
435,169,230300,1,0,0:0:0:0:
230,55,230373,2,0,L|155:59,1,50.9999984436036,8|0,0:0|0:0,0:0:0:0:
315,173,230520,2,0,L|319:109,1,50.9999984436036
240,224,230666,2,0,L|245:157,1,50.9999984436036,8|0,0:0|0:0,0:0:0:0:
386,304,230812,6,0,L|396:225,1,50.9999984436036,4|8,0:2|0:0,0:0:0:0:
151,233,230959,2,0,L|154:166,1,50.9999984436036,4|8,0:2|0:0,0:0:0:0:
291,137,231105,2,0,L|358:132,1,50.9999984436036,2|0,0:0|0:0,0:0:0:0:
487,93,231251,2,0,L|417:87,1,50.9999984436036,8|0,0:0|0:0,0:0:0:0:
228,105,231398,6,0,L|225:29,1,50.9999984436036,2|0,0:0|0:0,0:0:0:0:
296,73,231544,2,0,L|299:-3,1,50.9999984436036,8|0,0:0|0:0,0:0:0:0:
217,96,231690,2,0,L|214:20,1,50.9999984436036,2|0,0:0|0:0,0:0:0:0:
405,174,231837,2,0,L|474:172,1,50.9999984436036,8|0,0:0|0:0,0:0:0:0:
166,264,231983,6,0,L|161:195,1,50.9999984436036,4|0,0:2|0:0,0:0:0:0:
310,172,232129,2,0,L|345:123,1,50.9999984436036,8|8,0:0|0:0,0:0:0:0:
177,160,232276,2,0,L|125:132,1,50.9999984436036,8|0,0:0|0:0,0:0:0:0:
334,136,232422,2,0,L|413:133,1,50.9999984436036,8|0,0:0|0:0,0:0:0:0:
42,210,232568,6,0,L|42:151,1,50.9999984436036,2|0,0:0|0:0,0:0:0:0:
220,106,232715,2,0,L|285:104,1,50.9999984436036
85,40,232861,1,2,0:0:0:0:
22,81,232934,1,0,0:0:0:0:
22,81,233007,1,0,0:0:0:0:
85,40,233080,1,0,0:0:0:0:
258,240,233154,5,4,0:0:0:0:
258,240,233227,1,0,0:0:0:0:
196,242,233300,1,0,0:0:0:0:
135,253,233373,1,0,0:0:0:0:
74,276,233446,1,0,0:0:0:0:
44,326,233519,1,0,0:0:0:0:
74,276,233592,1,8,0:0:0:0:
135,253,233665,1,0,0:0:0:0:
337,328,233739,6,0,L|281:328,1,50.9999984436036,2|0,0:0|0:0,0:0:0:0:
148,320,233885,2,0,L|97:320,1,50.9999984436036
335,249,234032,2,0,L|335:181,1,50.9999984436036,2|0,0:0|0:0,0:0:0:0:
139,168,234178,2,0,L|73:169,1,50.9999984436036
363,114,234324,6,0,L|362:59,1,50.9999984436036,2|0,0:0|0:0,0:0:0:0:
161,76,234471,2,0,L|229:76,1,50.9999984436036,8|0,0:0|0:0,0:0:0:0:
384,139,234617,2,0,L|452:139,1,50.9999984436036,2|8,0:0|0:0,0:0:0:0:
176,228,234764,2,0,L|176:292,1,50.9999984436036,8|0,0:0|0:0,0:0:0:0:
429,304,234910,6,0,L|374:303,1,50.9999984436036,2|0,0:0|0:0,0:0:0:0:
158,289,235056,2,0,L|97:289,1,50.9999984436036,2|0,0:0|0:0,0:0:0:0:
400,232,235203,2,0,L|404:177,1,50.9999984436036
149,199,235349,2,0,L|92:200,1,50.9999984436036,8|0,0:0|0:0,0:0:0:0:
394,215,235495,6,0,L|439:172,1,50.9999984436036,8|0,0:0|0:0,0:0:0:0:
208,138,235642,2,0,L|134:135,1,50.9999984436036,8|0,0:0|0:0,0:0:0:0:
214,119,235789,2,0,L|275:122,1,50.9999984436036
88,170,235935,2,0,L|20:171,1,50.9999984436036,8|0,0:0|0:0,0:0:0:0:
310,227,236081,6,0,L|378:232,1,50.9999984436036,8|0,0:0|0:0,0:0:0:0:
300,307,236228,2,0,L|237:319,1,50.9999984436036
430,89,236373,1,8,0:0:0:0:
480,130,236446,1,0,0:0:0:0:
474,195,236519,1,0,0:0:0:0:
416,225,236592,1,0,0:0:0:0:
215,217,236666,6,0,L|133:225,1,50.9999984436036,2|0,0:0|0:0,0:0:0:0:
375,291,236812,2,0,L|457:299,1,50.9999984436036
97,216,236959,1,2,0:0:0:0:
47,257,237032,1,0,0:0:0:0:
53,322,237105,1,0,0:0:0:0:
111,352,237178,1,0,0:0:0:0:
405,214,237251,6,0,L|323:214,1,50.9999984436036,2|0,0:0|0:0,0:0:0:0:
167,200,237398,2,0,L|94:200,1,50.9999984436036,8|0,0:0|0:0,0:0:0:0:
346,201,237544,2,0,L|355:139,1,50.9999984436036
154,171,237691,2,0,L|144:110,1,50.9999984436036,8|0,0:0|0:0,0:0:0:0:
454,278,237837,1,4,1:2:0:0:
141,238,239885,6,0,L|140:167,1,50.9999984436036
213,197,240032,2,0,L|212:126,1,50.9999984436036
48,104,240178,1,4,1:2:0:0:
201,205,242081,5,8,0:0:0:0:
406,160,242227,2,0,L|418:98,1,50.9999984436036
280,80,242373,2,0,L|199:80,1,50.9999984436036
410,80,242520,1,8,0:1:0:0:
113,100,243398,6,0,L|113:45,1,50.9999984436036
256,38,243544,2,0,L|331:33,1,50.9999984436036
66,28,243690,1,4,1:2:0:0:
88,44,244422,5,8,0:0:0:0:
298,125,244568,2,0,L|293:175,1,50.9999984436036
131,202,244715,2,0,L|68:201,1,50.9999984436036
291,145,244861,5,4,0:2:0:0:
347,167,244934,1,0,0:0:0:0:
381,219,245007,1,0,0:0:0:0:
381,219,245080,1,0,0:0:0:0:
347,167,245153,1,2,0:0:0:0:
289,145,245226,1,0,0:0:0:0:
123,307,245300,2,0,L|123:248,1,50.9999984436036,8|0,0:0|0:0,0:0:0:0:
174,226,245446,6,0,L|239:226,1,50.9999984436036
277,199,245593,2,0,L|277:137,1,50.9999984436036,2|0,0:0|0:0,0:0:0:0:
120,115,245739,2,0,L|47:115,1,50.9999984436036,8|0,0:0|0:0,0:0:0:0:
69,115,245885,2,0,L|120:115,1,50.9999984436036
310,173,246032,6,0,L|316:118,1,50.9999984436036,2|0,0:0|0:0,0:0:0:0:
162,86,246178,2,0,L|63:83,1,50.9999984436036,2|0,0:0|0:0,0:0:0:0:
289,59,246324,2,0,L|366:57,1,50.9999984436036,8|0,0:0|0:0,0:0:0:0:
289,59,246471,2,0,L|229:55,1,50.9999984436036,2|0,0:0|0:0,0:0:0:0:
72,161,246617,6,0,L|60:104,1,50.9999984436036,2|0,0:0|0:0,0:0:0:0:
251,83,246764,2,0,L|317:82,1,50.9999984436036,2|0,0:0|0:0,0:0:0:0:
117,203,246910,2,0,L|32:201,1,50.9999984436036,8|0,0:0|0:0,0:0:0:0:
247,250,247056,2,0,L|252:312,1,50.9999984436036,2|0,0:0|0:0,0:0:0:0:
73,262,247203,6,0,L|72:133,1,101.999996887207,4|0,0:0|0:0,0:0:0:0:
288,141,247495,1,8,0:0:0:0:
82,122,247642,1,2,0:0:0:0:
316,219,247788,2,0,L|445:218,1,101.999996887207,0|2,0:0|0:0,0:0:0:0:
211,120,248081,1,8,0:0:0:0:
418,218,248227,1,2,0:0:0:0:
183,286,248373,6,0,L|76:286,2,101.999996887207,4|0|8,1:2|0:0|0:0,0:0:0:0:
395,252,248812,2,0,L|395:354,1,101.999996887207,2|0,0:0|0:0,0:0:0:0:
173,185,249105,1,2,0:0:0:0:
378,238,249251,2,0,L|448:238,2,50.9999984436036,8|0|0,0:0|0:0|0:0,0:0:0:0:
111,293,249544,6,0,L|111:170,1,101.999996887207,4|0,1:2|0:0,0:0:0:0:
324,151,249837,1,0,0:0:0:0:
118,110,249983,2,0,L|16:110,2,101.999996887207,2|0|2,0:0|0:0|0:0,0:0:0:0:
337,202,250422,2,0,L|455:203,1,101.999996887207,8|0,0:0|0:0,0:0:0:0:
139,163,250715,6,0,L|138:51,1,101.999996887207,4|0,1:2|0:0,0:0:0:0:
343,57,251007,2,0,L|407:57,2,50.9999984436036,8|0|0,0:0|0:0|0:0,0:0:0:0:
210,135,251300,2,0,L|194:76,1,50.9999984436036,2|0,0:0|0:0,0:0:0:0:
369,185,251446,2,0,L|447:188,1,50.9999984436036,2|0,0:0|0:0,0:0:0:0:
152,256,251593,2,0,P|115:328|192:357,1,152.999995330811,8|0,0:0|0:0,0:0:0:0:
400,351,251885,5,2,0:0:0:0:
458,315,251958,1,0,0:0:0:0:
489,253,252031,1,0,0:0:0:0:
481,185,252104,1,0,0:0:0:0:
438,132,252177,1,8,0:0:0:0:
373,110,252250,1,0,0:0:0:0:
164,200,252324,2,0,L|163:139,1,50.9999984436036,2|0,0:0|0:0,0:0:0:0:
224,101,252471,5,0,0:0:0:0:
291,121,252544,1,0,0:0:0:0:
291,121,252617,1,8,0:0:0:0:
224,101,252690,1,0,0:0:0:0:
33,277,252764,2,0,L|30:335,1,50.9999984436036,2|0,0:0|0:0,0:0:0:0:
82,355,252910,2,0,L|174:351,1,50.9999984436036,8|0,0:0|0:0,0:0:0:0:
339,322,253056,5,2,0:0:0:0:
401,281,253130,1,0,0:0:0:0:
401,281,253203,1,0,0:0:0:0:
339,322,253275,1,0,0:0:0:0:
277,314,253349,1,8,0:0:0:0:
216,307,253422,1,0,0:0:0:0:
494,143,253495,1,2,0:0:0:0:
494,143,253568,1,0,0:0:0:0:
433,50,253641,5,0,0:0:0:0:
372,46,253714,1,0,0:0:0:0:
372,46,253787,1,8,0:0:0:0:
433,50,253860,1,0,0:0:0:0:
197,69,253934,2,0,L|131:70,1,50.9999984436036,2|0,0:0|0:0,0:0:0:0:
335,146,254081,2,0,L|419:147,1,50.9999984436036,8|0,0:0|0:0,0:0:0:0:
72,202,254227,6,0,L|16:202,1,50.9999984436036,2|0,0:0|0:0,0:0:0:0:
227,307,254373,2,0,L|287:308,1,50.9999984436036
329,269,254520,2,0,L|328:205,1,50.9999984436036,2|0,0:0|0:0,0:0:0:0:
277,307,254666,2,0,L|227:307,1,50.9999984436036,8|0,0:0|0:0,0:0:0:0:
416,201,254812,6,0,L|424:125,1,50.9999984436036,2|0,0:0|0:0,0:0:0:0:
176,100,254959,2,0,L|103:100,1,50.9999984436036,0|2,0:0|0:0,0:0:0:0:
353,86,255105,2,0,L|357:25,1,50.9999984436036,2|0,0:0|0:0,0:0:0:0:
144,20,255251,2,0,L|225:19,1,50.9999984436036,8|0,0:0|0:0,0:0:0:0:
430,108,255398,6,0,L|489:106,1,50.9999984436036
291,297,255544,1,0,0:0:0:0:
230,288,255617,1,0,0:0:0:0:
179,228,255690,1,2,0:0:0:0:
179,228,255763,1,0,0:0:0:0:
230,288,255836,1,8,0:0:0:0:
291,297,255909,1,0,0:0:0:0:
494,198,255983,6,0,L|494:263,1,50.9999984436036,2|0,0:0|0:0,0:0:0:0:
443,304,256129,2,0,L|375:307,1,50.9999984436036,0|2,0:0|0:0,0:0:0:0:
156,274,256276,2,0,L|94:273,1,50.9999984436036,2|0,0:0|0:0,0:0:0:0:
276,231,256422,2,0,L|285:150,1,50.9999984436036,8|2,0:0|0:0,0:0:0:0:
27,165,256568,6,0,L|115:164,1,50.9999984436036,2|0,0:0|0:0,0:0:0:0:
327,139,256715,2,0,L|325:68,1,50.9999984436036,8|8,0:0|0:0,0:0:0:0:
256,100,256861,2,0,L|254:29,1,50.9999984436036,2|0,0:0|0:0,0:0:0:0:
445,40,257007,2,0,L|496:40,1,50.9999984436036,8|0,0:0|0:0,0:0:0:0:
199,29,257154,6,0,L|138:29,1,50.9999984436036,2|0,0:0|0:0,0:0:0:0:
148,29,257300,2,0,L|199:29,1,50.9999984436036,8|8,0:0|0:0,0:0:0:0:
475,93,257446,2,0,L|485:172,1,50.9999984436036,2|0,0:0|0:0,0:0:0:0:
286,209,257593,2,0,L|218:208,1,50.9999984436036,8|0,0:0|0:0,0:0:0:0:
443,326,257739,6,0,L|493:323,1,50.9999984436036,2|0,0:0|0:0,0:0:0:0:
294,290,257885,2,0,L|298:215,1,50.9999984436036,10|8,0:0|0:0,0:0:0:0:
365,208,258032,2,0,L|361:147,1,50.9999984436036,2|0,0:0|0:0,0:0:0:0:
287,139,258178,2,0,L|293:78,1,50.9999984436036,8|0,0:1|0:0,0:0:0:0:
487,57,258324,6,0,L|492:135,1,50.9999984436036
323,183,258471,2,0,L|234:188,1,50.9999984436036,8|8,0:0|0:0,0:0:0:0:
65,157,258617,2,0,B|22:156|22:156|116:70,1,152.999995330811,6|0,0:0|0:0,0:0:0:0:
437,165,258910,6,0,L|361:165,1,50.9999984436036,8|0,0:0|0:0,0:0:0:0:
228,262,259056,2,0,L|140:262,1,50.9999984436036,8|0,0:0|0:0,0:0:0:0:
244,288,259203,2,0,L|313:288,1,50.9999984436036,2|0,0:0|0:0,0:0:0:0:
32,242,259349,2,0,L|25:186,1,50.9999984436036,8|0,0:0|0:0,0:0:0:0:
278,182,259495,6,0,L|344:182,1,50.9999984436036,8|0,0:0|0:0,0:0:0:0:
261,158,259642,2,0,L|198:158,1,50.9999984436036,2|0,0:0|0:0,0:0:0:0:
449,38,259788,2,0,L|460:107,1,50.9999984436036,10|0,1:3|0:0,0:0:0:0:
228,118,259934,2,0,L|163:118,1,50.9999984436036,8|0,0:0|0:0,0:0:0:0:
347,251,260081,6,0,L|352:323,1,55.2499974708558,10|0,0:0|0:0,0:0:0:0:
198,251,260227,2,0,L|188:325,1,55.2499974708558,8|0,0:0|0:0,0:0:0:0:
383,240,260374,2,0,L|396:303,1,55.2499974708558,8|0,1:3|0:0,0:0:0:0:
159,237,260520,2,0,L|140:308,1,55.2499974708558,2|0,0:0|0:0,0:0:0:0:
418,220,260667,2,0,L|448:284,1,55.2499974708558,8|0,1:3|0:0,0:0:0:0:
120,219,260812,2,0,L|79:269,1,55.2499974708558,8|0,0:0|0:0,0:0:0:0:
438,197,260959,2,0,L|514:234,1,55.2499974708558,10|0,0:0|0:0,0:0:0:0:
94,194,261105,2,0,L|22:194,1,55.2499974708558
436,322,261251,6,0,B|475:319|475:319|556:176|451:47|451:47|69:57|69:57|-40:186|47:319|47:319|492:332,1,1427.9999564209,4|0,0:0|0:0,0:0:0:0:
17,285,263593,6,0,P|210:293|12:145,1,611.999981323243,4|0,0:0|0:0,0:0:0:0:
423,208,264764,6,0,L|424:103,1,101.999996887207
286,74,265056,1,8,0:0:0:0:
417,63,265203,1,8,0:0:0:0:
107,211,265349,2,0,P|42:150|135:101,1,203.999993774414,4|8,0:2|0:0,0:0:0:0:
240,99,265788,1,8,0:0:0:0:
22,304,265934,6,0,P|226:305|22:65,1,713.99997821045,2|0,0:2|0:0,0:0:0:0:
77,86,267032,1,0,0:0:0:0:
310,149,267105,6,0,P|384:190|297:219,1,203.999993774414,4|8,0:1|0:0,0:0:0:0:
74,223,267544,2,0,B|73:121|73:121|202:120,1,203.999993774414,2|0,0:0|0:0,0:0:0:0:
449,43,267983,2,0,L|431:178,1,101.999996887207,8|0,0:0|0:0,0:0:0:0:
118,235,268276,6,0,L|35:236,1,50.9999984436036,2|0,0:0|0:0,0:0:0:0:
128,233,268422,2,0,L|211:234,1,50.9999984436036,8|0,0:0|0:0,0:0:0:0:
331,246,268568,2,0,L|336:318,1,50.9999984436036
142,150,268715,1,8,0:0:0:0:
81,144,268788,1,0,0:0:0:0:
81,144,268861,5,2,0:0:0:0:
142,150,268934,1,0,0:0:0:0:
328,120,269007,2,0,L|394:118,1,50.9999984436036,8|0,0:0|0:0,0:0:0:0:
172,59,269154,2,0,L|95:60,1,50.9999984436036,8|0,0:0|0:0,0:0:0:0:
186,168,269300,2,0,L|279:168,1,50.9999984436036
412,176,269446,6,0,L|412:102,1,50.9999984436036,8|0,0:0|0:0,0:0:0:0:
351,81,269593,1,0,0:0:0:0:
300,90,269666,1,0,0:0:0:0:
152,202,269739,1,8,0:0:0:0:
152,202,269812,1,0,0:0:0:0:
212,260,269885,1,0,0:0:0:0:
263,270,269958,1,0,0:0:0:0:
91,336,270032,5,2,0:0:0:0:
29,335,270105,1,0,0:0:0:0:
29,335,270178,1,2,0:0:0:0:
91,336,270251,1,2,0:0:0:0:
297,253,270324,2,0,L|378:253,1,50.9999984436036,8|0,0:0|0:0,0:0:0:0:
141,171,270471,2,0,L|82:171,1,50.9999984436036,2|0,0:0|0:0,0:0:0:0:
388,118,270617,6,0,B|420:72|420:72|384:115,1,101.999996887207,4|8,0:0|0:0,0:0:0:0:
258,26,270910,2,0,L|193:27,2,50.9999984436036,0|0|8,0:0|0:0|0:0,0:0:0:0:
473,164,271203,2,0,L|322:164,2,101.999996887207,2|8|2,0:0|0:0|0:0,0:0:0:0:
256,284,271642,2,0,B|256:182|256:182|372:182,1,203.999993774414,8|8,0:0|0:0,0:0:0:0:
126,148,272081,5,0,0:0:0:0:
75,148,272154,1,0,0:0:0:0:
24,148,272227,1,8,0:0:0:0:
230,240,272373,2,0,L|86:240,1,101.999996887207,2|8,0:0|0:0,0:0:0:0:
179,231,272593,1,8,0:0:0:0:
415,157,272666,2,0,L|415:87,1,50.9999984436036,2|0,0:0|0:0,0:0:0:0:
217,27,272812,2,0,L|145:27,1,50.9999984436036,8|0,0:0|0:0,0:0:0:0:
401,317,272959,5,6,0:0:0:0:
462,305,273032,1,0,0:0:0:0:
493,248,273105,1,8,0:0:0:0:
464,191,273178,1,8,0:0:0:0:
403,175,273251,1,2,0:0:0:0:
341,179,273325,1,0,0:0:0:0:
280,173,273398,1,8,0:0:0:0:
247,129,273471,1,0,0:0:0:0:
280,173,273544,5,2,0:0:0:0:
341,179,273617,1,0,0:0:0:0:
403,175,273690,1,8,0:0:0:0:
403,175,273764,1,0,0:0:0:0:
257,242,273837,2,0,L|257:314,1,50.9999984436036,2|0,0:0|0:0,0:0:0:0:
318,339,273983,2,0,L|410:338,1,50.9999984436036
176,357,274129,5,4,1:2:0:0:
125,357,274202,1,0,0:0:0:0:
76,358,274276,1,8,0:0:0:0:
29,355,274349,1,8,0:0:0:0:
221,234,274422,1,2,0:0:0:0:
282,237,274495,1,0,0:0:0:0:
282,237,274568,1,8,0:0:0:0:
221,234,274642,1,0,0:0:0:0:
46,211,274715,6,0,L|42:152,1,50.9999984436036,2|0,0:0|0:0,0:0:0:0:
104,121,274861,2,0,L|162:119,1,50.9999984436036,8|0,0:0|0:0,0:0:0:0:
371,107,275007,2,0,L|432:107,1,50.9999984436036,2|0,0:0|0:0,0:0:0:0:
360,98,275154,2,0,L|309:98,1,50.9999984436036
66,201,275300,6,0,B|17:192|17:192|111:177,1,101.999996887207,4|8,0:0|0:0,0:0:0:0:
198,100,275593,1,0,0:0:0:0:
249,99,275666,1,0,0:0:0:0:
198,100,275739,1,8,0:0:0:0:
69,334,275885,2,0,L|69:224,1,101.999996887207,2|8,0:0|0:0,0:0:0:0:
287,280,276178,1,2,0:0:0:0:
338,279,276251,1,0,0:0:0:0:
161,199,276324,2,0,P|88:155|161:119,1,203.999993774414,8|8,0:0|0:0,0:0:0:0:
401,146,276764,6,0,L|407:90,1,50.9999984436036,2|0,0:0|0:0,0:0:0:0:
355,62,276910,2,0,L|286:63,1,50.9999984436036,8|0,0:0|0:0,0:0:0:0:
136,111,277056,2,0,L|132:53,1,50.9999984436036,2|0,0:0|0:0,0:0:0:0:
205,60,277203,2,0,L|200:1,1,50.9999984436036,8|0,0:0|0:0,0:0:0:0:
23,219,277349,2,0,L|17:163,1,50.9999984436036,2|0,0:0|0:0,0:0:0:0:
69,135,277495,2,0,L|138:136,1,50.9999984436036,8|0,0:0|0:0,0:0:0:0:
383,232,277642,6,0,L|464:231,1,50.9999984436036,4|0,0:0|0:0,0:0:0:0:
221,198,277788,2,0,L|150:198,1,50.9999984436036,8|8,0:0|0:0,0:0:0:0:
221,198,277934,2,0,L|292:198,1,50.9999984436036,2|0,0:0|0:0,0:0:0:0:
75,121,278081,2,0,L|-6:120,1,50.9999984436036,8|0,0:0|0:0,0:0:0:0:
237,87,278227,6,0,L|308:87,1,50.9999984436036,2|0,0:0|0:0,0:0:0:0:
237,87,278373,2,0,L|166:87,1,50.9999984436036,8|0,0:0|0:0,0:0:0:0:
397,116,278520,1,2,0:0:0:0:
458,119,278593,1,0,0:0:0:0:
458,119,278666,1,8,0:0:0:0:
397,116,278739,1,0,0:0:0:0:
219,289,278812,6,0,L|230:208,1,50.9999984436036,8|0,0:1|0:0,0:0:0:0:
299,288,278959,2,0,L|289:210,1,50.9999984436036,8|0,0:0|0:0,0:0:0:0:
161,281,279105,2,0,L|144:186,1,50.9999984436036
333,281,279251,2,0,L|350:186,1,50.9999984436036,8|0,0:0|0:0,0:0:0:0:
145,262,279398,6,0,L|94:185,1,50.9999984436036,8|0,0:1|0:0,0:0:0:0:
366,262,279544,2,0,L|417:185,1,50.9999984436036,8|0,0:0|0:0,0:0:0:0:
121,260,279690,2,0,L|43:260,1,50.9999984436036,8|8,0:0|0:0,0:0:0:0:
390,263,279837,2,0,L|464:263,1,50.9999984436036,8|8,0:0|0:0,0:0:0:0:
106,187,279983,6,0,L|77:132,1,50.9999984436036,6|0,0:0|0:0,0:0:0:0:
150,124,280129,2,0,L|166:60,1,50.9999984436036,8|0,0:0|0:0,0:0:0:0:
96,53,280276,2,0,L|21:54,1,50.9999984436036
215,21,280422,1,8,0:0:0:0:
276,48,280495,1,0,0:0:0:0:
337,51,280568,5,2,0:0:0:0:
337,51,280641,1,0,0:0:0:0:
160,224,280714,1,8,0:0:0:0:
98,239,280787,1,0,0:0:0:0:
296,304,280861,1,2,0:0:0:0:
358,314,280934,1,0,0:0:0:0:
358,314,281007,1,8,0:0:0:0:
296,304,281081,1,0,0:0:0:0:
87,340,281154,5,4,1:2:0:0:
87,340,281227,1,0,0:0:0:0:
148,277,281300,1,8,0:0:0:0:
209,272,281373,1,0,0:0:0:0:
271,269,281447,1,0,0:0:0:0:
271,269,281520,1,0,0:0:0:0:
71,145,281593,2,0,L|14:145,1,50.9999984436036,8|0,0:0|0:0,0:0:0:0:
81,72,281739,5,2,0:0:0:0:
132,92,281812,1,0,0:0:0:0:
283,142,281886,1,0,0:0:0:0:
283,142,281959,1,0,0:0:0:0:
109,285,282032,1,2,0:0:0:0:
109,285,282105,1,0,0:0:0:0:
160,285,282178,1,8,0:0:0:0:
211,285,282251,1,0,0:0:0:0:
389,261,282324,5,4,0:0:0:0:
450,236,282397,1,0,0:0:0:0:
501,183,282470,1,8,0:0:0:0:
501,183,282543,1,0,0:0:0:0:
450,236,282616,1,0,0:0:0:0:
389,261,282689,1,0,0:0:0:0:
170,174,282764,2,0,L|260:170,1,50.9999984436036,8|0,0:0|0:0,0:0:0:0:
271,131,282910,6,0,L|272:73,1,50.9999984436036,2|0,0:0|0:0,0:0:0:0:
93,64,283056,2,0,L|21:65,1,50.9999984436036,8|0,0:0|0:0,0:0:0:0:
196,36,283203,2,0,L|255:36,1,50.9999984436036,2|0,0:0|0:0,0:0:0:0:
185,47,283349,2,0,L|106:47,1,50.9999984436036,8|0,0:0|0:0,0:0:0:0:
341,271,283495,6,0,L|341:213,1,50.9999984436036,4|0,1:2|0:0,0:0:0:0:
274,197,283642,2,0,L|274:132,1,50.9999984436036,8|0,0:0|0:0,0:0:0:0:
326,128,283788,2,0,L|409:128,1,50.9999984436036
181,247,283934,1,8,0:0:0:0:
120,226,284007,1,0,0:0:0:0:
69,331,284080,5,2,0:0:0:0:
69,331,284153,1,0,0:0:0:0:
225,319,284226,1,8,0:0:0:0:
229,338,284299,1,0,0:0:0:0:
91,121,284373,2,0,L|87:64,1,50.9999984436036,2|0,0:0|0:0,0:0:0:0:
248,42,284520,1,0,0:0:0:0:
309,42,284593,1,0,0:0:0:0:
482,89,284666,6,0,L|481:169,1,50.9999984436036,4|0,0:0|0:0,0:0:0:0:
432,171,284812,1,8,0:0:0:0:
371,203,284885,1,0,0:0:0:0:
371,203,284958,1,0,0:0:0:0:
432,171,285031,1,0,0:0:0:0:
262,211,285105,1,8,0:0:0:0:
201,207,285178,1,0,0:0:0:0:
201,207,285251,5,0,0:0:0:0:
262,211,285324,1,0,0:0:0:0:
424,237,285398,2,0,L|434:318,1,50.9999984436036,8|0,0:0|0:0,0:0:0:0:
242,318,285544,1,2,0:0:0:0:
192,318,285617,1,0,0:0:0:0:
351,270,285690,2,0,L|355:191,1,50.9999984436036,8|0,0:0|0:0,0:0:0:0:
162,153,285837,6,0,L|90:153,1,50.9999984436036,4|0,1:2|0:0,0:0:0:0:
111,153,285983,2,0,L|162:153,1,50.9999984436036,8|0,0:0|0:0,0:0:0:0:
213,120,286129,2,0,L|275:120,1,50.9999984436036
95,81,286276,2,0,L|91:29,1,50.9999984436036,8|0,0:0|0:0,0:0:0:0:
313,34,286422,6,0,L|375:33,1,50.9999984436036,2|0,0:0|3:0,0:0:0:0:
164,20,286568,2,0,L|90:20,1,50.9999984436036,8|0,3:0|0:0,0:0:0:0:
356,126,286715,1,2,0:0:0:0:
417,126,286788,1,0,0:0:0:0:
417,126,286861,1,8,0:0:0:0:
356,126,286934,1,0,0:0:0:0:
147,193,287007,5,6,0:0:0:0:
208,191,287080,1,0,0:0:0:0:
270,186,287154,1,0,0:0:0:0:
331,239,287227,1,0,0:0:0:0:
331,239,287300,1,8,0:0:0:0:
270,186,287373,1,0,0:0:0:0:
18,216,287446,2,0,L|19:148,1,50.9999984436036,6|0,0:0|0:0,0:0:0:0:
71,160,287593,5,0,0:0:0:0:
132,118,287666,1,0,0:0:0:0:
132,118,287739,1,8,0:0:0:0:
71,160,287812,1,0,0:0:0:0:
249,126,287885,2,0,L|320:126,1,50.9999984436036,8|0,0:0|0:0,0:0:0:0:
98,103,288032,2,0,L|93:45,1,50.9999984436036
376,54,288178,5,2,0:0:0:0:
480,159,288324,1,8,0:0:0:0:
480,159,288397,1,8,0:0:0:0:
419,156,288470,1,2,0:0:0:0:
210,150,288617,1,8,0:0:0:0:
341,276,288764,2,0,L|407:276,2,50.9999984436036,8|0|8,0:0|0:0|0:0,0:0:0:0:
238,244,289056,1,2,0:0:0:0:
364,201,289203,1,0,0:0:0:0:
85,338,289349,6,0,P|26:285|176:252,1,305.999990661621,4|8,0:0|0:0,0:0:0:0:
385,298,289934,2,0,B|527:204|315:147,1,203.999993774414,2|2,0:0|0:0,0:0:0:0:
227,164,290373,1,0,0:0:0:0:
175,164,290446,1,8,0:0:0:0:
380,85,290520,6,0,L|508:86,1,101.999996887207,2|0,0:0|0:0,0:0:0:0:
275,38,290812,2,0,L|147:39,1,101.999996887207,2|0,0:0|0:0,0:0:0:0:
402,192,291105,2,0,L|402:303,1,101.999996887207,8|0,0:0|0:0,0:0:0:0:
142,296,291398,2,0,L|9:296,1,101.999996887207,8|0,0:0|0:0,0:0:0:0:
363,228,291690,6,0,P|409:187|330:151,1,152.999995330811,4|0,0:0|0:0,0:0:0:0:
80,172,291983,1,8,0:0:0:0:
80,172,292056,1,0,0:0:0:0:
131,168,292129,1,8,0:0:0:0:
453,92,292276,2,0,L|453:264,1,152.999995330811,4|0,0:2|0:0,0:0:0:0:
187,286,292568,1,8,0:0:0:0:
135,272,292642,1,0,0:0:0:0:
187,286,292714,1,8,0:0:0:0:
453,289,292861,6,0,B|502:233|442:161|442:161|245:114,1,305.999990661621,8|0,0:0|0:0,0:0:0:0:
232,120,293373,1,0,0:0:0:0:
416,115,293446,2,0,L|448:2,1,101.999996887207,2|0,0:0|0:0,0:0:0:0:
208,252,293739,2,0,L|96:252,1,101.999996887207,2|0,0:0|0:0,0:0:0:0:
482,382,294032,6,0,L|49:-65,1,611.999981323243,4|0,0:2|0:0,0:0:0:0:
175,222,295051,5,2,0:0:0:0:
223,216,295126,1,0,0:0:0:0:
270,212,295201,1,8,0:0:0:0:
45,117,295356,2,0,B|45:218|45:218|162:218,1,203.999993774414,0|8,0:0|0:0,0:0:0:0:
404,248,295998,1,0,0:0:0:0:
281,262,296194,1,8,0:0:0:0:
404,248,296414,1,0,0:0:0:0:
16,313,296650,6,0,L|425:313,1,374.000011413575,4|2,0:0|0:0,0:0:0:0:
96,222,298152,1,8,0:0:0:0:
227,203,298520,1,0,0:0:0:0:
404,150,298893,1,8,0:0:0:0:
285,107,299351,1,0,0:0:0:0:
16,89,299906,1,4,0:0:0:0:
256,192,300074,12,4,309344,0:3:0:0:
