osu file format v14

[General]
AudioFilename: audio.mp3
AudioLeadIn: 0
PreviewTime: 124568
Countdown: 1
SampleSet: None
StackLeniency: 0.7
Mode: 2
LetterboxInBreaks: 0
WidescreenStoryboard: 0

[Editor]
Bookmarks: 76276,260959
DistanceSpacing: 1.4
BeatDivisor: 4
GridSize: 4
TimelineZoom: 2.4

[Metadata]
Title:Road of Resistance
TitleUnicode:Road of Resistance
Artist:BABYMETAL
ArtistUnicode:BABYMETAL
Creator:[_-Kukkai-_]
Version:Marathon
Source:
Tags:dragonforce herman li sam totman ktsune suzuka nakamoto yui mizuno moa kikuchi su-metal yuimetal moametal
BeatmapID:1947828
BeatmapSetID:932959

[Difficulty]
HPDrainRate:6
CircleSize:4.2
OverallDifficulty:9.5
ApproachRate:9.5
SliderMultiplier:2
SliderTickRate:1

[Events]
//Background and Video events
0,0,"cropped-1920-1200-882994 (1).jpg",0,0
//Break Periods
2,47354,53507
//Storyboard Layer 0 (Background)
//Storyboard Layer 1 (Fail)
//Storyboard Layer 2 (Pass)
//Storyboard Layer 3 (Foreground)
//Storyboard Sound Samples

[TimingPoints]
1091,301.507537688442,4,1,5,50,1,0
4709,-125,4,1,5,50,0,0
4710,-125,4,3,1,70,0,0
7064,291.26213592233,4,3,1,70,1,0
7064,-125,4,3,1,70,0,0
8520,293.398533007335,4,3,1,70,1,8
8520,-125,4,3,1,70,0,8
9400,298.507462686567,4,3,1,70,1,0
9400,-125,4,3,1,70,0,0
11743,291.26213592233,4,3,1,70,1,0
11743,-125,4,3,1,70,0,0
12908,292.682926829268,4,3,1,70,1,0
14078,-125,4,3,1,70,0,0
15249,296.73590504451,4,3,0,70,1,0
16422,294.117647058824,4,3,1,70,1,0
16422,-125,4,3,1,70,0,0
17598,292.682926829268,4,3,1,70,1,0
18183,-125,4,3,0,70,0,0
18573,-125,4,2,0,5,0,0
18768,-125,4,3,1,70,0,0
19793,310.880829015544,4,3,1,70,1,8
19948,287.081339712919,4,3,1,70,1,0
20378,292.682926829268,4,3,1,70,1,8
21109,292.682926829268,4,3,1,70,1,0
21109,-125,4,3,1,70,0,0
22279,-100,4,3,1,70,0,0
22865,-100,4,3,0,70,0,0
23157,-100,4,3,1,70,0,0
32230,300,4,3,1,70,1,8
32529,292.682926829268,4,3,1,70,1,8
32822,292.682926829268,4,3,1,70,1,0
37504,290.556900726392,4,3,1,70,1,0
38666,292.682926829268,4,3,1,70,1,0
39836,-100,4,3,1,50,0,0
41600,324.324324324324,4,3,1,50,1,8
41924,401.33779264214,4,3,1,50,1,8
42325,292.682926829268,4,3,1,70,1,0
45837,-100,4,3,1,50,0,0
46129,-100,4,3,1,40,0,0
46422,-100,4,3,1,30,0,0
46715,-100,4,3,1,20,0,0
47007,-100,4,3,1,10,0,0
47154,-100,4,3,1,50,0,0
54032,-100,4,3,1,25,0,0
54325,-100,4,3,1,35,0,0
54617,-100,4,3,1,45,0,0
54910,-100,4,3,1,55,0,0
55056,-100,4,3,1,10,0,0
55203,-100,4,3,1,70,0,0
57544,-100,4,3,1,85,0,0
76276,-100,4,3,1,75,0,0
76422,-100,4,3,1,75,0,0
103202,-100,4,3,0,70,0,0
103276,-100,4,3,1,75,0,0
113446,-100,4,1,5,70,0,0
113739,-100,4,3,1,75,0,0
123690,-100,4,3,0,70,0,0
123763,-100,4,3,1,70,0,0
124276,-100,4,3,0,70,0,0
124861,-100,4,3,1,70,0,0
125446,-90.9090909090909,4,3,2,85,0,1
157642,-100,4,3,2,85,0,1
157934,-100,4,3,2,85,0,1
158227,-100,4,3,1,70,0,1
160568,-100,4,2,0,80,0,1
161154,-100,4,1,5,80,0,1
161739,-100,4,3,2,80,0,1
162910,-100,4,3,2,70,0,0
172276,-90.9090909090909,4,3,2,85,0,0
176666,-100,4,3,2,85,0,0
176959,-90.9090909090909,4,3,2,90,0,0
179300,-100,4,3,2,70,0,0
181056,-100,4,3,0,70,0,0
181203,-100,4,3,2,70,0,0
181349,-100,4,3,0,70,0,0
181495,-100,4,3,2,70,0,0
181642,-125,4,1,5,70,0,0
185154,-100,4,1,5,70,0,0
186324,-125,4,1,5,70,0,0
189837,-100,4,3,1,70,0,0
191007,-100,4,3,2,55,0,0
195690,-100,4,3,2,70,0,0
200373,-100,4,3,2,80,0,0
227885,-100,4,1,5,70,0,0
227959,-100,4,3,2,80,0,0
228471,-90.9090909090909,4,3,2,80,0,1
229642,-90.9090909090909,4,3,2,80,0,1
237837,-100,4,3,2,65,0,0
244861,-100,4,3,2,70,0,0
247203,-90.9090909090909,4,3,2,80,0,0
258910,-90.9090909090909,4,3,2,90,0,1
261251,-83.3333333333333,4,2,5,70,0,0
264763,-100,4,3,1,70,0,0
265056,-100,4,3,1,70,0,0
267105,-50,4,3,1,70,0,0
267544,-100,4,3,1,70,0,0
267690,-100,4,3,2,70,0,0
268276,-83.3333333333333,4,3,2,70,0,0
269446,-83.3333333333333,4,3,0,70,0,0
269520,-83.3333333333333,4,3,2,70,0,0
270617,-90.9090909090909,4,3,2,85,0,1
279983,-90.9090909090909,4,3,2,85,0,1
282324,-90.9090909090909,4,3,2,85,0,1
284666,-90.9090909090909,4,3,2,85,0,1
287007,-90.9090909090909,4,3,2,85,0,1
287885,-90.9090909090909,4,3,0,85,0,1
288178,-90.9090909090909,4,3,2,80,0,1
288763,-90.9090909090909,4,3,0,80,0,1
288764,-90.9090909090909,4,3,0,80,0,1
288837,-90.9090909090909,4,3,2,80,0,1
289056,-90.9090909090909,4,3,2,80,0,1
289349,-90.9090909090909,4,3,2,80,0,0
291690,-90.9090909090909,4,3,2,80,0,0
292568,-90.9090909090909,4,3,0,70,0,0
292861,-90.9090909090909,4,3,0,70,0,0
293007,-90.9090909090909,4,3,2,70,0,0
293446,-90.9090909090909,4,3,1,70,0,0
294032,-90.9090909090909,4,1,5,70,0,0
294617,-90.9090909090909,4,3,2,70,0,0
294910,283.018867924528,4,3,2,70,1,0
295051,300,4,3,1,70,1,8
295202,307.692307692308,4,3,1,70,1,0
295356,287.081339712919,4,3,1,70,1,8
295643,355.029585798817,4,3,0,70,1,8
295998,392.156862745098,4,3,1,70,1,8
296194,441.176470588235,4,3,1,70,1,8
296414,472.44094488189,4,3,1,70,1,8
296650,800,4,3,1,70,1,0
297450,703.812316715542,4,3,1,70,1,8
298152,736.196319018405,4,3,2,70,1,8
298520,745.341614906832,4,3,2,70,1,8
298893,916.030534351145,4,3,2,70,1,8
299351,1111.11111111111,4,3,2,70,1,8
299906,337.078651685393,4,3,1,70,1,1
309344,-100,4,3,1,90,0,0
310523,-100,4,3,1,40,0,0

[HitObjects]
256,192,1091,12,2,4106,0:0:0:0:
480,304,4709,6,0,L|228:304,2,240,4|0|0,0:0|0:0|0:0,0:0:0:0:
88,228,6141,1,0,3:0:0:0:
328,232,6442,2,0,L|328:68,1,160,0|0,3:0|3:0,0:0:0:0:
32,304,7064,6,0,L|284:304,2,240,4|0|0,0:2|0:0|0:0,0:0:0:0:
428,188,8520,5,0,0:0:0:0:
128,184,8740,1,0,0:0:0:0:
428,188,8960,1,0,0:0:0:0:
68,184,9400,6,0,L|344:184,2,240,4|0|0,0:0|0:0|0:0,0:0:0:0:
352,344,10817,1,0,0:0:0:0:
152,332,11116,2,0,L|152:160,1,160,0|0,0:0|0:0,0:0:0:0:
436,180,11743,6,0,L|192:180,2,240,4|0|0,0:2|0:0|0:0,0:0:0:0:
64,348,12908,5,0,0:0:0:0:
248,240,13200,2,0,L|132:240,1,100,0|2,1:0|2:3,0:0:0:0:
448,348,13493,1,8,1:3:0:0:
264,240,13785,2,0,L|380:240,1,100,8|0,0:0|0:0,0:0:0:0:
80,240,14078,6,0,L|356:240,2,240,4|0|8,0:0|0:0|0:0,0:0:0:0:
24,240,15054,1,0,0:0:0:0:
80,240,15151,1,0,0:0:0:0:
392,240,15249,5,10,0:0:0:0:
92,156,15694,1,8,0:3:0:0:
392,240,16139,1,0,0:0:0:0:
44,236,16422,6,0,L|292:236,2,240,4|0|0,0:0|0:0|0:0,0:0:0:0:
412,240,17598,6,0,P|448:176|400:148,1,133.333333333333,8|0,0:0|0:0,0:0:0:0:
184,144,17890,2,0,L|112:144,1,66.6666666666667,10|0,0:0|0:0,0:0:0:0:
308,356,18085,1,0,0:0:0:0:
367,334,18182,1,8,0:0:0:0:
374,271,18280,1,0,0:0:0:0:
320,238,18377,1,0,0:0:0:0:
208,232,18476,2,0,L|144:232,2,53.3333333333333,8|0|0,0:0|0:0|0:0,0:0:0:0:
456,128,18768,6,0,L|204:128,2,240,4|0|0,0:2|0:0|0:0,0:0:0:0:
364,124,19793,2,0,L|308:124,1,50,0|0,0:0|0:0,0:0:0:0:
160,348,19948,2,0,L|396:348,1,200,8|2,0:0|0:0,0:0:0:0:
116,272,20378,2,0,L|352:272,1,200,8|2,0:0|0:0,0:0:0:0:
60,236,20817,2,0,L|44:100,1,100,8|0,0:0|0:0,0:0:0:0:
424,128,21109,6,0,L|176:128,2,240,2|0|0,0:0|0:0|0:0,0:0:0:0:
480,128,22084,1,0,0:0:0:0:
424,128,22182,1,0,0:0:0:0:
256,356,22279,6,0,L|256:268,1,50,8|0,0:0|0:0,0:0:0:0:
328,272,22426,2,0,L|328:208,1,50,0|0,0:0|0:0,0:0:0:0:
164,164,22572,2,0,L|96:164,1,50,8|0,0:0|0:0,0:0:0:0:
164,164,22718,2,0,L|240:164,1,50,0|0,0:0|0:0,0:0:0:0:
76,352,22865,2,0,L|52:288,1,50,8|0,0:0|0:0,0:0:0:0:
232,272,23011,2,0,L|244:216,1,50,0|0,0:0|0:0,0:0:0:0:
76,352,23157,2,0,L|4:352,1,50,8|0,0:0|0:0,0:0:0:0:
232,272,23303,2,0,L|292:272,1,50,0|0,0:0|0:0,0:0:0:0:
68,204,23450,6,0,L|12:204,2,50,0|0|0,0:0|0:0|0:0,0:0:0:0:
228,200,23743,2,0,L|284:200,2,50,0|0|2,0:0|0:0|0:0,0:0:0:0:
124,192,24035,1,0,0:0:0:0:
284,344,24182,1,8,0:0:0:0:
172,272,24328,2,0,L|104:272,2,50,0|0|0,0:0|0:0|0:0,0:0:0:0:
432,264,24621,5,4,0:1:0:0:
188,80,24913,1,0,0:0:0:0:
188,80,25206,2,0,L|392:80,1,200,0|0,0:0|0:0,0:0:0:0:
160,344,25791,6,0,L|88:344,2,50,8|0|0,0:0|0:0|0:0,0:0:0:0:
320,268,26084,2,0,L|372:268,2,50,0|0|10,0:0|0:0|0:0,0:0:0:0:
216,264,26377,1,0,0:0:0:0:
364,184,26523,1,8,0:0:0:0:
260,184,26669,2,0,L|210:184,2,50,0|0|0,0:0|0:0|0:0,0:0:0:0:
488,184,26962,5,4,0:1:0:0:
248,356,27401,2,0,L|248:306,1,50,0|0,0:0|0:0,0:0:0:0:
424,284,27548,1,2,0:0:0:0:
151,292,27694,2,0,P|67:219|149:144,1,250,8|0,0:0|0:0,0:0:0:0:
396,140,28133,6,0,L|446:140,2,50,4|0|0,0:2|0:0|0:0,0:0:0:0:
176,132,28426,2,0,L|126:132,2,50,8|0|2,0:0|0:0|0:0,0:0:0:0:
280,132,28718,1,0,0:0:0:0:
124,48,28865,1,0,0:0:0:0:
368,52,29011,2,0,L|418:52,2,50,0|0|0,0:0|0:0|0:0,0:0:0:0:
120,60,29304,5,4,0:1:0:0:
348,352,29596,2,0,L|140:352,2,200,0|0|0,0:0|0:0|0:0,0:0:0:0:
148,252,30474,6,0,L|76:252,2,50,4|0|2,0:2|0:0|0:0,0:0:0:0:
372,248,30767,2,0,L|432:248,2,50,0|0|2,0:0|0:0|0:0,0:0:0:0:
268,240,31060,1,0,0:0:0:0:
424,164,31206,1,2,0:0:0:0:
160,152,31352,2,0,L|92:152,2,50,8|0|0,0:0|0:0|0:0,0:0:0:0:
432,144,31645,5,4,0:1:0:0:
140,352,32084,2,0,L|140:292,1,50,0|0,0:0|0:0,0:0:0:0:
324,288,32230,2,0,L|460:288,1,100,8|0,0:0|0:0,0:0:0:0:
192,200,32529,2,0,L|68:200,1,100,8|2,0:0|0:0,0:0:0:0:
348,192,32821,6,0,L|408:192,2,50,4|0|0,0:2|0:0|0:0,0:0:0:0:
92,312,33114,2,0,L|16:312,2,50,8|0|2,0:0|0:0|0:0,0:0:0:0:
244,304,33407,1,0,0:0:0:0:
96,232,33553,1,2,0:0:0:0:
344,228,33700,2,0,L|400:228,2,50,8|0|0,0:0|0:0|0:0,0:0:0:0:
112,224,33992,5,4,0:1:0:0:
308,144,34285,1,0,0:0:0:0:
308,144,34578,2,0,L|96:144,1,200,0|0,0:0|0:0,0:0:0:0:
356,344,35163,6,0,L|416:344,2,50,4|0|0,0:2|0:0|0:0,0:0:0:0:
120,344,35456,2,0,L|56:344,2,50,8|0|2,0:0|0:0|0:0,0:0:0:0:
272,276,35748,1,0,0:0:0:0:
120,276,35895,1,2,0:0:0:0:
376,200,36041,2,0,L|440:200,2,50,8|0|0,0:0|0:0|0:0,0:0:0:0:
96,192,36334,5,4,0:1:0:0:
352,344,36773,2,0,L|352:272,1,50,2|0,0:0|0:0,0:0:0:0:
200,224,36919,2,0,L|308:224,1,100,8|2,0:0|0:0,0:0:0:0:
72,224,37212,2,0,P|32:176|92:116,1,150,0|0,0:0|0:0,0:0:0:0:
328,352,37504,5,4,0:2:0:0:
378,352,37576,1,0,0:0:0:0:
428,352,37649,1,0,0:0:0:0:
208,276,37794,1,8,0:0:0:0:
158,276,37866,1,0,0:0:0:0:
108,276,37939,1,2,0:0:0:0:
260,196,38085,1,0,0:0:0:0:
108,208,38230,1,2,0:0:0:0:
384,196,38375,2,0,L|440:196,2,50,8|0|0,0:0|0:0|0:0,0:0:0:0:
112,140,38666,5,4,0:1:0:0:
360,352,39105,2,0,L|360:284,1,50,2|0,0:0|0:0,0:0:0:0:
144,284,39251,2,0,L|32:284,1,100,8|2,0:0|0:0,0:0:0:0:
304,200,39544,2,0,L|424:200,1,100,0|0,0:0|0:0,0:0:0:0:
156,188,39836,5,4,0:0:0:0:
308,176,39983,1,0,0:0:0:0:
358,176,40056,1,0,0:0:0:0:
408,176,40129,1,8,0:0:0:0:
124,184,40275,1,4,0:0:0:0:
276,172,40422,1,0,0:0:0:0:
326,172,40495,1,0,0:0:0:0:
368,124,40568,1,8,0:0:0:0:
92,180,40714,1,4,0:0:0:0:
244,168,40861,1,0,0:0:0:0:
294,168,40934,1,0,0:0:0:0:
324,112,41007,5,8,0:0:0:0:
60,184,41153,1,4,0:0:0:0:
212,172,41300,1,0,0:0:0:0:
262,172,41373,1,0,0:0:0:0:
264,112,41446,1,8,0:0:0:0:
36,368,41600,2,0,L|36:240,1,100,4|0,0:0|0:0,0:0:0:0:
196,256,41924,5,4,0:0:0:0:
132,256,42024,1,0,0:0:0:0:
72,256,42124,1,0,0:0:0:0:
452,248,42325,1,12,0:0:0:0:
256,192,42471,12,0,47154,1:0:0:0:
256,192,54032,12,0,55056,0:0:0:0:
128,364,55203,6,0,L|72:356,1,50,2|0,0:0|0:0,0:0:0:0:
284,352,55349,1,0,0:0:0:0:
291,304,55422,1,0,0:0:0:0:
259,268,55495,1,8,0:0:0:0:
211,271,55568,1,0,0:0:0:0:
392,156,55642,2,0,L|460:156,1,50,2|0,0:0|0:0,0:0:0:0:
192,160,55788,5,0,0:0:0:0:
148,140,55861,1,0,0:0:0:0:
147,93,55934,1,8,0:0:0:0:
189,72,56007,1,0,0:0:0:0:
372,308,56081,2,0,P|420:276|368:220,1,150,6|0,0:2|0:0,0:0:0:0:
168,216,56373,6,0,B|68:216|68:216|120:216,1,150,8|0,0:0|0:0,0:0:0:0:
344,216,56666,2,0,B|444:216|444:216|392:216,1,150,8|0,0:0|0:0,0:0:0:0:
116,216,56959,2,0,P|52:200|32:116,1,150,8|0,0:0|0:0,0:0:0:0:
396,216,57251,2,0,P|460:200|480:116,1,150,8|0,0:0|0:0,0:0:0:0:
164,124,57544,6,0,L|56:124,2,100,4|0|8,0:2|0:0|0:0,0:0:0:0:
420,340,57983,1,2,0:0:0:0:
288,344,58129,1,8,0:0:0:0:
420,340,58276,1,2,0:0:0:0:
116,340,58422,2,0,L|116:196,1,100,8|0,0:0|0:0,0:0:0:0:
372,224,58715,6,0,L|480:224,2,100,4|0|8,0:2|0:0|0:0,0:0:0:0:
80,224,59154,1,2,0:0:0:0:
220,224,59300,1,8,0:0:0:0:
80,224,59446,1,2,0:0:0:0:
384,228,59593,2,0,L|384:112,1,100,8|0,0:0|0:0,0:0:0:0:
144,112,59885,6,0,L|36:112,2,100,4|0|8,0:2|0:0|0:0,0:0:0:0:
416,356,60324,1,2,0:0:0:0:
280,300,60471,1,0,0:0:0:0:
235,282,60544,1,0,0:0:0:0:
234,235,60617,1,2,0:0:0:0:
276,214,60690,1,0,0:0:0:0:
448,200,60764,2,0,L|504:200,2,50,8|0|0,0:0|0:0|0:0,0:0:0:0:
168,200,61056,6,0,L|68:200,1,100,4|0,0:2|0:0,0:0:0:0:
356,196,61349,1,0,0:0:0:0:
224,124,61495,1,4,0:2:0:0:
360,128,61642,2,0,L|460:128,3,100,0|0|8|0,0:0|0:0|0:0|0:0,0:0:0:0:
208,368,62227,6,0,L|208:288,1,50,6|0,0:2|0:0,0:0:0:0:
276,292,62373,2,0,L|276:232,1,50,0|0,1:0|1:0,0:0:0:0:
132,236,62520,2,0,L|132:168,1,50,8|0,0:0|0:0,0:0:0:0:
288,204,62666,2,0,L|288:140,1,50,8|0,0:0|0:0,0:0:0:0:
228,124,62812,6,0,L|288:124,1,50,2|0,0:0|0:0,0:0:0:0:
420,124,62959,2,0,L|480:124,1,50,0|0,1:0|1:0,0:0:0:0:
264,364,63105,2,0,L|200:364,1,50,8|0,0:0|0:0,0:0:0:0:
276,312,63251,2,0,L|276:252,1,50,8|0,0:0|0:0,0:0:0:0:
68,208,63398,6,0,L|0:208,1,50,2|0,0:0|0:0,0:0:0:0:
192,212,63544,2,0,L|272:212,1,50,0|0,1:0|1:0,0:0:0:0:
180,196,63690,2,0,L|180:128,1,50,8|0,0:0|0:0,0:0:0:0:
372,200,63837,2,0,L|288:172,1,50,8|0,0:0|0:0,0:0:0:0:
80,220,63983,6,0,L|20:212,1,50,2|0,0:0|0:0,0:0:0:0:
240,160,64129,2,0,L|320:140,1,50,0|0,1:0|1:0,0:0:0:0:
16,148,64276,2,0,L|96:132,1,50,8|0,0:0|0:0,0:0:0:0:
248,92,64422,2,0,L|316:76,1,50,8|0,0:0|0:0,0:0:0:0:
124,344,64568,6,0,L|124:268,1,50,6|0,0:0|0:0,0:0:0:0:
184,268,64715,2,0,L|184:196,1,50,2|0,0:0|0:0,0:0:0:0:
132,172,64861,2,0,L|68:172,1,50,8|0,0:0|0:0,0:0:0:0:
264,172,65007,6,0,L|336:172,1,50,8|0,0:0|0:0,0:0:0:0:
172,172,65154,2,0,L|172:92,1,50,6|0,0:0|0:0,0:0:0:0:
228,96,65300,2,0,L|228:36,1,50,2|0,0:0|0:0,0:0:0:0:
80,36,65446,2,0,L|12:36,1,50,8|0,0:0|0:0,0:0:0:0:
284,364,65593,2,0,L|356:364,1,50,8|0,0:0|0:0,0:0:0:0:
128,292,65739,5,14,0:0:0:0:
88,267,65812,1,0,0:0:0:0:
91,220,65885,1,0,0:0:0:0:
135,202,65958,1,0,0:0:0:0:
228,204,66032,1,10,0:0:0:0:
250,160,66105,1,0,0:0:0:0:
226,119,66178,1,0,0:0:0:0:
178,117,66251,1,0,0:0:0:0:
392,208,66324,5,10,0:0:0:0:
437,192,66397,1,0,0:0:0:0:
437,145,66470,1,0,0:0:0:0:
394,128,66543,1,0,0:0:0:0:
248,116,66617,2,0,L|192:116,1,50,10|0,0:0|0:0,0:0:0:0:
372,68,66764,2,0,L|440:68,1,50,0|0,0:0|0:0,0:0:0:0:
200,360,66910,6,0,L|80:360,2,100,4|0|0,0:0|0:0|0:0,0:0:0:0:
444,176,67349,1,2,0:0:0:0:
312,172,67495,1,8,0:0:0:0:
444,176,67642,1,0,0:0:0:0:
392,176,67715,1,0,0:0:0:0:
108,176,67788,2,0,L|40:176,2,50,8|0|0,0:0|0:0|0:0,0:0:0:0:
344,356,68081,6,0,L|464:356,2,100,4|8|0,0:2|0:0|0:0,0:0:0:0:
40,172,68520,1,2,0:0:0:0:
172,172,68666,1,8,0:0:0:0:
40,172,68812,1,0,0:0:0:0:
92,172,68886,1,0,0:0:0:0:
388,176,68959,2,0,L|456:176,2,50,8|0|0,0:0|0:0|0:0,0:0:0:0:
120,368,69251,6,0,L|4:368,2,100,4|8|0,0:2|0:0|0:0,0:0:0:0:
408,364,69690,1,2,0:0:0:0:
272,364,69837,1,8,0:0:0:0:
340,364,69910,1,0,0:0:0:0:
408,304,69983,2,0,L|428:252,1,50,0|0,0:0|0:0,0:0:0:0:
244,244,70129,2,0,L|108:244,1,100,8|0,0:0|0:0,0:0:0:0:
280,244,70422,6,0,L|392:244,1,100,4|8,0:2|0:0,0:0:0:0:
164,136,70715,2,0,L|152:44,1,50,0|0,0:0|0:0,0:0:0:0:
332,360,70861,2,0,L|384:340,1,50,4|0,0:2|0:0,0:0:0:0:
296,304,71007,2,0,L|252:276,1,50,0|0,0:0|0:0,0:0:0:0:
320,236,71154,2,0,L|400:236,1,50,2|0,0:0|0:0,0:0:0:0:
370,236,71300,2,0,L|302:236,1,50,8|0,0:0|0:0,0:0:0:0:
96,104,71446,2,0,L|172:132,1,50,0|0,0:0|0:0,0:0:0:0:
352,368,71593,6,0,L|352:288,1,50,8|0,0:0|0:0,0:0:0:0:
288,296,71739,2,0,L|288:220,1,50,0|0,0:0|0:0,0:0:0:0:
352,216,71885,2,0,L|408:216,1,50,0|0,0:0|0:0,0:0:0:0:
220,212,72032,2,0,L|124:212,1,50,2|0,0:0|0:0,0:0:0:0:
352,144,72178,6,0,L|352:76,1,50,8|0,0:0|0:0,0:0:0:0:
296,72,72324,2,0,L|200:72,1,50,8|0,0:0|0:0,0:0:0:0:
436,352,72471,2,0,L|472:292,1,50,2|0,0:0|0:0,0:0:0:0:
276,292,72617,2,0,L|208:292,1,50,2|0,0:0|0:0,0:0:0:0:
276,232,72764,6,0,L|352:232,1,50,8|0,0:0|0:0,0:0:0:0:
128,192,72910,1,2,0:0:0:0:
79,185,72983,1,0,0:0:0:0:
35,162,73056,1,0,1:0:0:0:
2,125,73129,1,0,0:0:0:0:
248,364,73203,2,0,L|248:276,1,50,8|0,0:0|0:0,0:0:0:0:
184,296,73349,6,0,L|184:232,1,50,0|0,1:0|0:0,0:0:0:0:
252,208,73495,2,0,L|328:204,1,50,2|0,0:0|0:0,0:0:0:0:
128,144,73642,2,0,L|60:144,1,50,8|0,0:0|0:0,0:0:0:0:
312,124,73788,2,0,L|380:124,1,50,2|0,0:0|0:0,0:0:0:0:
100,364,73934,6,0,L|40:364,1,50,8|0,0:0|0:0,0:0:0:0:
204,304,74081,2,0,L|286:304,1,50,2|0,0:0|0:0,0:0:0:0:
416,304,74227,2,0,L|496:304,1,50,2|0,0:0|0:0,0:0:0:0:
136,256,74373,2,0,L|112:192,1,50,8|0,0:0|0:0,0:0:0:0:
256,188,74520,6,0,L|324:176,1,50,2|0,0:0|0:0,0:0:0:0:
480,144,74666,2,0,L|496:80,1,50,2|0,0:0|0:0,0:0:0:0:
232,292,74812,1,8,0:0:0:0:
188,271,74885,1,0,0:0:0:0:
184,224,74958,1,8,0:0:0:0:
222,196,75031,1,0,0:0:0:0:
388,188,75105,6,0,L|464:188,1,50,2|0,0:0|0:0,0:0:0:0:
388,188,75251,2,0,L|320:188,1,50,0|0,0:0|0:0,0:0:0:0:
156,120,75398,2,0,L|80:120,1,50,8|0,0:0|0:0,0:0:0:0:
156,120,75544,2,0,L|232:120,1,50,0|0,0:0|0:0,0:0:0:0:
432,352,75690,6,0,L|444:284,1,50,4|0,0:2|0:0,0:0:0:0:
252,292,75837,2,0,L|236:236,1,50,0|0,0:0|0:0,0:0:0:0:
316,220,75983,2,0,L|340:144,1,50,0|0,0:0|0:0,0:0:0:0:
160,160,76129,2,0,L|96:136,1,50,0|0,0:0|0:0,0:0:0:0:
352,368,76276,6,0,L|420:272,1,100,4|0,0:0|0:0,0:0:0:0:
300,276,76568,2,0,L|240:276,2,50,0|0|2,0:0|0:0|0:0,0:0:0:0:
424,164,76861,2,0,L|296:164,2,100,8|2|8,0:0|0:0|0:0,0:0:0:0:
128,368,77300,1,2,0:0:0:0:
272,364,77446,6,0,L|272:236,1,100,8|0,0:0|0:0,0:0:0:0:
140,264,77739,2,0,L|72:264,1,50,2|0,0:0|0:0,0:0:0:0:
140,264,77885,2,0,L|264:264,1,100,10|0,0:0|0:0,0:0:0:0:
92,184,78178,2,0,L|228:184,2,100,2|8|2,0:0|0:0|0:0,0:0:0:0:
372,360,78617,6,0,L|492:360,1,100,4|0,0:0|0:0,0:0:0:0:
336,268,78910,1,0,0:0:0:0:
386,268,78983,1,0,0:0:0:0:
436,268,79056,1,2,0:0:0:0:
168,348,79203,2,0,L|168:224,1,100,8|2,0:0|0:0,0:0:0:0:
296,176,79495,2,0,L|160:176,1,100,8|2,0:0|0:0,0:0:0:0:
452,368,79788,6,0,L|452:228,1,100,8|0,0:0|0:0,0:0:0:0:
156,264,80081,1,2,0:0:0:0:
288,176,80227,2,0,L|160:176,1,100,8|0,0:0|0:0,0:0:0:0:
236,112,80446,1,0,0:0:0:0:
304,108,80520,2,0,L|316:40,1,50,2|0,0:0|0:0,0:0:0:0:
236,68,80666,2,0,L|212:8,1,50,8|0,0:0|0:0,0:0:0:0:
372,64,80812,2,0,L|424:0,1,50,2|0,0:0|0:0,0:0:0:0:
136,232,80959,5,8,0:0:0:0:
87,237,81032,1,0,0:0:0:0:
49,207,81105,1,2,0:0:0:0:
44,158,81178,1,0,0:0:0:0:
75,121,81251,1,0,0:0:0:0:
123,116,81324,1,0,0:0:0:0:
376,232,81398,1,2,0:0:0:0:
424,237,81471,1,0,0:0:0:0:
462,207,81544,5,0,0:0:0:0:
467,158,81617,1,0,0:0:0:0:
436,121,81690,1,2,0:0:0:0:
388,116,81763,1,0,0:0:0:0:
148,376,81837,2,0,L|72:376,1,50,8|8,3:3|3:3,0:0:0:0:
44,304,81983,2,0,L|112:304,1,50,8|0,3:3|0:0,0:0:0:0:
352,356,82129,6,0,L|416:356,1,50,12|0,3:3|0:0,0:0:0:0:
352,356,82276,2,0,L|284:356,1,50,2|0,0:0|0:0,0:0:0:0:
384,292,82422,2,0,L|448:292,1,50,0|0,0:0|0:0,0:0:0:0:
384,292,82568,2,0,L|308:292,1,50,2|0,0:0|0:0,0:0:0:0:
144,296,82715,6,0,L|144:216,1,50,0|0,0:0|0:0,0:0:0:0:
204,224,82861,2,0,L|204:152,1,50,2|0,0:0|0:0,0:0:0:0:
104,168,83007,2,0,L|40:168,1,50,8|0,0:0|0:0,0:0:0:0:
52,100,83154,2,0,L|128:100,1,50,2|0,0:0|0:0,0:0:0:0:
360,360,83300,6,0,L|496:360,1,100,4|0,0:2|0:0,0:0:0:0:
308,276,83593,2,0,L|200:276,1,100,0|0,0:0|0:0,0:0:0:0:
364,200,83885,2,0,L|508:200,1,100,8|0,0:0|0:0,0:0:0:0:
132,196,84178,1,2,0:0:0:0:
364,188,84324,1,2,0:0:0:0:
236,368,84471,6,0,L|236:240,1,100,4|2,0:2|0:0,0:0:0:0:
328,252,84764,2,0,L|416:252,1,50,0|0,0:0|0:0,0:0:0:0:
380,180,84910,2,0,L|328:180,1,50,8|0,0:0|0:0,0:0:0:0:
244,184,85056,2,0,L|192:184,1,50,0|0,0:0|0:0,0:0:0:0:
144,184,85203,2,0,L|232:184,1,50,2|0,0:0|0:0,0:0:0:0:
360,188,85349,2,0,L|360:112,1,50,8|0,0:0|0:0,0:0:0:0:
152,128,85495,2,0,L|152:188,1,50,0|0,0:0|0:0,0:0:0:0:
368,364,85642,6,0,L|244:364,1,100,4|0,0:0|0:0,0:0:0:0:
392,272,85934,2,0,L|452:272,2,50,0|0|2,0:0|0:0|0:0,0:0:0:0:
140,212,86227,2,0,L|260:212,2,100,8|2|8,0:0|0:0|0:0,0:0:0:0:
432,208,86666,1,2,0:0:0:0:
308,208,86812,6,0,L|308:104,1,100,8|0,0:0|0:0,0:0:0:0:
408,96,87105,2,0,L|464:96,1,50,2|0,0:0|0:0,0:0:0:0:
408,96,87251,2,0,L|284:96,1,100,8|0,0:0|0:0,0:0:0:0:
48,100,87544,2,0,L|172:100,2,100,2|8|2,0:0|0:0|0:0,0:0:0:0:
356,360,87983,6,0,L|472:360,1,100,4|0,0:0|0:0,0:0:0:0:
304,300,88276,1,0,0:0:0:0:
254,300,88349,1,0,0:0:0:0:
204,300,88422,1,2,0:0:0:0:
448,188,88568,2,0,L|336:188,2,100,8|2|8,0:0|0:0|0:0,0:0:0:0:
144,200,89007,1,2,0:0:0:0:
272,200,89154,6,0,L|272:96,1,100,8|0,0:0|0:0,0:0:0:0:
132,92,89446,2,0,L|52:92,1,50,2|0,0:0|0:0,0:0:0:0:
132,92,89593,2,0,L|272:92,1,100,8|0,0:0|0:0,0:0:0:0:
80,364,89885,2,0,L|188:364,2,100,2|8|2,0:0|0:0|0:0,0:0:0:0:
384,260,90324,5,12,0:0:0:0:
432,257,90397,1,0,0:0:0:0:
466,222,90470,1,2,0:0:0:0:
467,173,90543,1,0,0:0:0:0:
435,137,90616,1,0,0:0:0:0:
386,132,90689,1,0,0:0:0:0:
128,260,90764,1,8,0:0:0:0:
79,257,90837,1,0,0:0:0:0:
45,222,90910,5,0,0:0:0:0:
44,173,90983,1,0,0:0:0:0:
76,137,91056,1,2,0:0:0:0:
125,132,91129,1,0,0:0:0:0:
392,204,91203,2,0,L|476:204,1,50,8|8,0:0|0:0,0:0:0:0:
492,136,91349,2,0,L|440:136,1,50,8|0,0:0|0:0,0:0:0:0:
180,364,91495,6,0,L|180:284,1,50,8|0,0:0|0:0,0:0:0:0:
256,292,91642,2,0,L|256:212,1,50,2|0,0:0|0:0,0:0:0:0:
192,208,91788,2,0,L|192:140,1,50,0|0,0:0|0:0,0:0:0:0:
276,136,91934,2,0,L|276:60,1,50,2|0,0:0|0:0,0:0:0:0:
112,352,92081,6,0,L|40:352,1,50,0|0,0:0|0:0,0:0:0:0:
112,352,92227,2,0,L|200:352,1,50,2|0,0:0|0:0,0:0:0:0:
84,288,92373,2,0,L|8:288,1,50,0|0,0:0|0:0,0:0:0:0:
84,288,92520,2,0,L|148:288,1,50,2|0,0:0|0:0,0:0:0:0:
348,360,92666,5,10,0:0:0:0:
397,361,92739,1,0,0:0:0:0:
447,362,92812,1,0,0:0:0:0:
497,363,92885,1,0,0:0:0:0:
444,300,92959,2,0,L|352:300,1,50,0|0,0:0|0:0,0:0:0:0:
164,360,93105,1,2,0:0:0:0:
114,361,93178,1,0,0:0:0:0:
64,372,93251,5,0,0:0:0:0:
14,363,93324,1,0,0:0:0:0:
68,300,93398,2,0,L|160:300,1,50,0|0,0:0|0:0,0:0:0:0:
320,296,93544,2,0,L|320:224,1,50,2|0,0:0|0:0,0:0:0:0:
256,208,93690,2,0,L|172:208,1,50,0|0,0:0|0:0,0:0:0:0:
352,144,93837,5,8,0:0:0:0:
402,144,93910,1,0,0:0:0:0:
452,144,93983,1,0,0:0:0:0:
400,88,94056,1,0,0:0:0:0:
172,144,94129,1,2,0:0:0:0:
420,364,94276,2,0,L|420:248,1,100,8|0,0:0|0:0,0:0:0:0:
160,252,94568,2,0,L|84:252,1,50,2|0,0:0|0:0,0:0:0:0:
292,188,94715,2,0,L|372:188,1,50,8|0,0:0|0:0,0:0:0:0:
120,188,94861,2,0,L|64:188,1,50,8|0,0:0|0:0,0:0:0:0:
320,124,95007,6,0,L|456:124,2,100,6|0|0,0:0|0:0|0:0,0:0:0:0:
192,124,95446,2,0,L|80:124,2,100,0|8|0,0:0|0:0|0:0,0:0:0:0:
348,120,95885,2,0,L|464:120,1,100,0|0,0:0|0:0,0:0:0:0:
136,352,96178,6,0,L|20:352,2,100,2|0|0,0:0|0:0|1:0,0:0:0:0:
372,268,96617,1,8,0:0:0:0:
236,188,96764,2,0,L|364:188,1,100,0|2,0:0|0:0,0:0:0:0:
204,188,97056,2,0,L|64:188,1,100,10|0,0:0|0:0,0:0:0:0:
392,368,97349,6,0,L|492:288,2,100,2|0|0,0:0|0:0|1:0,0:0:0:0:
144,364,97788,2,0,L|32:364,1,100,2|8,0:0|0:0,0:0:0:0:
336,280,98081,1,0,0:0:0:0:
208,220,98227,2,0,L|208:96,1,100,2|0,0:0|0:0,0:0:0:0:
460,108,98520,5,2,0:0:0:0:
136,376,98666,2,0,L|136:248,1,100,0|0,0:0|1:0,0:0:0:0:
392,264,98959,1,8,0:0:0:0:
96,264,99105,2,0,L|148:164,1,100,0|2,0:0|0:0,0:0:0:0:
400,176,99398,1,8,0:0:0:0:
160,176,99544,6,0,L|104:176,2,50,8|8|8,0:0|0:0|0:0,0:0:0:0:
400,100,99837,2,0,L|300:100,2,100,0|0|0,0:0|1:0|0:0,0:0:0:0:
92,364,100276,2,0,L|56:244,1,100,0|0,1:0|0:0,0:0:0:0:
200,252,100568,2,0,L|256:252,2,50,0|0|0,1:0|0:0|0:0,0:0:0:0:
48,180,100861,6,0,L|48:68,1,100,2|0,0:0|0:0,0:0:0:0:
280,352,101154,2,0,L|348:352,1,50,0|0,1:0|0:0,0:0:0:0:
384,284,101300,2,0,L|304:284,1,50,0|0,0:0|0:0,0:0:0:0:
128,280,101446,6,0,L|68:280,1,50,8|0,0:0|0:0,0:0:0:0:
80,208,101593,2,0,L|144:208,1,50,0|0,0:0|0:0,0:0:0:0:
328,204,101739,2,0,L|388:204,1,50,8|0,0:0|0:0,0:0:0:0:
380,128,101885,2,0,L|312:128,1,50,0|0,0:0|0:0,0:0:0:0:
132,376,102032,6,0,L|72:376,1,50,8|0,1:3|0:0,0:0:0:0:
248,372,102178,2,0,L|328:376,1,50,0|0,0:0|0:0,0:0:0:0:
252,308,102324,2,0,L|172:308,1,50,0|0,0:0|0:0,0:0:0:0:
384,248,102471,2,0,L|440:248,1,50,2|0,0:0|0:0,0:0:0:0:
172,172,102617,6,0,L|116:172,1,50,0|0,0:0|0:0,0:0:0:0:
124,104,102764,2,0,L|176:104,1,50,8|0,0:0|0:0,0:0:0:0:
436,112,102910,2,0,L|492:112,1,50,2|0,0:0|0:0,0:0:0:0:
488,48,103056,2,0,L|400:56,1,50,0|0,0:0|0:0,0:0:0:0:
292,360,103203,6,0,L|292:280,1,50,8|0,0:0|0:0,0:0:0:0:
440,252,103349,2,0,L|504:252,1,50,0|0,0:0|0:0,0:0:0:0:
208,248,103495,1,8,0:0:0:0:
158,248,103568,1,0,0:0:0:0:
108,248,103641,1,0,0:0:0:0:
58,248,103714,1,0,0:0:0:0:
248,184,103788,5,2,0:0:0:0:
298,184,103861,1,0,0:0:0:0:
348,184,103934,1,0,0:0:0:0:
398,184,104007,1,0,0:0:0:0:
120,144,104081,2,0,P|80:104|160:64,1,150,2|0,0:0|0:0,0:0:0:0:
388,312,104373,6,0,L|508:312,1,100,6|0,0:0|0:0,0:0:0:0:
136,312,104666,2,0,L|172:208,1,100,8|0,0:0|0:0,0:0:0:0:
428,212,104959,2,0,L|392:100,1,100,8|0,0:0|0:0,0:0:0:0:
160,104,105251,2,0,L|268:104,1,100,0|0,0:0|0:0,0:0:0:0:
44,56,105544,6,0,L|44:168,1,100,6|0,0:0|0:0,0:0:0:0:
396,352,105837,2,0,L|336:236,1,100,8|0,0:0|0:0,0:0:0:0:
36,252,106129,2,0,L|96:144,1,100,8|0,0:0|0:0,0:0:0:0:
328,76,106422,2,0,L|188:76,1,100,0|0,0:0|0:0,0:0:0:0:
456,360,106715,6,0,L|236:360,1,200,6|8,0:0|0:0,0:0:0:0:
356,284,107154,1,0,0:0:0:0:
144,284,107300,2,0,L|144:164,1,100,2|0,0:0|0:0,0:0:0:0:
292,160,107593,2,0,L|296:36,1,100,8|0,0:0|0:0,0:0:0:0:
72,356,107885,5,2,0:0:0:0:
31,329,107958,1,0,0:0:0:0:
33,282,108031,1,0,0:0:0:0:
74,258,108104,1,0,0:0:0:0:
172,252,108178,2,0,L|172:184,1,50,8|0,0:0|0:0,0:0:0:0:
108,176,108324,2,0,L|108:108,1,50,0|0,0:0|0:0,0:0:0:0:
332,364,108471,6,0,L|392:364,1,50,2|0,0:0|0:0,0:0:0:0:
432,300,108617,2,0,L|368:300,1,50,0|0,0:0|0:0,0:0:0:0:
216,208,108764,2,0,L|348:208,1,100,8|0,0:0|0:0,0:0:0:0:
64,360,109056,2,0,L|52:236,1,100,6|0,0:0|0:0,0:0:0:0:
352,240,109349,2,0,L|280:160,1,100,8|0,0:0|0:0,0:0:0:0:
32,256,109642,2,0,L|124:188,1,100,8|0,0:0|0:0,0:0:0:0:
336,112,109934,2,0,L|196:112,1,100,0|0,0:0|0:0,0:0:0:0:
480,360,110227,6,0,L|500:244,1,100,6|0,0:0|0:0,0:0:0:0:
232,248,110520,2,0,L|92:248,1,100,8|0,0:0|0:0,0:0:0:0:
272,184,110812,2,0,L|272:116,1,50,8|0,0:0|0:0,0:0:0:0:
208,116,110959,2,0,L|208:28,1,50,0|0,0:0|0:0,0:0:0:0:
416,360,111105,2,0,L|484:360,1,50,0|0,0:0|0:0,0:0:0:0:
472,288,111251,2,0,L|400:288,1,50,0|0,0:0|0:0,0:0:0:0:
156,272,111398,6,0,L|41:272,2,100,2|0|0,0:0|0:0|0:0,0:0:0:0:
376,188,111837,2,0,L|496:188,2,100,8|2|0,0:0|0:0|0:0,0:0:0:0:
164,184,112276,2,0,L|60:184,1,100,0|0,0:0|0:0,0:0:0:0:
116,116,112495,1,0,0:0:0:0:
336,364,112568,6,0,L|336:304,1,50,4|0,1:2|0:0,0:0:0:0:
268,288,112715,2,0,L|268:220,1,50,0|0,0:0|0:0,0:0:0:0:
408,212,112861,2,0,L|484:212,1,50,8|0,0:0|0:0,0:0:0:0:
404,140,113007,2,0,L|328:140,1,50,0|0,0:0|0:0,0:0:0:0:
152,176,113154,2,0,L|68:176,1,50,2|0,0:0|0:0,0:0:0:0:
100,104,113300,2,0,L|176:104,1,50,0|0,0:0|0:0,0:0:0:0:
396,292,113446,2,0,P|440:252|384:192,1,150,6|0,0:0|2:0,0:0:0:0:
168,352,113739,6,0,L|96:352,1,50,4|0,1:2|0:0,0:0:0:0:
116,280,113885,2,0,L|168:280,1,50,0|0,0:0|0:0,0:0:0:0:
368,272,114032,2,0,L|440:272,1,50,8|0,0:0|0:0,0:0:0:0:
472,204,114178,2,0,L|408:204,1,50,0|0,0:0|0:0,0:0:0:0:
192,200,114324,6,0,L|136:200,1,50,8|0,0:0|0:0,0:0:0:0:
88,128,114471,2,0,L|164:128,1,50,0|0,0:0|0:0,0:0:0:0:
328,204,114617,2,0,L|304:144,1,50,8|0,0:0|0:0,0:0:0:0:
88,208,114764,2,0,L|128:132,1,50,8|0,0:0|0:0,0:0:0:0:
320,128,114910,6,0,L|388:128,1,50,4|0,1:2|0:0,0:0:0:0:
376,60,115056,2,0,L|308:60,1,50,0|0,0:0|0:0,0:0:0:0:
136,72,115203,2,0,L|56:72,1,50,8|0,0:0|0:0,0:0:0:0:
32,16,115349,2,0,L|112:16,1,50,0|0,0:0|0:0,0:0:0:0:
344,72,115495,6,0,L|424:72,1,50,8|0,0:0|0:0,0:0:0:0:
448,16,115641,2,0,L|368:16,1,50,0|0,0:0|0:0,0:0:0:0:
116,368,115788,2,0,L|116:292,1,50,8|0,0:0|0:0,0:0:0:0:
168,252,115934,2,0,L|240:252,1,50,0|0,0:0|0:0,0:0:0:0:
436,248,116081,6,0,L|488:248,1,50,4|0,1:2|0:0,0:0:0:0:
484,180,116227,2,0,L|424:180,1,50,0|0,0:0|0:0,0:0:0:0:
232,180,116373,2,0,L|172:144,1,50,8|0,0:0|0:0,0:0:0:0:
344,104,116520,2,0,L|416:72,1,50,8|0,0:0|0:0,0:0:0:0:
168,348,116666,6,0,L|104:348,1,50,8|0,0:0|0:0,0:0:0:0:
168,284,116812,2,0,L|240:284,1,50,0|0,0:0|0:0,0:0:0:0:
420,284,116959,2,0,L|488:284,1,50,8|0,0:0|0:0,0:0:0:0:
424,220,117105,2,0,L|364:220,1,50,0|0,0:0|0:0,0:0:0:0:
144,224,117251,5,8,1:3:0:0:
104,197,117324,1,0,0:0:0:0:
108,150,117397,1,0,0:0:0:0:
151,130,117470,1,0,0:0:0:0:
312,120,117544,2,0,L|312:56,1,50,2|0,0:0|0:0,0:0:0:0:
68,120,117690,2,0,L|4:120,1,50,8|0,1:3|0:0,0:0:0:0:
320,120,117837,6,0,L|228:120,1,50,0|0,0:0|0:0,0:0:0:0:
124,360,117983,2,0,L|60:356,1,50,2|0,0:0|0:0,0:0:0:0:
272,312,118129,2,0,L|332:312,1,50,8|0,0:0|0:0,0:0:0:0:
256,248,118276,2,0,L|256:180,1,50,0|0,0:0|0:0,0:0:0:0:
452,232,118422,5,4,0:0:0:0:
402,232,118495,1,0,0:0:0:0:
352,232,118568,1,0,0:0:0:0:
302,232,118641,1,0,0:0:0:0:
252,232,118714,1,2,0:0:0:0:
202,232,118787,1,0,0:0:0:0:
456,156,118861,1,8,0:0:0:0:
406,156,118934,1,0,0:0:0:0:
356,156,119007,5,0,0:0:0:0:
306,156,119080,1,0,0:0:0:0:
256,156,119153,1,2,0:0:0:0:
206,156,119226,1,0,0:0:0:0:
388,152,119300,2,0,L|448:152,1,50,8|0,0:0|0:0,0:0:0:0:
388,88,119446,2,0,L|292:88,1,50,0|0,0:0|0:0,0:0:0:0:
108,364,119593,5,12,0:0:0:0:
68,334,119666,1,0,0:0:0:0:
53,287,119739,1,0,0:0:0:0:
70,241,119812,1,0,0:0:0:0:
110,213,119885,1,2,0:0:0:0:
159,215,119958,1,0,0:0:0:0:
404,364,120032,1,8,0:0:0:0:
443,334,120105,1,0,0:0:0:0:
458,287,120178,5,0,0:0:0:0:
441,241,120251,1,0,0:0:0:0:
401,213,120324,1,2,0:0:0:0:
352,215,120397,1,0,0:0:0:0:
148,220,120471,2,0,L|76:220,1,50,8|0,0:0|0:0,0:0:0:0:
40,156,120617,2,0,L|104:156,1,50,0|0,0:0|0:0,0:0:0:0:
296,364,120764,6,0,L|308:300,1,50,4|0,0:0|0:0,0:0:0:0:
152,276,120910,2,0,L|68:256,1,50,0|0,1:0|1:0,0:0:0:0:
284,216,121056,2,0,L|376:216,1,50,8|0,0:0|0:0,0:0:0:0:
68,200,121203,2,0,L|52:128,1,50,0|0,1:0|1:0,0:0:0:0:
248,128,121349,6,0,L|312:116,1,50,8|0,0:0|1:0,0:0:0:0:
492,112,121495,2,0,L|416:96,1,50,0|0,1:0|0:0,0:0:0:0:
248,368,121642,2,0,L|248:300,1,50,4|0,1:2|0:0,0:0:0:0:
312,296,121788,2,0,L|312:220,1,50,0|0,0:0|0:0,0:0:0:0:
80,236,121934,6,0,L|112:168,1,50,4|0,1:2|0:0,0:0:0:0:
272,168,122081,2,0,L|336:168,1,50,0|0,1:0|0:0,0:0:0:0:
264,100,122227,2,0,L|196:100,1,50,8|0,1:3|0:0,0:0:0:0:
432,240,122373,2,0,L|464:188,1,50,0|0,1:0|0:0,0:0:0:0:
248,232,122520,6,0,L|288:176,1,50,4|0,1:2|1:0,0:0:0:0:
472,144,122666,2,0,L|416:88,1,50,0|0,1:0|1:0,0:0:0:0:
212,104,122812,1,10,1:3:0:0:
162,104,122885,1,0,0:0:0:0:
112,104,122958,1,0,1:0:0:0:
62,104,123031,1,0,0:0:0:0:
328,360,123105,6,0,L|328:284,1,50,8|0,0:0|0:0,0:0:0:0:
188,280,123251,2,0,L|192:216,1,50,8|0,0:0|0:0,0:0:0:0:
384,200,123398,2,0,L|452:192,1,50,2|0,0:0|0:0,0:0:0:0:
160,200,123544,2,0,L|144:124,1,50,2|0,0:0|0:0,0:0:0:0:
308,128,123690,6,0,L|388:128,1,50,8|0,0:0|0:0,0:0:0:0:
152,56,123837,2,0,L|100:56,1,50,0|0,0:0|0:0,0:0:0:0:
380,352,123983,2,0,L|308:352,1,50,8|0,0:0|0:0,0:0:0:0:
172,284,124129,2,0,L|112:284,1,50,0|0,0:0|0:0,0:0:0:0:
376,256,124276,6,0,P|424:212|344:176,1,150,8|0,0:0|0:0,0:0:0:0:
104,152,124568,5,8,0:0:0:0:
368,148,124861,1,8,0:0:0:0:
104,152,125154,1,8,0:0:0:0:
456,252,125446,6,0,L|300:252,2,110.000003356934,4|8|0,0:0|0:0|0:0,0:0:0:0:
172,168,125885,1,8,0:0:0:0:
288,164,126032,2,0,L|404:164,1,110.000003356934,0|8,0:0|0:0,0:0:0:0:
228,88,126324,2,0,L|92:88,1,110.000003356934,2|0,0:0|0:0,0:0:0:0:
284,360,126617,6,0,L|416:360,1,110.000003356934,0|0,0:0|0:0,0:0:0:0:
220,280,126910,2,0,L|96:280,1,110.000003356934,2|8,0:0|0:0,0:0:0:0:
280,212,127203,2,0,L|416:212,1,110.000003356934,0|8,0:0|0:0,0:0:0:0:
224,128,127495,2,0,L|340:128,1,110.000003356934,2|0,0:0|0:0,0:0:0:0:
334,128,127715,1,0,0:0:0:0:
56,252,127788,6,0,L|212:252,2,110.000003356934,4|8|0,0:2|0:0|0:0,0:0:0:0:
340,168,128227,1,8,0:0:0:0:
224,164,128374,2,0,L|108:164,1,110.000003356934,0|8,0:0|0:0,0:0:0:0:
284,88,128666,2,0,L|420:88,1,110.000003356934,2|0,0:0|0:0,0:0:0:0:
228,360,128959,6,0,L|96:360,1,110.000003356934,0|8,0:0|0:0,0:0:0:0:
292,280,129252,2,0,L|416:280,1,110.000003356934,2|0,0:0|0:0,0:0:0:0:
232,212,129545,2,0,L|96:212,1,110.000003356934,0|8,0:0|0:0,0:0:0:0:
292,128,129837,2,0,L|176:128,1,110.000003356934,2|0,0:0|0:0,0:0:0:0:
182,128,130056,1,0,0:0:0:0:
392,124,130129,6,0,L|504:124,2,110.000003356934,4|0|0,0:2|0:0|0:0,0:0:0:0:
188,124,130568,2,0,L|48:124,2,110.000003356934,8|0|8,0:0|0:0|0:0,0:0:0:0:
392,124,131007,2,0,L|472:124,2,55.0000016784668,2|0|0,0:0|0:0|0:0,0:0:0:0:
132,348,131300,6,0,L|12:348,1,110.000003356934,2|8,0:0|0:0,0:0:0:0:
188,264,131593,2,0,L|64:264,1,110.000003356934,0|8,0:0|0:0,0:0:0:0:
360,260,131885,1,2,0:0:0:0:
409,243,131958,1,0,0:0:0:0:
412,192,132031,1,8,0:0:0:0:
366,169,132104,1,0,0:0:0:0:
188,176,132178,1,0,0:0:0:0:
137,163,132251,1,0,0:0:0:0:
132,112,132324,1,0,0:0:0:0:
179,89,132397,1,2,0:0:0:0:
384,360,132471,6,0,L|384:288,1,55.0000016784668,4|0,0:2|0:0,0:0:0:0:
312,284,132617,2,0,L|312:204,1,55.0000016784668,8|0,0:0|0:0,0:0:0:0:
384,196,132764,2,0,L|384:120,1,55.0000016784668,2|0,0:0|0:0,0:0:0:0:
180,212,132910,2,0,L|180:112,1,55.0000016784668,8|0,0:0|0:0,0:0:0:0:
244,132,133056,6,0,L|312:132,1,55.0000016784668,2|0,0:0|0:0,0:0:0:0:
244,132,133203,2,0,L|136:132,1,55.0000016784668,8|0,0:0|0:0,0:0:0:0:
388,140,133349,2,0,L|476:140,1,55.0000016784668,2|0,0:0|0:0,0:0:0:0:
444,72,133495,2,0,L|368:72,1,55.0000016784668,0|0,0:0|0:0,0:0:0:0:
168,364,133642,6,0,L|168:288,1,55.0000016784668,4|0,0:2|0:0,0:0:0:0:
240,284,133788,2,0,L|240:208,1,55.0000016784668,8|0,0:0|0:0,0:0:0:0:
148,212,133934,2,0,L|148:124,1,55.0000016784668,2|0,0:0|0:0,0:0:0:0:
216,140,134081,2,0,L|216:40,1,55.0000016784668,8|0,0:0|0:0,0:0:0:0:
36,116,134227,6,0,L|36:56,1,55.0000016784668,2|0,0:0|0:0,0:0:0:0:
92,32,134373,2,0,L|156:32,1,55.0000016784668,8|0,0:0|0:0,0:0:0:0:
340,32,134520,2,0,L|400:32,1,55.0000016784668,8|8,0:0|0:0,0:0:0:0:
180,316,134666,2,0,L|124:232,1,55.0000016784668,8|0,0:0|0:0,0:0:0:0:
388,260,134812,6,0,L|492:204,1,110.000003356934,4|0,0:2|0:0,0:0:0:0:
316,184,135105,1,0,0:0:0:0:
367,163,135178,1,0,0:0:0:0:
418,143,135251,1,8,0:0:0:0:
136,272,135398,2,0,L|16:232,1,110.000003356934,0|8,0:0|0:0,0:0:0:0:
256,200,135690,2,0,L|336:200,1,55.0000016784668,2|0,0:0|0:0,0:0:0:0:
256,200,135837,6,0,L|136:200,2,110.000003356934,0|0|8,0:0|0:0|0:0,0:0:0:0:
40,364,136276,2,0,L|16:300,2,55.0000016784668,2|0|8,0:0|0:0|0:0,0:0:0:0:
180,368,136568,2,0,L|64:368,1,110.000003356934,2|8,0:0|0:0,0:0:0:0:
336,360,136861,2,0,L|392:360,1,55.0000016784668,0|0,0:0|0:0,0:0:0:0:
388,280,137007,2,0,L|328:280,1,55.0000016784668,8|0,0:0|0:0,0:0:0:0:
128,280,137154,6,0,L|128:200,1,55.0000016784668,2|0,0:0|0:0,0:0:0:0:
196,200,137300,2,0,L|196:128,1,55.0000016784668,8|0,0:0|0:0,0:0:0:0:
96,144,137446,2,0,L|96:72,1,55.0000016784668,0|0,0:0|0:0,0:0:0:0:
164,88,137593,2,0,L|164:16,1,55.0000016784668,8|0,0:0|0:0,0:0:0:0:
68,48,137739,6,0,L|-4:48,1,55.0000016784668,2|0,0:0|0:0,0:0:0:0:
8,104,137885,2,0,L|80:104,1,55.0000016784668,0|0,0:0|0:0,0:0:0:0:
300,96,138032,2,0,L|372:96,1,55.0000016784668,2|0,0:0|0:0,0:0:0:0:
416,40,138178,2,0,L|336:40,1,55.0000016784668,0|0,0:0|0:0,0:0:0:0:
148,360,138324,6,0,L|64:360,1,55.0000016784668,2|0,0:0|0:0,0:0:0:0:
148,360,138471,2,0,L|244:360,1,55.0000016784668,8|0,0:0|0:0,0:0:0:0:
108,292,138617,2,0,L|44:292,1,55.0000016784668,0|0,0:0|0:0,0:0:0:0:
108,292,138764,2,0,L|192:296,1,55.0000016784668,8|0,0:0|0:0,0:0:0:0:
392,288,138910,6,0,L|476:288,1,55.0000016784668,2|0,0:0|0:0,0:0:0:0:
392,288,139056,2,0,L|320:288,1,55.0000016784668,0|0,0:0|0:0,0:0:0:0:
140,208,139203,2,0,L|72:208,1,55.0000016784668,2|0,0:0|0:0,0:0:0:0:
140,208,139349,2,0,L|212:208,1,55.0000016784668,0|0,0:0|0:0,0:0:0:0:
388,200,139495,6,0,L|512:200,1,110.000003356934,4|8,0:2|0:0,0:0:0:0:
324,128,139788,2,0,L|264:128,2,55.0000016784668,0|0|8,0:0|0:0|0:0,0:0:0:0:
456,128,140081,2,0,L|320:128,1,110.000003356934,2|8,0:0|0:0,0:0:0:0:
88,352,140373,1,0,0:0:0:0:
224,352,140520,6,0,L|224:224,1,110.000003356934,8|2,0:0|0:0,0:0:0:0:
156,240,140739,1,0,0:0:0:0:
88,236,140812,1,0,0:0:0:0:
304,240,140959,1,2,0:0:0:0:
357,226,141032,1,0,0:0:0:0:
410,213,141105,1,0,0:0:0:0:
164,160,141251,5,8,0:0:0:0:
113,150,141324,1,0,0:0:0:0:
101,99,141397,1,2,0:0:0:0:
143,69,141470,1,0,0:0:0:0:
344,160,141544,1,8,0:0:0:0:
389,134,141617,1,0,0:0:0:0:
384,82,141690,1,2,0:0:0:0:
335,65,141763,1,0,0:0:0:0:
136,368,141837,6,0,L|160:304,1,55.0000016784668,2|0,0:0|0:0,0:0:0:0:
336,296,141983,2,0,L|408:296,1,55.0000016784668,8|0,0:0|0:0,0:0:0:0:
392,224,142129,2,0,L|316:224,1,55.0000016784668,0|0,0:0|0:0,0:0:0:0:
112,200,142276,2,0,L|172:160,1,55.0000016784668,8|0,0:0|0:0,0:0:0:0:
320,152,142422,6,0,L|400:152,1,55.0000016784668,2|0,0:0|0:0,0:0:0:0:
320,152,142568,2,0,L|212:152,1,55.0000016784668,0|0,0:0|0:0,0:0:0:0:
456,144,142715,2,0,L|500:96,1,55.0000016784668,2|0,0:0|0:0,0:0:0:0:
244,364,142861,2,0,L|164:352,1,55.0000016784668,8|0,0:0|0:0,0:0:0:0:
120,304,143007,6,0,L|188:292,1,55.0000016784668,10|0,0:0|0:0,0:0:0:0:
244,280,143154,2,0,L|312:264,1,55.0000016784668,0|0,0:0|0:0,0:0:0:0:
368,220,143300,2,0,L|284:208,1,55.0000016784668,10|0,0:0|0:0,0:0:0:0:
240,200,143446,2,0,L|136:188,1,55.0000016784668,0|0,0:0|0:0,0:0:0:0:
388,140,143593,6,0,L|464:140,1,55.0000016784668,10|0,0:0|0:0,0:0:0:0:
444,72,143739,2,0,L|360:72,1,55.0000016784668,0|0,0:0|0:0,0:0:0:0:
176,364,143885,2,0,L|108:328,1,55.0000016784668,2|0,0:0|0:0,0:0:0:0:
320,308,144032,2,0,L|384:276,1,55.0000016784668,0|0,0:0|0:0,0:0:0:0:
148,248,144178,6,0,L|68:232,1,55.0000016784668,6|0,0:0|0:0,0:0:0:0:
24,176,144324,2,0,L|116:164,1,55.0000016784668,8|0,0:0|0:0,0:0:0:0:
152,152,144471,2,0,L|224:144,1,55.0000016784668,0|0,0:0|0:0,0:0:0:0:
408,360,144617,2,0,L|488:344,1,55.0000016784668,8|0,0:0|0:0,0:0:0:0:
388,292,144764,6,0,L|280:284,1,55.0000016784668,2|0,0:0|0:0,0:0:0:0:
264,280,144910,2,0,L|180:272,1,55.0000016784668,8|0,0:0|0:0,0:0:0:0:
380,244,145056,2,0,L|460:232,1,55.0000016784668,0|0,0:0|0:0,0:0:0:0:
496,180,145203,2,0,L|396:172,1,55.0000016784668,8|0,0:0|0:0,0:0:0:0:
224,204,145349,6,0,L|140:188,1,55.0000016784668,4|0,1:2|0:0,0:0:0:0:
96,172,145495,2,0,L|-8:144,1,55.0000016784668,8|0,0:0|0:0,0:0:0:0:
132,108,145642,2,0,L|212:92,1,55.0000016784668,0|0,0:0|0:0,0:0:0:0:
324,356,145788,2,0,L|408:332,1,55.0000016784668,8|0,0:0|0:0,0:0:0:0:
300,296,145934,6,0,L|232:268,1,55.0000016784668,2|0,0:0|0:0,0:0:0:0:
168,244,146081,2,0,L|100:220,1,55.0000016784668,8|0,0:0|0:0,0:0:0:0:
412,164,146227,2,0,L|496:164,1,55.0000016784668,0|0,0:0|0:0,0:0:0:0:
412,164,146373,2,0,L|308:164,1,55.0000016784668,8|0,0:0|0:0,0:0:0:0:
160,364,146520,6,0,L|68:348,1,55.0000016784668,4|0,1:2|0:0,0:0:0:0:
176,304,146666,2,0,L|260:292,1,55.0000016784668,8|0,0:0|0:0,0:0:0:0:
304,280,146812,2,0,L|392:256,1,55.0000016784668,0|0,0:0|0:0,0:0:0:0:
204,216,146959,2,0,L|104:212,1,55.0000016784668,8|0,0:0|0:0,0:0:0:0:
76,208,147105,6,0,L|-16:204,1,55.0000016784668,2|0,0:0|0:0,0:0:0:0:
108,148,147251,2,0,L|204:140,1,55.0000016784668,8|0,0:0|0:0,0:0:0:0:
336,124,147398,2,0,L|400:120,1,55.0000016784668,0|0,0:0|0:0,0:0:0:0:
464,56,147544,2,0,L|384:52,1,55.0000016784668,8|0,0:0|0:0,0:0:0:0:
232,360,147690,6,0,L|156:360,1,55.0000016784668,4|0,1:2|0:0,0:0:0:0:
96,360,147837,2,0,L|8:344,1,55.0000016784668,8|0,0:0|0:0,0:0:0:0:
124,300,147983,2,0,L|204:300,1,55.0000016784668,0|0,0:0|0:0,0:0:0:0:
336,296,148129,2,0,L|408:288,1,55.0000016784668,8|0,0:0|0:0,0:0:0:0:
472,232,148276,6,0,L|392:228,1,55.0000016784668,2|0,0:0|0:0,0:0:0:0:
324,176,148422,2,0,L|244:176,1,55.0000016784668,8|0,0:0|0:0,0:0:0:0:
76,176,148568,2,0,L|16:176,1,55.0000016784668,0|0,0:0|0:0,0:0:0:0:
76,176,148715,2,0,L|152:176,1,55.0000016784668,2|0,0:0|0:0,0:0:0:0:
328,364,148861,5,4,1:2:0:0:
360,323,148934,1,0,0:0:0:0:
332,280,149007,1,8,0:0:0:0:
248,280,149081,1,0,0:0:0:0:
196,263,149154,1,0,0:0:0:0:
164,219,149227,1,0,0:0:0:0:
416,196,149300,6,0,L|472:196,2,55.0000016784668,8|0|2,0:0|0:0|0:0,0:0:0:0:
352,196,149520,2,0,L|280:196,2,55.0000016784668,0|8|0,0:0|0:0|0:0,0:0:0:0:
176,136,149739,2,0,L|72:140,1,55.0000016784668,0|0,0:0|0:0,0:0:0:0:
60,72,149885,2,0,L|136:72,1,55.0000016784668,8|0,0:0|0:0,0:0:0:0:
332,376,150032,5,4,1:2:0:0:
375,346,150105,1,0,0:0:0:0:
369,294,150178,1,8,0:0:0:0:
321,274,150251,1,0,0:0:0:0:
220,272,150324,1,0,0:0:0:0:
168,262,150397,1,0,0:0:0:0:
153,212,150470,1,8,0:0:0:0:
190,175,150543,1,0,0:0:0:0:
376,156,150617,6,0,L|464:156,1,55.0000016784668,4|0,1:2|0:0,0:0:0:0:
488,92,150764,2,0,L|392:92,1,55.0000016784668,8|0,0:0|0:0,0:0:0:0:
208,296,150910,2,0,L|208:212,1,55.0000016784668,0|0,0:0|0:0,0:0:0:0:
284,216,151056,2,0,L|284:124,1,55.0000016784668,8|0,0:0|0:0,0:0:0:0:
72,276,151203,6,0,L|72:200,1,55.0000016784668,4|0,1:2|0:0,0:0:0:0:
136,204,151349,2,0,L|216:204,1,55.0000016784668,0|0,0:0|0:0,0:0:0:0:
136,204,151495,2,0,L|60:204,1,55.0000016784668,0|0,0:0|0:2,0:0:0:0:
308,132,151642,2,0,L|232:132,1,55.0000016784668,8|0,0:0|0:0,0:0:0:0:
184,128,151788,6,0,L|184:64,1,55.0000016784668,0|0,0:0|0:0,0:0:0:0:
256,64,151934,2,0,L|256:-8,1,55.0000016784668,2|0,0:0|0:0,0:0:0:0:
88,88,152081,2,0,L|16:88,1,55.0000016784668,8|0,0:0|0:0,0:0:0:0:
88,88,152227,2,0,L|160:88,1,55.0000016784668,0|0,0:0|0:0,0:0:0:0:
376,360,152373,6,0,L|460:356,1,55.0000016784668,4|0,1:2|0:0,0:0:0:0:
360,288,152520,2,0,L|296:284,1,55.0000016784668,8|0,0:0|0:0,0:0:0:0:
232,284,152666,2,0,L|148:280,1,55.0000016784668,0|0,0:0|0:0,0:0:0:0:
104,276,152812,2,0,L|48:212,1,55.0000016784668,8|0,0:0|0:0,0:0:0:0:
316,204,152959,5,2,0:0:0:0:
370,201,153032,1,0,0:0:0:0:
419,177,153105,1,8,0:0:0:0:
454,135,153178,1,0,0:0:0:0:
244,120,153251,2,0,L|156:104,1,55.0000016784668,0|0,0:0|0:0,0:0:0:0:
344,112,153398,2,0,L|432:96,1,55.0000016784668,0|0,0:0|0:0,0:0:0:0:
144,360,153544,6,0,L|32:288,1,110.000003356934,4|8,1:2|0:0,0:0:0:0:
188,272,153837,1,0,0:0:0:0:
240,256,153910,1,0,0:0:0:0:
293,240,153983,1,8,0:0:0:0:
80,200,154129,2,0,L|64:88,1,110.000003356934,2|8,0:0|0:0,0:0:0:0:
360,144,154422,1,0,0:0:0:0:
232,132,154568,6,0,L|232:8,1,110.000003356934,8|2,0:0|0:0,0:0:0:0:
356,24,154861,1,0,0:0:0:0:
132,364,155007,2,0,L|0:364,1,110.000003356934,2|0,0:0|0:0,0:0:0:0:
296,312,155300,2,0,L|328:188,1,110.000003356934,8|0,0:0|0:0,0:0:0:0:
64,304,155593,2,0,L|36:168,1,110.000003356934,8|0,0:0|0:0,0:0:0:0:
280,232,155885,6,0,L|352:232,1,55.0000016784668,4|0,0:2|0:0,0:0:0:0:
268,168,156032,2,0,L|188:168,1,55.0000016784668,8|0,0:0|0:0,0:0:0:0:
296,120,156178,2,0,L|368:120,1,55.0000016784668,0|0,0:0|0:0,0:0:0:0:
284,56,156325,2,0,L|204:56,1,55.0000016784668,8|0,0:0|0:0,0:0:0:0:
312,356,156471,2,0,L|312:280,1,55.0000016784668,2|0,0:0|0:0,0:0:0:0:
244,272,156617,2,0,L|244:176,1,55.0000016784668,8|0,0:0|0:0,0:0:0:0:
400,196,156764,2,0,L|512:196,1,110.000003356934,2|8,0:0|0:0,0:0:0:0:
184,196,157056,6,0,L|56:196,1,110.000003356934,2|8,0:0|0:0,0:0:0:0:
128,128,157276,1,8,0:0:0:0:
320,128,157349,2,0,L|440:128,1,110.000003356934,8|8,0:0|0:0,0:0:0:0:
264,64,157642,2,0,L|128:64,1,100,0|0,1:0|1:0,0:0:0:0:
296,64,157934,2,0,L|408:64,1,100,2|2,0:0|0:0,0:0:0:0:
124,348,158227,6,0,P|44:312|164:104,1,400,4|4,0:2|0:2,0:0:0:0:
348,120,159105,1,0,0:0:0:0:
200,120,159251,1,0,0:0:0:0:
432,372,159398,6,0,P|480:328|408:264,1,150,8|0,0:0|0:0,0:0:0:0:
364,264,159690,2,0,L|188:264,1,150,0|0,0:0|0:0,0:0:0:0:
396,196,159983,2,0,P|464:164|388:84,1,200,8|0,0:0|0:0,0:0:0:0:
308,80,160422,1,0,0:0:0:0:
64,356,160568,6,0,L|136:328,1,50,2|0,0:0|0:0,0:0:0:0:
284,352,160715,2,0,L|224:336,1,50,2|0,0:0|0:0,0:0:0:0:
92,360,160861,2,0,L|164:332,1,50,2|0,0:0|0:0,0:0:0:0:
312,356,161008,2,0,L|252:340,1,50,2|0,0:0|0:0,0:0:0:0:
88,292,161154,6,0,L|28:264,1,50,2|0,0:0|0:0,0:0:0:0:
312,284,161300,2,0,L|232:252,1,50,2|0,0:0|0:0,0:0:0:0:
88,232,161446,2,0,L|152:212,1,50,2|0,0:0|0:0,0:0:0:0:
308,220,161593,2,0,L|364:200,1,50,2|0,0:0|0:0,0:0:0:0:
148,300,161739,6,0,L|76:272,2,50,8|0|0,0:1|0:0|0:0,0:0:0:0:
372,296,162032,2,0,P|424:244|352:200,1,150,8|0,0:1|0:0,0:0:0:0:
184,200,162324,2,0,P|92:176|52:128,1,150,8|0,0:0|0:0,0:0:0:0:
327,199,162617,2,0,P|400:187|455:137,1,150,8|0,0:0|0:0,0:0:0:0:
152,352,162910,6,0,L|40:352,2,100,4|8|0,0:2|0:0|0:0,0:0:0:0:
412,236,163349,1,8,0:0:0:0:
148,244,163495,2,0,L|40:244,3,100,0|8|0|8,0:0|0:0|0:0|0:0,0:0:0:0:
308,236,164081,6,0,L|432:236,1,100,2|8,2:3|2:3,0:0:0:0:
240,164,164373,2,0,L|240:100,1,50,0|0,2:3|0:0,0:0:0:0:
296,100,164520,2,0,L|172:100,1,100,8|0,0:0|0:0,0:0:0:0:
352,40,164812,2,0,L|240:40,2,100,8|0|8,0:0|0:0|0:0,0:0:0:0:
112,348,165251,6,0,L|248:348,2,100,2|8|0,2:3|2:3|2:3,0:0:0:0:
344,224,165690,1,8,0:0:0:0:
188,228,165837,1,0,0:0:0:0:
440,132,165983,2,0,L|312:132,2,100,8|0|8,0:0|0:0|0:0,0:0:0:0:
80,360,166422,5,0,2:3:0:0:
34,346,166495,1,0,2:3:0:0:
27,299,166568,1,8,2:3:0:0:
66,273,166641,1,0,2:3:0:0:
212,260,166715,2,0,L|256:220,3,50,0|0|8|0,2:3|2:3|2:3|2:3,0:0:0:0:
64,260,167007,6,0,L|16:216,3,50,2|0|8|0,0:0|0:0|0:0|0:0,0:0:0:0:
252,260,167300,1,2,0:0:0:0:
295,240,167373,1,0,0:0:0:0:
299,192,167446,1,0,0:0:0:0:
259,166,167519,1,0,0:0:0:0:
68,160,167593,6,0,L|172:160,1,100,4|8,1:2|0:0,0:0:0:0:
296,80,167885,2,0,L|368:80,1,50,0|0,0:0|0:0,0:0:0:0:
296,80,168032,2,0,L|176:80,2,100,8|0|8,0:0|0:0|0:0,0:0:0:0:
132,288,168471,2,0,L|0:288,1,100,0|8,0:0|0:0,0:0:0:0:
296,232,168764,6,0,L|296:152,1,50,2|2,2:3|2:3,0:0:0:0:
224,144,168910,2,0,L|224:68,1,50,8|0,2:3|2:3,0:0:0:0:
300,76,169056,2,0,L|376:76,1,50,0|0,2:3|0:0,0:0:0:0:
100,356,169203,2,0,L|212:356,2,100,8|0|8,0:0|0:0|0:0,0:0:0:0:
260,284,169642,2,0,L|376:284,1,100,0|8,0:0|0:0,0:0:0:0:
108,284,169934,6,0,L|108:160,1,100,4|8,1:2|0:0,0:0:0:0:
256,172,170227,2,0,L|324:172,1,50,0|0,0:0|0:0,0:0:0:0:
256,172,170373,2,0,L|120:172,1,100,8|2,0:0|2:3,0:0:0:0:
212,104,170593,1,0,2:3:0:0:
380,356,170666,2,0,L|396:304,1,50,8|0,2:3|2:3,0:0:0:0:
320,288,170812,2,0,L|240:288,1,50,8|0,2:3|0:0,0:0:0:0:
320,288,170959,2,0,L|372:288,1,50,0|0,0:0|0:0,0:0:0:0:
164,300,171105,6,0,L|136:220,1,50,2|0,0:0|0:0,0:0:0:0:
320,216,171251,2,0,L|336:164,1,50,2|0,0:0|0:0,0:0:0:0:
124,304,171398,2,0,L|96:224,1,50,2|0,0:0|0:0,0:0:0:0:
280,220,171544,2,0,L|296:168,1,50,2|0,0:0|0:0,0:0:0:0:
84,164,171690,5,8,0:0:0:0:
312,88,171837,1,8,0:0:0:0:
80,168,171983,1,8,0:1:0:0:
40,141,172056,1,0,0:0:0:0:
44,94,172129,1,0,0:0:0:0:
88,80,172202,1,0,0:0:0:0:
296,364,172276,6,0,L|296:296,1,55.0000016784668,2|0,0:0|0:0,0:0:0:0:
224,292,172422,2,0,L|224:228,1,55.0000016784668,2|0,0:0|0:0,0:0:0:0:
308,216,172568,2,0,L|384:216,1,55.0000016784668,2|0,0:0|0:0,0:0:0:0:
308,216,172715,2,0,L|216:216,1,55.0000016784668,2|0,0:0|0:0,0:0:0:0:
56,360,172861,6,0,L|56:292,1,55.0000016784668,8|0,0:0|0:0,0:0:0:0:
120,296,173007,2,0,L|196:296,1,55.0000016784668,8|0,0:0|0:0,0:0:0:0:
104,224,173154,2,0,L|12:224,1,55.0000016784668,8|0,0:0|0:0,0:0:0:0:
128,152,173300,2,0,L|192:152,1,55.0000016784668,8|0,0:0|0:0,0:0:0:0:
404,368,173446,6,0,L|484:368,1,55.0000016784668,0|0,0:0|0:0,0:0:0:0:
372,300,173593,2,0,L|372:224,1,55.0000016784668,2|0,0:0|0:0,0:0:0:0:
452,224,173739,2,0,L|452:144,1,55.0000016784668,2|0,0:0|0:0,0:0:0:0:
376,168,173885,2,0,L|288:168,1,55.0000016784668,2|0,0:0|0:0,0:0:0:0:
108,364,174032,6,0,L|136:292,1,55.0000016784668,8|0,0:0|0:0,0:0:0:0:
224,308,174178,2,0,L|252:232,1,55.0000016784668,8|0,0:0|0:0,0:0:0:0:
40,300,174324,2,0,L|16:240,1,55.0000016784668,8|0,0:0|0:0,0:0:0:0:
256,312,174471,2,0,L|284:236,1,55.0000016784668,8|0,0:0|0:0,0:0:0:0:
104,224,174617,6,0,L|28:224,1,55.0000016784668,2|0,0:0|0:0,0:0:0:0:
104,224,174764,2,0,L|184:224,1,55.0000016784668,2|0,0:0|0:0,0:0:0:0:
244,224,174910,2,0,L|244:148,1,55.0000016784668,2|0,0:0|0:0,0:0:0:0:
160,152,175056,2,0,L|160:72,1,55.0000016784668,2|0,0:0|0:0,0:0:0:0:
340,324,175203,2,0,L|404:324,1,55.0000016784668,8|0,0:0|0:0,0:0:0:0:
340,324,175349,2,0,L|264:324,1,55.0000016784668,8|0,0:0|0:0,0:0:0:0:
372,248,175495,2,0,L|372:152,1,55.0000016784668,8|0,0:0|0:0,0:0:0:0:
300,176,175642,2,0,L|220:176,1,55.0000016784668,8|0,0:0|0:0,0:0:0:0:
470,356,175788,6,0,L|470:280,1,50,2|0,0:0|0:0,0:0:0:0:
398,288,175934,2,0,L|306:288,1,50,2|0,0:0|0:0,0:0:0:0:
398,288,176081,2,0,L|478:288,1,50,2|0,0:0|0:0,0:0:0:0:
294,228,176227,2,0,L|266:160,1,50,2|0,0:0|0:0,0:0:0:0:
440,172,176373,6,0,P|496:132|428:76,1,150,4|0,0:0|0:0,0:0:0:0:
216,88,176666,2,0,L|152:88,1,50,0|0,0:0|0:0,0:0:0:0:
96,88,176812,2,0,L|36:88,1,50,0|0,0:0|0:0,0:0:0:0:
312,364,176959,6,0,L|396:364,1,55.0000016784668,2|0,0:0|0:0,0:0:0:0:
312,364,177105,2,0,L|228:364,1,55.0000016784668,2|0,0:0|0:0,0:0:0:0:
88,364,177251,2,0,L|24:336,1,55.0000016784668,2|0,0:0|0:0,0:0:0:0:
200,300,177398,2,0,L|272:288,1,55.0000016784668,2|0,0:0|0:0,0:0:0:0:
100,216,177544,6,0,L|100:144,1,55.0000016784668,8|0,0:0|0:0,0:0:0:0:
164,132,177690,2,0,L|244:132,1,55.0000016784668,8|0,0:0|0:0,0:0:0:0:
468,132,177837,2,0,L|380:124,1,55.0000016784668,2|0,0:0|0:0,0:0:0:0:
219,132,177983,2,0,L|124:104,1,55.0000016784668,2|0,0:0|0:0,0:0:0:0:
344,372,178129,6,0,L|344:288,1,55.0000016784668,2|0,0:0|0:0,0:0:0:0:
276,288,178276,2,0,L|276:192,1,55.0000016784668,2|0,0:0|0:0,0:0:0:0:
420,220,178422,2,0,L|496:212,1,55.0000016784668,2|0,0:0|0:0,0:0:0:0:
276,168,178568,2,0,L|216:148,1,55.0000016784668,2|0,0:0|0:0,0:0:0:0:
36,144,178715,6,0,L|120:112,1,55.0000016784668,8|0,0:0|0:0,0:0:0:0:
280,80,178861,2,0,L|188:80,1,55.0000016784668,8|0,0:0|0:0,0:0:0:0:
376,364,179007,2,0,L|352:284,1,55.0000016784668,12|0,0:0|0:0,0:0:0:0:
184,288,179154,2,0,L|200:212,1,55.0000016784668,0|0,0:0|0:0,0:0:0:0:
376,212,179300,5,8,2:3:0:0:
426,212,179373,1,0,0:0:0:0:
476,212,179446,1,0,2:3:0:0:
424,140,179520,2,0,L|360:140,1,50,0|0,0:0|0:0,0:0:0:0:
164,352,179739,2,0,L|100:352,1,50,8|0,2:3|0:0,0:0:0:0:
60,276,179885,1,0,2:3:0:0:
110,276,179958,1,0,0:0:0:0:
160,276,180031,1,0,0:0:0:0:
400,272,180178,1,8,2:3:0:0:
164,272,180324,6,0,P|96:212|184:160,1,200,8|8,2:3|0:0,0:0:0:0:
384,148,180764,1,8,0:0:0:0:
156,152,180910,1,8,0:0:0:0:
364,148,181056,1,8,0:0:0:0:
176,152,181203,1,8,0:0:0:0:
344,148,181349,1,4,0:0:0:0:
192,152,181495,1,8,0:0:0:0:
468,140,181642,6,0,L|220:140,2,240,4|0|0,0:2|0:0|0:0,0:0:0:0:
8,352,182812,2,0,L|496:352,1,480,4|0,0:0|0:0,0:0:0:0:
44,140,183983,6,0,L|292:140,2,240,4|0|0,0:2|0:0|0:0,0:0:0:0:
472,132,185154,5,4,0:0:0:0:
224,128,185446,2,0,L|356:128,1,100,8|8,0:3|0:3,0:0:0:0:
40,132,185739,1,4,0:3:0:0:
288,128,186031,2,0,L|156:128,1,100,8|8,0:3|0:3,0:0:0:0:
484,120,186324,6,0,L|224:120,2,240,4|0|0,0:2|0:0|0:0,0:0:0:0:
28,120,187495,6,0,L|268:120,2,240,4|0|0,0:2|0:0|0:0,0:0:0:0:
484,120,188666,6,0,L|244:120,2,240,4|0|0,0:2|0:0|0:0,0:0:0:0:
396,40,189690,2,0,L|336:40,1,40,8|0,0:3|0:0,0:0:0:0:
152,364,189837,6,0,L|40:364,1,100,4|0,0:0|0:0,0:0:0:0:
204,292,190129,2,0,L|68:292,1,100,8|8,0:0|0:0,0:0:0:0:
324,284,190422,2,0,L|324:224,1,50,0|0,1:0|1:0,0:0:0:0:
248,212,190568,2,0,L|248:152,1,50,0|0,1:0|1:0,0:0:0:0:
424,144,190715,1,4,0:2:0:0:
462,115,190788,1,0,0:0:0:0:
458,67,190861,1,0,0:0:0:0:
415,46,190934,1,0,0:0:0:0:
152,348,191007,6,0,L|28:348,1,100,4|0,0:0|0:0,0:0:0:0:
212,264,191300,2,0,L|216:152,1,100,8|0,0:0|1:0,0:0:0:0:
96,156,191593,2,0,L|88:32,1,100,0|2,0:0|0:0,0:0:0:0:
368,160,191885,2,0,P|428:128|376:60,1,150,8|0,0:0|0:0,0:0:0:0:
136,324,192178,6,0,L|360:324,1,200,4|8,0:2|0:0,0:0:0:0:
92,244,192617,2,0,L|316:244,1,200,0|2,1:0|0:0,0:0:0:0:
40,176,193056,2,0,L|20:56,1,100,8|0,0:0|0:0,0:0:0:0:
348,356,193349,6,0,L|472:360,1,100,4|0,0:2|0:0,0:0:0:0:
288,284,193642,2,0,L|272:140,1,100,8|0,0:0|1:0,0:0:0:0:
404,168,193934,2,0,L|420:40,1,100,0|2,0:0|0:0,0:0:0:0:
180,168,194227,2,0,L|64:160,1,100,8|0,0:0|0:0,0:0:0:0:
328,164,194520,6,0,L|440:160,1,100,6|0,0:0|0:0,0:0:0:0:
196,92,194812,2,0,L|68:88,1,100,8|8,0:0|0:0,0:0:0:0:
360,76,195105,2,0,L|432:76,2,50,0|0|0,1:0|0:0|1:0,0:0:0:0:
136,356,195398,2,0,L|8:360,1,100,4|0,0:2|0:0,0:0:0:0:
360,348,195690,6,0,L|484:348,1,100,4|0,0:2|0:0,0:0:0:0:
300,264,195983,2,0,L|296:152,1,100,8|0,0:0|1:0,0:0:0:0:
416,156,196276,2,0,L|424:32,1,100,0|2,0:0|0:0,0:0:0:0:
144,160,196568,2,0,P|84:128|136:60,1,150,8|0,0:0|0:0,0:0:0:0:
376,324,196861,6,0,L|152:324,1,200,4|8,0:2|0:0,0:0:0:0:
420,244,197300,2,0,L|196:244,1,200,0|2,1:0|0:0,0:0:0:0:
472,176,197739,2,0,L|492:56,1,100,8|0,0:0|0:0,0:0:0:0:
164,356,198032,6,0,L|40:360,1,100,4|0,0:2|0:0,0:0:0:0:
224,284,198325,2,0,L|240:140,1,100,8|0,0:0|1:0,0:0:0:0:
108,168,198617,2,0,L|92:40,1,100,0|2,0:0|0:0,0:0:0:0:
332,168,198910,2,0,L|448:160,1,100,8|0,0:0|0:0,0:0:0:0:
184,164,199203,6,0,L|72:160,1,100,4|0,0:0|0:0,0:0:0:0:
316,92,199495,2,0,L|444:88,1,100,8|0,0:0|0:0,0:0:0:0:
148,232,199788,1,8,0:0:0:0:
102,219,199861,1,0,0:0:0:0:
96,172,199934,1,8,0:0:0:0:
136,148,200007,1,0,0:0:0:0:
304,140,200081,2,0,L|384:128,1,50,8|0,0:0|0:0,0:0:0:0:
160,80,200227,2,0,L|68:56,1,50,0|0,1:0|1:0,0:0:0:0:
368,356,200373,6,0,L|492:356,2,100,2|4|0,0:0|0:2|0:0,0:0:0:0:
216,356,200812,2,0,L|92:356,2,100,4|0|2,0:2|0:0|0:0,0:0:0:0:
368,280,201251,2,0,L|500:280,1,100,8|0,0:0|0:0,0:0:0:0:
172,276,201544,6,0,L|172:156,1,100,2|4,0:0|0:2,0:0:0:0:
328,156,201837,1,0,0:0:0:0:
278,156,201910,1,0,0:0:0:0:
228,156,201983,1,4,0:2:0:0:
376,272,202129,2,0,L|376:172,1,100,0|2,0:0|0:0,0:0:0:0:
220,152,202422,1,8,0:0:0:0:
270,152,202495,1,0,0:0:0:0:
320,152,202568,1,8,0:0:0:0:
104,356,202715,6,0,L|-20:356,2,100,2|4|0,0:0|0:2|0:0,0:0:0:0:
256,356,203154,2,0,L|380:356,2,100,4|0|2,0:2|0:0|0:0,0:0:0:0:
104,280,203593,2,0,L|-28:280,1,100,8|0,0:0|0:0,0:0:0:0:
332,272,203886,6,0,L|332:152,1,100,2|0,0:0|0:0,0:0:0:0:
176,152,204179,1,8,0:0:0:0:
226,152,204252,1,0,0:0:0:0:
276,152,204325,1,0,0:0:0:0:
128,268,204471,2,0,L|128:168,1,100,0|0,1:0|1:0,0:0:0:0:
284,148,204764,1,8,0:0:0:0:
234,148,204837,1,0,0:0:0:0:
184,148,204910,1,0,0:0:0:0:
456,136,205056,6,0,L|344:136,2,100,2|4|0,0:0|0:2|0:0,0:0:0:0:
152,136,205495,2,0,L|32:136,2,100,4|0|2,0:2|0:0|0:0,0:0:0:0:
384,132,205934,2,0,L|492:132,1,100,8|8,0:0|0:0,0:0:0:0:
128,352,206227,6,0,L|84:244,1,100,2|4,0:0|0:2,0:0:0:0:
212,196,206520,1,0,0:0:0:0:
436,352,206666,2,0,L|480:244,1,100,4|0,0:2|0:0,0:0:0:0:
352,196,206959,1,2,0:0:0:0:
128,192,207105,2,0,L|16:192,1,100,8|8,0:0|0:0,0:0:0:0:
352,176,207398,6,0,L|480:176,2,100,2|4|0,0:0|0:2|0:0,0:0:0:0:
128,172,207837,2,0,L|24:172,2,100,4|0|2,0:2|0:0|0:0,0:0:0:0:
388,156,208276,2,0,L|444:32,1,100,8|8,0:0|0:0,0:0:0:0:
172,360,208568,6,0,L|136:292,1,50,2|0,0:0|0:0,0:0:0:0:
304,288,208715,2,0,L|304:216,1,50,8|8,0:0|0:0,0:0:0:0:
232,208,208861,2,0,L|232:144,1,50,8|0,0:0|0:0,0:0:0:0:
400,148,209007,2,0,L|472:148,1,50,8|0,0:0|0:0,0:0:0:0:
400,148,209154,6,0,L|304:148,1,50,2|0,0:0|0:0,0:0:0:0:
112,148,209300,2,0,L|88:88,1,50,8|0,0:0|0:0,0:0:0:0:
240,68,209446,2,0,L|328:56,1,50,8|0,0:0|0:0,0:0:0:0:
444,48,209593,2,0,L|504:40,1,50,8|0,0:0|0:0,0:0:0:0:
164,348,209739,5,2,0:0:0:0:
115,343,209812,1,0,0:0:0:0:
82,307,209885,1,4,0:2:0:0:
81,258,209958,1,0,0:0:0:0:
112,221,210031,1,0,0:0:0:0:
161,214,210104,1,0,0:0:0:0:
348,348,210178,1,4,0:2:0:0:
396,343,210251,1,0,0:0:0:0:
429,307,210324,5,0,0:0:0:0:
430,258,210397,1,0,0:0:0:0:
399,221,210470,1,2,0:0:0:0:
350,214,210543,1,0,0:0:0:0:
148,220,210617,1,8,0:0:0:0:
98,221,210690,1,0,0:0:0:0:
53,200,210763,1,8,0:0:0:0:
21,162,210836,1,0,0:0:0:0:
272,352,210910,6,0,L|272:280,1,50,2|0,0:0|0:0,0:0:0:0:
208,272,211056,2,0,L|208:188,1,50,4|0,0:2|0:0,0:0:0:0:
304,256,211203,2,0,L|304:184,1,50,0|0,0:0|0:0,0:0:0:0:
240,176,211349,2,0,L|240:92,1,50,4|0,0:2|0:0,0:0:0:0:
332,108,211495,6,0,L|388:108,1,50,0|0,0:0|0:0,0:0:0:0:
304,56,211642,2,0,L|228:56,1,50,2|0,0:0|0:0,0:0:0:0:
352,108,211788,2,0,L|408:108,1,50,8|0,0:0|0:0,0:0:0:0:
324,56,211935,2,0,L|248:56,1,50,8|0,0:0|0:0,0:0:0:0:
72,360,212081,5,2,0:0:0:0:
44,319,212154,1,0,0:0:0:0:
42,269,212227,1,4,0:2:0:0:
68,227,212300,1,0,0:0:0:0:
112,205,212373,1,0,0:0:0:0:
161,210,212446,1,0,0:0:0:0:
440,360,212520,1,4,0:2:0:0:
467,319,212593,1,0,0:0:0:0:
469,269,212666,5,0,0:0:0:0:
443,227,212739,1,0,0:0:0:0:
399,205,212812,1,2,0:0:0:0:
350,210,212885,1,0,0:0:0:0:
128,220,212959,1,8,0:0:0:0:
81,207,213032,1,0,0:0:0:0:
60,164,213105,1,8,0:0:0:0:
81,120,213178,1,0,0:0:0:0:
127,108,213251,5,2,0:0:0:0:
348,100,213398,2,0,L|220:100,1,100,4|0,0:2|0:0,0:0:0:0:
480,364,213690,2,0,L|480:288,1,50,4|0,0:2|0:2,0:0:0:0:
308,288,213837,2,0,L|292:216,1,50,2|0,0:0|0:0,0:0:0:0:
364,208,213983,2,0,L|428:184,1,50,8|0,0:0|0:0,0:0:0:0:
336,128,214129,2,0,L|264:128,1,50,2|0,0:0|0:0,0:0:0:0:
84,128,214276,2,0,L|28:96,1,50,8|0,0:0|0:0,0:0:0:0:
336,368,214422,5,2,0:0:0:0:
384,364,214495,1,0,0:0:0:0:
419,329,214568,1,4,0:2:0:0:
421,280,214641,1,0,0:0:0:0:
391,242,214714,1,0,0:0:0:0:
343,233,214787,1,0,0:0:0:0:
140,368,214861,1,4,0:2:0:0:
91,364,214934,1,0,0:0:0:0:
56,329,215007,5,0,0:0:0:0:
54,280,215080,1,0,0:0:0:0:
84,242,215153,1,2,3:0:0:0:
132,233,215226,1,0,0:0:0:0:
328,236,215300,1,8,0:0:0:0:
377,237,215373,1,0,0:0:0:0:
425,223,215446,1,8,0:0:0:0:
467,195,215519,1,0,0:0:0:0:
220,184,215593,5,2,0:0:0:0:
170,186,215666,1,0,0:0:0:0:
122,173,215739,1,4,0:2:0:0:
81,145,215812,1,0,0:0:0:0:
50,105,215885,1,0,0:0:0:0:
34,58,215958,1,0,0:0:0:0:
292,184,216032,1,4,0:2:0:0:
341,186,216105,1,0,0:0:0:0:
389,173,216178,5,0,0:0:0:0:
430,145,216251,1,0,0:0:0:0:
461,105,216324,1,2,0:0:0:0:
477,58,216397,1,0,0:0:0:0:
196,188,216471,1,8,0:0:0:0:
147,198,216544,1,0,0:0:0:0:
97,191,216617,1,8,0:0:0:0:
53,168,216690,1,0,0:0:0:0:
380,352,216764,6,0,L|456:344,1,50,2|0,0:0|0:0,0:0:0:0:
236,292,216910,2,0,L|160:292,1,50,8|0,0:0|0:0,0:0:0:0:
236,292,217056,2,0,L|320:292,1,50,0|0,0:0|0:0,0:0:0:0:
72,292,217203,2,0,L|-4:292,1,50,8|0,0:0|0:0,0:0:0:0:
240,224,217349,6,0,L|296:224,1,50,2|0,0:0|0:0,0:0:0:0:
240,224,217495,2,0,L|152:224,1,50,8|0,0:0|0:0,0:0:0:0:
404,224,217642,2,0,L|408:152,1,50,0|0,0:0|0:0,0:0:0:0:
344,136,217788,2,0,L|272:136,1,50,8|0,0:0|0:0,0:0:0:0:
60,136,217934,5,2,0:0:0:0:
312,364,218081,1,8,0:0:0:0:
347,330,218154,1,0,0:0:0:0:
351,282,218227,1,0,0:0:0:0:
320,244,218300,1,0,0:0:0:0:
64,244,218373,1,8,0:0:0:0:
304,236,218520,5,2,0:0:0:0:
255,225,218593,1,0,0:0:0:0:
206,215,218666,1,0,0:0:0:0:
157,204,218739,1,0,0:0:0:0:
388,188,218812,2,0,P|440:148|364:88,1,150,2|0,0:0|0:0,0:0:0:0:
152,104,219105,6,0,L|88:104,1,50,8|0,0:1|0:0,0:0:0:0:
168,104,219251,2,0,L|240:104,1,50,0|0,0:0|0:0,0:0:0:0:
152,104,219398,2,0,L|88:104,1,50,8|0,0:0|0:0,0:0:0:0:
168,104,219544,2,0,L|240:104,1,50,0|0,0:0|0:0,0:0:0:0:
152,104,219690,2,0,L|88:104,1,50,2|0,0:0|0:0,0:0:0:0:
168,104,219836,2,0,L|240:104,1,50,0|0,0:0|0:0,0:0:0:0:
412,104,219983,2,0,P|460:72|392:28,1,150,8|0,0:0|0:0,0:0:0:0:
172,352,220276,6,0,L|48:352,1,100,8|0,0:1|0:0,0:0:0:0:
232,272,220568,2,0,L|104:272,1,100,8|0,0:0|0:0,0:0:0:0:
296,200,220861,2,0,L|180:200,1,100,2|0,0:0|0:0,0:0:0:0:
444,204,221154,2,0,P|492:168|432:120,1,150,8|0,0:0|0:0,0:0:0:0:
200,376,221446,6,0,L|192:280,1,50,8|0,0:1|0:0,0:0:0:0:
268,296,221593,2,0,L|280:232,1,50,0|0,0:0|0:0,0:0:0:0:
100,228,221739,2,0,L|24:224,1,50,0|0,0:0|0:0,0:0:0:0:
128,164,221885,2,0,L|192:164,1,50,0|0,0:0|0:0,0:0:0:0:
392,156,222032,6,0,L|324:160,1,50,8|0,0:1|0:0,0:0:0:0:
188,96,222178,2,0,L|124:96,1,50,0|0,0:0|0:0,0:0:0:0:
300,352,222324,2,0,L|316:264,1,50,0|0,0:0|0:0,0:0:0:0:
236,264,222471,2,0,L|224:192,1,50,0|0,0:0|0:0,0:0:0:0:
412,204,222617,6,0,L|484:204,1,50,2|0,0:0|0:0,0:0:0:0:
412,204,222764,2,0,L|344:204,1,50,0|0,0:0|0:0,0:0:0:0:
284,144,222910,2,0,L|284:80,1,50,8|0,0:0|0:0,0:0:0:0:
364,80,223056,2,0,L|364:16,1,50,0|0,0:0|0:0,0:0:0:0:
160,368,223203,6,0,L|88:368,1,50,2|0,0:0|0:0,0:0:0:0:
160,368,223349,2,0,L|236:368,1,50,2|0,0:0|0:0,0:0:0:0:
120,288,223495,2,0,L|44:288,1,50,8|0,0:0|0:0,0:0:0:0:
120,288,223642,2,0,L|176:288,1,50,0|0,0:0|0:0,0:0:0:0:
360,104,223788,6,0,L|424:104,1,50,8|0,0:1|0:0,0:0:0:0:
344,104,223934,2,0,L|272:104,1,50,0|0,0:0|0:0,0:0:0:0:
360,104,224081,2,0,L|424:104,1,50,8|0,0:0|0:0,0:0:0:0:
344,104,224227,2,0,L|272:104,1,50,0|0,0:0|0:0,0:0:0:0:
360,104,224373,2,0,L|424:104,1,50,2|0,0:0|0:0,0:0:0:0:
344,104,224519,2,0,L|272:104,1,50,0|0,0:0|0:0,0:0:0:0:
100,104,224666,2,0,P|52:72|120:28,1,150,8|0,0:0|0:0,0:0:0:0:
340,352,224959,6,0,L|464:352,1,100,8|0,0:1|0:0,0:0:0:0:
280,272,225251,2,0,L|408:272,1,100,8|0,0:0|0:0,0:0:0:0:
168,196,225544,2,0,L|52:196,1,100,2|0,0:0|0:0,0:0:0:0:
316,200,225837,2,0,P|364:164|304:116,1,150,8|0,0:0|0:0,0:0:0:0:
96,112,226129,6,0,L|28:112,1,50,4|0,0:2|0:0,0:0:0:0:
256,112,226276,2,0,L|312:112,1,50,0|0,0:0|0:0,0:0:0:0:
256,112,226422,2,0,L|188:112,1,50,8|0,0:0|0:0,0:0:0:0:
416,112,226568,2,0,L|484:112,1,50,4|0,1:2|0:0,0:0:0:0:
256,112,226715,6,0,L|160:112,1,50,0|0,0:0|0:0,0:0:0:0:
256,112,226861,2,0,L|312:112,1,50,8|0,0:0|0:0,0:0:0:0:
104,112,227007,2,0,L|48:88,1,50,4|0,1:2|0:0,0:0:0:0:
244,352,227154,2,0,L|248:276,1,50,0|0,0:0|0:0,0:0:0:0:
168,272,227300,6,0,L|160:208,1,50,2|0,0:0|0:0,0:0:0:0:
396,200,227446,2,0,L|472:188,1,50,2|0,0:0|0:0,0:0:0:0:
280,168,227593,2,0,L|212:156,1,50,8|0,0:0|0:0,0:0:0:0:
448,120,227739,2,0,L|376:96,1,50,8|0,0:0|0:0,0:0:0:0:
32,352,227885,6,0,L|104:336,1,50,6|0,0:0|0:0,0:0:0:0:
244,352,228032,2,0,L|304:336,1,50,0|0,0:0|0:0,0:0:0:0:
476,356,228178,2,0,L|416:336,1,50,4|0,0:2|0:0,0:0:0:0:
192,280,228324,2,0,L|116:260,1,50,0|0,0:0|0:0,0:0:0:0:
364,204,228471,6,0,L|480:204,2,110.000003356934,2|8|0,0:0|0:0|0:0,0:0:0:0:
120,200,228910,1,8,0:0:0:0:
264,120,229056,1,2,0:0:0:0:
404,120,229203,1,8,0:0:0:0:
264,120,229349,1,2,0:0:0:0:
404,120,229495,1,8,0:0:0:0:
112,324,229642,5,0,1:0:0:0:
256,324,229788,1,8,0:0:0:0:
112,324,229934,1,2,0:0:0:0:
416,336,230081,2,0,L|432:252,1,55.0000016784668,4|0,0:2|0:0,0:0:0:0:
360,248,230228,2,0,L|344:172,1,55.0000016784668,0|0,0:0|0:0,0:0:0:0:
268,204,230373,2,0,L|252:120,1,55.0000016784668,8|0,0:0|0:0,0:0:0:0:
324,116,230520,2,0,L|400:116,1,55.0000016784668,0|0,0:0|0:0,0:0:0:0:
448,60,230666,2,0,L|388:56,1,55.0000016784668,8|0,0:0|0:0,0:0:0:0:
136,348,230812,5,4,0:2:0:0:
81,347,230885,1,8,0:0:0:0:
36,317,230958,1,4,0:2:0:0:
15,267,231031,1,8,0:0:0:0:
252,244,231105,2,0,L|248:160,1,55.0000016784668,2|0,0:0|0:0,0:0:0:0:
76,136,231251,2,0,L|144:120,1,55.0000016784668,8|0,0:0|0:0,0:0:0:0:
312,96,231398,6,0,L|392:88,1,55.0000016784668,2|0,0:0|0:0,0:0:0:0:
168,352,231544,2,0,L|148:272,1,55.0000016784668,8|0,0:0|0:0,0:0:0:0:
300,280,231690,2,0,L|364:280,1,55.0000016784668,2|0,0:0|0:0,0:0:0:0:
496,220,231837,2,0,L|424:220,1,55.0000016784668,8|0,0:0|0:0,0:0:0:0:
228,248,231983,6,0,L|208:184,1,55.0000016784668,4|0,0:2|0:0,0:0:0:0:
288,176,232129,2,0,L|300:104,1,55.0000016784668,8|8,0:0|0:0,0:0:0:0:
124,248,232276,2,0,L|104:184,1,55.0000016784668,8|0,0:0|0:0,0:0:0:0:
184,176,232422,2,0,L|196:104,1,55.0000016784668,8|0,0:0|0:0,0:0:0:0:
32,116,232568,6,0,L|28:48,1,55.0000016784668,2|0,0:0|0:0,0:0:0:0:
224,24,232715,2,0,L|288:24,1,55.0000016784668,0|0,0:0|0:0,0:0:0:0:
424,352,232861,2,0,P|492:308|440:236,1,165.000005035401,2|0,0:0|0:0,0:0:0:0:
216,352,233154,6,0,L|140:352,1,55.0000016784668,4|0,0:0|0:0,0:0:0:0:
236,288,233300,2,0,L|304:288,1,55.0000016784668,0|0,0:0|0:0,0:0:0:0:
292,216,233446,2,0,L|220:216,1,55.0000016784668,0|0,0:0|0:0,0:0:0:0:
72,208,233593,2,0,L|28:136,1,55.0000016784668,8|0,0:0|0:0,0:0:0:0:
224,360,233739,6,0,L|300:344,1,55.0000016784668,2|0,0:0|0:0,0:0:0:0:
124,304,233885,2,0,L|112:228,1,55.0000016784668,0|0,0:0|0:0,0:0:0:0:
248,232,234032,2,0,L|320:232,1,55.0000016784668,2|0,0:0|0:0,0:0:0:0:
496,228,234178,2,0,L|416:232,1,55.0000016784668,0|0,0:0|0:0,0:0:0:0:
240,172,234324,6,0,L|172:172,1,55.0000016784668,2|0,0:0|0:0,0:0:0:0:
240,172,234471,2,0,L|312:168,1,55.0000016784668,8|0,0:0|0:0,0:0:0:0:
468,100,234617,2,0,L|388:88,1,55.0000016784668,2|8,0:0|0:0,0:0:0:0:
216,84,234764,2,0,L|132:72,1,55.0000016784668,8|0,0:0|0:0,0:0:0:0:
320,88,234910,6,0,L|408:68,1,55.0000016784668,2|0,0:0|0:0,0:0:0:0:
208,380,235056,2,0,L|120:368,1,55.0000016784668,2|0,0:0|0:0,0:0:0:0:
8,324,235203,2,0,L|96:304,1,55.0000016784668,0|0,0:0|0:0,0:0:0:0:
264,280,235349,2,0,L|348:264,1,55.0000016784668,8|0,0:0|0:0,0:0:0:0:
108,236,235495,6,0,L|88:164,1,55.0000016784668,8|0,0:0|0:0,0:0:0:0:
276,172,235642,2,0,L|332:168,1,55.0000016784668,8|0,0:0|0:0,0:0:0:0:
488,108,235788,2,0,L|416:100,1,55.0000016784668,0|0,0:0|0:0,0:0:0:0:
76,184,235934,2,0,L|44:128,1,55.0000016784668,8|0,0:0|0:0,0:0:0:0:
208,116,236081,6,0,L|284:116,1,55.0000016784668,8|0,0:0|0:0,0:0:0:0:
112,56,236227,2,0,L|32:56,1,55.0000016784668,0|0,0:0|0:0,0:0:0:0:
212,360,236373,2,0,L|304:344,1,55.0000016784668,8|0,0:0|0:0,0:0:0:0:
480,300,236520,2,0,L|392:288,1,55.0000016784668,0|0,0:0|0:0,0:0:0:0:
220,284,236666,6,0,L|204:224,1,55.0000016784668,2|0,0:0|0:0,0:0:0:0:
352,208,236812,2,0,L|364:144,1,55.0000016784668,0|0,0:0|0:0,0:0:0:0:
108,156,236959,2,0,L|24:152,1,55.0000016784668,2|0,0:0|0:0,0:0:0:0:
52,92,237105,2,0,L|124:88,1,55.0000016784668,0|0,0:0|0:0,0:0:0:0:
308,352,237251,6,0,L|392:344,1,55.0000016784668,2|0,0:0|0:0,0:0:0:0:
280,284,237398,2,0,L|192:272,1,55.0000016784668,8|0,0:0|0:0,0:0:0:0:
148,224,237544,2,0,L|224:216,1,55.0000016784668,0|0,0:0|0:0,0:0:0:0:
288,204,237690,2,0,L|360:192,1,55.0000016784668,8|0,0:0|0:0,0:0:0:0:
120,356,237837,6,0,P|60:324|152:256,1,200,4|0,1:2|0:0,0:0:0:0:
256,248,238276,2,0,L|460:248,1,200,0|0,0:0|0:0,0:0:0:0:
324,164,238715,2,0,L|200:164,1,100,0|0,0:0|0:0,0:0:0:0:
376,364,239007,6,0,P|480:240|332:72,1,400,0|0,0:0|0:0,0:0:0:0:
152,332,239885,2,0,P|80:304|104:236,1,150,0|0,0:0|0:0,0:0:0:0:
280,228,240178,6,0,L|488:232,1,200,4|0,1:2|0:0,0:0:0:0:
348,152,240617,2,0,L|132:152,1,200,0|0,0:0|0:0,0:0:0:0:
280,84,241056,2,0,L|392:84,1,100,0|0,0:0|0:0,0:0:0:0:
200,368,241349,6,0,P|96:244|244:76,1,400,0|0,0:0|0:0,0:0:0:0:
332,64,242081,2,0,L|404:64,1,50,8|0,0:0|0:0,0:0:0:0:
152,280,242227,2,0,L|72:280,1,50,0|0,0:0|0:0,0:0:0:0:
108,216,242373,2,0,L|168:216,1,50,0|0,0:0|0:0,0:0:0:0:
380,280,242520,6,0,P|448:252|368:176,1,200,8|0,0:1|0:0,0:0:0:0:
232,160,242959,2,0,P|172:132|252:60,1,200,0|0,0:0|0:0,0:0:0:0:
408,48,243398,2,0,L|484:48,1,50,0|0,0:0|0:0,0:0:0:0:
464,104,243544,2,0,L|384:104,1,50,0|0,0:0|0:0,0:0:0:0:
112,340,243690,6,0,P|44:304|120:244,1,200,4|0,1:2|0:0,0:0:0:0:
280,236,244129,2,0,P|352:196|268:152,1,200,0|8,0:0|0:0,0:0:0:0:
224,152,244495,1,0,0:0:0:0:
64,156,244568,2,0,L|8:156,1,50,0|0,0:0|0:0,0:0:0:0:
64,156,244715,2,0,L|148:156,1,50,0|0,0:0|0:0,0:0:0:0:
292,364,244861,6,0,L|292:304,1,50,4|0,0:2|0:0,0:0:0:0:
224,288,245007,2,0,L|224:208,1,50,0|0,0:0|0:0,0:0:0:0:
372,220,245154,2,0,L|432:200,1,50,2|0,0:0|0:0,0:0:0:0:
220,208,245300,6,0,L|112:208,1,100,8|0,0:0|0:0,0:0:0:0:
75,190,245519,1,0,0:0:0:0:
70,143,245592,1,2,0:0:0:0:
110,118,245665,1,0,0:0:0:0:
320,112,245739,2,0,L|448:112,1,100,8|0,0:0|0:0,0:0:0:0:
368,56,245959,1,0,0:0:0:0:
176,360,246032,6,0,L|176:284,1,50,2|0,0:0|0:0,0:0:0:0:
252,292,246178,2,0,L|336:292,1,50,2|0,0:0|0:0,0:0:0:0:
252,292,246324,2,0,L|176:292,1,50,8|0,0:0|0:0,0:0:0:0:
136,292,246471,2,0,L|136:216,1,50,2|0,0:0|0:0,0:0:0:0:
224,208,246617,6,0,L|252:152,1,50,2|0,0:0|0:0,0:0:0:0:
176,124,246764,2,0,L|120:84,1,50,2|0,0:0|0:0,0:0:0:0:
384,184,246910,2,0,P|448:152|392:88,1,150,8|0,0:0|0:0,0:0:0:0:
80,192,247203,6,0,L|228:192,2,110.000003356934,4|0|8,0:0|0:0|0:0,0:0:0:0:
440,192,247642,2,0,L|300:192,2,110.000003356934,2|0|2,0:0|0:0|0:0,0:0:0:0:
144,184,248081,2,0,L|16:184,1,110.000003356934,8|2,0:0|0:0,0:0:0:0:
344,336,248373,6,0,L|472:336,2,110.000003356934,4|0|8,1:2|0:0|0:0,0:0:0:0:
128,340,248812,2,0,L|8:340,2,110.000003356934,2|0|2,0:0|0:0|0:0,0:0:0:0:
356,264,249251,2,0,L|488:264,1,110.000003356934,8|0,0:0|0:0,0:0:0:0:
104,196,249544,6,0,L|232:196,2,110.000003356934,4|0|0,1:2|0:0|0:0,0:0:0:0:
476,188,249983,2,0,L|328:188,2,110.000003356934,2|0|2,0:0|0:0|0:0,0:0:0:0:
176,184,250422,2,0,L|24:184,1,110.000003356934,8|0,0:0|0:0,0:0:0:0:
336,344,250715,6,0,L|336:216,1,110.000003356934,4|0,1:2|0:0,0:0:0:0:
192,196,251007,2,0,L|104:196,2,55.0000016784668,8|0|0,0:0|0:0|0:0,0:0:0:0:
312,188,251300,1,2,0:0:0:0:
144,104,251446,1,2,0:0:0:0:
400,192,251593,2,0,P|456:160|380:80,1,165.000005035401,8|0,0:0|0:0,0:0:0:0:
136,348,251885,5,2,0:0:0:0:
94,312,251958,1,0,0:0:0:0:
79,260,252031,1,0,0:0:0:0:
96,209,252104,1,0,0:0:0:0:
139,175,252177,1,8,0:0:0:0:
193,172,252250,1,0,0:0:0:0:
400,352,252324,1,2,0:0:0:0:
441,316,252397,1,0,0:0:0:0:
456,264,252470,5,0,0:0:0:0:
439,213,252543,1,0,0:0:0:0:
396,179,252616,1,8,0:0:0:0:
342,176,252689,1,0,0:0:0:0:
172,180,252764,1,2,0:0:0:0:
204,135,252837,1,0,0:0:0:0:
252,110,252910,1,8,0:0:0:0:
306,109,252983,1,0,0:0:0:0:
116,352,253056,5,2,0:0:0:0:
62,344,253129,1,0,0:0:0:0:
28,302,253202,1,0,0:0:0:0:
29,249,253275,1,0,0:0:0:0:
66,210,253348,1,8,0:0:0:0:
120,205,253421,1,0,0:0:0:0:
348,204,253495,1,2,0:0:0:0:
400,193,253568,1,0,0:0:0:0:
434,151,253641,5,0,0:0:0:0:
434,97,253714,1,0,0:0:0:0:
399,56,253787,1,8,0:0:0:0:
346,46,253860,1,0,0:0:0:0:
168,136,253934,1,2,0:0:0:0:
113,134,254007,1,0,0:0:0:0:
62,114,254080,1,8,0:0:0:0:
21,77,254153,1,0,0:0:0:0:
168,348,254227,6,0,L|228:340,1,55.0000016784668,2|0,0:0|0:0,0:0:0:0:
416,312,254373,2,0,L|436:240,1,55.0000016784668,0|0,0:0|0:0,0:0:0:0:
224,240,254520,2,0,L|212:172,1,55.0000016784668,2|0,0:0|0:0,0:0:0:0:
296,152,254666,2,0,L|312:68,1,55.0000016784668,8|0,0:0|0:0,0:0:0:0:
128,88,254812,6,0,L|44:80,1,55.0000016784668,2|0,0:0|0:0,0:0:0:0:
240,84,254959,2,0,L|320:72,1,55.0000016784668,0|0,0:0|0:0,0:0:0:0:
480,76,255105,2,0,L|400:68,1,55.0000016784668,2|0,0:0|0:0,0:0:0:0:
180,352,255251,2,0,L|92:336,1,55.0000016784668,8|0,0:0|0:0,0:0:0:0:
320,300,255398,6,0,L|368:240,1,55.0000016784668,0|0,0:0|0:0,0:0:0:0:
188,224,255544,2,0,L|160:160,1,55.0000016784668,0|0,0:0|0:0,0:0:0:0:
232,140,255690,2,0,L|300:140,1,55.0000016784668,2|0,0:0|0:0,0:0:0:0:
280,72,255837,2,0,L|212:72,1,55.0000016784668,8|0,0:0|0:0,0:0:0:0:
56,172,255983,5,2,0:0:0:0:
27,127,256056,1,0,0:0:0:0:
46,77,256129,1,0,0:0:0:0:
97,63,256202,1,2,0:0:0:0:
456,172,256276,1,2,0:0:0:0:
484,127,256349,1,0,0:0:0:0:
465,77,256422,1,8,0:0:0:0:
414,63,256495,1,2,0:0:0:0:
148,368,256568,6,0,L|88:368,1,55.0000016784668,2|0,0:0|0:0,0:0:0:0:
264,288,256715,2,0,L|340:288,1,55.0000016784668,8|8,0:0|0:0,0:0:0:0:
252,220,256861,2,0,L|152:220,1,55.0000016784668,2|0,0:0|0:0,0:0:0:0:
404,216,257007,2,0,L|472:216,1,55.0000016784668,8|0,0:0|0:0,0:0:0:0:
240,152,257154,6,0,L|152:152,1,55.0000016784668,2|0,0:0|0:0,0:0:0:0:
268,84,257300,2,0,L|340:84,1,55.0000016784668,8|8,0:0|0:0,0:0:0:0:
124,368,257446,2,0,L|124:292,1,55.0000016784668,2|0,0:0|0:0,0:0:0:0:
200,288,257593,2,0,L|200:216,1,55.0000016784668,8|0,0:0|0:0,0:0:0:0:
48,220,257739,6,0,L|48:152,1,55.0000016784668,2|0,0:0|0:0,0:0:0:0:
232,148,257885,2,0,L|296:148,1,55.0000016784668,10|0,0:0|0:0,0:0:0:0:
232,148,258032,2,0,L|152:148,1,55.0000016784668,2|0,0:0|0:0,0:0:0:0:
360,344,258178,2,0,L|384:272,1,55.0000016784668,8|0,0:1|0:0,0:0:0:0:
208,284,258324,6,0,L|192:216,1,55.0000016784668,0|0,0:0|0:0,0:0:0:0:
268,208,258471,2,0,L|280:128,1,55.0000016784668,8|0,0:0|0:0,0:0:0:0:
80,140,258617,2,0,P|16:88|96:36,1,165.000005035401,6|0,0:0|0:0,0:0:0:0:
388,36,258910,5,8,0:0:0:0:
132,40,259056,1,8,0:0:0:0:
360,120,259349,5,8,0:0:0:0:
104,124,259495,1,8,0:0:0:0:
336,204,259788,5,10,1:3:0:0:
80,208,259934,1,8,0:0:0:0:
232,356,260081,6,0,L|252:292,1,55.0000016784668,10|0,0:0|0:0,0:0:0:0:
176,292,260227,2,0,L|160:232,1,55.0000016784668,8|0,0:0|0:0,0:0:0:0:
300,224,260373,2,0,L|348:152,1,55.0000016784668,8|0,1:3|0:0,0:0:0:0:
144,228,260520,2,0,L|108:180,1,55.0000016784668,2|0,0:0|0:0,0:0:0:0:
344,228,260666,2,0,L|412:192,1,55.0000016784668,8|0,1:3|0:0,0:0:0:0:
112,232,260812,2,0,L|48:200,1,55.0000016784668,8|0,0:0|0:0,0:0:0:0:
400,232,260959,2,0,L|476:200,1,55.0000016784668,10|0,0:0|0:0,0:0:0:0:
80,232,261105,2,0,L|8:208,1,55.0000016784668,0|0,0:0|0:0,0:0:0:0:
320,364,261251,6,0,B|332:367|488:300|496:224|496:224|496:388|260:384|184:380|176:188|176:188|180:0|336:8|480:16|480:160|480:160|484:376|188:344,1,1619.99995056152,4|0,0:0|0:0,0:0:0:0:
252,328,263300,2,0,P|340:292|372:196,1,179.999994506836,0|0,0:0|0:0,0:0:0:0:
200,360,263593,6,0,B|188:363|32:296|24:220|24:220|24:384|260:380|400:372|388:8|216:28,1,899.999972534181,0|0,0:0|0:0,0:0:0:0:
68,80,264764,5,0,0:0:0:0:
308,184,265056,2,0,L|184:184,1,100,8|8,0:0|0:0,0:0:0:0:
468,88,265349,1,4,0:2:0:0:
224,92,265641,2,0,L|348:92,1,100,8|8,0:0|0:0,0:0:0:0:
100,364,265934,6,0,P|48:336|132:256,1,200,2|0,0:2|0:0,0:0:0:0:
208,244,266373,2,0,L|412:244,1,200,0|0,0:0|0:0,0:0:0:0:
196,176,266812,2,0,L|88:176,1,100,0|0,0:0|0:0,0:0:0:0:
440,88,267105,6,0,L|32:88,1,400,4|8,0:1|0:0,0:0:0:0:
296,88,267544,2,0,L|48:88,1,200,2|0,0:0|0:0,0:0:0:0:
344,88,267983,2,0,L|208:88,1,100,8|0,0:0|0:0,0:0:0:0:
468,368,268276,6,0,L|492:312,1,59.9999981689454,2|0,0:0|0:0,0:0:0:0:
304,312,268422,1,8,0:0:0:0:
247,301,268495,1,0,0:0:0:0:
207,257,268568,1,0,0:0:0:0:
203,198,268641,1,0,0:0:0:0:
408,204,268715,1,8,0:0:0:0:
441,154,268788,1,0,0:0:0:0:
438,95,268861,5,2,0:0:0:0:
400,50,268934,1,0,0:0:0:0:
343,36,269007,1,8,0:0:0:0:
289,60,269080,1,0,0:0:0:0:
80,364,269154,2,0,L|8:364,1,59.9999981689454,8|0,0:0|0:0,0:0:0:0:
80,296,269300,2,0,L|184:296,1,59.9999981689454,0|0,0:0|0:0,0:0:0:0:
360,292,269446,6,0,L|376:200,1,59.9999981689454,8|0,0:0|0:0,0:0:0:0:
212,216,269593,2,0,L|144:216,1,59.9999981689454,0|0,0:0|0:0,0:0:0:0:
392,296,269739,2,0,L|408:204,1,59.9999981689454,8|0,0:0|0:0,0:0:0:0:
244,220,269886,2,0,L|176:220,1,59.9999981689454,0|0,0:0|0:0,0:0:0:0:
400,220,270032,6,0,L|472:220,1,59.9999981689454,2|0,0:0|0:0,0:0:0:0:
220,220,270178,2,0,L|192:136,1,59.9999981689454,2|2,0:0|0:0,0:0:0:0:
356,224,270324,2,0,L|428:224,1,59.9999981689454,8|0,0:0|0:0,0:0:0:0:
176,224,270470,2,0,L|88:224,1,59.9999981689454,2|0,0:0|0:0,0:0:0:0:
360,360,270617,6,0,L|408:248,1,110.000003356934,4|8,0:0|0:0,0:0:0:0:
256,248,270910,2,0,L|176:248,2,55.0000016784668,0|0|8,0:0|0:0|0:0,0:0:0:0:
380,244,271203,2,0,L|400:120,1,110.000003356934,2|8,0:0|0:0,0:0:0:0:
60,120,271495,1,2,0:0:0:0:
204,360,271642,6,0,L|320:360,2,110.000003356934,8|4|8,0:0|1:2|0:0,0:0:0:0:
60,272,272081,2,0,L|60:148,1,110.000003356934,0|8,0:0|0:0,0:0:0:0:
336,120,272373,2,0,L|452:120,1,110.000003356934,2|8,0:0|0:0,0:0:0:0:
184,56,272666,2,0,L|56:56,1,110.000003356934,2|8,0:0|0:0,0:0:0:0:
128,56,272885,1,0,0:0:0:0:
376,364,272959,6,0,L|376:284,1,55.0000016784668,6|0,0:0|0:0,0:0:0:0:
304,292,273105,2,0,L|304:204,1,55.0000016784668,8|0,0:0|0:0,0:0:0:0:
388,212,273251,2,0,L|460:212,1,55.0000016784668,2|0,0:0|0:0,0:0:0:0:
372,152,273398,2,0,L|300:152,1,55.0000016784668,8|0,0:0|0:0,0:0:0:0:
424,148,273544,5,2,0:0:0:0:
473,133,273617,1,0,0:0:0:0:
482,81,273690,1,8,0:0:0:0:
440,51,273763,1,0,0:0:0:0:
224,168,273837,1,2,0:0:0:0:
169,167,273910,1,0,0:0:0:0:
116,152,273983,1,0,0:0:0:0:
70,122,274056,1,0,0:0:0:0:
296,360,274129,6,0,L|296:272,1,55.0000016784668,4|0,1:2|0:0,0:0:0:0:
224,280,274276,2,0,L|124:280,1,55.0000016784668,8|0,0:0|0:0,0:0:0:0:
240,216,274422,2,0,L|312:216,1,55.0000016784668,2|0,0:0|0:0,0:0:0:0:
224,152,274568,2,0,L|224:64,1,55.0000016784668,8|0,0:0|0:0,0:0:0:0:
396,84,274715,6,0,L|456:84,1,55.0000016784668,2|0,0:0|0:0,0:0:0:0:
396,84,274861,2,0,L|328:84,1,55.0000016784668,8|0,0:0|0:0,0:0:0:0:
116,84,275007,2,0,L|56:84,1,55.0000016784668,2|0,0:0|0:0,0:0:0:0:
116,84,275153,2,0,L|184:84,1,55.0000016784668,0|0,0:0|0:0,0:0:0:0:
376,360,275300,6,0,L|488:360,1,110.000003356934,4|8,0:0|0:0,0:0:0:0:
324,284,275593,2,0,L|312:164,1,110.000003356934,0|8,0:0|0:0,0:0:0:0:
472,200,275885,2,0,L|484:56,1,110.000003356934,2|8,0:0|0:0,0:0:0:0:
128,184,276178,1,2,0:0:0:0:
272,192,276324,6,0,L|384:192,2,110.000003356934,8|4|8,0:0|1:2|0:0,0:0:0:0:
112,364,276764,2,0,L|44:272,1,110.000003356934,2|8,0:0|0:0,0:0:0:0:
184,256,277056,5,2,0:0:0:0:
233,236,277129,1,0,0:0:0:0:
246,185,277202,1,8,0:0:0:0:
213,144,277275,1,0,0:0:0:0:
52,128,277349,1,2,0:0:0:0:
23,82,277422,1,0,0:0:0:0:
42,33,277495,1,8,0:0:0:0:
92,16,277568,1,0,0:0:0:0:
344,344,277642,6,0,L|416:344,1,55.0000016784668,4|0,0:0|0:0,0:0:0:0:
192,352,277788,2,0,L|188:276,1,55.0000016784668,8|8,0:0|0:0,0:0:0:0:
260,280,277934,2,0,L|268:192,1,55.0000016784668,2|0,0:0|0:0,0:0:0:0:
88,208,278081,2,0,L|16:208,1,55.0000016784668,8|0,0:0|0:0,0:0:0:0:
276,192,278227,6,0,L|280:128,1,55.0000016784668,2|0,0:0|0:0,0:0:0:0:
204,120,278373,2,0,L|196:36,1,55.0000016784668,8|0,0:0|0:0,0:0:0:0:
368,48,278520,2,0,L|440:48,1,55.0000016784668,2|0,0:0|0:0,0:0:0:0:
200,44,278666,2,0,L|136:44,1,55.0000016784668,8|0,0:0|0:0,0:0:0:0:
368,356,278812,6,0,L|472:356,1,55.0000016784668,8|0,0:1|0:0,0:0:0:0:
488,296,278959,2,0,L|392:296,1,55.0000016784668,8|0,0:0|0:0,0:0:0:0:
352,296,279105,2,0,L|256:296,1,55.0000016784668,0|0,0:0|0:0,0:0:0:0:
224,296,279251,2,0,L|136:256,1,55.0000016784668,8|0,0:0|0:0,0:0:0:0:
360,200,279398,5,8,0:1:0:0:
406,176,279471,1,0,0:0:0:0:
405,124,279544,1,8,0:0:0:0:
358,101,279617,1,0,0:0:0:0:
184,104,279690,2,0,L|104:92,1,55.0000016784668,8|8,0:0|0:0,0:0:0:0:
324,104,279837,2,0,L|412:76,1,55.0000016784668,8|0,0:0|0:0,0:0:0:0:
184,348,279983,6,0,L|80:348,1,55.0000016784668,6|0,0:0|0:0,0:0:0:0:
52,276,280129,2,0,L|136:276,1,55.0000016784668,8|0,0:0|0:0,0:0:0:0:
188,272,280276,2,0,L|248:272,1,55.0000016784668,0|0,0:0|0:0,0:0:0:0:
412,264,280422,2,0,L|500:264,1,55.0000016784668,8|0,0:0|0:0,0:0:0:0:
392,188,280568,6,0,L|304:188,1,55.0000016784668,2|0,0:0|0:0,0:0:0:0:
256,116,280715,2,0,L|168:116,1,55.0000016784668,8|0,0:0|0:0,0:0:0:0:
424,104,280861,2,0,L|496:104,1,55.0000016784668,2|0,0:0|0:0,0:0:0:0:
400,36,281007,2,0,L|316:36,1,55.0000016784668,8|0,0:0|0:0,0:0:0:0:
132,344,281154,6,0,L|44:344,1,55.0000016784668,4|0,1:2|0:0,0:0:0:0:
152,280,281300,2,0,L|228:280,1,55.0000016784668,8|0,0:0|0:0,0:0:0:0:
292,280,281446,2,0,L|364:280,1,55.0000016784668,0|0,0:0|0:0,0:0:0:0:
96,212,281593,2,0,L|24:212,1,55.0000016784668,8|0,0:0|0:0,0:0:0:0:
128,152,281739,6,0,L|188:152,1,55.0000016784668,2|0,0:0|0:0,0:0:0:0:
104,80,281885,2,0,L|24:80,1,55.0000016784668,0|0,0:0|0:0,0:0:0:0:
284,180,282032,2,0,L|388:180,1,55.0000016784668,2|0,0:0|0:0,0:0:0:0:
420,112,282178,2,0,L|356:112,1,55.0000016784668,8|0,0:0|0:0,0:0:0:0:
160,360,282324,6,0,L|136:296,1,55.0000016784668,4|0,0:0|0:0,0:0:0:0:
224,284,282471,2,0,L|308:260,1,55.0000016784668,8|0,0:0|0:0,0:0:0:0:
360,212,282617,2,0,L|276:212,1,55.0000016784668,0|0,0:0|0:0,0:0:0:0:
96,208,282764,2,0,L|24:208,1,55.0000016784668,8|0,0:0|0:0,0:0:0:0:
124,148,282910,6,0,L|208:148,1,55.0000016784668,2|0,0:0|0:0,0:0:0:0:
268,144,283056,2,0,L|368:144,1,55.0000016784668,8|0,0:0|0:0,0:0:0:0:
160,76,283203,2,0,L|76:76,1,55.0000016784668,2|0,0:0|0:0,0:0:0:0:
28,28,283349,2,0,L|120:32,1,55.0000016784668,8|0,0:0|0:0,0:0:0:0:
344,364,283495,6,0,L|420:324,1,55.0000016784668,4|0,1:2|0:0,0:0:0:0:
308,288,283642,2,0,L|224:288,1,55.0000016784668,8|0,0:0|0:0,0:0:0:0:
172,288,283788,2,0,L|280:288,1,55.0000016784668,0|0,0:0|0:0,0:0:0:0:
416,216,283934,2,0,L|512:216,1,55.0000016784668,8|0,0:0|0:0,0:0:0:0:
384,152,284081,6,0,L|304:152,1,55.0000016784668,2|0,0:0|0:0,0:0:0:0:
416,88,284227,2,0,L|496:92,1,55.0000016784668,8|0,0:0|0:0,0:0:0:0:
248,76,284373,2,0,L|172:76,1,55.0000016784668,2|0,0:0|0:0,0:0:0:0:
112,76,284520,2,0,L|24:76,1,55.0000016784668,8|0,0:0|0:0,0:0:0:0:
216,356,284666,6,0,L|296:356,1,55.0000016784668,4|0,0:0|0:0,0:0:0:0:
356,356,284812,2,0,L|420:356,1,55.0000016784668,8|0,0:0|0:0,0:0:0:0:
496,352,284959,2,0,L|412:352,1,55.0000016784668,0|0,0:0|0:0,0:0:0:0:
296,356,285105,2,0,L|216:356,1,55.0000016784668,8|0,0:0|0:0,0:0:0:0:
156,356,285251,6,0,L|92:356,1,55.0000016784668,2|0,0:0|0:0,0:0:0:0:
16,352,285398,2,0,L|104:352,1,55.0000016784668,8|0,0:0|0:0,0:0:0:0:
276,248,285544,2,0,L|352:248,1,55.0000016784668,2|0,0:0|0:0,0:0:0:0:
404,244,285690,2,0,L|492:244,1,55.0000016784668,8|0,0:0|0:0,0:0:0:0:
260,180,285837,6,0,L|192:180,1,55.0000016784668,4|0,1:2|0:0,0:0:0:0:
120,180,285983,2,0,L|36:180,1,55.0000016784668,8|0,0:0|0:0,0:0:0:0:
148,104,286129,2,0,L|224:104,1,55.0000016784668,0|0,0:0|0:0,0:0:0:0:
288,96,286276,2,0,L|368:96,1,55.0000016784668,8|0,0:0|0:0,0:0:0:0:
148,376,286422,6,0,L|148:288,1,55.0000016784668,2|0,0:0|3:0,0:0:0:0:
224,300,286568,2,0,L|224:220,1,55.0000016784668,8|0,3:0|0:0,0:0:0:0:
64,232,286715,2,0,L|4:232,1,55.0000016784668,2|0,0:0|0:0,0:0:0:0:
64,232,286861,2,0,L|140:232,1,55.0000016784668,8|0,0:0|0:0,0:0:0:0:
376,224,287007,5,6,0:0:0:0:
429,217,287080,1,0,0:0:0:0:
465,177,287153,1,0,0:0:0:0:
466,123,287226,1,0,0:0:0:0:
432,82,287299,1,8,0:0:0:0:
379,73,287372,1,0,0:0:0:0:
160,224,287446,1,6,0:0:0:0:
106,217,287519,1,0,0:0:0:0:
70,177,287592,5,0,0:0:0:0:
69,123,287665,1,0,0:0:0:0:
103,82,287738,1,8,0:0:0:0:
156,73,287811,1,0,0:0:0:0:
368,72,287885,1,8,0:0:0:0:
421,69,287958,1,0,0:0:0:0:
464,103,288031,1,0,0:0:0:0:
474,155,288104,1,0,0:0:0:0:
180,352,288178,5,2,0:0:0:0:
312,272,288324,1,8,0:0:0:0:
257,272,288397,1,8,0:0:0:0:
202,272,288470,1,2,0:0:0:0:
344,188,288617,1,8,0:0:0:0:
96,184,288764,2,0,L|28:184,2,55.0000016784668,8|0|8,0:0|0:0|0:0,0:0:0:0:
208,176,289056,2,0,L|88:176,1,110.000003356934,2|0,0:0|0:0,0:0:0:0:
400,344,289349,6,0,P|456:300|372:200,1,220.000006713867,4|0,0:0|0:0,0:0:0:0:
280,200,289788,1,8,0:0:0:0:
56,196,289934,2,0,L|288:196,1,220.000006713867,2|2,0:0|0:0,0:0:0:0:
164,112,290373,2,0,L|92:112,1,55.0000016784668,0|8,0:0|0:0,0:0:0:0:
316,340,290520,6,0,L|316:216,1,110.000003356934,2|0,0:0|0:0,0:0:0:0:
160,220,290812,2,0,L|424:220,1,220.000006713867,2|8,0:0|0:0,0:0:0:0:
32,336,291251,2,0,L|180:336,2,110.000003356934,0|8|0,0:0|0:0|0:0,0:0:0:0:
384,328,291690,6,0,P|472:296|408:200,1,220.000006713867,4|8,0:0|0:0,0:0:0:0:
284,200,292129,1,8,0:0:0:0:
128,328,292276,2,0,P|56:280|132:208,1,220.000006713867,4|8,0:2|0:0,0:0:0:0:
244,208,292715,1,8,0:0:0:0:
480,352,292861,6,0,L|480:112,1,220.000006713867,8|0,0:0|0:0,0:0:0:0:
344,132,293300,1,0,0:0:0:0:
289,132,293373,1,0,0:0:0:0:
234,132,293446,1,2,0:0:0:0:
120,128,293593,1,0,0:0:0:0:
232,320,293739,2,0,L|348:320,1,110.000003356934,2|0,0:0|0:0,0:0:0:0:
80,360,294032,6,0,P|232:228|384:364,1,440.000013427735,4|0,0:2|0:0,0:0:0:0:
144,204,295051,5,2,0:0:0:0:
212,204,295126,1,0,0:0:0:0:
272,204,295201,1,8,0:0:0:0:
124,112,295356,1,0,0:0:0:0:
368,120,295643,1,8,0:0:0:0:
128,248,295998,1,0,0:0:0:0:
272,252,296194,1,8,0:0:0:0:
416,252,296414,1,0,0:0:0:0:
80,360,296650,6,0,L|80:148,1,200,4|2,0:0|0:0,0:0:0:0:
292,220,298152,6,0,L|424:220,1,100,8|0,0:0|0:0,0:0:0:0:
224,172,298893,2,0,L|92:172,1,100,8|0,0:0|0:0,0:0:0:0:
424,184,299906,1,4,0:0:0:0:
256,192,300074,12,4,309344,0:3:0:0:
92,200,310018,5,0,0:0:0:0:
412,196,310271,1,0,0:0:0:0:
92,204,310523,1,4,0:0:0:0:
