osu file format v14

[General]
AudioFilename: audio.mp3
AudioLeadIn: 0
PreviewTime: 66209
Countdown: 0
SampleSet: Soft
StackLeniency: 0.3
Mode: 0
LetterboxInBreaks: 0
WidescreenStoryboard: 1

[Editor]
Bookmarks: 39864,67206,79358,91510,97586,109738,121890,134042,146193,158345,173535,200877,213029,225181,237333,243409,255561,270750,288980
DistanceSpacing: 2
BeatDivisor: 8
GridSize: 4
TimelineZoom: 1.2

[Metadata]
Title:NO RAIN, NO RAINBOW
TitleUnicode:NO RAIN, NO RAINBOW
Artist:BABYMETAL
ArtistUnicode:BABYMETAL
Creator:Hysteria
Version:tokiko's Insane
Source:
Tags:j-pop j-rock pop rock kawaii heavy metal resistance su-metal yuimetal moametal lazyboy007 tokiko nao tomori naotoshi Joe Castle yShadowXOP_
BeatmapID:1704295
BeatmapSetID:585019

[Difficulty]
HPDrainRate:6
CircleSize:4.3
OverallDifficulty:8
ApproachRate:9
SliderMultiplier:1.9
SliderTickRate:2

[Events]
//Background and Video events
0,0,"BG_NO_RAIN_NO_RAINBOW_SCALED_FIXED.jpg",0,0
//Break Periods
//Storyboard Layer 0 (Background)
//Storyboard Layer 1 (Fail)
//Storyboard Layer 2 (Pass)
//Storyboard Layer 3 (Foreground)
//Storyboard Sound Samples

[TimingPoints]
3433,743.494423791822,4,2,10,30,1,0
3433,-133.333333333333,4,2,10,30,0,0
4920,759.493670886076,4,2,10,30,1,0
4920,-133.333333333333,4,2,10,30,0,0
6438,769.230769230769,4,2,10,30,1,0
6438,-133.333333333333,4,2,10,30,0,0
7976,757.575757575758,4,2,10,30,1,0
7976,-133.333333333333,4,2,10,30,0,0
11006,758.293838862559,4,2,10,30,1,0
11006,-133.333333333333,4,2,10,30,0,0
11742,784.313725490196,4,2,10,30,1,0
11742,-133.333333333333,4,2,10,30,0,0
12526,756.620428751576,4,2,10,30,1,0
12526,-133.333333333333,4,2,10,30,0,0
14039,761.421319796954,4,2,10,30,1,0
14039,-133.333333333333,4,2,10,30,0,0
15561,759.493670886076,4,2,10,30,1,0
36826,-100,4,3,5,45,0,0
37586,-100,4,3,7,45,0,0
37776,-100,4,3,5,45,0,0
37965,-100,4,3,12,45,0,0
38535,-100,4,3,12,45,0,0
38725,-100,4,3,11,45,0,0
39295,-100,4,3,10,45,0,0
39674,-100,4,3,1,45,0,0
39864,-100,4,3,2,45,0,0
48978,-100,4,3,2,45,0,0
49738,-100,4,3,2,45,0,0
52016,-100,4,3,3,45,0,0
54295,-100,4,3,2,45,0,0
59611,-100,4,3,5,45,0,0
59991,-100,4,3,7,45,0,0
60750,-100,4,3,10,45,0,0
61130,-100,4,3,2,45,0,0
61510,-100,4,3,5,45,0,0
61890,-100,4,3,2,45,0,0
62269,-100,4,3,5,45,0,0
62459,-100,4,3,2,45,0,0
63029,-100,4,3,5,45,0,0
63219,-100,4,3,12,45,0,0
63409,-100,4,3,11,45,0,0
63598,-100,4,3,12,45,0,0
63788,-100,4,3,11,45,0,0
63978,-100,4,3,11,45,0,0
64168,-100,4,3,8,80,0,0
64548,-100,4,3,8,80,0,0
64738,-100,4,3,1,45,0,0
64927,-100,4,3,9,80,0,0
65117,-100,4,3,1,45,0,0
65307,-100,4,3,9,80,0,0
65497,-100,4,3,1,45,0,0
65687,-100,4,3,9,80,0,0
66257,-100,4,3,1,45,0,0
66447,-100,4,3,2,60,0,1
67206,-80,4,3,1,60,0,1
67965,-80,4,3,2,60,0,1
68345,-80,4,3,5,60,0,1
68535,-80,4,3,2,60,0,1
68725,-80,4,3,7,60,0,1
69105,-80,4,3,5,60,0,1
69484,-80,4,3,2,60,0,1
69864,-80,4,3,5,60,0,1
70244,-80,4,3,2,60,0,1
71383,-80,4,3,5,60,0,1
71573,-80,4,3,2,60,0,1
71763,-80,4,3,7,60,0,1
72143,-80,4,3,5,60,0,1
72522,-80,4,3,2,60,0,1
72902,-80,4,3,5,60,0,1
73282,-80,4,3,1,60,0,1
73662,-80,4,3,5,60,0,1
74041,-80,4,3,2,60,0,1
74421,-80,4,3,5,60,0,1
74611,-80,4,3,2,60,0,1
74801,-80,4,3,7,60,0,1
75181,-80,4,3,5,60,0,1
75560,-80,4,3,2,60,0,1
75940,-80,4,3,5,60,0,1
76320,-80,4,3,1,60,0,1
76700,-80,4,3,5,60,0,1
76890,-80,4,3,1,60,0,1
77079,-80,4,3,2,60,0,1
77459,-80,4,3,5,60,0,1
77649,-80,4,3,2,60,0,1
77839,-80,4,3,1,60,0,1
78219,-80,4,3,5,60,0,1
78409,-80,4,3,1,60,0,1
78597,-80,4,3,2,60,0,1
78977,-80,4,3,5,60,0,1
79167,-80,4,3,2,60,0,1
79263,-80,4,3,2,60,0,0
79358,-80,4,3,1,60,0,1
80117,-80,4,3,2,60,0,1
80497,-80,4,3,5,60,0,1
80687,-80,4,3,2,60,0,1
80877,-80,4,3,7,60,0,1
81257,-80,4,3,5,60,0,1
81636,-80,4,3,2,60,0,1
82016,-80,4,3,5,60,0,1
82396,-80,4,3,2,60,0,1
83535,-80,4,3,5,60,0,1
83725,-80,4,3,2,60,0,1
83915,-80,4,3,7,60,0,1
84295,-80,4,3,5,60,0,1
84674,-80,4,3,2,60,0,1
85054,-80,4,3,5,60,0,1
85434,-80,4,3,1,60,0,1
85814,-80,4,3,5,60,0,1
86193,-80,4,3,2,60,0,1
86573,-80,4,3,5,60,0,1
86763,-80,4,3,2,60,0,1
86953,-80,4,3,7,60,0,1
87333,-80,4,3,5,60,0,1
87712,-80,4,3,2,60,0,1
88092,-80,4,3,5,60,0,1
88282,-80,4,3,2,60,0,1
88472,-80,4,3,1,60,0,1
88852,-80,4,3,5,60,0,1
89231,-80,4,3,2,60,0,1
89421,-80,4,3,10,60,0,1
89801,-80,4,3,1,60,0,1
90750,-80,4,3,2,60,0,1
90940,-80,4,3,1,60,0,1
91130,-80,4,3,5,60,0,1
91320,-80,4,3,2,60,0,1
91415,-80,4,3,1,60,0,0
91510,-80,4,3,1,60,0,1
91890,-80,4,3,5,60,0,1
92269,-80,4,3,2,60,0,1
92649,-80,4,3,5,60,0,1
93029,-80,4,3,2,60,0,1
93409,-64.5161290322581,4,3,1,60,0,1
93503,-64.5161290322581,4,3,12,60,0,1
93788,-80,4,3,11,60,0,1
94168,-80,4,3,10,60,0,1
94548,-80,4,3,1,60,0,1
94927,-80,4,3,5,60,0,1
95307,-80,4,3,2,60,0,1
95687,-80,4,3,5,60,0,1
95877,-80,4,3,2,60,0,1
96921,-80,4,3,1,60,0,0
97016,-200,4,3,1,60,0,1
97491,-200,4,3,1,5,0,1
97586,-100,4,3,3,45,0,0
97965,-100,4,3,5,45,0,0
98345,-100,4,3,2,45,0,0
98725,-100,4,3,5,45,0,0
99105,-100,4,3,7,45,0,0
99484,-100,4,3,5,45,0,0
99864,-100,4,3,2,45,0,0
100244,-100,4,3,5,45,0,0
100624,-100,4,3,7,45,0,0
101003,-100,4,3,5,45,0,0
101383,-100,4,3,2,45,0,0
101763,-100,4,3,5,45,0,0
102143,-100,4,3,7,45,0,0
102522,-100,4,3,5,45,0,0
102902,-100,4,3,2,45,0,0
102997,-100,4,3,12,45,0,0
103093,-100,4,3,11,45,0,0
103282,-100,4,3,10,45,0,0
103472,-100,4,3,3,45,0,0
104041,-100,4,3,5,45,0,0
104421,-100,4,3,2,45,0,0
104801,-100,4,3,5,45,0,0
105181,-100,4,3,7,45,0,0
105560,-100,4,3,5,45,0,0
105940,-100,4,3,2,45,0,0
106320,-100,4,3,5,45,0,0
106700,-100,4,3,7,45,0,0
107079,-100,4,3,5,45,0,0
107459,-100,4,3,2,45,0,0
107839,-100,4,3,5,45,0,0
108219,-100,4,3,7,45,0,0
108598,-100,4,3,3,45,0,0
108978,-100,4,3,2,45,0,0
109358,-100,4,3,10,45,0,0
109548,-100,4,3,2,45,0,0
109738,-100,4,3,13,80,0,0
109927,-100,4,3,3,45,0,0
110497,-100,4,3,2,45,0,0
111067,-100,4,3,3,45,0,0
111636,-100,4,3,2,45,0,0
112016,-100,4,3,11,45,0,0
112396,-100,4,3,10,45,0,0
112776,-100,4,3,2,45,0,0
112965,-100,4,3,3,45,0,0
113535,-100,4,3,2,45,0,0
114105,-100,4,3,3,45,0,0
114674,-100,4,3,2,45,0,0
115054,-100,4,3,10,45,0,0
115434,-100,4,3,3,45,0,0
116193,-100,4,3,5,45,0,0
116573,-100,4,3,2,45,0,0
116953,-100,4,3,5,45,0,0
117333,-100,4,3,3,45,0,0
117712,-100,4,3,5,45,0,0
118092,-100,4,3,2,45,0,0
118472,-100,4,3,3,45,0,0
118852,-100,4,3,13,80,0,0
120371,-100,4,3,8,45,0,0
120497,-100,4,3,3,45,0,0
120750,-100,4,3,11,45,0,0
120877,-100,4,3,10,45,0,0
121130,-100,4,3,2,45,0,0
121225,-100,4,3,10,45,0,0
121510,-100,4,3,11,45,0,0
121890,-100,4,3,8,80,0,0
122459,-100,4,3,3,45,0,0
122649,-100,4,3,2,45,0,0
123029,-100,4,3,5,45,0,0
123409,-100,4,3,7,45,0,0
123788,-100,4,3,5,45,0,0
124168,-100,4,3,2,45,0,0
124548,-100,4,3,5,45,0,0
124927,-100,4,3,7,45,0,0
125687,-100,4,3,2,45,0,0
126352,-100,4,3,2,5,0,0
126446,-100,4,3,7,45,0,0
126826,-100,4,3,5,45,0,0
127016,-100,4,3,2,45,0,0
127586,-100,4,3,5,45,0,0
127965,-100,4,3,1,45,0,0
128725,-100,4,3,2,45,0,0
129484,-100,4,3,7,45,0,0
129864,-100,4,3,5,45,0,0
130244,-100,4,3,2,45,0,0
130624,-100,4,3,5,45,0,0
131003,-100,4,3,1,45,0,0
131383,-100,4,3,5,45,0,0
131763,-100,4,3,2,45,0,0
132143,-100,4,3,5,45,0,0
132333,-100,4,3,2,45,0,0
132522,-100,4,3,1,45,0,0
132902,-100,4,3,5,45,0,0
133092,-100,4,3,2,45,0,0
133662,-100,4,3,5,45,0,0
133852,-100,4,3,2,45,0,0
134041,-100,4,3,9,80,0,0
134611,-100,4,3,1,45,0,0
134801,-100,4,3,2,45,0,0
135181,-100,4,3,5,45,0,0
135560,-100,4,3,7,45,0,0
135940,-100,4,3,5,45,0,0
136320,-100,4,3,2,45,0,0
136700,-100,4,3,5,45,0,0
137079,-100,4,3,1,45,0,0
137839,-100,4,3,2,45,0,0
138219,-100,4,3,5,45,0,0
138598,-100,4,3,7,45,0,0
138978,-100,4,3,5,45,0,0
139358,-100,4,3,2,45,0,0
139738,-100,4,3,5,45,0,0
140117,-100,4,3,1,45,0,0
140877,-100,4,3,2,45,0,0
141257,-100,4,3,5,45,0,0
141636,-100,4,3,7,45,0,0
142016,-100,4,3,5,45,0,0
142396,-100,4,3,2,45,0,0
142776,-100,4,3,5,45,0,0
143155,-100,4,3,1,45,0,0
143535,-100,4,3,5,45,0,0
143915,-100,4,3,2,45,0,0
144295,-100,4,3,5,45,0,0
144484,-100,4,3,2,45,0,0
144674,-100,4,3,3,45,0,0
145054,-100,4,3,2,45,0,0
145434,-100,4,3,1,45,0,0
145560,-100,4,3,12,45,0,0
145687,-100,4,3,11,45,0,0
145814,-100,4,3,2,45,0,0
145940,-100,4,3,10,45,0,0
146193,-100,4,3,8,80,0,0
146573,-100,4,3,5,45,0,0
146953,-100,4,3,2,45,0,0
148092,-100,4,3,5,45,0,0
148472,-100,4,3,2,45,0,0
148852,-100,4,3,5,45,0,0
149231,-100,4,3,3,45,0,0
149991,-100,4,3,2,45,0,0
151130,-100,4,3,5,45,0,0
151510,-100,4,3,2,45,0,0
151890,-100,4,3,5,45,0,0
152269,-100,4,3,3,45,0,0
153029,-100,4,3,2,45,0,0
153409,-100,4,3,5,45,0,0
153598,-100,4,3,2,45,0,0
154168,-100,4,3,5,45,0,0
154548,-100,4,3,2,45,0,0
154927,-100,4,3,5,45,0,0
155117,-100,4,3,2,45,0,0
155307,-100,4,3,3,45,0,0
155687,-100,4,3,5,45,0,0
156067,-100,4,3,2,45,0,0
156446,-100,4,3,5,45,0,0
156636,-100,4,3,2,45,0,0
156826,-100,4,3,3,45,0,0
157206,-100,4,3,5,45,0,0
157586,-100,4,3,2,45,0,0
157965,-100,4,3,5,45,0,0
158345,-100,4,3,9,80,0,0
158915,-100,4,3,1,45,0,0
159105,-100,4,3,2,45,0,0
159484,-100,4,3,5,45,0,0
159864,-100,4,3,7,45,0,0
160054,-100,4,3,2,45,0,0
160244,-100,4,3,5,45,0,0
160624,-100,4,3,2,45,0,0
161003,-100,4,3,5,45,0,0
161193,-100,4,3,2,45,0,0
161383,-100,4,3,1,45,0,0
161763,-100,4,3,5,45,0,0
162143,-100,4,3,2,45,0,0
162522,-100,4,3,5,45,0,0
162902,-100,4,3,1,45,0,0
163282,-100,4,3,5,45,0,0
163662,-100,4,3,2,45,0,0
164041,-100,4,3,5,45,0,0
164231,-100,4,3,2,45,0,0
164421,-100,4,3,1,45,0,0
165181,-100,4,3,2,45,0,0
165560,-100,4,3,5,45,0,0
165940,-100,4,3,1,45,0,0
166320,-100,4,3,5,45,0,0
166700,-100,4,3,2,45,0,0
167079,-100,4,3,5,45,0,0
167459,-100,4,3,1,45,0,0
167839,-100,4,3,5,45,0,0
168219,-100,4,3,2,45,0,0
168598,-100,4,3,5,45,0,0
168978,-100,4,3,1,45,0,0
169358,-100,4,3,5,45,0,0
169484,-100,4,3,2,45,0,0
169738,-100,4,3,2,45,0,0
169864,-100,4,3,12,45,0,0
169991,-100,4,3,11,45,0,0
170117,-100,4,3,5,45,0,0
170244,-100,4,3,10,45,0,0
170497,-100,4,3,8,80,0,0
173345,-100,4,2,10,5,0,0
173535,-100,4,2,10,30,0,0
193852,-100,4,3,2,45,0,0
194801,-100,4,3,1,45,0,0
195181,-100,4,3,5,45,0,0
195560,-100,4,3,2,45,0,0
195940,-100,4,3,5,45,0,0
196320,-100,4,3,2,45,0,0
196700,-100,4,3,5,45,0,0
196890,-100,4,3,2,45,0,0
197079,-100,4,3,12,45,0,0
197269,-100,4,3,11,45,0,0
197459,-100,4,3,10,45,0,0
197839,-100,4,3,9,80,0,0
198155,-100,4,3,9,5,0,0
198219,-100,4,3,9,80,0,0
198535,-100,4,3,9,5,0,0
198598,-100,4,3,9,80,0,0
198915,-100,4,3,9,5,0,0
198978,-100,4,3,9,80,0,0
199295,-100,4,3,9,5,0,0
199358,-100,4,3,9,80,0,0
199738,-100,4,3,9,5,0,0
199927,-100,4,3,2,45,0,0
200117,-100,4,3,2,60,0,1
200782,-100,4,3,1,60,0,0
200877,-80,4,3,1,60,0,1
201636,-80,4,3,2,60,0,1
202016,-80,4,3,5,60,0,1
202396,-80,4,3,7,60,0,1
202776,-80,4,3,5,60,0,1
203155,-80,4,3,2,60,0,1
203535,-80,4,3,5,60,0,1
204674,-80,4,3,2,60,0,1
205054,-80,4,3,5,60,0,1
205434,-80,4,3,7,60,0,1
205814,-80,4,3,5,60,0,1
206193,-80,4,3,2,60,0,1
206573,-80,4,3,5,60,0,1
206953,-80,4,3,1,60,0,1
207333,-80,4,3,5,60,0,1
207712,-80,4,3,2,60,0,1
208092,-80,4,3,5,60,0,1
208472,-80,4,3,7,60,0,1
208852,-80,4,3,5,60,0,1
209231,-80,4,3,2,60,0,1
209611,-80,4,3,5,60,0,1
209991,-80,4,3,1,60,0,1
210371,-80,4,3,5,60,0,1
210750,-80,4,3,2,60,0,1
211130,-80,4,3,5,60,0,1
211320,-80,4,3,2,60,0,1
211510,-80,4,3,1,60,0,1
211890,-80,4,3,5,60,0,1
212269,-80,4,3,2,60,0,1
212649,-80,4,3,5,60,0,1
212839,-80,4,3,2,60,0,1
212934,-80,4,3,1,60,0,0
213029,-80,4,3,1,60,0,1
213788,-80,4,3,2,60,0,1
214168,-80,4,3,5,60,0,1
214548,-80,4,3,7,60,0,1
214927,-80,4,3,5,60,0,1
215307,-80,4,3,2,60,0,1
215687,-80,4,3,5,60,0,1
216826,-80,4,3,2,60,0,1
217206,-80,4,3,5,60,0,1
217586,-80,4,3,7,60,0,1
217965,-80,4,3,5,60,0,1
218345,-80,4,3,2,60,0,1
218725,-80,4,3,5,60,0,1
219105,-80,4,3,1,60,0,1
219484,-80,4,3,5,60,0,1
219864,-80,4,3,2,60,0,1
220244,-80,4,3,5,60,0,1
220624,-80,4,3,7,60,0,1
221003,-80,4,3,5,60,0,1
221383,-80,4,3,2,60,0,1
221763,-80,4,3,5,60,0,1
221953,-80,4,3,2,60,0,1
222143,-80,4,3,1,60,0,1
222522,-80,4,3,5,60,0,1
222902,-80,4,3,2,60,0,1
223282,-80,4,3,2,60,0,1
223472,-80,4,3,11,60,0,1
223662,-79.9999999999999,4,3,1,60,0,1
224041,-79.9999999999999,4,3,5,60,0,1
224421,-79.9999999999999,4,3,2,60,0,1
224548,-79.9999999999999,4,3,10,60,0,1
224801,-79.9999999999999,4,3,5,60,0,1
224927,-79.9999999999999,4,3,10,60,0,1
225086,-80,4,3,2,60,0,0
225181,-80,4,3,1,60,0,1
225940,-80,4,3,2,60,0,1
226320,-80,4,3,5,60,0,1
226700,-80,4,3,7,60,0,1
227079,-80,4,3,5,60,0,1
227459,-80,4,3,2,60,0,1
227839,-80,4,3,5,60,0,1
228219,-80,4,3,2,60,0,1
228598,-80,4,3,5,60,0,1
228978,-80,4,3,2,60,0,1
229358,-80,4,3,5,60,0,1
229738,-80,4,3,7,60,0,1
230117,-80,4,3,5,60,0,1
230497,-80,4,3,2,60,0,1
230877,-80,4,3,5,60,0,1
231257,-80,4,3,1,60,0,1
231636,-80,4,3,5,60,0,1
232016,-80,4,3,2,60,0,1
232396,-80,4,3,5,60,0,1
232776,-80,4,3,7,60,0,1
233155,-80,4,3,5,60,0,1
233535,-80,4,3,2,60,0,1
233915,-80,4,3,5,60,0,1
234105,-80,4,3,2,60,0,1
234295,-80,4,3,1,60,0,1
235054,-80,4,3,2,60,0,1
235434,-80,4,3,5,60,0,1
235624,-80,4,3,2,60,0,1
235814,-80,4,3,1,60,0,1
236003,-80,4,3,2,60,0,1
236193,-80,4,3,5,60,0,1
236573,-80,4,3,2,60,0,1
236763,-80,4,3,1,60,0,1
237238,-80,4,3,2,60,0,0
237333,-80,4,3,1,60,0,1
238092,-80,4,3,2,60,0,1
238852,-80,4,3,1,60,0,1
239611,-80,4,3,2,60,0,1
240371,-80,4,3,2,60,0,1
240560,-80,4,3,12,60,0,1
240750,-80,4,3,11,60,0,1
240940,-80,4,3,12,60,0,1
241130,-80,4,3,11,60,0,1
241510,-80,4,3,10,60,0,1
241700,-80,4,3,11,60,0,1
241890,-80,4,3,10,60,0,1
242079,-80,4,3,11,60,0,1
242269,-80,4,3,10,60,0,1
242459,-80,4,3,2,60,0,1
242744,-80,4,3,2,60,0,0
242839,-80,4,3,1,60,0,1
243409,-100,4,3,3,45,0,0
244168,-100,4,3,2,45,0,0
244548,-100,4,3,5,45,0,0
244927,-100,4,3,7,45,0,0
245307,-100,4,3,5,45,0,0
245687,-100,4,3,2,45,0,0
246067,-100,4,3,5,45,0,0
246446,-100,4,3,7,45,0,0
247206,-100,4,3,2,45,0,0
247586,-100,4,3,5,45,0,0
247965,-100,4,3,7,45,0,0
248345,-100,4,3,5,45,0,0
248725,-100,4,3,2,45,0,0
249105,-100,4,3,5,45,0,0
249295,-100,4,3,2,45,0,0
249484,-100,4,3,3,45,0,0
250244,-100,4,3,2,45,0,0
250624,-100,4,3,5,45,0,0
251003,-100,4,3,7,45,0,0
251383,-100,4,3,5,45,0,0
251763,-100,4,3,2,45,0,0
252143,-100,4,3,5,45,0,0
252522,-100,4,3,3,45,0,0
252902,-100,4,3,5,45,0,0
253282,-100,4,3,2,45,0,0
253662,-100,4,3,5,45,0,0
253852,-100,4,3,2,45,0,0
254041,-100,4,3,3,45,0,0
254801,-100,4,3,2,45,0,0
255181,-100,4,3,5,45,0,0
255371,-100,4,3,2,45,0,0
255560,-100,4,3,8,80,0,0
255940,-100,4,3,5,45,0,0
256320,-100,4,3,2,45,0,0
256700,-100,4,3,5,45,0,0
256890,-100,4,3,2,45,0,0
257079,-100,4,3,7,45,0,0
257269,-100,4,3,2,45,0,0
257459,-100,4,3,5,45,0,0
257839,-100,4,3,2,45,0,0
258219,-100,4,3,5,45,0,0
258409,-100,4,3,2,45,0,0
258598,-100,4,3,3,45,0,0
259168,-100,4,3,2,45,0,0
260117,-100,4,3,3,45,0,0
260307,-100,4,3,11,45,0,0
260497,-100,4,3,10,45,0,0
260687,-100,4,3,2,45,0,0
261636,-100,4,3,3,45,0,0
262396,-100,4,3,2,45,0,0
263155,-100,4,3,7,45,0,0
263345,-100,4,3,2,45,0,0
263535,-100,4,3,5,45,0,0
263915,-100,4,3,2,45,0,0
264674,-100,4,3,3,45,0,0
265054,-100,4,3,5,45,0,0
265434,-100,4,3,2,45,0,0
265814,-100,4,3,5,45,0,0
266003,-100,4,3,2,45,0,0
266193,-100,4,3,3,45,0,0
266573,-100,4,3,2,45,0,0
266700,-100,4,3,12,45,0,0
266953,-100,4,3,3,45,0,0
267079,-100,4,3,11,45,0,0
267333,-100,4,3,2,45,0,0
267459,-100,4,3,10,45,0,0
267712,-300,4,3,9,80,0,0
270560,-300,4,2,10,5,0,0
270750,-133.333333333333,4,2,10,30,0,0
277586,789.473684210526,4,2,10,30,1,0
277586,-133.333333333333,4,2,10,30,0,0
279164,967.741935483871,4,2,10,30,1,0
279164,-133.333333333333,4,2,10,30,0,0
279647,727.272727272727,4,2,10,30,1,0
279647,-133.333333333333,4,2,10,30,0,0
280374,725.513905683192,4,2,10,30,1,0
282550,548.947849954254,4,2,10,30,1,0
283647,666.666666666667,4,2,10,40,1,0
283647,-151.515151515152,4,2,10,40,0,0
283980,-151.515151515152,4,2,10,35,0,0
284313,-151.515151515152,4,2,10,33,0,0
284647,-151.515151515152,4,2,10,31,0,0
284980,-151.515151515152,4,2,10,29,0,0
285313,-151.515151515152,4,2,10,27,0,0
285647,-151.515151515152,4,2,10,25,0,0
285980,-151.515151515152,4,2,10,23,0,0
286313,-151.515151515152,4,2,10,21,0,0
286647,-151.515151515152,4,2,10,19,0,0
286980,-151.515151515152,4,2,10,17,0,0
287313,-151.515151515152,4,2,10,15,0,0
287647,-151.515151515152,4,2,10,13,0,0
287980,-151.515151515152,4,2,10,11,0,0
288313,-151.515151515152,4,2,10,9,0,0
288647,-151.515151515152,4,2,10,7,0,0
288980,-151.515151515152,4,2,10,5,0,0

[Colours]
Combo1 : 106,106,106
Combo2 : 228,154,154
Combo3 : 228,191,154
Combo4 : 228,228,154
Combo5 : 154,191,228
Combo6 : 191,154,228
Combo7 : 228,154,191
Combo8 : 212,212,212

[HitObjects]
160,80,3433,102,0,L|232:68,1,71.2500027179719,2|0,0:0|0:0,0:0:0:0:
152,192,4176,2,0,L|80:180,1,71.2500027179719,2|0,0:0|0:0,0:0:0:0:
364,228,4920,6,0,L|292:216,1,71.2500027179719,2|0,0:0|0:0,0:0:0:0:
372,340,5679,2,0,L|444:328,1,71.2500027179719,2|0,0:0|0:0,0:0:0:0:
272,100,6438,102,0,L|200:88,1,71.2500027179719,2|0,0:0|0:0,0:0:0:0:
72,148,7207,1,2,0:0:0:0:
184,236,7591,1,2,0:0:0:0:
100,280,7976,6,0,L|108:356,1,71.2500027179719,2|0,0:0|0:0,0:0:0:0:
280,256,8733,2,0,L|273:327,1,71.2500027179719,2|0,0:0|0:0,0:0:0:0:
164,60,9491,102,0,P|228:36|304:24,1,142.500005435944,2|2,0:0|0:0,0:0:0:0:
300,24,10627,1,0,0:0:0:0:
212,192,11006,6,0,P|172:188|128:176,1,71.2500027179719,2|0,0:0|0:0,0:0:0:0:
256,116,11742,1,2,0:0:0:0:
376,192,12134,1,2,0:0:0:0:
480,164,12428,1,2,0:0:0:0:
480,164,12526,102,0,P|484:224|428:292,1,142.500005435944,2|2,0:0|0:0,0:0:0:0:
324,240,13660,1,0,0:0:0:0:
200,308,14039,6,0,P|160:300|116:296,1,71.2500027179719,2|0,0:0|0:0,0:0:0:0:
80,196,14705,1,2,0:0:0:0:
80,196,14800,2,0,P|140:184|216:176,1,124.687504756451,2|0,0:0|0:0,0:0:0:0:
240,184,15561,102,0,P|260:140|272:80,1,95,2|0,0:0|0:0,0:0:0:0:
152,184,16320,2,0,P|157:216|169:245,1,47.5,2|0,0:0|0:0,0:0:0:0:
244,280,16700,1,2,0:0:0:0:
328,236,16890,2,0,P|377:237|434:246,1,95,0|0,0:0|0:0,0:0:0:0:
486,168,17459,6,0,P|491:145|494:117,1,47.5,0|0,0:0|0:0,0:0:0:0:
380,112,17839,2,0,P|382:135|387:158,1,47.5,2|0,0:0|0:0,0:0:0:0:
424,244,18219,2,0,P|421:267|416:290,1,47.5,0|0,0:0|0:0,0:0:0:0:
312,348,18598,102,0,P|262:349|214:340,1,95,2|2,0:0|0:0,0:0:0:0:
148,272,19168,2,0,B|68:256|76:292|0:272,1,142.5,0|0,0:0|0:0,0:0:0:0:
7,273,20117,2,0,L|0:176,1,95,2|0,0:0|0:0,0:0:0:0:
172,96,20877,2,0,L|165:190,1,95,2|0,0:0|0:0,0:0:0:0:
412,336,21636,6,0,P|456:332|516:316,1,95,2|0,0:0|0:0,0:0:0:0:
440,192,22396,2,0,P|416:187|393:185,1,47.5,2|0,0:0|0:0,0:0:0:0:
300,208,22776,1,2,0:0:0:0:
216,168,22966,2,0,P|205:123|200:68,1,95,0|0,0:0|0:0,0:0:0:0:
125,133,23535,2,0,P|99:131|74:125,1,47.5,0|0,0:0|0:0,0:0:0:0:
60,35,23915,2,0,P|83:29|106:28,1,47.5,2|0,0:0|0:0,0:0:0:0:
200,74,24295,2,0,P|223:72|246:67,1,47.5,0|0,0:0|0:0,0:0:0:0:
337,37,24674,102,0,P|332:84|321:130,1,95,2|0,0:0|0:0,0:0:0:0:
321,130,25434,1,2,0:0:0:0:
256,200,25624,2,0,P|260:247|271:293,1,95,0|0,0:0|0:0,0:0:0:0:
356,336,26193,2,0,B|400:352|400:324|456:340,1,95,2|0,0:0|0:0,0:0:0:0:
504,156,26953,1,2,0:0:0:0:
504,156,27333,1,2,0:0:0:0:
416,192,27523,1,0,0:0:0:0:
308,140,27712,6,0,P|260:132|200:128,2,95,2|0|2,0:0|0:0|0:0,0:0:0:0:
308,140,28852,1,2,0:0:0:0:
396,104,29042,1,0,0:0:0:0:
472,196,29231,102,0,P|460:244|440:288,2,95,2|0|2,0:0|0:0|0:0,0:0:0:0:
472,196,30371,1,2,0:0:0:0:
412,124,30561,1,0,0:0:0:0:
316,192,30750,6,0,P|268:184|220:172,1,95,2|2,0:0|0:0,0:0:0:0:
176,92,31320,2,0,P|128:100|80:111,1,95,0|0,0:0|0:0,0:0:0:0:
83,111,31890,2,0,P|55:125|25:145,1,47.5,0|0,0:0|0:0,0:0:0:0:
104,264,32269,102,0,B|124:252|152:252|152:252|192:268|192:268|236:248|296:256,1,190,2|2,0:0|0:0,0:0:0:0:
286,254,33409,1,2,0:0:0:0:
376,288,33598,1,0,0:0:0:0:
484,192,33788,6,0,P|493:146|497:90,1,95,2|0,0:0|0:0,0:0:0:0:
496,98,34548,1,2,0:0:0:0:
496,98,34928,1,2,0:0:0:0:
408,132,35117,1,0,0:0:0:0:
320,92,35307,2,0,P|276:84|224:80,1,95,2|0,0:0|0:0,0:0:0:0:
40,128,36067,1,2,0:0:0:0:
40,128,36447,1,2,0:0:0:0:
112,192,36636,1,0,0:0:0:0:
20,364,36826,5,0,0:0:0:0:
20,364,37206,5,2,0:0:0:0:
66,278,37396,1,2,0:0:0:0:
112,192,37586,1,2,0:0:0:0:
160,328,37776,1,2,0:0:0:0:
284,256,37966,6,0,L|332:264,1,47.5,4|0,0:0|0:0,0:0:0:0:
228,164,38535,1,4,0:0:0:0:
228,164,38725,2,0,L|180:172,1,47.5,8|0,0:0|0:0,0:0:0:0:
284,72,39105,1,4,0:0:0:0:
380,121,39295,1,8,0:0:0:0:
324,213,39485,1,4,0:0:0:0:
228,164,39674,1,4,0:0:0:0:
44,204,39864,6,0,P|64:284|152:264,1,190,6|0,0:0|0:0,0:0:0:0:
151,265,41004,1,0,0:0:0:0:
256,320,41193,1,0,0:0:0:0:
344,240,41383,1,4,0:0:0:0:
344,240,41763,1,4,0:0:0:0:
256,72,42143,1,10,0:0:0:0:
300,156,42523,1,0,0:0:0:0:
388,324,42902,6,0,P|436:320|484:308,1,95,4|0,0:0|0:0,0:0:0:0:
512,192,43472,2,0,P|436:178|364:172,1,142.5,0|0,0:0|0:0,0:0:0:0:
276,192,44231,1,4,0:0:0:0:
172,132,44421,2,0,L|184:32,1,95,4|4,0:0|0:0,0:0:0:0:
372,60,45181,2,0,L|383:154,1,95,10|0,0:0|0:0,0:0:0:0:
256,364,45940,6,0,B|152:384|164:332|68:364,1,190,4|0,0:0|0:0,0:0:0:0:
69,363,47079,1,0,0:0:0:0:
16,256,47269,1,4,0:0:0:0:
64,148,47459,1,4,0:0:0:0:
64,148,47839,1,4,0:0:0:0:
252,160,48219,1,10,0:0:0:0:
158,154,48598,1,4,0:0:0:0:
346,166,48978,38,0,P|364:236|268:264,1,190,4|0,0:0|0:0,0:0:0:0:
270,265,49928,2,0,P|244:254|212:248,1,47.5,0|4,0:0|0:0,0:0:0:0:
132,264,50307,1,4,0:0:0:0:
76,160,50497,2,0,P|102:148|134:142,1,47.5,0|4,0:0|0:0,0:0:0:0:
216,160,51067,1,4,0:0:0:0:
348,104,51257,1,10,0:0:0:0:
348,104,51636,1,0,0:0:0:0:
282,133,51826,1,0,0:0:0:0:
414,77,52016,6,0,P|456:88|512:112,2,95,6|0|0,0:0|0:0|0:0,0:0:0:0:
414,77,53155,1,0,0:0:0:0:
364,156,53345,1,4,0:0:0:0:
228,116,53535,6,0,P|186:127|130:151,2,95,4|4|10,0:0|0:0|0:0,0:0:0:0:
228,116,54674,1,0,0:0:0:0:
278,195,54864,1,0,0:0:0:0:
424,160,55054,6,0,P|436:116|444:68,1,95,4|0,0:0|0:0,0:0:0:0:
319,52,55624,2,0,P|326:98|339:144,1,95,0|0,0:0|0:0,0:0:0:0:
339,144,56193,2,0,P|348:172|360:196,1,47.5,0|4,0:0|0:0,0:0:0:0:
224,244,56573,6,0,B|184:228|184:228|156:232|136:248|136:248|88:232|32:236,1,190,4|10,0:0|0:0,0:0:0:0:
43,235,57712,1,0,0:0:0:0:
108,332,57902,1,0,0:0:0:0:
224,244,58092,6,0,B|328:208|316:268|432:244,1,190,4|0,0:0|0:0,0:0:0:0:
410,247,59231,1,0,0:0:0:0:
488,160,59421,1,4,0:0:0:0:
304,192,59611,38,0,L|316:292,1,95,6|2,0:0|0:0,0:0:0:0:
404,348,60181,1,8,0:0:0:0:
404,348,60276,1,8,0:0:0:0:
404,348,60371,1,8,0:0:0:0:
410,247,60561,1,8,0:0:0:0:
256,368,60750,2,0,L|208:364,1,47.5,4|0,0:0|0:0,0:0:0:0:
44,192,61130,6,0,L|148:184,1,95,6|6,0:0|0:0,0:0:0:0:
260,112,61700,1,4,0:0:0:0:
260,112,61795,1,4,0:0:0:0:
260,112,61890,1,10,0:0:0:0:
136,44,62079,2,0,L|144:92,1,47.5,8|6,0:0|0:0,0:0:0:0:
232,216,62459,5,4,0:0:0:0:
232,216,62554,1,4,0:0:0:0:
232,216,62649,1,10,0:0:0:0:
356,148,62839,1,4,0:0:0:0:
424,272,63029,1,6,0:0:0:0:
300,340,63219,1,8,0:0:0:0:
372,128,63409,6,0,L|424:136,1,47.5,8|4,0:0|0:0,0:0:0:0:
328,244,63788,1,4,0:0:0:0:
196,192,63978,1,8,0:0:0:0:
388,108,64168,6,0,L|480:124,1,71.25,6|0,0:0|0:0,0:0:0:0:
488,160,64548,2,0,L|417:147,1,71.25,4|0,0:0|0:0,0:0:0:0:
328,244,64928,6,0,L|398:256,1,71.25,4|0,0:0|0:0,0:0:0:0:
492,276,65307,1,4,0:0:0:0:
428,348,65497,1,0,0:0:0:0:
388,108,65687,1,4,0:0:0:0:
388,108,66257,1,4,0:0:0:0:
380,116,66352,1,4,0:0:0:0:
372,124,66447,38,0,B|324:136|324:108|268:128,1,95,10|0,0:0|0:0,0:0:0:0:
192,164,67016,1,0,0:0:0:0:
80,20,67206,6,0,P|132:28|96:120,1,178.125,6|0,0:0|0:0,0:0:0:0:
12,204,67966,2,0,P|28:264|56:312,1,118.75,10|2,0:0|0:0,0:0:0:0:
168,352,68535,1,4,0:0:0:0:
316,248,68725,2,0,P|336:192|344:132,1,118.75,6|6,0:0|0:0,0:0:0:0:
124,224,69485,2,0,P|104:168|96:109,1,118.75,10|2,0:0|0:0,0:0:0:0:
176,24,70054,1,0,0:0:0:0:
312,143,70244,6,0,P|382:129|436:43,1,178.125,4|0,0:0|0:0,0:0:0:0:
321,27,71004,2,0,L|393:123,1,118.75,10|2,0:0|0:0,0:0:0:0:
468,216,71573,1,4,0:0:0:0:
372,288,71763,2,0,P|316:272|256:264,1,118.75,6|6,0:0|0:0,0:0:0:0:
140,296,72523,1,10,0:0:0:0:
140,296,72902,1,6,0:0:0:0:
256,88,73282,6,0,P|313:71|371:64,1,118.75,6|2,0:0|0:0,0:0:0:0:
488,92,73852,1,0,0:0:0:0:
424,192,74042,2,0,P|436:256|456:308,1,118.75,10|2,0:0|0:0,0:0:0:0:
356,372,74611,1,4,0:0:0:0:
272,288,74801,2,0,P|292:232|303:174,1,118.75,6|6,0:0|0:0,0:0:0:0:
280,56,75561,1,10,0:0:0:0:
280,56,75940,1,2,0:0:0:0:
392,92,76130,1,0,0:0:0:0:
220,152,76320,6,0,L|156:144,1,59.375,6|0,0:0|0:0,0:0:0:0:
109,27,76700,2,0,L|173:19,1,59.375,6|4,0:0|0:0,0:0:0:0:
392,92,77079,2,0,L|456:84,1,59.375,10|0,0:0|0:0,0:0:0:0:
500,192,77459,1,2,0:0:0:0:
460,304,77649,1,8,0:0:0:0:
300,224,77839,1,6,0:0:0:0:
260,336,78029,1,8,0:0:0:0:
148,300,78219,1,6,0:0:0:0:
188,188,78409,1,4,0:0:0:0:
180,176,78504,1,4,0:0:0:0:
172,164,78598,6,0,L|140:112,1,59.375,10|8,0:0|0:0,0:0:0:0:
80,12,78978,1,6,0:0:0:0:
48,96,79168,1,8,0:0:0:0:
211,24,79358,38,0,P|295:24|319:104,1,178.125,6|0,0:0|0:0,0:0:0:0:
240,192,80117,2,0,P|184:188|112:172,1,118.75,10|2,0:0|0:0,0:0:0:0:
20,112,80687,1,4,0:0:0:0:
56,288,80877,2,0,P|112:284|184:268,1,118.75,6|6,0:0|0:0,0:0:0:0:
116,40,81636,2,0,P|175:44|233:56,1,118.75,10|2,0:0|0:0,0:0:0:0:
328,128,82206,1,0,0:0:0:0:
188,236,82396,6,0,P|111:221|58:142,1,178.125,4|0,0:0|0:0,0:0:0:0:
174,119,83155,2,0,L|102:219,1,118.75,10|2,0:0|0:0,0:0:0:0:
35,313,83725,1,4,0:0:0:0:
144,364,83915,2,0,P|200:352|272:344,1,118.75,6|6,0:0|0:0,0:0:0:0:
380,356,84674,1,10,0:0:0:0:
380,356,85054,1,6,0:0:0:0:
492,148,85434,6,0,P|508:88|512:28,1,118.75,6|2,0:0|0:0,0:0:0:0:
404,80,86004,1,0,0:0:0:0:
296,32,86193,2,0,P|232:24|164:20,1,118.75,10|2,0:0|0:0,0:0:0:0:
72,80,86763,1,4,0:0:0:0:
112,192,86953,2,0,P|171:187|230:180,1,118.75,6|6,0:0|0:0,0:0:0:0:
340,132,87712,1,10,0:0:0:0:
340,132,88092,1,6,0:0:0:0:
324,248,88282,1,8,0:0:0:0:
228,100,88472,6,0,L|240:36,1,59.375,6|0,0:0|0:0,0:0:0:0:
116,68,88852,2,0,L|126:126,1,59.375,6|4,0:0|0:0,0:0:0:0:
324,248,89231,2,0,L|334:306,1,59.375,10|8,0:0|0:0,0:0:0:0:
220,340,89611,1,4,0:0:0:0:
108,296,89801,1,8,0:0:0:0:
228,164,89991,1,6,0:0:0:0:
116,120,90181,1,8,0:0:0:0:
164,12,90371,1,8,0:0:0:0:
276,56,90561,1,4,0:0:0:0:
288,52,90655,1,4,0:0:0:0:
300,48,90750,6,0,L|364:24,1,59.375,10|6,0:0|0:0,0:0:0:0:
456,92,91130,1,2,0:0:0:0:
440,4,91320,1,8,0:0:0:0:
360,152,91510,6,0,P|376:208|432:240,1,118.75,6|6,0:0|0:0,0:0:0:0:
425,238,92079,1,4,0:0:0:0:
272,324,92269,1,10,0:0:0:0:
349,281,92459,1,8,0:0:0:0:
349,281,92649,1,6,0:0:0:0:
204,376,92839,1,4,0:0:0:0:
204,376,92934,1,4,0:0:0:0:
204,376,93029,37,10,0:0:0:0:
272,324,93219,1,8,0:0:0:0:
176,212,93409,1,4,0:0:0:0:
158,179,93504,1,8,0:0:0:0:
152,143,93598,1,4,0:0:0:0:
157,107,93693,1,4,0:0:0:0:
173,74,93788,2,0,P|200:60|236:52,1,59.375,8|4,0:0|0:0,0:0:0:0:
344,84,94168,1,8,0:0:0:0:
256,164,94358,1,4,0:0:0:0:
352,316,94548,6,0,B|400:328|400:328|472:312,1,118.75,6|6,0:0|0:0,0:0:0:0:
500,200,95117,1,4,0:0:0:0:
352,316,95307,6,0,B|304:304|304:304|232:320,1,118.75,10|6,0:0|0:0,0:0:0:0:
124,356,95877,1,8,0:0:0:0:
112,348,95972,1,8,0:0:0:0:
100,340,96067,1,10,0:0:0:0:
60,228,96257,1,8,0:0:0:0:
176,196,96447,1,4,0:0:0:0:
216,308,96636,1,4,0:0:0:0:
222,312,96731,1,4,0:0:0:0:
228,316,96826,1,14,0:0:0:0:
380,244,97016,6,0,L|440:252,1,59.375,6|0,0:0|0:0,0:0:0:0:
464,276,97586,6,0,B|496:256|496:256|512:196,1,95,6|6,0:0|0:0,0:0:0:0:
484,108,98155,1,0,0:0:0:0:
348,144,98345,2,0,L|336:190,1,47.5,10|0,0:0|0:0,0:0:0:0:
244,212,98725,2,0,L|255:258,1,47.5,2|4,0:0|0:0,0:0:0:0:
284,348,99105,1,6,0:0:0:0:
284,348,99485,1,6,0:0:0:0:
192,320,99674,1,0,0:0:0:0:
328,264,99864,2,0,P|340:220|348:160,1,95,10|2,0:0|0:0,0:0:0:0:
336,76,100434,1,0,0:0:0:0:
208,136,100624,6,0,P|214:182|227:228,1,95,6|6,0:0|0:0,0:0:0:0:
272,312,101193,1,0,0:0:0:0:
140,260,101383,2,0,P|96:252|36:248,1,95,10|2,0:0|0:0,0:0:0:0:
0,332,101953,1,4,0:0:0:0:
92,168,102143,37,6,0:0:0:0:
92,168,102523,2,0,L|84:120,1,47.5,6|0,0:0|0:0,0:0:0:0:
192,76,102902,2,0,L|188:99,3,23.75,10|4|8|4,0:0|0:0|0:0|0:0,0:0:0:0:
236,96,103282,2,0,L|239:119,3,23.75,8|4|4|4,0:0|0:0|0:0|0:0,0:0:0:0:
279,77,103662,6,0,P|324:68|379:65,1,95,6|6,0:0|0:0,0:0:0:0:
468,76,104231,1,0,0:0:0:0:
512,212,104421,2,0,P|500:256|476:304,1,95,10|6,0:0|0:0,0:0:0:0:
392,344,104991,1,4,0:0:0:0:
324,280,105181,2,0,P|315:257|311:234,1,47.5,6|0,0:0|0:0,0:0:0:0:
412,220,105561,2,0,P|408:243|399:265,1,47.5,6|0,0:0|0:0,0:0:0:0:
304,368,105940,2,0,P|256:364|200:348,1,95,10|2,0:0|0:0,0:0:0:0:
142,284,106510,1,0,0:0:0:0:
10,338,106700,6,0,P|0:296|-4:244,1,95,6|6,0:0|0:0,0:0:0:0:
32,156,107269,1,0,0:0:0:0:
168,192,107459,2,0,P|178:150|182:98,1,95,10|2,0:0|0:0,0:0:0:0:
146,10,108029,1,0,0:0:0:0:
64,64,108219,5,6,0:0:0:0:
181,98,108409,1,8,0:0:0:0:
200,88,108598,1,6,0:0:0:0:
112,140,108788,1,8,0:0:0:0:
116,152,108883,1,8,0:0:0:0:
120,164,108978,1,10,0:0:0:0:
151,252,109168,1,8,0:0:0:0:
240,219,109358,1,4,0:0:0:0:
208,130,109548,1,4,0:0:0:0:
212,118,109643,1,4,0:0:0:0:
216,106,109738,5,6,0:0:0:0:
240,219,109928,2,0,B|248:260|248:260|224:316,1,95,6|4,0:0|0:0,0:0:0:0:
227,308,110402,1,4,0:0:0:0:
227,308,110497,1,10,0:0:0:0:
151,252,110687,1,4,0:0:0:0:
136,348,110877,1,4,0:0:0:0:
240,219,111067,6,0,B|272:208|272:208|332:219,1,95,14|4,0:0|0:0,0:0:0:0:
332,219,111542,1,4,0:0:0:0:
332,219,111636,1,10,0:0:0:0:
436,204,111826,1,8,0:0:0:0:
444,184,111921,1,8,0:0:0:0:
452,164,112016,1,8,0:0:0:0:
448,154,112111,1,8,0:0:0:0:
444,144,112206,1,4,0:0:0:0:
440,134,112301,1,4,0:0:0:0:
436,124,112396,2,0,L|448:88,1,23.75,8|8,0:0|0:0,0:0:0:0:
360,52,112586,2,0,L|367:74,1,23.75,4|4,0:0|0:0,0:0:0:0:
284,124,112776,37,10,0:0:0:0:
196,88,112966,2,0,B|180:124|180:124|192:188,1,95,6|4,0:0|0:0,0:0:0:0:
190,178,113440,1,4,0:0:0:0:
190,178,113535,1,10,0:0:0:0:
292,224,113725,1,4,0:0:0:0:
284,124,113915,1,4,0:0:0:0:
212,276,114105,6,0,B|172:284|172:284|104:272,1,95,14|4,0:0|0:0,0:0:0:0:
118,274,114579,1,4,0:0:0:0:
118,274,114674,1,10,0:0:0:0:
48,212,114864,1,0,0:0:0:0:
118,150,115054,1,8,0:0:0:0:
108,142,115149,1,8,0:0:0:0:
99,134,115244,1,4,0:0:0:0:
90,127,115339,1,4,0:0:0:0:
81,120,115434,2,0,L|61:104,1,23.75,8|0,0:0|0:0,0:0:0:0:
100,16,115624,2,0,L|118:30,1,23.75,8|0,0:0|0:0,0:0:0:0:
212,88,115814,6,0,B|244:96|244:96|312:88,1,95,10|6,0:0|0:0,0:0:0:0:
400,72,116383,1,4,0:0:0:0:
480,192,116573,6,0,B|448:200|448:200|380:192,1,95,10|6,0:0|0:0,0:0:0:0:
292,176,117143,1,0,0:0:0:0:
212,296,117333,6,0,B|244:304|244:304|312:296,1,95,10|6,0:0|0:0,0:0:0:0:
400,280,117902,1,4,0:0:0:0:
292,176,118092,5,10,0:0:0:0:
386,192,118282,1,4,0:0:0:0:
212,296,118472,1,10,0:0:0:0:
120,272,118662,1,4,0:0:0:0:
116,260,118757,1,0,0:0:0:0:
112,248,118852,6,0,L|88:168,1,71.25,6|0,0:0|0:0,0:0:0:0:
156,128,119231,2,0,L|176:196,1,71.25,4|0,0:0|0:0,0:0:0:0:
256,192,119611,2,0,L|235:123,1,71.25,4|0,0:0|0:0,0:0:0:0:
300,72,119991,2,0,L|320:140,1,71.25,4|0,0:0|0:0,0:0:0:0:
404,192,120371,38,0,L|413:161,2,31.6666666666667,6|8|8,0:0|0:0|0:0,0:0:0:0:
332,240,120750,2,0,L|341:270,2,31.6666666666667,4|8|4,0:0|0:0|0:0,0:0:0:0:
256,192,121130,2,0,L|263:169,1,23.75,10|4,0:0|0:0,0:0:0:0:
232,216,121320,2,0,L|239:238,1,23.75,8|8,0:0|0:0,0:0:0:0:
152,192,121510,2,0,L|159:169,1,23.75,4|4,0:0|0:0,0:0:0:0:
97,246,121700,2,0,L|104:268,1,23.75,8|8,0:0|0:0,0:0:0:0:
196,348,121890,6,0,B|296:372|288:320|384:348,1,190,6|10,0:0|0:0,0:0:0:0:
476,328,122839,1,0,0:0:0:0:
452,236,123029,1,2,0:0:0:0:
358,255,123219,1,0,0:0:0:0:
228,192,123409,2,0,P|220:156|216:112,1,71.25,6|0,0:0|0:0,0:0:0:0:
328,104,123788,2,0,P|324:139|316:174,1,71.25,0|0,0:0|0:0,0:0:0:0:
256,288,124168,2,0,L|204:284,1,47.5,10|0,0:0|0:0,0:0:0:0:
84,272,124548,2,0,L|131:275,1,47.5,2|0,0:0|0:0,0:0:0:0:
216,121,124928,6,0,P|228:64|160:36,1,142.5,2|0,0:0|0:0,0:0:0:0:
64,80,125687,2,0,B|48:100|48:124|48:124|68:160|68:160|64:200|40:232,1,166.25,10|0,0:0|0:0,0:0:0:0:
112,296,126447,2,0,P|160:280|208:272,1,95,6|6,0:0|0:0,0:0:0:0:
296,296,127016,1,0,0:0:0:0:
304,308,127111,1,0,0:0:0:0:
312,320,127206,2,0,L|304:368,1,47.5,10|0,3:0|3:0,0:0:0:0:
424,296,127586,2,0,L|416:249,1,47.5,6|0,0:0|0:0,0:0:0:0:
332,136,127966,6,0,P|400:148|464:112,1,142.5,6|0,0:0|0:0,0:0:0:0:
468,104,128630,1,0,0:0:0:0:
468,92,128725,2,0,P|460:68|444:40,1,47.5,10|0,0:0|0:0,0:0:0:0:
332,136,129105,2,0,P|321:157|313:179,1,47.5,0|0,0:0|0:0,0:0:0:0:
304,320,129485,6,0,P|256:300|208:292,1,95,6|6,0:0|0:0,0:0:0:0:
120,312,130054,1,0,0:0:0:0:
40,256,130244,2,0,P|35:235|32:208,1,47.5,10|0,0:0|0:0,0:0:0:0:
168,144,130624,2,0,P|165:167|160:190,1,47.5,6|0,0:0|0:0,0:0:0:0:
112,64,131004,6,0,P|156:48|208:52,1,95,6|6,0:0|0:0,0:0:0:0:
284,104,131573,1,4,0:0:0:0:
256,244,131763,38,0,P|212:228|160:232,1,95,10|6,0:0|0:0,0:0:0:0:
84,284,132333,1,0,0:0:0:0:
92,188,132523,1,6,0:0:0:0:
168,332,132712,1,8,0:0:0:0:
263,322,132902,1,6,0:0:0:0:
358,312,133092,1,4,0:0:0:0:
364,304,133187,1,0,0:0:0:0:
370,296,133282,5,10,0:0:0:0:
428,220,133472,1,8,0:0:0:0:
372,144,133662,1,6,0:0:0:0:
430,68,133852,1,8,0:0:0:0:
256,144,134042,6,0,B|216:160|172:160|172:160|128:144|64:152,1,190,6|10,0:0|0:0,0:0:0:0:
69,151,135181,1,6,0:0:0:0:
28,236,135371,1,0,0:0:0:0:
136,328,135561,2,0,B|184:340|180:312|232:328,1,95,6|6,0:0|0:0,0:0:0:0:
316,364,136130,1,0,0:0:0:0:
456,336,136320,2,0,L|464:280,1,47.5,10|0,0:0|0:0,0:0:0:0:
356,192,136700,2,0,L|350:145,1,47.5,6|0,0:0|0:0,0:0:0:0:
216,192,137079,6,0,P|152:168|72:160,1,142.5,6|0,0:0|0:0,0:0:0:0:
16,88,137839,2,0,P|59:69|106:60,1,95,10|6,0:0|0:0,0:0:0:0:
200,76,138409,1,0,0:0:0:0:
120,192,138598,2,0,P|124:240|136:288,1,95,6|6,0:0|0:0,0:0:0:0:
216,336,139168,1,0,0:0:0:0:
340,264,139358,2,0,P|366:256|396:253,1,47.5,10|0,0:0|0:0,0:0:0:0:
256,192,139738,2,0,P|230:184|200:181,1,47.5,6|0,0:0|0:0,0:0:0:0:
340,44,140117,6,0,P|424:36|472:124,1,190,6|10,0:0|0:0,0:0:0:0:
472,118,141257,1,6,0:0:0:0:
408,188,141447,1,0,0:0:0:0:
276,136,141636,2,0,P|228:128|176:124,1,95,6|6,0:0|0:0,0:0:0:0:
88,144,142206,1,0,0:0:0:0:
160,268,142396,2,0,P|166:245|169:217,1,47.5,10|0,0:0|0:0,0:0:0:0:
35,274,142776,2,0,P|37:297|43:320,1,47.5,6|0,0:0|0:0,0:0:0:0:
228,360,143155,6,0,B|288:348|288:348|332:360,1,95,6|6,0:0|0:0,0:0:0:0:
416,340,143725,1,4,0:0:0:0:
456,204,143915,38,0,B|396:192|396:192|352:204,1,95,10|6,0:0|0:0,0:0:0:0:
268,184,144485,1,10,0:0:0:0:
228,48,144674,6,0,L|263:41,2,31.6666666666667,6|8|8,0:0|0:0|0:0,0:0:0:0:
168,112,145054,2,0,L|133:105,2,31.6666666666667,10|4|4,0:0|0:0|0:0,0:0:0:0:
268,184,145434,6,0,L|303:177,2,31.6666666666667,6|4|4,0:0|0:0|0:0,0:0:0:0:
176,268,145814,2,0,L|141:261,2,31.6666666666667,6|8|4,0:0|0:0|0:0,0:0:0:0:
308,320,146193,6,0,B|344:312|344:312|404:320,1,95,6|6,0:0|0:0,0:0:0:0:
496,336,146763,1,4,0:0:0:0:
512,192,146953,1,10,0:0:0:0:
512,192,147333,1,0,0:0:0:0:
428,236,147523,1,4,0:0:0:0:
308,160,147712,6,0,B|272:152|272:152|212:160,1,95,4|6,0:0|0:0,0:0:0:0:
214,159,148472,2,0,L|158:151,1,47.5,10|0,0:0|0:0,0:0:0:0:
112,280,148852,2,0,L|168:272,1,47.5,2|0,0:0|0:0,0:0:0:0:
332,192,149231,6,0,B|348:160|348:160|340:92,1,95,6|0,0:0|0:0,0:0:0:0:
328,8,149801,1,4,0:0:0:0:
192,64,149991,1,10,0:0:0:0:
192,64,150371,1,0,0:0:0:0:
96,40,150561,1,4,0:0:0:0:
123,185,150750,38,0,L|111:281,1,95,4|6,0:0|0:0,0:0:0:0:
111,279,151510,2,0,L|118:338,1,47.5,10|0,0:0|0:0,0:0:0:0:
256,300,151890,2,0,L|261:252,1,47.5,2|0,0:0|0:0,0:0:0:0:
276,160,152269,5,6,0:0:0:0:
184,52,152459,2,0,B|148:40|148:40|92:44,1,95,0|4,0:0|0:0,0:0:0:0:
20,104,153029,2,0,B|32:136|32:136|16:208,1,95,10|2,0:0|0:0,0:0:0:0:
48,284,153598,1,4,0:0:0:0:
176,224,153788,6,0,L|224:232,1,47.5,4|0,0:0|0:0,0:0:0:0:
336,144,154168,2,0,L|288:152,1,47.5,6|0,0:0|0:0,0:0:0:0:
144,248,154548,6,0,L|192:256,1,47.5,10|0,0:0|0:0,0:0:0:0:
368,168,154928,2,0,L|320:176,1,47.5,6|8,0:0|0:0,0:0:0:0:
112,272,155307,6,0,L|208:288,1,95,6|6,0:0|0:0,0:0:0:0:
300,308,155877,1,4,0:0:0:0:
336,144,156067,6,0,L|240:160,1,95,10|6,0:0|0:0,0:0:0:0:
148,180,156636,1,8,0:0:0:0:
68,132,156826,2,0,L|20:140,1,47.5,6|0,0:0|0:0,0:0:0:0:
0,232,157206,1,6,0:0:0:0:
76,288,157396,2,0,L|72:312,2,15.8333333333333,0|4|0,0:0|0:0|0:0,0:0:0:0:
152,232,157586,2,0,L|145:200,2,31.6666666666667,10|0|0,0:0|0:0|0:0,0:0:0:0:
228,288,157966,2,0,L|221:319,2,31.6666666666667,6|0|0,0:0|0:0|0:0,0:0:0:0:
312,192,158345,38,0,P|380:180|464:176,1,142.5,6|4,0:0|0:0,0:0:0:0:
508,100,159105,2,0,P|496:76|488:52,1,47.5,10|0,0:0|0:0,0:0:0:0:
400,24,159485,2,0,P|391:46|381:67,1,47.5,2|4,0:0|0:0,0:0:0:0:
296,108,159864,5,6,0:0:0:0:
156,84,160054,1,10,0:0:0:0:
236,48,160244,1,6,0:0:0:0:
204,192,160434,1,4,0:0:0:0:
196,204,160529,1,4,0:0:0:0:
188,216,160624,1,10,0:0:0:0:
96,244,160814,2,0,L|84:264,2,23.75,4|4|6,0:0|0:0|0:0,0:0:0:0:
168,308,161193,1,10,0:0:0:0:
116,148,161383,6,0,B|108:116|108:116|120:52,1,95,6|6,0:0|0:0,0:0:0:0:
260,20,161953,1,4,0:0:0:0:
260,20,162048,1,0,0:0:0:0:
260,20,162143,2,0,B|268:52|268:52|256:116,1,95,10|2,0:0|0:0,0:0:0:0:
388,192,162712,1,4,0:0:0:0:
388,192,162807,1,0,0:0:0:0:
388,192,162902,2,0,B|380:159|380:159|392:95,1,95,6|6,0:0|0:0,0:0:0:0:
512,24,163472,5,4,0:0:0:0:
512,24,163567,1,4,0:0:0:0:
512,24,163662,1,10,0:0:0:0:
484,116,163852,1,8,0:0:0:0:
391,99,164042,1,6,0:0:0:0:
308,140,164231,1,8,0:0:0:0:
140,52,164421,6,0,P|92:44|40:40,1,95,6|0,0:3|0:0,0:0:0:0:
0,124,164991,1,4,0:3:0:0:
124,192,165181,1,10,0:3:0:0:
216,164,165371,1,4,0:3:0:0:
228,168,165466,1,4,0:0:0:0:
240,172,165561,1,6,0:0:0:0:
204,260,165750,1,4,0:0:0:0:
160,92,165940,6,0,L|168:40,1,47.5,6|0,0:3|0:3,0:0:0:0:
256,12,166320,1,6,0:3:0:0:
328,76,166510,1,4,0:3:0:0:
340,72,166605,1,4,0:0:0:0:
352,68,166700,2,0,L|344:114,1,47.5,10|4,0:0|0:0,0:0:0:0:
328,208,167079,1,6,0:0:0:0:
196,264,167269,1,4,0:0:0:0:
184,260,167364,1,0,0:0:0:0:
172,256,167459,38,0,L|166:224,2,31.6666666666667,6|0|0,0:0|0:0|0:0,0:0:0:0:
148,276,167839,2,0,L|142:307,2,31.6666666666667,6|0|0,0:0|0:0|0:0,0:0:0:0:
256,208,168219,6,0,L|264:161,2,31.6666666666667,10|0|0,0:0|0:0|0:0,0:0:0:0:
292,238,168598,2,0,L|300:284,2,31.6666666666667,6|0|0,0:0|0:0|0:0,0:0:0:0:
120,148,168978,6,0,L|111:101,2,31.6666666666667,6|8|8,0:0|0:0|0:0,0:0:0:0:
66,193,169358,2,0,L|57:239,2,31.6666666666667,6|8|8,0:0|0:0|0:0,0:0:0:0:
280,88,169738,6,0,L|288:41,2,31.6666666666667,6|4|8,0:0|0:0|0:0,0:0:0:0:
361,155,170117,2,0,L|369:201,2,31.6666666666667,6|8|4,0:0|0:0|0:0,0:0:0:0:
256,192,170497,5,6,0:0:0:0:
256,192,170687,12,0,173345,0:0:0:0:
68,248,173535,22,0,P|76:296|88:340,1,95,2|0,0:0|0:0,0:0:0:0:
220,288,174295,2,0,P|224:264|227:241,1,47.5,2|0,0:0|0:0,0:0:0:0:
216,148,174674,1,0,0:0:0:0:
276,76,174864,2,0,P|328:68|372:64,1,95,0|0,0:0|0:0,0:0:0:0:
460,96,175434,6,0,P|455:123|444:148,1,47.5,0|0,0:0|0:0,0:0:0:0:
364,216,175814,2,0,P|355:193|351:170,1,47.5,2|0,0:0|0:0,0:0:0:0:
256,156,176193,2,0,P|252:179|243:201,1,47.5,0|0,0:0|0:0,0:0:0:0:
160,292,176573,102,0,P|208:304|256:308,1,95,2|2,0:0|0:0,0:0:0:0:
336,260,177143,2,0,B|416:236|404:276|484:260,1,142.5
476,261,178092,2,0,L|484:165,1,95,2|0,0:0|0:0,0:0:0:0:
312,84,178852,2,0,L|319:178,1,95,2|0,0:0|0:0,0:0:0:0:
40,136,179611,6,0,P|88:120|136:112,1,95,2|0,0:0|0:0,0:0:0:0:
240,204,180371,2,0,P|214:195|186:187,1,47.5,2|0,0:0|0:0,0:0:0:0:
100,212,180750,1,0,0:0:0:0:
40,136,180940,2,0,P|28:88|24:32,1,95,0|0,0:0|0:0,0:0:0:0:
116,17,181510,2,0,P|111:40|103:62,1,47.5,0|0,0:0|0:0,0:0:0:0:
192,99,181890,2,0,P|196:122|204:144,1,47.5,2|0,0:0|0:0,0:0:0:0:
296,192,182269,2,0,P|291:215|283:237,1,47.5,0|0,0:0|0:0,0:0:0:0:
212,300,182649,102,0,P|164:292|116:288,1,95,2|0,0:0|0:0,0:0:0:0:
117,288,183409,1,2,0:0:0:0:
36,240,183598,2,0,P|52:192|60:144,1,95,0|0,0:0|0:0,0:0:0:0:
32,56,184168,2,0,B|84:36|80:68|132:56,1,95,2|0,0:0|0:0,0:0:0:0:
308,8,184928,1,2,0:0:0:0:
308,8,185307,1,2,0:0:0:0:
228,60,185497,1,0,0:0:0:0:
284,164,185687,6,0,P|276:216|264:256,2,95,2|0|2,0:0|0:0|0:0,0:0:0:0:
284,164,186826,1,2,0:0:0:0:
192,192,187016,1,0,0:0:0:0:
88,136,187206,2,0,P|36:128|-8:124,2,95,2|0|2,0:0|0:0|0:0,0:0:0:0:
88,136,188345,1,2,0:0:0:0:
48,224,188535,1,0,0:0:0:0:
108,324,188725,102,0,P|156:312|208:308,1,95,2|2,0:0|0:0,0:0:0:0:
292,344,189295,2,0,P|337:355|385:359,1,95,0|0,0:0|0:0,0:0:0:0:
385,359,189864,2,0,P|410:353|442:339,1,47.5,0|0,0:0|0:0,0:0:0:0:
496,220,190244,6,0,B|520:124|464:124|496:32,1,190,2|2,0:0|0:0,0:0:0:0:
495,33,191383,1,2,0:0:0:0:
408,68,191573,1,0,0:0:0:0:
268,36,191763,102,0,P|220:28|164:24,1,95,2|2,0:0|0:0,0:0:0:0:
80,48,192333,1,0,0:0:0:0:
108,140,192523,1,2,0:0:0:0:
201,116,192712,1,0,0:0:0:0:
312,160,192902,1,2,0:0:0:0:
256,236,193092,1,0,0:0:0:0:
340,352,193282,22,0,L|440:348,1,95,2|0,0:0|0:0,0:0:0:0:
500,220,193852,2,0,L|496:200,2,15.8333333333333,4|4|4,0:0|0:0|0:0,0:0:0:0:
484,248,194042,1,10,0:0:0:0:
398,203,194231,2,0,B|364:192|364:192|300:196,1,95,8|8,0:0|0:0,0:0:0:0:
144,300,194801,6,0,L|44:296,1,95,6|2,0:0|0:0,0:0:0:0:
4,212,195371,2,0,L|8:176,1,31.6666666666667,4|4,0:0|0:0,0:0:0:0:
24,152,195561,1,10,0:0:0:0:
160,192,195750,6,0,L|220:188,1,47.5,8|2,0:0|0:0,0:0:0:0:
296,156,196130,2,0,L|292:120,1,31.6666666666667,4|4,0:0|0:0,0:0:0:0:
276,96,196320,1,10,0:0:0:0:
148,36,196510,6,0,L|88:32,1,47.5,8|6,0:0|0:0,0:0:0:0:
24,152,196890,1,10,0:0:0:0:
96,284,197079,2,0,B|132:296|132:296|192:284,1,95,4|8,0:0|3:0,0:0:0:0:
304,252,197649,1,4,0:0:0:0:
480,324,197839,6,0,L|484:240,1,79.1666666666667,4|0,0:0|0:0,0:0:0:0:
396,208,198219,2,0,L|392:287,1,79.1666666666667,4|0,0:0|0:0,0:0:0:0:
300,331,198598,6,0,L|304:247,1,79.1666666666667,4|0,0:0|0:0,0:0:0:0:
208,251,198978,2,0,L|211:330,1,79.1666666666667,4|0,0:0|0:0,0:0:0:0:
256,192,199358,38,0,L|256:96,1,95,4|0,0:0|0:0,0:0:0:0:
256,97,199928,1,4,0:0:0:0:
244,92,200023,1,4,0:0:0:0:
232,87,200117,2,0,B|184:64|184:96|136:79,1,95,10|0,0:0|0:0,0:0:0:0:
60,24,200687,1,0,0:0:0:0:
0,192,200877,6,0,P|32:244|136:220,1,178.125,6|0,0:0|0:0,0:0:0:0:
232,160,201636,2,0,P|288:144|352:140,1,118.75,10|2,0:0|0:0,0:0:0:0:
464,164,202206,1,4,0:0:0:0:
404,332,202396,2,0,P|344:328|287:311,1,118.75,6|6,0:0|0:0,0:0:0:0:
204,88,203155,2,0,P|144:91|87:108,1,118.75,10|2,0:0|0:0,0:0:0:0:
0,192,203725,1,0,0:0:0:0:
156,280,203915,6,0,P|236:268|292:192,1,178.125,4|0,0:0|0:0,0:0:0:0:
180,164,204674,2,0,L|244:268,1,118.75,10|2,0:0|0:0,0:0:0:0:
312,360,205244,1,4,0:0:0:0:
424,320,205434,2,0,P|444:264|452:200,1,118.75,6|6,0:0|0:0,0:0:0:0:
416,96,206193,1,10,0:0:0:0:
416,96,206573,1,6,0:0:0:0:
180,76,206953,6,0,P|187:134|207:190,1,118.75,6|2,0:0|0:0,0:0:0:0:
304,264,207523,1,0,0:0:0:0:
236,360,207712,2,0,P|180:344|120:340,1,118.75,10|2,0:0|0:0,0:0:0:0:
4,360,208282,1,4,0:0:0:0:
56,252,208472,2,0,P|115:248|172:232,1,118.75,6|6,0:0|0:0,0:0:0:0:
276,172,209231,1,10,0:0:0:0:
276,172,209611,1,2,0:0:0:0:
176,108,209801,1,0,0:0:0:0:
352,88,209991,6,0,L|412:96,1,59.375,6|0,0:0|0:0,0:0:0:0:
434,228,210371,2,0,L|374:236,1,59.375,6|4,0:0|0:0,0:0:0:0:
176,108,210750,2,0,L|116:116,1,59.375,10|0,0:0|0:0,0:0:0:0:
24,192,211130,1,6,0:0:0:0:
48,308,211320,1,8,0:0:0:0:
196,208,211510,1,6,0:0:0:0:
220,324,211700,1,8,0:0:0:0:
336,300,211890,1,6,0:0:0:0:
312,184,212079,2,0,L|332:164,2,19.7916666666667,4|4|4,0:0|0:0|0:0,0:0:0:0:
328,212,212269,6,0,L|369:170,1,59.375,10|4,0:0|0:0,0:0:0:0:
456,84,212649,1,6,0:0:0:0:
464,176,212839,1,8,0:0:0:0:
328,64,213029,38,0,P|256:40|180:100,1,178.125,6|0,0:0|0:0,0:0:0:0:
256,192,213788,2,0,P|248:248|228:312,1,118.75,10|6,0:0|0:0,0:0:0:0:
124,364,214358,1,4,0:0:0:0:
28,212,214548,2,0,P|10:155|1:96,1,118.75,6|6,0:0|0:0,0:0:0:0:
184,248,215307,2,0,P|201:191|210:132,1,118.75,10|2,0:0|0:0,0:0:0:0:
188,16,215877,1,0,0:0:0:0:
324,132,216067,6,0,P|404:140|480:80,1,178.125,4|0,0:0|0:0,0:0:0:0:
376,24,216826,2,0,L|412:140,1,118.75,10|2,0:0|0:0,0:0:0:0:
446,250,217396,1,4,0:0:0:0:
340,300,217586,2,0,P|280:284|216:276,1,118.75,6|6,0:0|0:0,0:0:0:0:
108,304,218345,1,10,0:0:0:0:
108,304,218725,1,6,0:0:0:0:
304,168,219105,6,0,P|288:225|265:280,1,118.75,6|2,0:0|0:0,0:0:0:0:
184,192,219674,1,0,0:0:0:0:
224,80,219864,2,0,P|280:68|344:64,1,118.75,10|2,0:0|0:0,0:0:0:0:
460,88,220434,1,4,0:0:0:0:
404,192,220624,2,0,P|344:188|286:175,1,118.75,6|6,0:0|0:0,0:0:0:0:
192,104,221383,1,10,0:0:0:0:
192,104,221763,1,2,0:0:0:0:
112,192,221953,1,8,0:0:0:0:
286,175,222143,6,0,L|294:115,1,59.375,6|8,0:0|0:0,0:0:0:0:
380,36,222523,1,2,0:0:0:0:
472,112,222712,2,0,L|469:131,2,19.7916666666667,4|4|4,0:0|0:0|0:0,0:0:0:0:
444,88,222902,2,0,L|436:146,1,59.375,10|4,0:0|0:0,0:0:0:0:
293,233,223282,2,0,L|286:175,1,59.375,10|4,0:0|0:0,0:0:0:0:
116,88,223662,6,0,L|124:28,2,39.5833333333333,6|8|8,0:0|0:0|0:0,0:0:0:0:
24,176,224042,2,0,L|29:215,2,39.5833333333333,14|8|8,0:0|0:0|0:0,0:0:0:0:
152,244,224421,6,0,L|140:324,1,79.1666666666667,14|8,0:0|0:0,0:0:0:0:
288,193,224801,2,0,L|293:233,2,39.5833333333333,6|0|0,0:0|0:0|0:0,0:0:0:0:
328,36,225181,38,0,B|424:16|412:60|504:32,1,178.125,6|0,0:0|0:0,0:0:0:0:
448,136,225940,2,0,P|456:188|476:260,1,118.75,10|2,0:0|0:0,0:0:0:0:
404,348,226510,1,4,0:0:0:0:
296,300,226700,2,0,P|264:292|232:288,1,59.375,6|0,0:0|0:0,0:0:0:0:
168,192,227079,2,0,P|200:184|232:180,1,59.375,6|0,0:0|0:0,0:0:0:0:
376,192,227459,2,0,P|400:140|412:80,1,118.75,10|6,0:0|0:0,0:0:0:0:
308,24,228029,1,0,0:0:0:0:
132,52,228219,6,0,P|100:48|68:40,1,59.375,6|0,0:0|0:0,0:0:0:0:
180,144,228598,2,0,P|205:141|240:132,2,39.5833333333333,0|0|0,0:0|0:0|0:0,0:0:0:0:
144,236,228978,2,0,P|167:243|203:250,2,39.5833333333333,10|0|0,0:0|0:0|0:0,0:0:0:0:
72,304,229358,2,0,P|90:321|119:342,2,39.5833333333333,6|0|0,0:0|0:0|0:0,0:0:0:0:
181,247,229738,6,0,P|233:235|300:228,1,118.75,6|6,0:0|0:0,0:0:0:0:
416,252,230497,1,10,0:0:0:0:
416,252,230877,1,6,0:0:0:0:
256,76,231257,6,0,P|204:64|137:57,1,118.75,6|2,0:0|0:0,0:0:0:0:
20,76,231826,1,0,0:0:0:0:
112,152,232016,2,0,P|100:204|72:276,1,118.75,10|2,0:0|0:0,0:0:0:0:
124,376,232586,1,4,0:0:0:0:
276,284,232776,2,0,P|254:228|241:170,1,118.75,6|6,0:0|0:0,0:0:0:0:
256,52,233535,1,10,0:0:0:0:
256,52,233915,1,2,0:0:0:0:
372,84,234105,1,4,3:0:0:0:
208,160,234295,6,0,L|144:156,1,59.375,6|0,0:0|0:0,0:0:0:0:
80,23,234674,2,0,L|140:20,1,59.375,6|4,0:0|0:0,0:0:0:0:
372,84,235054,2,0,L|431:80,1,59.375,10|0,0:0|0:0,0:0:0:0:
388,192,235434,1,6,0:0:0:0:
348,304,235624,1,10,0:0:0:0:
176,260,235814,1,6,0:0:0:0:
136,372,236004,1,10,0:0:0:0:
24,336,236193,1,6,0:0:0:0:
64,224,236383,2,0,L|60:200,2,19.7916666666667,4|4|4,0:0|0:0|0:0,0:0:0:0:
96,232,236573,6,0,L|84:172,1,59.375,10|6,0:0|0:0,0:0:0:0:
208,100,236953,2,0,L|219:158,1,59.375,0|0,0:0|0:0,0:0:0:0:
256,332,237333,38,0,P|312:320|376:312,1,118.75,6|6,0:0|0:0,0:0:0:0:
480,264,237902,1,4,0:0:0:0:
484,252,237997,1,4,0:0:0:0:
488,240,238092,1,10,0:0:0:0:
476,120,238282,1,4,0:0:0:0:
336,68,238472,1,10,0:0:0:0:
348,188,238662,1,4,0:0:0:0:
212,248,238852,5,6,0:0:0:0:
76,192,239042,1,8,0:0:0:0:
120,272,239231,1,4,0:0:0:0:
184,140,239421,1,4,0:0:0:0:
190,126,239516,1,0,0:0:0:0:
196,113,239611,1,10,0:0:0:0:
248,8,239801,1,8,0:0:0:0:
164,36,239991,1,4,0:0:0:0:
328,104,240181,1,4,0:0:0:0:
340,100,240276,1,0,0:0:0:0:
352,96,240371,6,0,B|392:88|392:88|472:100,1,118.75,10|8,0:0|0:0,0:0:0:0:
500,216,240940,1,4,0:0:0:0:
352,96,241130,6,0,B|312:104|312:104|232:92,1,118.75,4|8,0:0|0:0,0:0:0:0:
117,69,241700,1,4,0:0:0:0:
28,224,241890,1,4,0:0:0:0:
64,336,242079,1,4,0:0:0:0:
176,300,242269,1,0,0:0:0:0:
140,188,242459,1,0,0:0:0:0:
152,176,242554,1,0,0:0:0:0:
164,164,242649,6,0,L|188:140,1,29.6875,6|0,0:0|0:0,0:0:0:0:
300,168,242839,2,0,L|324:144,1,29.6875,6|0,0:0|0:0,0:0:0:0:
396,72,243029,2,0,L|375:92,1,29.6875,0|0,0:0|0:0,0:0:0:0:
240,236,243219,1,0,0:0:0:0:
68,160,243409,6,0,P|48:80|136:40,1,190,6|10,0:0|0:0,0:0:0:0:
131,38,244548,1,2,0:0:0:0:
216,80,244738,1,4,0:0:0:0:
352,40,244928,2,0,P|400:32|452:28,1,95,6|6,0:0|0:0,0:0:0:0:
446,28,245687,2,0,L|438:84,1,47.5,10|0,0:0|0:0,0:0:0:0:
324,160,246067,2,0,L|332:216,1,47.5,2|0,0:0|0:0,0:0:0:0:
464,348,246447,38,0,B|360:372|376:316|272:352,1,190,6|10,0:0|0:0,0:0:0:0:
277,350,247586,1,2,0:0:0:0:
184,328,247776,1,4,0:0:0:0:
312,260,247966,2,0,P|328:212|336:160,1,95,6|6,0:0|0:0,0:0:0:0:
335,168,248725,2,0,L|331:116,1,47.5,10|8,0:0|0:0,0:0:0:0:
196,72,249105,2,0,L|192:119,1,47.5,6|10,0:0|0:0,0:0:0:0:
184,216,249485,5,6,0:0:0:0:
296,304,249674,2,0,B|332:312|332:312|392:300,1,95,0|0,0:0|0:0,0:0:0:0:
464,240,250244,2,0,B|448:208|448:208|456:144,1,95,10|2,0:0|0:0,0:0:0:0:
472,56,250814,1,4,0:0:0:0:
348,124,251004,6,0,B|312:132|312:132|256:120,1,95,6|6,0:0|0:0,0:0:0:0:
164,92,251573,1,0,0:0:0:0:
32,144,251763,2,0,L|40:192,1,47.5,10|0,0:0|0:0,0:0:0:0:
180,224,252143,2,0,L|172:272,1,47.5,2|0,0:0|0:0,0:0:0:0:
352,336,252523,6,0,P|392:316|444:304,1,95,6|6,0:0|0:0,0:0:0:0:
488,224,253092,1,4,0:0:0:0:
428,92,253282,6,0,P|388:72|336:60,1,95,10|6,0:0|0:0,0:0:0:0:
256,104,253852,1,8,0:0:0:0:
120,64,254042,2,0,L|60:68,1,47.5,6|8,0:0|0:0,0:0:0:0:
24,148,254421,1,6,0:0:0:0:
84,276,254611,1,4,0:0:0:0:
80,288,254706,1,0,0:0:0:0:
76,300,254801,1,10,0:0:0:0:
164,332,254991,1,8,0:0:0:0:
296,276,255181,1,6,0:0:0:0:
208,244,255371,1,8,0:0:0:0:
288,372,255561,6,0,P|336:360|376:332,1,95,6|6,0:0|0:0,0:0:0:0:
424,252,256130,1,4,0:0:0:0:
332,144,256320,2,0,P|324:96|320:48,1,95,10|6,0:0|0:0,0:0:0:0:
408,12,256890,1,8,0:0:0:0:
492,60,257079,2,0,L|484:112,1,47.5,6|8,0:0|0:0,0:0:0:0:
420,176,257459,1,6,0:0:0:0:
332,144,257649,2,0,L|304:152,2,15.8333333333333,4|4|4,0:0|0:0|0:0,0:0:0:0:
348,112,257839,38,0,L|296:124,1,47.5,10|8,0:0|0:0,0:0:0:0:
420,176,258219,2,0,L|466:165,1,47.5,6|8,0:0|0:0,0:0:0:0:
368,328,258598,6,0,L|268:304,1,95,14|4,0:0|0:0,0:0:0:0:
264,312,259073,1,4,0:0:0:0:
253,319,259168,1,10,0:0:0:0:
164,284,259358,2,0,L|144:297,2,23.75,4|4|10,0:0|0:0|0:0,0:0:0:0:
240,228,259738,1,10,0:0:0:0:
164,172,259928,1,8,0:0:0:0:
300,44,260117,6,0,P|344:36|400:32,1,95,14|8,0:0|0:0,0:0:0:0:
428,44,260592,1,4,0:0:0:0:
428,44,260687,2,0,L|448:76,1,23.75,4|4,0:0|0:0,0:0:0:0:
388,128,260877,2,0,L|408:160,1,23.75,10|0,0:0|0:0,0:0:0:0:
348,212,261067,1,4,0:0:0:0:
348,212,261162,1,4,0:0:0:0:
348,212,261257,2,0,L|368:244,1,23.75,10|0,0:0|0:0,0:0:0:0:
320,316,261447,2,0,L|308:296,1,23.75,4|0,0:0|0:0,0:0:0:0:
212,224,261636,6,0,P|164:212|112:208,1,95,6|0,0:0|0:0,0:0:0:0:
24,224,262206,1,4,0:0:0:0:
112,336,262396,1,10,0:0:0:0:
112,336,262776,2,0,L|160:328,1,47.5,0|4,0:0|0:0,0:0:0:0:
256,192,263155,6,0,L|209:184,1,47.5,6|8,0:0|0:0,0:0:0:0:
84,160,263535,2,0,L|131:168,1,47.5,6|4,0:0|0:0,0:0:0:0:
156,248,263820,5,4,0:0:0:0:
156,248,263915,2,0,L|148:295,1,47.5,10|0,0:0|0:0,0:0:0:0:
148,294,264200,1,0,0:0:0:0:
148,294,264295,1,4,0:0:0:0:
224,368,264485,1,8,0:0:0:0:
384,256,264674,38,0,P|432:248|484:244,1,95,6|6,0:0|0:0,0:0:0:0:
444,332,265244,1,4,0:0:0:0:
324,180,265434,6,0,P|276:172|224:168,1,95,10|6,0:0|0:0,0:0:0:0:
136,192,266004,1,8,0:0:0:0:
32,92,266193,6,0,L|36:56,2,31.6666666666667,6|8|8,0:0|0:0|0:0,0:0:0:0:
104,120,266573,2,0,L|122:89,2,31.6666666666667,10|8|4,0:0|0:0|0:0,0:0:0:0:
300,76,266953,6,0,L|296:40,2,31.6666666666667,6|8|4,0:0|0:0|0:0,0:0:0:0:
228,104,267333,2,0,L|210:73,2,31.6666666666667,10|0|4,0:0|0:0|0:0,0:0:0:0:
180,220,267712,5,6,0:0:0:0:
256,192,267902,12,0,270561,0:0:0:0:
132,316,270750,22,0,L|56:312,1,71.2500027179719,2|0,0:0|0:0,0:0:0:0:
136,192,271510,2,0,L|212:188,1,71.2500027179719,2|0,0:0|0:0,0:0:0:0:
492,168,272269,6,0,L|420:171,1,71.2500027179719,2|0,0:0|0:0,0:0:0:0:
356,300,273029,2,0,L|427:303,1,71.2500027179719,2|0,0:0|0:0,0:0:0:0:
504,28,273788,102,0,L|432:31,1,71.2500027179719,2|0,0:0|0:0,0:0:0:0:
320,120,274548,1,2,0:0:0:0:
380,248,274928,1,2,0:0:0:0:
300,292,275307,6,0,L|312:368,1,71.2500027179719,2|0,0:0|0:0,0:0:0:0:
472,272,276067,2,0,L|460:348,1,71.2500027179719,2|0,0:0|0:0,0:0:0:0:
220,192,276826,102,0,P|144:180|72:176,1,142.500005435944,2|2,0:0|0:0,0:0:0:0:
292,192,278375,6,0,P|368:180|440:176,1,142.500005435944,2|2,0:0|0:0,0:0:0:0:
256,24,279647,101,2,0:0:0:0:
256,108,280328,6,0,L|246:103,1,8.90625033974649,2|2,0:0|0:0,0:0:0:0:
256,192,283579,102,0,L|280:184,1,23.75,2|2,0:0|0:0,0:0:0:0:
256,192,283813,12,0,288980,0:0:0:0:
