osu file format v14

[General]
AudioFilename: audio.mp3
AudioLeadIn: 0
PreviewTime: 66209
Countdown: 0
SampleSet: Soft
StackLeniency: 0.6
Mode: 0
LetterboxInBreaks: 0
WidescreenStoryboard: 1

[Editor]
Bookmarks: 15561,39864,67206,97586,121890,146193,173535,200877,225181,255561,270750
DistanceSpacing: 1.1
BeatDivisor: 4
GridSize: 32
TimelineZoom: 1.9

[Metadata]
Title:NO RAIN, NO RAINBOW
TitleUnicode:NO RAIN, NO RAINBOW
Artist:BABYMETAL
ArtistUnicode:BABYMETAL
Creator:Hysteria
Version:ShaJoe's Normal
Source:
Tags:j-pop j-rock pop rock kawaii heavy metal resistance su-metal yuimetal moametal lazyboy007 tokiko nao tomori naotoshi Joe Castle yShadowXOP_
BeatmapID:1837753
BeatmapSetID:585019

[Difficulty]
HPDrainRate:3.5
CircleSize:3.5
OverallDifficulty:4
ApproachRate:5.5
SliderMultiplier:1.85
SliderTickRate:1

[Events]
//Background and Video events
0,0,"BG_NO_RAIN_NO_RAINBOW_SCALED_FIXED.jpg",0,0
//Break Periods
2,173734,184182
//Storyboard Layer 0 (Background)
//Storyboard Layer 1 (Fail)
//Storyboard Layer 2 (Pass)
//Storyboard Layer 3 (Foreground)
//Storyboard Sound Samples

[TimingPoints]
3433,743.494423791822,4,2,10,30,1,0
4920,759.493670886076,4,2,10,30,1,0
6438,769.230769230769,4,2,10,30,1,0
7976,757.575757575758,4,2,10,30,1,0
11006,758.293838862559,4,2,10,30,1,0
11742,784.313725490196,4,2,10,30,1,0
12526,756.620428751576,4,2,10,30,1,0
14039,761.421319796954,4,2,10,30,1,0
15561,759.493670886076,4,2,10,30,1,0
15561,-100,4,2,10,30,0,0
36826,-100,4,3,5,45,0,0
37586,-100,4,3,7,45,0,0
37776,-100,4,3,5,45,0,0
37965,-100,4,3,12,45,0,0
38725,-100,4,3,11,45,0,0
39295,-100,4,3,10,45,0,0
39674,-100,4,3,1,45,0,0
39864,-100,4,3,2,45,0,0
52016,-100,4,3,3,45,0,0
54295,-100,4,3,2,45,0,0
59611,-100,4,3,5,45,0,0
59991,-100,4,3,7,45,0,0
60750,-100,4,3,10,45,0,0
61130,-100,4,3,2,45,0,0
61510,-100,4,3,5,45,0,0
61890,-100,4,3,2,45,0,0
62269,-100,4,3,5,45,0,0
62649,-100,4,3,2,45,0,0
63029,-100,4,3,5,45,0,0
63219,-100,4,3,12,45,0,0
63409,-100,4,3,11,45,0,0
63598,-100,4,3,12,45,0,0
63788,-100,4,3,11,45,0,0
64168,-100,4,3,8,50,0,0
64548,-100,4,3,8,55,0,0
64738,-100,4,3,1,45,0,0
64927,-100,4,3,9,60,0,0
65117,-100,4,3,1,45,0,0
65307,-100,4,3,9,65,0,0
65497,-100,4,3,1,45,0,0
65687,-100,4,3,9,70,0,0
66257,-100,4,3,1,45,0,0
66447,-100,4,3,2,60,0,0
67111,-100,4,3,1,60,0,0
67965,-100,4,3,2,60,0,0
68345,-100,4,3,5,60,0,0
68535,-100,4,3,2,60,0,0
68725,-100,4,3,7,60,0,0
69105,-100,4,3,5,60,0,0
69484,-100,4,3,2,60,0,0
69864,-100,4,3,5,60,0,0
70244,-100,4,3,2,60,0,0
71383,-100,4,3,5,60,0,0
71573,-100,4,3,2,60,0,0
71763,-100,4,3,7,60,0,0
72143,-100,4,3,5,60,0,0
72522,-100,4,3,2,60,0,0
72902,-100,4,3,5,60,0,0
73282,-100,4,3,1,60,0,0
73662,-100,4,3,5,60,0,0
74041,-100,4,3,2,60,0,0
74421,-100,4,3,5,60,0,0
74611,-100,4,3,2,60,0,0
74801,-100,4,3,7,60,0,0
75181,-100,4,3,5,60,0,0
75560,-100,4,3,2,60,0,0
75940,-100,4,3,5,60,0,0
76320,-100,4,3,1,60,0,0
76700,-100,4,3,5,60,0,0
76890,-100,4,3,1,60,0,0
77079,-100,4,3,2,60,0,0
77459,-100,4,3,5,60,0,0
77649,-100,4,3,2,60,0,0
77839,-100,4,3,1,60,0,0
78219,-100,4,3,5,60,0,0
78409,-100,4,3,1,60,0,0
78597,-100,4,3,2,60,0,0
78977,-100,4,3,5,60,0,0
79167,-100,4,3,2,60,0,0
79358,-100,4,3,1,60,0,0
80117,-100,4,3,2,60,0,0
80497,-100,4,3,5,60,0,0
80687,-100,4,3,2,60,0,0
80877,-100,4,3,7,60,0,0
81257,-100,4,3,5,60,0,0
81636,-100,4,3,2,60,0,0
82016,-100,4,3,5,60,0,0
82396,-100,4,3,2,60,0,0
83535,-100,4,3,5,60,0,0
83725,-100,4,3,2,60,0,0
83915,-100,4,3,7,60,0,0
84295,-100,4,3,5,60,0,0
84674,-100,4,3,2,60,0,0
85054,-100,4,3,5,60,0,0
85434,-100,4,3,1,60,0,0
85814,-100,4,3,5,60,0,0
86193,-100,4,3,2,60,0,0
86573,-100,4,3,5,60,0,0
86763,-100,4,3,2,60,0,0
86953,-100,4,3,7,60,0,0
87333,-100,4,3,5,60,0,0
87712,-100,4,3,2,60,0,0
88092,-100,4,3,5,60,0,0
88282,-100,4,3,2,60,0,0
88472,-100,4,3,1,60,0,0
88852,-100,4,3,5,60,0,0
89231,-100,4,3,2,60,0,0
89421,-100,4,3,10,60,0,0
89801,-100,4,3,1,60,0,0
90750,-100,4,3,2,60,0,0
90940,-100,4,3,1,60,0,0
91130,-100,4,3,5,60,0,0
91320,-100,4,3,2,60,0,0
91415,-100,4,3,1,60,0,0
91890,-100,4,3,5,60,0,0
92269,-100,4,3,2,60,0,0
92649,-100,4,3,5,60,0,0
93029,-100,4,3,2,60,0,0
93409,-100,4,3,1,60,0,0
93503,-100,4,3,12,60,0,0
93788,-100,4,3,11,60,0,0
94168,-100,4,3,10,60,0,0
94548,-100,4,3,1,60,0,0
94927,-100,4,3,5,60,0,0
95307,-100,4,3,2,60,0,0
95687,-100,4,3,5,60,0,0
95877,-100,4,3,2,60,0,0
96921,-100,4,3,1,60,0,0
97491,-100,4,3,1,5,0,0
97586,-100,4,3,3,45,0,0
97965,-100,4,3,5,45,0,0
98345,-100,4,3,2,45,0,0
98725,-100,4,3,5,45,0,0
99105,-100,4,3,7,45,0,0
99484,-100,4,3,5,45,0,0
99864,-100,4,3,2,45,0,0
100244,-100,4,3,5,45,0,0
100624,-100,4,3,7,45,0,0
101003,-100,4,3,5,45,0,0
101383,-100,4,3,2,45,0,0
101763,-100,4,3,5,45,0,0
102143,-100,4,3,7,45,0,0
102522,-100,4,3,5,45,0,0
102902,-100,4,3,2,45,0,0
102997,-100,4,3,12,45,0,0
103093,-100,4,3,11,45,0,0
103282,-100,4,3,10,45,0,0
103472,-100,4,3,3,45,0,0
104041,-100,4,3,5,45,0,0
104421,-100,4,3,2,45,0,0
104801,-100,4,3,5,45,0,0
105181,-100,4,3,7,45,0,0
105560,-100,4,3,5,45,0,0
105940,-100,4,3,2,45,0,0
106320,-100,4,3,5,45,0,0
106700,-100,4,3,7,45,0,0
107079,-100,4,3,5,45,0,0
107459,-100,4,3,2,45,0,0
107839,-100,4,3,5,45,0,0
108219,-100,4,3,7,45,0,0
108598,-100,4,3,3,45,0,0
108978,-100,4,3,2,45,0,0
109358,-100,4,3,10,45,0,0
109548,-100,4,3,2,45,0,0
109738,-100,4,3,13,80,0,0
109927,-100,4,3,3,45,0,0
110497,-100,4,3,2,45,0,0
111067,-100,4,3,3,45,0,0
111636,-100,4,3,2,45,0,0
112016,-100,4,3,11,45,0,0
112396,-100,4,3,10,45,0,0
112776,-100,4,3,2,45,0,0
112965,-100,4,3,3,45,0,0
113535,-100,4,3,2,45,0,0
114105,-100,4,3,3,45,0,0
114674,-100,4,3,2,45,0,0
115054,-100,4,3,10,45,0,0
115434,-100,4,3,3,45,0,0
116193,-100,4,3,5,45,0,0
116573,-100,4,3,2,45,0,0
116953,-100,4,3,5,45,0,0
117333,-100,4,3,3,45,0,0
117712,-100,4,3,5,45,0,0
118092,-100,4,3,2,45,0,0
118472,-100,4,3,3,45,0,0
118852,-100,4,3,13,80,0,0
120371,-100,4,3,8,45,0,0
120497,-100,4,3,3,45,0,0
120750,-100,4,3,11,45,0,0
120877,-100,4,3,10,45,0,0
121130,-100,4,3,2,45,0,0
121225,-100,4,3,10,45,0,0
121510,-100,4,3,11,45,0,0
121890,-100,4,3,8,80,0,1
122459,-100,4,3,3,45,0,1
122649,-100,4,3,2,45,0,1
123029,-100,4,3,5,45,0,1
123409,-100,4,3,7,45,0,1
123788,-100,4,3,5,45,0,1
124168,-100,4,3,2,45,0,1
124548,-100,4,3,5,45,0,1
124927,-100,4,3,7,45,0,1
125687,-100,4,3,2,45,0,1
126352,-100,4,3,2,5,0,1
126446,-100,4,3,7,45,0,1
126826,-100,4,3,5,45,0,1
127016,-100,4,3,2,45,0,1
127586,-100,4,3,5,45,0,1
127965,-100,4,3,1,45,0,1
128725,-100,4,3,2,45,0,1
129484,-100,4,3,7,45,0,1
129864,-100,4,3,5,45,0,1
130244,-100,4,3,2,45,0,1
130624,-100,4,3,5,45,0,1
131003,-100,4,3,1,45,0,1
131383,-100,4,3,5,45,0,1
131763,-100,4,3,2,45,0,1
132143,-100,4,3,5,45,0,1
132333,-100,4,3,2,45,0,1
132522,-100,4,3,1,45,0,1
132902,-100,4,3,5,45,0,1
133092,-100,4,3,2,45,0,1
133662,-100,4,3,5,45,0,1
133852,-100,4,3,2,45,0,1
134041,-100,4,3,9,80,0,1
134611,-100,4,3,1,45,0,1
134801,-100,4,3,2,45,0,1
135181,-100,4,3,5,45,0,1
135560,-100,4,3,7,45,0,1
135940,-100,4,3,5,45,0,1
136320,-100,4,3,2,45,0,1
136700,-100,4,3,5,45,0,1
137079,-100,4,3,1,45,0,1
137839,-100,4,3,2,45,0,1
138219,-100,4,3,5,45,0,1
138598,-100,4,3,7,45,0,1
138978,-100,4,3,5,45,0,1
139358,-100,4,3,2,45,0,1
139738,-100,4,3,5,45,0,1
140117,-100,4,3,1,45,0,1
140877,-100,4,3,2,45,0,1
141257,-100,4,3,5,45,0,1
141636,-100,4,3,7,45,0,1
142016,-100,4,3,5,45,0,1
142396,-100,4,3,2,45,0,1
142776,-100,4,3,5,45,0,1
143155,-100,4,3,1,45,0,1
143535,-100,4,3,5,45,0,1
143915,-100,4,3,2,45,0,1
144295,-100,4,3,5,45,0,1
144484,-100,4,3,2,45,0,1
144674,-100,4,3,3,45,0,1
145054,-100,4,3,2,45,0,1
145434,-100,4,3,1,45,0,1
145560,-100,4,3,12,45,0,1
145687,-100,4,3,11,45,0,1
145814,-100,4,3,2,45,0,1
145940,-100,4,3,10,45,0,1
146193,-100,4,3,8,80,0,1
146573,-100,4,3,5,45,0,1
146953,-100,4,3,2,45,0,1
148092,-100,4,3,5,45,0,1
148472,-100,4,3,2,45,0,1
148852,-100,4,3,5,45,0,1
149231,-100,4,3,3,45,0,1
149991,-100,4,3,2,45,0,1
151130,-100,4,3,5,45,0,1
151510,-100,4,3,2,45,0,1
151890,-100,4,3,5,45,0,1
152269,-100,4,3,3,45,0,1
153029,-100,4,3,2,45,0,1
153409,-100,4,3,5,45,0,1
153598,-100,4,3,2,45,0,1
154168,-100,4,3,5,45,0,1
154548,-100,4,3,2,45,0,1
154927,-100,4,3,5,45,0,1
155117,-100,4,3,2,45,0,1
155307,-100,4,3,3,45,0,1
155687,-100,4,3,5,45,0,1
156067,-100,4,3,2,45,0,1
156446,-100,4,3,5,45,0,1
156636,-100,4,3,2,45,0,1
156826,-100,4,3,3,45,0,1
157206,-100,4,3,5,45,0,1
157586,-100,4,3,2,45,0,1
157965,-100,4,3,5,45,0,1
158345,-100,4,3,9,80,0,1
158915,-100,4,3,1,45,0,1
159105,-100,4,3,2,45,0,1
159484,-100,4,3,5,45,0,1
159864,-100,4,3,7,45,0,1
160054,-100,4,3,2,45,0,1
160244,-100,4,3,5,45,0,1
160624,-100,4,3,2,45,0,1
161003,-100,4,3,5,45,0,1
161193,-100,4,3,2,45,0,1
161383,-100,4,3,1,45,0,1
161763,-100,4,3,5,45,0,1
162143,-100,4,3,2,45,0,1
162522,-100,4,3,5,45,0,1
162902,-100,4,3,1,45,0,1
163282,-100,4,3,5,45,0,1
163662,-100,4,3,2,45,0,1
164041,-100,4,3,5,45,0,1
164231,-100,4,3,2,45,0,1
164421,-100,4,3,1,45,0,1
165181,-100,4,3,2,45,0,1
165560,-100,4,3,5,45,0,1
165940,-100,4,3,1,45,0,1
166320,-100,4,3,5,45,0,1
166700,-100,4,3,2,45,0,1
167079,-100,4,3,5,45,0,1
167459,-100,4,3,1,45,0,1
167839,-100,4,3,5,45,0,1
168219,-100,4,3,2,45,0,1
168598,-100,4,3,5,45,0,1
168978,-100,4,3,1,45,0,1
169358,-100,4,3,5,45,0,1
169484,-100,4,3,2,45,0,1
169864,-100,4,3,12,45,0,1
169991,-100,4,3,11,45,0,1
170117,-100,4,3,5,45,0,1
170244,-100,4,3,10,45,0,1
170497,-100,4,3,8,80,0,1
173345,-100,4,2,10,5,0,1
173535,-100,4,2,10,30,0,0
193852,-100,4,3,2,45,0,0
194801,-100,4,3,1,45,0,0
195181,-100,4,3,5,45,0,0
195560,-100,4,3,2,45,0,0
195940,-100,4,3,5,45,0,0
196320,-100,4,3,2,45,0,0
196700,-100,4,3,5,45,0,0
196890,-100,4,3,2,45,0,0
197079,-100,4,3,12,45,0,0
197269,-100,4,3,11,45,0,0
197459,-100,4,3,10,45,0,0
197839,-100,4,3,9,55,0,0
198155,-100,4,3,9,5,0,0
198219,-100,4,3,9,65,0,0
198535,-100,4,3,9,5,0,0
198598,-100,4,3,9,75,0,0
198915,-100,4,3,9,5,0,0
198978,-100,4,3,9,85,0,0
199295,-100,4,3,9,5,0,0
199358,-100,4,3,9,95,0,0
199738,-100,4,3,9,5,0,0
199927,-100,4,3,2,45,0,0
200117,-100,4,3,2,60,0,0
200782,-100,4,3,1,60,0,0
201636,-100,4,3,2,60,0,0
202016,-100,4,3,5,60,0,0
202396,-100,4,3,7,60,0,0
202776,-100,4,3,5,60,0,0
203155,-100,4,3,2,60,0,0
203535,-100,4,3,5,60,0,0
204674,-100,4,3,2,60,0,0
205054,-100,4,3,5,60,0,0
205434,-100,4,3,7,60,0,0
205814,-100,4,3,5,60,0,0
206193,-100,4,3,2,60,0,0
206573,-100,4,3,5,60,0,0
206953,-100,4,3,1,60,0,0
207333,-100,4,3,5,60,0,0
207712,-100,4,3,2,60,0,0
208092,-100,4,3,5,60,0,0
208472,-100,4,3,7,60,0,0
208852,-100,4,3,5,60,0,0
209231,-100,4,3,2,60,0,0
209611,-100,4,3,5,60,0,0
209991,-100,4,3,1,60,0,0
210371,-100,4,3,5,60,0,0
210750,-100,4,3,2,60,0,0
211130,-100,4,3,5,60,0,0
211320,-100,4,3,2,60,0,0
211510,-100,4,3,1,60,0,0
211890,-100,4,3,5,60,0,0
212269,-100,4,3,2,60,0,0
212649,-100,4,3,5,60,0,0
212839,-100,4,3,2,60,0,0
212934,-100,4,3,1,60,0,0
213788,-100,4,3,2,60,0,0
214168,-100,4,3,5,60,0,0
214548,-100,4,3,7,60,0,0
214927,-100,4,3,5,60,0,0
215307,-100,4,3,2,60,0,0
215687,-100,4,3,5,60,0,0
216826,-100,4,3,2,60,0,0
217206,-100,4,3,5,60,0,0
217586,-100,4,3,7,60,0,0
217965,-100,4,3,5,60,0,0
218345,-100,4,3,2,60,0,0
218725,-100,4,3,5,60,0,0
219105,-100,4,3,1,60,0,0
219484,-100,4,3,5,60,0,0
219864,-100,4,3,2,60,0,0
220244,-100,4,3,5,60,0,0
220624,-100,4,3,7,60,0,0
221003,-100,4,3,5,60,0,0
221383,-100,4,3,2,60,0,0
221763,-100,4,3,5,60,0,0
221953,-100,4,3,2,60,0,0
222143,-100,4,3,1,60,0,0
222522,-100,4,3,5,60,0,0
222902,-100,4,3,2,60,0,0
223472,-100,4,3,11,60,0,0
223662,-100,4,3,1,60,0,0
224041,-100,4,3,5,60,0,0
224421,-100,4,3,2,60,0,0
224548,-100,4,3,10,60,0,0
224801,-100,4,3,5,60,0,0
224927,-100,4,3,10,60,0,0
225086,-100,4,3,2,60,0,0
225181,-100,4,3,1,60,0,0
225940,-100,4,3,2,60,0,0
226320,-100,4,3,5,60,0,0
226700,-100,4,3,7,60,0,0
227079,-100,4,3,5,60,0,0
227459,-100,4,3,2,60,0,0
227839,-100,4,3,5,60,0,0
228219,-100,4,3,2,60,0,0
228598,-100,4,3,5,60,0,0
228978,-100,4,3,2,60,0,0
229358,-100,4,3,5,60,0,0
229738,-100,4,3,7,60,0,0
230117,-100,4,3,5,60,0,0
230497,-100,4,3,2,60,0,0
230877,-100,4,3,5,60,0,0
231257,-100,4,3,1,60,0,0
231636,-100,4,3,5,60,0,0
232016,-100,4,3,2,60,0,0
232396,-100,4,3,5,60,0,0
232776,-100,4,3,7,60,0,0
233155,-100,4,3,5,60,0,0
233535,-100,4,3,2,60,0,0
233915,-100,4,3,5,60,0,0
234105,-100,4,3,2,60,0,0
234295,-100,4,3,1,60,0,0
235054,-100,4,3,2,60,0,0
235434,-100,4,3,5,60,0,0
235624,-100,4,3,2,60,0,0
235814,-100,4,3,1,60,0,0
236003,-100,4,3,2,60,0,0
236193,-100,4,3,5,60,0,0
236573,-100,4,3,2,60,0,0
236763,-100,4,3,1,60,0,0
237238,-100,4,3,2,60,0,0
237333,-100,4,3,1,60,0,0
238092,-100,4,3,2,60,0,0
238852,-100,4,3,1,60,0,0
239611,-100,4,3,2,60,0,0
240560,-100,4,3,12,60,0,0
240750,-100,4,3,11,60,0,0
240940,-100,4,3,12,60,0,0
241130,-100,4,3,11,60,0,0
241510,-100,4,3,10,60,0,0
241700,-100,4,3,11,60,0,0
241890,-100,4,3,10,60,0,0
242079,-100,4,3,11,60,0,0
242269,-100,4,3,10,60,0,0
242459,-100,4,3,2,60,0,0
242839,-100,4,3,1,60,0,0
243409,-100,4,3,3,45,0,1
244168,-100,4,3,2,45,0,1
244548,-100,4,3,5,45,0,1
244927,-100,4,3,7,45,0,1
245307,-100,4,3,5,45,0,1
245687,-100,4,3,2,45,0,1
246067,-100,4,3,5,45,0,1
246446,-100,4,3,7,45,0,1
247206,-100,4,3,2,45,0,1
247586,-100,4,3,5,45,0,1
247965,-100,4,3,7,45,0,1
248345,-100,4,3,5,45,0,1
248725,-100,4,3,2,45,0,1
249105,-100,4,3,5,45,0,1
249295,-100,4,3,2,45,0,1
249484,-100,4,3,3,45,0,1
250244,-100,4,3,2,45,0,1
250624,-100,4,3,5,45,0,1
251003,-100,4,3,7,45,0,1
251383,-100,4,3,5,45,0,1
251763,-100,4,3,2,45,0,1
252143,-100,4,3,5,45,0,1
252522,-100,4,3,3,45,0,1
252902,-100,4,3,5,45,0,1
253282,-100,4,3,2,45,0,1
253662,-100,4,3,5,45,0,1
253852,-100,4,3,2,45,0,1
254041,-100,4,3,3,45,0,1
254801,-100,4,3,2,45,0,1
255181,-100,4,3,5,45,0,1
255371,-100,4,3,2,45,0,1
255560,-100,4,3,8,80,0,1
255940,-100,4,3,5,45,0,1
256320,-100,4,3,2,45,0,1
256700,-100,4,3,5,45,0,1
256890,-100,4,3,2,45,0,1
257079,-100,4,3,7,45,0,1
257269,-100,4,3,2,45,0,1
257459,-100,4,3,5,45,0,1
257839,-100,4,3,2,45,0,1
258219,-100,4,3,5,45,0,1
258409,-100,4,3,2,45,0,1
258598,-100,4,3,3,45,0,1
259168,-100,4,3,2,45,0,1
260117,-100,4,3,3,45,0,1
260307,-100,4,3,11,45,0,1
260497,-100,4,3,10,45,0,1
260687,-100,4,3,2,45,0,1
261636,-100,4,3,3,45,0,1
262396,-100,4,3,2,45,0,1
263155,-100,4,3,7,45,0,1
263345,-100,4,3,2,45,0,1
263535,-100,4,3,5,45,0,1
263915,-100,4,3,2,45,0,1
264674,-100,4,3,3,45,0,1
265054,-100,4,3,5,45,0,1
265434,-100,4,3,2,45,0,1
265814,-100,4,3,5,45,0,1
266003,-100,4,3,2,45,0,1
266193,-100,4,3,3,45,0,1
266573,-100,4,3,2,45,0,1
266700,-100,4,3,12,45,0,1
266953,-100,4,3,3,45,0,1
267079,-100,4,3,11,45,0,1
267333,-100,4,3,2,45,0,1
267459,-100,4,3,10,45,0,1
267712,-100,4,3,9,80,0,1
270560,-100,4,2,10,5,0,1
270750,-100,4,2,10,30,0,0
277586,789.473684210526,4,2,10,30,1,0
279164,967.741935483871,4,2,10,30,1,0
279164,-76.9230769230769,4,2,10,30,0,0
279647,727.272727272727,4,2,10,30,1,0
280374,725.513905683192,4,2,10,30,1,0
282550,548.947849954254,4,2,10,30,1,0
283647,666.666666666667,4,2,10,40,1,0
283647,-117.647058823529,4,2,10,40,0,0
283980,-117.647058823529,4,2,10,35,0,0
284313,-117.647058823529,4,2,10,33,0,0
284647,-117.647058823529,4,2,10,31,0,0
284980,-117.647058823529,4,2,10,29,0,0
285313,-117.647058823529,4,2,10,27,0,0
285647,-117.647058823529,4,2,10,25,0,0
285980,-117.647058823529,4,2,10,23,0,0
286313,-117.647058823529,4,2,10,21,0,0
286647,-117.647058823529,4,2,10,19,0,0
286980,-117.647058823529,4,2,10,17,0,0
287313,-117.647058823529,4,2,10,15,0,0
287647,-117.647058823529,4,2,10,13,0,0
287980,-117.647058823529,4,2,10,11,0,0
288313,-117.647058823529,4,2,10,9,0,0
288647,-117.647058823529,4,2,10,7,0,0
288980,-117.647058823529,4,2,10,5,0,0

[Colours]
Combo1 : 106,106,106
Combo2 : 228,154,154
Combo3 : 228,191,154
Combo4 : 228,228,154
Combo5 : 154,191,228
Combo6 : 191,154,228
Combo7 : 228,154,191
Combo8 : 212,212,212

[HitObjects]
51,151,3433,102,0,P|67:97|117:65,1,92.5,2|0,0:0|0:0,0:0:0:0:
156,157,4176,2,0,P|141:210|91:242,1,92.5,2|0,0:0|0:0,0:0:0:0:
23,273,4920,2,0,P|58:315|108:333,1,92.5,2|0,0:0|0:0,0:0:0:0:
191,304,5679,1,2,0:0:0:0:
284,343,6059,1,0,0:0:0:0:
382,321,6438,6,0,P|392:266|427:225,1,92.5,2|0,0:0|0:0,0:0:0:0:
493,174,7207,2,0,P|444:149|415:103,1,92.5,2|2,0:0|0:0,0:0:0:0:
400,19,7976,2,0,P|361:57|309:70,1,92.5,2|0,0:0|0:0,0:0:0:0:
226,86,8733,1,2,0:0:0:0:
211,187,9112,1,0,0:0:0:0:
302,233,9491,102,0,P|322:269|318:337,2,92.5,2|0|2,0:0|0:0|0:0,0:0:0:0:
141,112,11006,2,0,P|186:87|254:95,1,92.5,2|0,0:0|0:0,0:0:0:0:
316,115,11742,1,2,0:0:0:0:
408,71,12134,1,2,0:0:0:0:
451,167,12526,6,0,P|458:221|425:270,1,92.5,2|0,0:0|0:0,0:0:0:0:
345,292,13282,2,0,P|337:247|354:204,1,92.5,2|0,0:0|0:0,0:0:0:0:
261,165,14039,1,2,0:0:0:0:
65,222,14800,1,2,0:0:0:0:
203,371,15561,102,0,B|263:342|337:370|337:370|409:400|474:371,1,277.5,2|2,0:0|0:0,0:0:0:0:
511,338,16890,1,0,0:0:0:0:
454,196,17459,2,0,P|409:188|364:196,1,92.5,0|2,0:0|0:0,0:0:0:0:
281,255,18219,1,0,0:0:0:0:
203,190,18598,6,0,P|192:131|220:86,1,92.5,2|2,0:0|0:0,0:0:0:0:
227,57,19168,2,0,P|151:52|95:0,1,138.75
9,47,20117,2,0,L|17:149,1,92.5,2|0,0:0|0:0,0:0:0:0:
95,202,20877,2,0,L|87:304,1,92.5,2|0,0:0|0:0,0:0:0:0:
166,356,21636,102,0,B|206:385|266:374|294:333|294:333|323:291|384:281|427:309,1,277.5,2|2,0:0|0:0,0:0:0:0:
458,324,22966,1,0,0:0:0:0:
493,175,23535,2,0,P|451:156|423:120,1,92.5,0|2,0:0|0:0,0:0:0:0:
381,28,24295,1,0,0:0:0:0:
303,93,24674,6,0,B|236:92|236:92|183:66|183:66|118:67,1,185,2|2,0:0|0:0,0:0:0:0:
79,91,25624,2,0,P|54:129|48:175,1,92.5
63,224,26193,1,2,0:0:0:0:
49,324,26572,1,0,0:0:0:0:
138,372,26952,1,2,0:0:0:0:
153,271,27333,2,0,P|181:280|211:303,1,46.25,2|0,0:0|0:0,0:0:0:0:
234,321,27712,102,0,B|322:346|322:346|416:318,1,185,2|2,0:0|0:0,0:0:0:0:
478,243,28852,2,0,P|476:209|487:173,1,46.25,2|0,0:0|0:0,0:0:0:0:
492,148,29231,2,0,B|403:122|403:122|309:150,1,185,2|2,0:0|0:0,0:0:0:0:
277,243,30371,2,0,P|256:231|239:216,1,46.25,2|0,0:0|0:0,0:0:0:0:
200,184,30750,6,0,P|130:200|55:176,2,138.75,2|0|0,0:0|0:0|0:0,0:0:0:0:
234,87,32269,1,2,0:0:0:0:
315,148,32649,1,0,0:0:0:0:
415,129,33029,1,2,0:0:0:0:
492,192,33409,2,0,P|497:215|493:238,1,46.25,2|0,0:0|0:0,0:0:0:0:
487,289,33788,102,0,B|446:310|395:293|395:293|345:273|307:292,1,185,2|2,0:0|0:0,0:0:0:0:
217,341,34928,2,0,P|204:295|215:265,1,46.25,2|0,0:0|0:0,0:0:0:0:
214,247,35307,2,0,P|226:175|211:145,1,92.5,2|0,0:0|0:0,0:0:0:0:
140,94,36067,1,2,0:0:0:0:
235,57,36447,2,0,P|256:61|278:74,1,46.25,2|0,0:0|0:0,0:0:0:0:
323,95,36826,6,0,P|371:93|419:63,1,92.5,0|2,0:0|0:0,0:0:0:0:
503,32,37586,1,2,0:0:0:0:
492,133,37966,2,0,P|474:204|508:303,1,138.75,4|4,0:0|0:0,0:0:0:0:
506,314,38725,1,8,0:0:0:0:
413,356,39105,2,0,P|347:351|298:306,1,92.5,4|4,0:0|0:0,0:0:0:0:
277,248,39864,6,0,B|129:243|196:362|32:372,1,277.5,6|0,0:0|0:0,0:0:0:0:
3,338,41193,1,0,0:0:0:0:
82,211,41763,2,0,P|85:161|53:91,1,92.5,4|10,0:0|0:0,0:0:0:0:
38,24,42523,1,0,0:0:0:0:
137,48,42902,6,0,P|186:51|257:19,1,92.5,4|0,0:0|0:0,0:0:0:0:
270,11,43472,2,0,P|252:84|254:165,1,138.75
347,181,44421,2,0,P|361:241|360:307,1,92.5,4|4,0:0|0:0,0:0:0:0:
291,343,45181,2,0,P|230:328|164:329,1,92.5,10|0,0:0|0:0,0:0:0:0:
99,335,45940,6,0,B|59:190|162:217|97:57,1,277.5,4|0,0:0|0:0,0:0:0:0:
66,28,47269,1,4,0:0:0:0:
199,102,47839,2,0,P|244:110|289:102,1,92.5,4|10,0:0|0:0,0:0:0:0:
380,54,48599,1,4,0:0:0:0:
465,112,48978,6,0,B|492:147|492:147|467:314,1,185,4|0,0:0|0:0,0:0:0:0:
445,330,49928,2,0,P|384:315|318:316,1,92.5,0|4,0:0|0:0,0:0:0:0:
312,342,50497,1,0,0:0:0:0:
229,282,50877,1,0,0:0:0:0:
142,336,51257,1,10,0:0:0:0:
62,272,51636,2,0,P|55:236|55:214,1,46.25
68,177,52016,6,0,B|94:152|94:152|257:165,1,185,6|0,0:0|0:0,0:0:0:0:
328,218,53155,2,0,P|335:254|335:276,1,46.25,0|4,0:0|0:0,0:0:0:0:
322,313,53535,2,0,B|296:338|296:338|133:325,1,185,4|10,0:0|0:0,0:0:0:0:
62,272,54674,2,0,P|55:236|55:214,1,46.25
68,177,55054,6,0,P|75:108|50:24,2,138.75,4|0|0,0:0|0:0|0:0,0:0:0:0:
150,237,56573,1,4,0:0:0:0:
252,232,56953,1,4,0:0:0:0:
316,153,57333,1,10,0:0:0:0:
412,185,57713,2,0,P|427:225|416:266,1,46.25
418,277,58092,38,0,B|315:268|353:338|236:331,1,185,4|0,0:0|0:0,0:0:0:0:
146,315,59231,2,0,P|133:269|144:239,1,46.25,0|4,0:0|0:0,0:0:0:0:
143,221,59611,2,0,P|155:149|140:119,1,92.5,6|2,0:0|0:0,0:0:0:0:
78,59,60370,1,8,0:0:0:0:
175,30,60750,2,0,P|196:34|218:47,1,46.25,4|0,0:0|0:0,0:0:0:0:
236,94,61130,6,0,B|327:47|325:144|445:73,1,185,6|10,0:0|0:0,0:0:0:0:
504,38,62269,1,6,0:0:0:0:
500,139,62649,2,0,P|490:188|484:240,1,92.5,10|6,0:0|0:0,0:0:0:0:
403,292,63409,2,0,P|368:296|345:289,1,46.25,8|4,0:0|0:0,0:0:0:0:
318,261,63788,2,0,P|297:233|291:210,1,46.25,4|8,0:0|0:0,0:0:0:0:
279,174,64168,6,0,P|224:184|183:219,1,92.5,6|4,0:0|0:0,0:0:0:0:
137,288,64928,2,0,P|82:278|41:243,1,92.5,4|4,0:0|0:0,0:0:0:0:
10,164,65687,1,4,0:0:0:0:
150,14,66447,2,0,P|205:24|246:59,1,92.5,10|0,0:0|0:0,0:0:0:0:
272,78,67016,1,0,0:0:0:0:
272,78,67206,6,0,B|340:69|340:69|398:22,1,138.75,6|0,0:0|0:0,0:0:0:0:
441,45,67966,2,0,B|426:92|426:92|442:152,1,92.5,10|2,0:0|0:0,0:0:0:0:
445,183,68535,1,4,0:0:0:0:
445,183,68725,2,0,P|378:199|318:179,1,92.5,6|6,0:0|0:0,0:0:0:0:
265,147,69485,2,0,P|220:126|160:139,1,92.5,10|2,0:0|0:0,0:0:0:0:
131,148,70054,1,0,0:0:0:0:
131,148,70244,6,0,B|139:216|139:216|109:279,1,138.75,4|0,0:0|0:0,0:0:0:0:
135,323,71004,2,0,B|179:336|179:336|227:321,1,92.5,10|2,0:0|0:0,0:0:0:0:
269,308,71573,1,4,0:0:0:0:
269,308,71763,2,0,P|333:296|390:328,1,92.5,6|6,0:0|0:0,0:0:0:0:
454,270,72523,1,10,0:0:0:0:
414,176,72902,1,6,0:0:0:0:
318,212,73282,6,0,P|313:147|341:104,1,92.5,6|2,0:0|0:0,0:0:0:0:
359,86,73852,1,0,0:0:0:0:
359,86,74042,2,0,P|287:58|263:14,1,92.5,10|2,0:0|0:0,0:0:0:0:
232,27,74611,1,4,0:0:0:0:
232,27,74801,2,0,P|173:57|112:49,1,92.5,6|6,0:0|0:0,0:0:0:0:
46,48,75561,1,10,0:0:0:0:
1,139,75940,2,0,P|1:186|20:212,1,46.25,2|0,0:0|0:0,0:0:0:0:
19,231,76320,38,0,P|23:303|5:332,1,92.5,6|6,0:0|0:0,0:0:0:0:
100,374,77079,2,0,P|166:346|199:356,1,92.5,10|2,0:0|0:0,0:0:0:0:
234,364,77649,1,8,0:0:0:0:
234,364,77839,2,0,P|307:353|340:316,1,92.5,6|6,0:0|0:0,0:0:0:0:
402,283,78598,2,0,P|372:253|296:241,1,92.5,10|6,0:0|0:0,0:0:0:0:
274,247,79168,1,8,0:0:0:0:
274,247,79358,6,0,P|253:184|305:86,1,138.75,6|0,0:0|0:0,0:0:0:0:
243,75,80117,2,0,P|195:65|145:5,1,92.5,10|2,0:0|0:0,0:0:0:0:
113,22,80687,1,4,0:0:0:0:
113,22,80877,2,0,P|83:80|25:108,1,92.5,6|6,0:0|0:0,0:0:0:0:
48,196,81636,2,0,P|93:204|129:232,1,92.5,10|2,0:0|0:0,0:0:0:0:
168,266,82206,1,0,0:0:0:0:
168,266,82396,6,0,P|236:260|293:223,1,138.75,4|0,0:0|0:0,0:0:0:0:
321,179,83155,2,0,P|349:214|391:234,1,92.5,10|2,0:0|0:0,0:0:0:0:
437,211,83725,1,4,0:0:0:0:
437,211,83915,2,0,L|424:326,1,92.5,6|6,0:0|0:0,0:0:0:0:
337,352,84674,1,10,0:0:0:0:
255,291,85053,1,6,0:0:0:0:
161,331,85434,6,0,P|95:326|47:282,1,92.5,6|2,0:0|0:0,0:0:0:0:
30,285,86004,1,0,0:0:0:0:
30,285,86193,2,0,P|51:228|37:168,1,92.5,10|2,0:0|0:0,0:0:0:0:
42,146,86763,1,4,0:0:0:0:
42,146,86953,2,0,P|108:141|157:96,1,92.5,6|6,0:0|0:0,0:0:0:0:
188,45,87712,1,10,0:0:0:0:
237,134,88092,2,0,P|238:181|257:207,1,46.25,6|8,0:0|0:0,0:0:0:0:
259,226,88472,6,0,P|304:228|345:207,1,92.5,6|6,0:0|0:0,0:0:0:0:
417,134,89231,2,0,P|421:179|450:214,1,92.5,10|4,0:0|0:0,0:0:0:0:
486,250,89801,1,8,0:0:0:0:
486,250,89991,2,0,P|427:283|408:333,1,92.5,6|8,0:0|0:0,0:0:0:0:
331,361,90750,2,0,P|271:331|207:349,1,92.5,10|2,0:0|0:0,0:0:0:0:
198,348,91320,1,8,0:0:0:0:
198,348,91510,6,0,P|152:344|98:291,1,92.5,6|6,0:0|0:0,0:0:0:0:
48,241,92269,2,0,P|87:218|133:217,1,92.5,10|6,0:0|0:0,0:0:0:0:
141,114,93029,2,0,P|185:127|218:159,1,92.5,10|4,0:0|0:0,0:0:0:0:
220,260,93788,1,8,0:0:0:0:
298,324,94168,2,0,P|309:304|316:283,1,46.25,8|4,0:0|0:0,0:0:0:0:
323,232,94548,38,0,B|360:251|410:231|410:231|461:214|502:235,1,185,6|10,0:0|0:0,0:0:0:0:
449,322,95687,1,6,0:0:0:0:
347,328,96067,2,0,P|301:320|256:328,1,92.5,10|4,0:0|0:0,0:0:0:0:
167,377,96826,1,14,0:0:0:0:
116,372,97016,2,0,P|54:333|38:268,1,138.75,6|6,0:0|0:0,0:0:0:0:
116,207,97966,6,0,P|119:185|117:163,1,46.25,6|0,0:0|0:0,0:0:0:0:
77,130,98345,2,0,P|67:73|80:28,1,92.5,10|2,0:0|0:0,0:0:0:0:
172,12,99105,1,6,0:0:0:0:
241,86,99485,2,0,P|262:81|282:71,1,46.25,6|0,0:0|0:0,0:0:0:0:
327,42,99864,2,0,P|317:91|311:143,1,92.5,10|2,0:0|0:0,0:0:0:0:
289,232,100624,6,0,B|186:223|224:293|107:286,1,185,6|10,0:0|0:0,0:0:0:0:
49,211,101763,1,2,0:0:0:0:
14,173,101953,2,0,L|-3:12,1,138.75,4|6,0:0|0:0,0:0:0:0:
99,16,102902,1,10,0:0:0:0:
176,81,103282,2,0,P|197:76|217:66,1,46.25,8|4,0:0|0:0,0:0:0:0:
252,25,103662,6,0,P|298:15|354:20,1,92.5,6|6,0:0|0:0,0:0:0:0:
445,38,104421,1,10,0:0:0:0:
475,135,104801,1,6,0:0:0:0:
404,208,105181,1,6,0:0:0:0:
321,148,105561,2,0,P|300:153|280:163,1,46.25,6|0,0:0|0:0,0:0:0:0:
237,194,105940,2,0,L|253:295,1,92.5,10|2,0:0|0:0,0:0:0:0:
301,374,106700,6,0,P|376:375|416:257,1,185,6|10,0:0|0:0,0:0:0:0:
388,192,107839,2,0,P|385:170|387:148,1,46.25,2|4,0:0|0:0,0:0:0:0:
435,129,108218,2,0,P|445:72|432:27,1,92.5,6|6,0:0|0:0,0:0:0:0:
339,11,108978,1,10,0:0:0:0:
266,81,109358,1,4,0:0:0:0:
170,44,109738,6,0,B|140:153|219:137|168:263,1,185,6|10,0:0|0:0,0:0:0:0:
161,324,110877,1,4,0:0:0:0:
125,360,111067,2,0,P|63:321|47:256,1,138.75,14|10,0:0|0:0,0:0:0:0:
89,168,112016,1,8,0:0:0:0:
12,100,112396,2,0,P|7:66|8:44,1,46.25,8|4,0:0|0:0,0:0:0:0:
38,13,112776,38,0,B|79:7|119:43|119:43|161:77|207:71,1,185,10|10,0:0|0:0,0:0:0:0:
302,33,113915,1,4,0:0:0:0:
342,63,114105,2,0,P|331:124|323:218,1,138.75,14|10,0:0|0:0,0:0:0:0:
227,231,115054,2,0,P|235:276|241:345,1,92.5,8|8,0:0|0:0,0:0:0:0:
322,383,115814,6,0,L|419:373,1,92.5,10|6,0:0|0:0,0:0:0:0:
485,301,116573,2,0,P|492:249|484:208,1,92.5,10|6,0:0|0:0,0:0:0:0:
383,214,117333,2,0,P|376:162|384:121,1,92.5,10|6,0:0|0:0,0:0:0:0:
464,62,118092,1,10,0:0:0:0:
368,26,118472,2,0,P|345:26|324:32,1,46.25,10|4,0:0|0:0,0:0:0:0:
276,54,118852,6,0,P|219:45|175:43,1,92.5,6|4,0:0|0:0,0:0:0:0:
106,108,119611,2,0,P|97:165|95:209,1,92.5,4|4,0:0|0:0,0:0:0:0:
168,273,120371,1,6,0:0:0:0:
265,243,120751,1,4,0:0:0:0:
312,333,121130,1,10,0:0:0:0:
412,350,121509,1,4,0:0:0:0:
474,270,121890,6,0,B|493:226|473:178|473:178|454:129|474:89,1,185,6|10,0:0|0:0,0:0:0:0:
383,41,123029,2,0,P|360:45|340:57,1,46.25,2|0,0:0|0:0,0:0:0:0:
295,79,123408,2,0,P|249:77|208:56,1,92.5,6|6,0:0|0:0,0:0:0:0:
114,17,124168,2,0,P|122:62|105:105,1,92.5,10|2,0:0|0:0,0:0:0:0:
74,201,124928,6,0,B|117:214|151:194|151:194|171:207|171:207|205:187|248:201,1,185,2|10,0:0|0:0,0:0:0:0:
347,175,126067,2,0,P|347:222|328:248,1,46.25
329,267,126447,2,0,P|325:339|343:368,2,92.5,6|6|10,0:0|0:0|3:0,0:0:0:0:
249,201,127586,1,6,0:0:0:0:
152,234,127966,6,0,P|78:218|66:94,1,185,6|10,0:0|0:0,0:0:0:0:
117,45,129105,1,0,0:0:0:0:
204,97,129485,2,0,P|250:95|291:74,1,92.5,6|6,0:0|0:0,0:0:0:0:
383,32,130244,1,10,0:0:0:0:
402,131,130624,1,6,0:0:0:0:
463,212,131004,38,0,P|423:276|302:247,1,185,6|10,0:0|0:0,0:0:0:0:
238,214,132143,2,0,P|192:201|162:212,1,46.25,6|8,0:0|0:0,0:0:0:0:
143,206,132523,2,0,P|70:195|46:171,1,92.5,6|6,0:0|0:0,0:0:0:0:
2,269,133282,1,10,0:0:0:0:
70,344,133662,1,6,0:0:0:0:
164,306,134042,6,0,B|201:286|251:306|251:306|302:323|343:302,1,185,6|10,0:0|0:0,0:0:0:0:
441,329,135181,2,0,P|441:282|422:256,1,46.25,6|0,0:0|0:0,0:0:0:0:
415,239,135561,2,0,P|401:144|447:83,1,138.75,6|0,0:0|0:0,0:0:0:0:
455,73,136320,1,10,0:0:0:0:
369,17,136700,1,6,0:0:0:0:
292,83,137079,6,0,P|215:100|120:57,1,185,6|10,0:0|0:0,0:0:0:0:
21,33,138219,2,0,P|18:55|20:77,1,46.25,6|0,0:0|0:0,0:0:0:0:
41,125,138598,2,0,P|49:175|38:215,1,92.5,6|6,0:0|0:0,0:0:0:0:
10,312,139358,1,10,0:0:0:0:
84,380,139738,1,6,0:0:0:0:
180,349,140117,6,0,P|254:302|248:214,1,185,6|10,0:0|0:0,0:0:0:0:
177,141,141257,1,6,0:0:0:0:
244,64,141636,2,0,P|289:64|329:87,1,92.5,6|6,0:0|0:0,0:0:0:0:
388,3,142396,2,0,P|419:36|430:81,1,92.5,10|6,0:0|0:0,0:0:0:0:
387,173,143155,6,0,B|374:216|394:250|394:250|381:270|381:270|401:304|387:347,1,185,6|10,0:0|0:0,0:0:0:0:
289,316,144295,1,6,0:0:0:0:
194,352,144674,2,0,P|120:370|55:263,1,185,6|6,0:0|0:0,0:0:0:0:
6,205,145814,1,6,0:0:0:0:
99,165,146193,6,0,B|203:166|152:242|268:249,1,185,6|10,0:0|0:0,0:0:0:0:
334,182,147333,2,0,P|360:184|406:213,1,46.25,0|4,0:0|0:0,0:0:0:0:
424,214,147712,2,0,P|428:170|438:116,1,92.5,4|6,0:0|0:0,0:0:0:0:
369,45,148472,2,0,P|319:36|273:53,1,92.5,10|2,0:0|0:0,0:0:0:0:
206,118,149231,38,0,B|193:161|213:195|213:195|200:215|200:215|220:249|206:292,1,185,6|10,0:0|0:0,0:0:0:0:
135,368,150371,1,0,0:0:0:0:
46,320,150750,2,0,P|36:279|42:223,1,92.5,4|6,0:0|0:0,0:0:0:0:
89,139,151510,1,10,0:0:0:0:
157,214,151890,1,2,0:0:0:0:
231,144,152269,6,0,P|273:135|322:148,1,92.5,6|0,0:0|0:0,0:0:0:0:
391,75,153029,2,0,P|413:112|417:162,1,92.5,10|2,0:0|0:0,0:0:0:0:
508,206,153788,2,0,P|480:239|435:260,1,92.5,4|6,0:0|0:0,0:0:0:0:
340,226,154548,1,10,0:0:0:0:
266,296,154928,1,6,0:0:0:0:
208,212,155307,6,0,B|165:199|131:219|131:219|111:206|111:206|77:226|34:212,1,185,6|10,0:0|0:0,0:0:0:0:
1,114,156447,2,0,P|1:90|11:65,1,46.25,6|8,0:0|0:0,0:0:0:0:
53,45,156826,1,6,0:0:0:0:
151,21,157206,1,6,0:0:0:0:
219,96,157586,1,10,0:0:0:0:
317,72,157966,1,6,0:0:0:0:
398,132,158345,6,0,B|368:241|444:213|396:351,1,185,6|10,0:0|0:0,0:0:0:0:
306,329,159485,2,0,P|271:324|239:313,1,46.25,2|4,0:0|0:0,0:0:0:0:
234,277,159864,2,0,B|178:282|178:282|136:317|136:317|45:327,1,185,6|10,0:0|0:0,0:0:0:0:
11,236,161004,2,0,L|2:170,1,46.25,6|10,0:0|0:0,0:0:0:0:
22,142,161383,6,0,P|64:133|113:146,1,92.5,6|6,0:0|0:0,0:0:0:0:
182,73,162143,2,0,P|204:110|208:160,1,92.5,10|2,0:0|0:0,0:0:0:0:
299,204,162902,2,0,P|271:237|226:258,1,92.5,6|6,0:0|0:0,0:0:0:0:
228,360,163663,1,10,0:0:0:0:
139,310,164042,1,6,0:0:0:0:
79,228,164421,6,0,B|92:185|72:151|72:151|85:131|85:131|65:97|79:54,1,185,6|10,0:3|0:3,0:0:0:0:
172,94,165561,2,0,P|199:96|228:86,1,46.25,6|4,0:0|0:0,0:0:0:0:
253,54,165940,2,0,P|296:41|349:59,1,92.5,6|6,0:3|0:3,0:0:0:0:
396,139,166700,1,10,0:0:0:0:
321,207,167079,1,6,0:0:0:0:
220,191,167459,38,0,B|214:229|214:229|227:310,1,92.5,6|6,0:0|0:0,0:0:0:0:
283,364,168219,2,0,B|321:370|321:370|402:357,1,92.5,10|6,0:0|0:0,0:0:0:0:
441,284,168978,2,0,B|447:246|447:246|434:165,1,92.5,6|6,0:0|0:0,0:0:0:0:
391,101,169738,1,6,0:0:0:0:
289,110,170117,1,6,0:0:0:0:
248,204,170497,6,0,B|187:221|128:188|83:151|71:76|127:43|127:43|185:82|188:146|104:227|52:232|27:241|5:242|5:242|83:249|63:304|166:287,1,740,6|2,0:0|0:0,0:0:0:0:
22,142,185307,70,0,P|27:108|26:86,1,46.25,2|0,0:0|0:0,0:0:0:0:
61,58,185687,6,0,B|97:38|147:58|147:58|198:76|239:54,1,185,2|2,0:0|0:0,0:0:0:0:
330,100,186826,2,0,P|325:134|326:156,1,46.25,2|0,0:0|0:0,0:0:0:0:
346,192,187206,2,0,B|304:213|253:195|253:195|203:175|167:195,1,185,2|2,0:0|0:0,0:0:0:0:
81,251,188345,2,0,P|81:285|85:306,1,46.25,2|0,0:0|0:0,0:0:0:0:
117,335,188725,102,0,P|188:355|279:321,2,138.75,2|0|0,0:0|0:0|0:0,0:0:0:0:
36,272,190244,1,2,0:0:0:0:
41,170,190624,1,0,0:0:0:0:
120,106,191004,1,2,0:0:0:0:
199,169,191384,2,0,P|242:170|277:145,1,46.25,2|0,0:0|0:0,0:0:0:0:
291,150,191763,6,0,B|312:191|295:242|295:242|275:292|297:335,1,185,2|2,0:0|0:0,0:0:0:0:
391,361,192902,2,0,P|420:323|421:291,1,46.25,2|0,0:0|0:0,0:0:0:0:
439,278,193282,2,0,P|432:228|454:182,1,92.5,2|0,0:0|0:0,0:0:0:0:
492,98,194042,1,10,0:0:0:0:
390,101,194421,2,0,P|367:96|347:84,1,46.25,4|8,0:0|0:0,0:0:0:0:
308,52,194801,6,0,B|266:30|215:48|215:48|165:68|129:48,1,185,6|10,0:0|0:0,0:0:0:0:
33,83,195940,1,2,0:0:0:0:
111,148,196320,2,0,P|124:201|99:275,1,92.5,10|6,0:0|0:0,0:0:0:0:
72,327,197079,1,4,0:0:0:0:
158,381,197459,2,0,P|180:376|200:364,1,46.25,8|4,3:0|0:0,0:0:0:0:
239,332,197839,6,0,P|290:329|348:366,1,92.5,4|4,0:0|0:0,0:0:0:0:
428,357,198598,1,4,0:0:0:0:
387,264,198978,1,4,0:0:0:0:
429,171,199358,1,4,0:0:0:0:
302,12,200117,2,0,P|258:16|209:56,1,92.5,10|0,0:0|0:0,0:0:0:0:
190,85,200687,1,0,0:0:0:0:
190,85,200877,6,0,B|203:128|203:128|195:170|195:170|213:232,1,138.75,6|0,0:0|0:0,0:0:0:0:
229,265,201637,2,0,B|277:275|277:275|335:254,1,92.5,10|2,0:0|0:0,0:0:0:0:
357,228,202206,1,4,0:0:0:0:
357,228,202396,2,0,P|344:174|360:119,1,92.5,6|6,0:0|0:0,0:0:0:0:
325,39,203156,2,0,P|277:26|220:49,1,92.5,10|2,0:0|0:0,0:0:0:0:
199,72,203725,1,0,0:0:0:0:
199,72,203915,6,0,B|111:80|111:80|66:44,1,138.75,4|0,0:0|0:0,0:0:0:0:
26,72,204675,2,0,B|39:116|39:116|24:164,1,92.5,10|2,0:0|0:0,0:0:0:0:
16,210,205244,1,4,0:0:0:0:
16,210,205434,2,0,B|143:191,1,92.5,6|6,0:0|0:0,0:0:0:0:
209,186,206194,1,10,0:0:0:0:
286,251,206573,1,6,0:0:0:0:
357,179,206953,6,0,P|362:114|334:71,1,92.5,6|2,0:0|0:0,0:0:0:0:
325,46,207523,1,0,0:0:0:0:
325,46,207712,2,0,P|265:57|211:33,1,92.5,10|2,0:0|0:0,0:0:0:0:
189,71,208282,1,4,0:0:0:0:
189,71,208472,2,0,P|127:62|71:90,1,92.5,6|6,0:0|0:0,0:0:0:0:
29,144,209232,1,10,0:0:0:0:
85,229,209611,2,0,P|132:229|158:210,1,46.25,2|0,0:0|0:0,0:0:0:0:
159,187,209991,6,0,P|231:183|260:201,1,92.5,6|6,0:0|0:0,0:0:0:0:
343,156,210750,2,0,P|339:84|357:55,1,92.5,10|6,0:0|0:0,0:0:0:0:
388,36,211320,1,8,0:0:0:0:
388,36,211510,2,0,L|253:22,1,92.5,6|6,0:0|0:0,0:0:0:0:
208,78,212269,2,0,L|108:64,1,92.5,10|6,0:0|0:0,0:0:0:0:
67,48,212839,1,8,0:0:0:0:
67,48,213029,38,0,B|88:200,1,138.75,6|0,0:0|0:0,0:0:0:0:
115,227,213788,2,0,P|163:217|213:157,1,92.5,10|6,0:0|0:0,0:0:0:0:
237,160,214358,1,4,0:0:0:0:
237,160,214548,2,0,P|266:192|334:204,1,92.5,6|6,0:0|0:0,0:0:0:0:
413,195,215307,2,0,P|428:152|422:106,1,92.5,10|2,0:0|0:0,0:0:0:0:
430,59,215877,1,0,0:0:0:0:
430,59,216067,6,0,B|399:48|356:63|356:63|324:78|274:63,1,138.75,4|0,0:0|0:0,0:0:0:0:
248,45,216826,2,0,P|224:83|220:129,1,92.5,10|2,0:0|0:0,0:0:0:0:
255,166,217396,1,4,0:0:0:0:
255,166,217586,2,0,L|239:289,1,92.5,6|6,0:0|0:0,0:0:0:0:
185,343,218345,1,10,0:0:0:0:
95,296,218725,1,6,0:0:0:0:
25,221,219105,6,0,P|8:157|32:97,1,92.5,6|2,0:0|0:0,0:0:0:0:
40,89,219674,1,0,0:0:0:0:
40,89,219864,2,0,P|108:89|159:57,1,92.5,10|2,0:0|0:0,0:0:0:0:
173,53,220434,1,4,0:0:0:0:
173,53,220624,2,0,P|203:122|252:150,1,92.5,6|6,0:0|0:0,0:0:0:0:
308,92,221383,1,10,0:0:0:0:
394,145,221763,2,0,P|391:174|368:216,1,46.25,2|8,0:0|0:0,0:0:0:0:
352,221,222143,6,0,P|350:266|371:307,1,92.5,6|2,0:0|0:0,0:0:0:0:
289,367,222902,2,0,P|251:342|205:340,1,92.5,10|10,0:0|0:0,0:0:0:0:
158,350,223472,1,4,0:0:0:0:
158,350,223662,2,0,L|146:216,1,92.5,6|14,0:0|0:0,0:0:0:0:
139,156,224421,2,0,P|204:171|241:226,1,92.5,14|6,0:0|0:0,0:0:0:0:
256,225,224991,1,0,0:0:0:0:
256,225,225181,6,0,P|354:239|382:142,1,185,6|10,0:0|0:0,0:0:0:0:
383,72,226320,2,0,P|360:69|337:71,1,46.25,2|4,0:0|0:0,0:0:0:0:
290,49,226700,2,0,P|240:57|200:46,1,92.5,6|6,0:0|0:0,0:0:0:0:
101,37,227459,1,10,0:0:0:0:
140,130,227839,1,6,0:0:0:0:
38,118,228219,6,0,B|59:159|42:210|42:210|22:260|42:297,1,185,6|10,0:0|0:0,0:0:0:0:
103,378,229358,2,0,P|119:362|132:343,1,46.25,6|0,0:0|0:0,0:0:0:0:
143,292,229738,2,0,P|188:287|226:262,1,92.5,6|6,0:0|0:0,0:0:0:0:
268,170,230497,1,10,0:0:0:0:
332,248,230877,1,6,0:0:0:0:
292,341,231257,38,0,P|355:326|402:348,1,92.5,6|2,0:0|0:0,0:0:0:0:
428,350,231826,1,0,0:0:0:0:
428,350,232016,2,0,P|425:272|454:224,1,92.5,10|2,0:0|0:0,0:0:0:0:
461,219,232586,1,4,0:0:0:0:
461,219,232776,2,0,P|400:192|366:139,1,92.5,6|6,0:0|0:0,0:0:0:0:
334,84,233535,1,10,0:0:0:0:
268,162,233915,2,0,P|270:196|262:224,1,46.25,2|4,0:0|3:0,0:0:0:0:
225,235,234294,6,0,P|153:231|124:249,1,92.5,6|6,0:0|0:0,0:0:0:0:
43,280,235054,2,0,P|34:235|47:191,1,92.5,10|6,0:0|0:0,0:0:0:0:
72,146,235624,1,10,0:0:0:0:
72,146,235814,2,0,P|140:152|186:124,1,92.5,6|6,0:0|0:0,0:0:0:0:
244,85,236573,2,0,P|304:55|368:73,1,92.5,10|0,0:0|0:0,0:0:0:0:
377,65,237143,1,0,0:0:0:0:
377,65,237333,6,0,P|388:127|367:163,1,92.5,6|4,0:0|0:0,0:0:0:0:
370,254,238092,2,0,P|326:242|292:210,1,92.5,10|10,0:0|0:0,0:0:0:0:
215,277,238852,2,0,P|193:236|192:190,1,92.5,6|4,0:0|0:0,0:0:0:0:
258,113,239611,1,10,0:0:0:0:
188,38,239991,2,0,P|165:41|142:39,1,46.25,4|4,0:0|0:0,0:0:0:0:
98,63,240371,6,0,L|90:155,1,92.5,10|8,0:0|0:0,0:0:0:0:
15,225,241131,2,0,L|22:317,1,92.5,4|8,0:0|0:0,0:0:0:0:
115,363,241890,1,4,0:0:0:0:
211,330,242269,1,4,0:0:0:0:
223,228,242649,2,0,P|218:191|220:169,1,46.25,8|6,0:0|0:0,0:0:0:0:
247,140,243029,2,0,P|251:103|249:81,1,46.25
235,45,243409,6,0,B|279:30|313:50|313:50|333:37|333:37|367:57|410:44,1,185,6|10,0:0|0:0,0:0:0:0:
468,126,244548,2,0,P|448:137|426:143,1,46.25,2|4,0:0|0:0,0:0:0:0:
380,165,244928,2,0,P|368:209|377:254,1,92.5,6|6,0:0|0:0,0:0:0:0:
429,342,245687,2,0,P|406:347|385:356,1,46.25,10|0,0:0|0:0,0:0:0:0:
336,373,246067,2,0,P|300:373|277:366,1,46.25,2|0,0:0|0:0,0:0:0:0:
248,341,246447,6,0,B|207:362|156:345|156:345|106:325|68:344,1,185,6|10,0:0|0:0,0:0:0:0:
15,256,247586,2,0,P|37:253|58:242,1,46.25,2|4,0:0|0:0,0:0:0:0:
94,206,247965,2,0,P|137:193|182:204,1,92.5,6|6,0:0|0:0,0:0:0:0:
259,271,248725,1,10,0:0:0:0:
360,256,249105,1,6,0:0:0:0:
434,325,249485,38,0,P|460:257|397:161,1,185,6|10,0:0|0:0,0:0:0:0:
316,119,250624,1,2,0:0:0:0:
265,207,251004,2,0,P|223:216|173:204,1,92.5,6|6,0:0|0:0,0:0:0:0:
106,279,251764,2,0,P|83:242|78:192,1,92.5,10|2,0:0|0:0,0:0:0:0:
44,97,252523,6,0,B|102:96|102:96|155:122|155:122|222:123,1,185,6|10,0:0|0:0,0:0:0:0:
319,89,253662,2,0,P|324:124|321:148,1,46.25,6|8,0:0|0:0,0:0:0:0:
302,182,254042,2,0,P|301:224|323:261,1,46.25,6|8,0:0|0:0,0:0:0:0:
324,273,254421,1,6,0:0:0:0:
256,349,254801,2,0,P|233:344|212:335,1,46.25,10|8,0:0|0:0,0:0:0:0:
163,318,255181,2,0,P|127:318|104:325,1,46.25,6|8,0:0|0:0,0:0:0:0:
66,327,255561,6,0,P|55:249|44:171,1,138.75,6|4,0:0|0:0,0:0:0:0:
52,138,256320,1,10,0:0:0:0:
143,182,256700,2,0,P|165:179|186:168,1,46.25,6|8,0:0|0:0,0:0:0:0:
226,136,257079,2,0,P|269:123|314:134,1,92.5,6|6,0:0|0:0,0:0:0:0:
403,183,257839,1,10,0:0:0:0:
340,263,258219,1,6,0:0:0:0:
380,355,258598,6,0,P|315:363|245:275,1,185,14|4,0:0|0:0,0:0:0:0:
287,185,259738,2,0,P|290:163|288:141,1,46.25,10|8,0:0|0:0,0:0:0:0:
239,125,260117,2,0,P|229:68|242:23,1,92.5,14|8,0:0|0:0,0:0:0:0:
334,7,260877,1,10,0:0:0:0:
395,87,261257,1,10,0:0:0:0:
484,38,261636,6,0,B|516:143|439:114|486:257,1,185,6|10,0:0|0:0,0:0:0:0:
426,308,262776,2,0,P|402:306|380:300,1,46.25,0|4,0:0|0:0,0:0:0:0:
344,265,263156,2,0,P|294:252|254:260,1,92.5,6|6,0:0|0:0,0:0:0:0:
182,331,263915,1,10,0:0:0:0:
84,300,264295,1,4,0:0:0:0:
22,219,264674,6,0,B|35:176|15:142|15:142|28:122|28:122|8:88|22:45,1,185,6|10,0:0|0:0,0:0:0:0:
120,14,265814,1,6,0:0:0:0:
185,91,266193,2,0,B|289:110|258:22|392:58,1,185,6|6,0:0|0:0,0:0:0:0:
446,104,267333,2,0,L|451:162,1,46.25,10|0,0:0|0:0,0:0:0:0:
412,185,267712,38,0,B|338:155|288:171|271:176|271:176|234:169|187:252|176:277|215:336|288:356|347:303|326:191|276:132|210:123|159:182|159:182|187:137|184:89,1,693.75,6|0,0:0|0:0,0:0:0:0:
191,41,270750,86,0,P|146:31|103:48,1,92.5,2|0,0:0|0:0,0:0:0:0:
4,29,271510,2,0,P|6:74|28:115,1,92.5,2|0,0:0|0:0,0:0:0:0:
123,151,272269,2,0,P|120:196|98:237,1,92.5,2|0,0:0|0:0,0:0:0:0:
23,306,273029,1,2,0:0:0:0:
109,359,273409,1,0,0:0:0:0:
186,292,273788,6,0,P|226:270|272:266,1,92.5,2|0,0:0|0:0,0:0:0:0:
277,164,274548,2,0,P|321:177|355:207,1,92.5,2|2,0:0|0:0,0:0:0:0:
431,138,275307,2,0,P|452:178|456:224,1,92.5,2|0,0:0|0:0,0:0:0:0:
464,326,276067,1,2,0:0:0:0:
370,367,276447,1,0,0:0:0:0:
300,293,276826,102,0,P|254:293|213:314,2,92.5,2|0|2,0:0|0:0|0:0,0:0:0:0:
431,137,278375,2,0,P|390:116|344:116,1,92.5,2|0,0:0|0:0,0:0:0:0:
330,11,279164,2,0,P|269:37|240:101,1,120.249994495392,2|2,0:0|0:0,0:0:0:0:
256,192,280374,12,0,282550,0:0:0:0:
118,144,283647,22,0,B|171:114|218:159|218:192|207:228|173:257|127:278|51:274|14:239|3:197|-36:129|-1:62|36:35|99:15|165:9|243:33|278:92|289:169|289:169|292:249|275:305|313:353|399:382|470:338|484:276,1,1100.75002099514,2|0,0:0|0:0,0:0:0:0:
