osu file format v14

[General]
AudioFilename: audio.mp3
AudioLeadIn: 0
PreviewTime: 66209
Countdown: 0
SampleSet: Soft
StackLeniency: 0.6
Mode: 0
LetterboxInBreaks: 0
WidescreenStoryboard: 1

[Editor]
Bookmarks: 39864,67206,79358,91510,97586,109738,121890,134042,146193,158345,173535,199358,200877,213029,218725,225181,237333,243409,255561,270750,288980
DistanceSpacing: 1.5
BeatDivisor: 8
GridSize: 4
TimelineZoom: 1.9

[Metadata]
Title:NO RAIN, NO RAINBOW
TitleUnicode:NO RAIN, NO RAINBOW
Artist:BABYMETAL
ArtistUnicode:BABYMETAL
Creator:Hysteria
Version:Nao's Hard
Source:
Tags:j-pop j-rock pop rock kawaii heavy metal resistance su-metal yuimetal moametal lazyboy007 tokiko nao tomori naotoshi Joe Castle yShadowXOP_
BeatmapID:1319297
BeatmapSetID:585019

[Difficulty]
HPDrainRate:5.2
CircleSize:3.7
OverallDifficulty:6.5
ApproachRate:8
SliderMultiplier:1.4
SliderTickRate:1

[Events]
//Background and Video events
0,0,"BG_NO_RAIN_NO_RAINBOW_SCALED_FIXED.jpg",0,0
//Break Periods
2,173735,191013
//Storyboard Layer 0 (Background)
//Storyboard Layer 1 (Fail)
//Storyboard Layer 2 (Pass)
//Storyboard Layer 3 (Foreground)
//Storyboard Sound Samples

[TimingPoints]
3433,743.494423791822,4,2,10,30,1,0
4920,759.493670886076,4,2,10,30,1,0
6438,769.230769230769,4,2,10,30,1,0
7976,757.575757575758,4,2,10,30,1,0
11006,758.293838862559,4,2,10,30,1,0
11742,784.313725490196,4,2,10,30,1,0
12526,756.620428751576,4,2,10,30,1,0
14039,761.421319796954,4,2,10,30,1,0
15561,759.493670886076,4,2,10,30,1,0
15561,-90.9090909090909,4,2,10,30,0,0
36826,-90.9090909090909,4,3,5,45,0,0
37586,-100,4,3,7,45,0,0
37776,-100,4,3,5,45,0,0
37965,-100,4,3,12,45,0,0
38725,-100,4,3,11,45,0,0
39105,-76.9230769230769,4,3,11,45,0,0
39295,-76.9230769230769,4,3,10,45,0,0
39674,-76.9230769230769,4,3,1,45,0,0
39864,-66.6666666666667,4,3,2,45,0,0
52016,-66.6666666666667,4,3,3,45,0,0
54295,-66.6666666666667,4,3,2,45,0,0
59611,-66.6666666666667,4,3,5,45,0,0
59991,-66.6666666666667,4,3,7,45,0,0
60750,-66.6666666666667,4,3,10,45,0,0
61130,-66.6666666666667,4,3,2,45,0,0
61510,-66.6666666666667,4,3,5,45,0,0
61890,-66.6666666666667,4,3,2,45,0,0
63029,-66.6666666666667,4,3,5,45,0,0
63219,-66.6666666666667,4,3,12,45,0,0
63409,-66.6666666666667,4,3,11,45,0,0
63598,-66.6666666666667,4,3,12,45,0,0
63788,-66.6666666666667,4,3,11,45,0,0
64168,-66.6666666666667,4,3,8,50,0,0
64548,-66.6666666666667,4,3,8,55,0,0
64738,-66.6666666666667,4,3,1,45,0,0
64927,-66.6666666666667,4,3,9,60,0,0
65117,-66.6666666666667,4,3,1,45,0,0
65307,-66.6666666666667,4,3,9,65,0,0
65497,-66.6666666666667,4,3,1,45,0,0
65687,-66.6666666666667,4,3,9,70,0,0
66257,-66.6666666666667,4,3,1,45,0,0
66447,-66.6666666666667,4,3,2,60,0,0
67111,-66.6666666666667,4,3,1,60,0,0
67206,-58.8235294117647,4,3,1,60,0,0
67965,-58.8235294117647,4,3,2,60,0,0
68345,-58.8235294117647,4,3,5,60,0,0
68535,-58.8235294117647,4,3,2,60,0,0
68725,-58.8235294117647,4,3,7,60,0,0
69105,-58.8235294117647,4,3,5,60,0,0
69484,-58.8235294117647,4,3,2,60,0,0
69864,-58.8235294117647,4,3,5,60,0,0
70244,-58.8235294117647,4,3,2,60,0,0
71383,-58.8235294117647,4,3,5,60,0,0
71573,-58.8235294117647,4,3,2,60,0,0
71763,-58.8235294117647,4,3,7,60,0,0
72143,-58.8235294117647,4,3,5,60,0,0
72522,-58.8235294117647,4,3,2,60,0,0
72902,-58.8235294117647,4,3,5,60,0,0
73282,-58.8235294117647,4,3,1,60,0,0
73662,-58.8235294117647,4,3,5,60,0,0
74041,-58.8235294117647,4,3,2,60,0,0
74421,-58.8235294117647,4,3,5,60,0,0
74611,-58.8235294117647,4,3,2,60,0,0
74801,-58.8235294117647,4,3,7,60,0,0
75181,-58.8235294117647,4,3,5,60,0,0
75560,-58.8235294117647,4,3,2,60,0,0
75940,-58.8235294117647,4,3,5,60,0,0
76320,-58.8235294117647,4,3,1,60,0,0
76700,-58.8235294117647,4,3,5,60,0,0
76890,-58.8235294117647,4,3,1,60,0,0
77079,-58.8235294117647,4,3,2,60,0,0
77459,-58.8235294117647,4,3,5,60,0,0
77649,-58.8235294117647,4,3,2,60,0,0
77839,-58.8235294117647,4,3,1,60,0,0
78219,-58.8235294117647,4,3,5,60,0,0
78409,-58.8235294117647,4,3,1,60,0,0
78597,-58.8235294117647,4,3,2,60,0,0
78977,-58.8235294117647,4,3,5,60,0,0
79167,-58.8235294117647,4,3,2,60,0,0
79358,-58.8235294117647,4,3,1,60,0,0
80117,-58.8235294117647,4,3,2,60,0,0
80497,-58.8235294117647,4,3,5,60,0,0
80687,-58.8235294117647,4,3,2,60,0,0
80877,-58.8235294117647,4,3,7,60,0,0
81257,-58.8235294117647,4,3,5,60,0,0
81636,-58.8235294117647,4,3,2,60,0,0
82016,-58.8235294117647,4,3,5,60,0,0
82396,-58.8235294117647,4,3,2,60,0,0
83535,-58.8235294117647,4,3,5,60,0,0
83725,-58.8235294117647,4,3,2,60,0,0
83915,-58.8235294117647,4,3,7,60,0,0
84295,-58.8235294117647,4,3,5,60,0,0
84674,-58.8235294117647,4,3,2,60,0,0
85054,-58.8235294117647,4,3,5,60,0,0
85434,-58.8235294117647,4,3,1,60,0,0
85814,-58.8235294117647,4,3,5,60,0,0
86193,-58.8235294117647,4,3,2,60,0,0
86573,-58.8235294117647,4,3,5,60,0,0
86763,-58.8235294117647,4,3,2,60,0,0
86953,-58.8235294117647,4,3,7,60,0,0
87333,-58.8235294117647,4,3,5,60,0,0
87712,-58.8235294117647,4,3,2,60,0,0
88092,-58.8235294117647,4,3,5,60,0,0
88282,-58.8235294117647,4,3,2,60,0,0
88472,-58.8235294117647,4,3,1,60,0,0
88852,-58.8235294117647,4,3,5,60,0,0
89231,-58.8235294117647,4,3,2,60,0,0
89421,-58.8235294117647,4,3,10,60,0,0
89801,-58.8235294117647,4,3,1,60,0,0
90750,-58.8235294117647,4,3,2,60,0,0
90940,-58.8235294117647,4,3,1,60,0,0
91130,-58.8235294117647,4,3,5,60,0,0
91320,-58.8235294117647,4,3,2,60,0,0
91415,-58.8235294117647,4,3,1,60,0,0
91890,-58.8235294117647,4,3,5,60,0,0
92269,-58.8235294117647,4,3,2,60,0,0
92649,-58.8235294117647,4,3,5,60,0,0
93029,-58.8235294117647,4,3,2,60,0,0
93409,-55.5555555555556,4,3,1,60,0,0
93503,-55.5555555555556,4,3,12,60,0,0
93788,-55.5555555555556,4,3,11,60,0,0
94168,-55.5555555555556,4,3,10,60,0,0
94548,-58.8235294117647,4,3,1,60,0,0
94927,-58.8235294117647,4,3,5,60,0,0
95307,-58.8235294117647,4,3,2,60,0,0
95687,-58.8235294117647,4,3,5,60,0,0
95877,-58.8235294117647,4,3,2,60,0,0
96921,-58.8235294117647,4,3,1,60,0,0
97016,-71.4285714285714,4,3,1,60,0,0
97491,-71.4285714285714,4,3,1,5,0,0
97586,-71.4285714285714,4,3,3,45,0,0
97965,-71.4285714285714,4,3,5,45,0,0
97966,-66.6666666666667,4,3,5,45,0,0
98345,-66.6666666666667,4,3,2,45,0,0
98725,-66.6666666666667,4,3,5,45,0,0
99105,-66.6666666666667,4,3,7,45,0,0
99484,-66.6666666666667,4,3,5,45,0,0
99864,-66.6666666666667,4,3,2,45,0,0
100244,-66.6666666666667,4,3,5,45,0,0
100624,-66.6666666666667,4,3,7,45,0,0
101003,-66.6666666666667,4,3,5,45,0,0
101383,-66.6666666666667,4,3,2,45,0,0
101763,-66.6666666666667,4,3,5,45,0,0
102143,-66.6666666666667,4,3,7,45,0,0
102522,-66.6666666666667,4,3,5,45,0,0
102902,-66.6666666666667,4,3,2,45,0,0
102997,-66.6666666666667,4,3,12,45,0,0
103093,-66.6666666666667,4,3,11,45,0,0
103282,-66.6666666666667,4,3,10,45,0,0
103472,-66.6666666666667,4,3,3,45,0,0
104041,-66.6666666666667,4,3,5,45,0,0
104421,-66.6666666666667,4,3,2,45,0,0
104801,-66.6666666666667,4,3,5,45,0,0
105181,-66.6666666666667,4,3,7,45,0,0
105560,-66.6666666666667,4,3,5,45,0,0
105940,-66.6666666666667,4,3,2,45,0,0
106320,-66.6666666666667,4,3,5,45,0,0
106700,-66.6666666666667,4,3,7,45,0,0
107079,-66.6666666666667,4,3,5,45,0,0
107459,-66.6666666666667,4,3,2,45,0,0
107839,-66.6666666666667,4,3,5,45,0,0
108219,-66.6666666666667,4,3,7,45,0,0
108598,-66.6666666666667,4,3,3,45,0,0
108978,-66.6666666666667,4,3,2,45,0,0
109358,-66.6666666666667,4,3,10,45,0,0
109548,-66.6666666666667,4,3,2,45,0,0
109738,-66.6666666666667,4,3,13,80,0,0
109927,-66.6666666666667,4,3,3,45,0,0
110497,-66.6666666666667,4,3,2,45,0,0
111067,-66.6666666666667,4,3,3,45,0,0
111636,-66.6666666666667,4,3,2,45,0,0
112016,-66.6666666666667,4,3,11,45,0,0
112396,-66.6666666666667,4,3,10,45,0,0
112776,-66.6666666666667,4,3,2,45,0,0
112965,-66.6666666666667,4,3,3,45,0,0
113535,-66.6666666666667,4,3,2,45,0,0
114105,-66.6666666666667,4,3,3,45,0,0
114674,-66.6666666666667,4,3,2,45,0,0
115054,-66.6666666666667,4,3,10,45,0,0
115434,-66.6666666666667,4,3,3,45,0,0
116193,-66.6666666666667,4,3,5,45,0,0
116573,-66.6666666666667,4,3,2,45,0,0
116953,-66.6666666666667,4,3,5,45,0,0
117333,-66.6666666666667,4,3,3,45,0,0
117712,-66.6666666666667,4,3,5,45,0,0
118092,-66.6666666666667,4,3,2,45,0,0
118472,-66.6666666666667,4,3,3,45,0,0
118852,-66.6666666666667,4,3,13,80,0,0
120371,-66.6666666666667,4,3,8,45,0,0
120497,-66.6666666666667,4,3,3,45,0,0
120750,-66.6666666666667,4,3,11,45,0,0
120877,-66.6666666666667,4,3,10,45,0,0
121130,-66.6666666666667,4,3,2,45,0,0
121225,-66.6666666666667,4,3,10,45,0,0
121510,-66.6666666666667,4,3,11,45,0,0
121890,-62.5,4,3,8,80,0,1
122459,-62.5,4,3,3,45,0,1
122649,-62.5,4,3,2,45,0,1
123029,-62.5,4,3,5,45,0,1
123409,-62.5,4,3,7,45,0,1
123788,-62.5,4,3,5,45,0,1
124168,-62.5,4,3,2,45,0,1
124548,-62.5,4,3,5,45,0,1
124927,-62.5,4,3,7,45,0,1
125687,-62.5,4,3,2,45,0,1
126352,-62.5,4,3,2,5,0,1
126446,-62.5,4,3,7,45,0,1
126826,-62.5,4,3,5,45,0,1
127016,-62.5,4,3,2,45,0,1
127586,-62.5,4,3,5,45,0,1
127965,-62.5,4,3,1,45,0,1
128725,-62.5,4,3,2,45,0,1
129484,-62.5,4,3,7,45,0,1
129864,-62.5,4,3,5,45,0,1
130244,-62.5,4,3,2,45,0,1
130624,-62.5,4,3,5,45,0,1
131003,-62.5,4,3,1,45,0,1
131383,-62.5,4,3,5,45,0,1
131763,-62.5,4,3,2,45,0,1
132143,-62.5,4,3,5,45,0,1
132333,-62.5,4,3,2,45,0,1
132522,-62.5,4,3,1,45,0,1
132902,-62.5,4,3,5,45,0,1
133092,-62.5,4,3,2,45,0,1
133662,-62.5,4,3,5,45,0,1
133852,-62.5,4,3,2,45,0,1
134041,-62.5,4,3,9,80,0,1
134611,-62.5,4,3,1,45,0,1
134801,-62.5,4,3,2,45,0,1
135181,-62.5,4,3,5,45,0,1
135560,-62.5,4,3,7,45,0,1
135940,-62.5,4,3,5,45,0,1
136320,-62.5,4,3,2,45,0,1
136700,-62.5,4,3,5,45,0,1
137079,-62.5,4,3,1,45,0,1
137839,-62.5,4,3,2,45,0,1
138219,-62.5,4,3,5,45,0,1
138598,-62.5,4,3,7,45,0,1
138978,-62.5,4,3,5,45,0,1
139358,-62.5,4,3,2,45,0,1
139738,-62.5,4,3,5,45,0,1
140117,-62.5,4,3,1,45,0,1
140877,-62.5,4,3,2,45,0,1
141257,-62.5,4,3,5,45,0,1
141636,-62.5,4,3,7,45,0,1
142016,-62.5,4,3,5,45,0,1
142396,-62.5,4,3,2,45,0,1
142776,-62.5,4,3,5,45,0,1
143155,-55.5555555555556,4,3,1,45,0,1
143535,-55.5555555555556,4,3,5,45,0,1
143915,-55.5555555555556,4,3,2,45,0,1
144295,-55.5555555555556,4,3,5,45,0,1
144484,-55.5555555555556,4,3,2,45,0,1
144674,-62.5,4,3,3,45,0,1
145054,-62.5,4,3,2,45,0,1
145434,-62.5,4,3,1,45,0,1
145560,-62.5,4,3,12,45,0,1
145687,-62.5,4,3,11,45,0,1
145814,-62.5,4,3,2,45,0,1
145940,-62.5,4,3,10,45,0,1
146193,-62.5,4,3,8,80,0,1
146573,-62.5,4,3,5,45,0,1
146953,-62.5,4,3,2,45,0,1
148092,-62.5,4,3,5,45,0,1
148472,-62.5,4,3,2,45,0,1
148852,-62.5,4,3,5,45,0,1
149231,-62.5,4,3,3,45,0,1
149991,-62.5,4,3,2,45,0,1
151130,-62.5,4,3,5,45,0,1
151510,-62.5,4,3,2,45,0,1
151890,-62.5,4,3,5,45,0,1
152269,-62.5,4,3,3,45,0,1
153029,-62.5,4,3,2,45,0,1
153409,-62.5,4,3,5,45,0,1
153598,-62.5,4,3,2,45,0,1
154168,-62.5,4,3,5,45,0,1
154548,-62.5,4,3,2,45,0,1
154927,-62.5,4,3,5,45,0,1
155117,-62.5,4,3,2,45,0,1
155307,-62.5,4,3,3,45,0,1
155687,-62.5,4,3,5,45,0,1
156067,-62.5,4,3,2,45,0,1
156446,-62.5,4,3,5,45,0,1
156636,-62.5,4,3,2,45,0,1
156826,-62.5,4,3,3,45,0,1
157206,-62.5,4,3,5,45,0,1
157586,-62.5,4,3,2,45,0,1
157965,-62.5,4,3,5,45,0,1
158345,-62.5,4,3,9,80,0,1
158915,-62.5,4,3,1,45,0,1
159105,-62.5,4,3,2,45,0,1
159484,-62.5,4,3,5,45,0,1
159864,-62.5,4,3,7,45,0,1
160054,-62.5,4,3,2,45,0,1
160244,-62.5,4,3,5,45,0,1
160624,-62.5,4,3,2,45,0,1
161003,-62.5,4,3,5,45,0,1
161193,-62.5,4,3,2,45,0,1
161383,-62.5,4,3,1,45,0,1
161763,-62.5,4,3,5,45,0,1
162143,-62.5,4,3,2,45,0,1
162522,-62.5,4,3,5,45,0,1
162902,-62.5,4,3,1,45,0,1
163282,-62.5,4,3,5,45,0,1
163662,-62.5,4,3,2,45,0,1
164041,-62.5,4,3,5,45,0,1
164231,-62.5,4,3,2,45,0,1
164421,-62.5,4,3,1,45,0,1
165181,-62.5,4,3,2,45,0,1
165560,-62.5,4,3,5,45,0,1
165940,-62.5,4,3,1,45,0,1
166320,-62.5,4,3,5,45,0,1
166700,-62.5,4,3,2,45,0,1
167079,-62.5,4,3,5,45,0,1
167459,-62.5,4,3,1,45,0,1
167839,-62.5,4,3,5,45,0,1
168219,-62.5,4,3,2,45,0,1
168598,-62.5,4,3,5,45,0,1
168978,-62.5,4,3,1,45,0,1
169358,-62.5,4,3,5,45,0,1
169484,-62.5,4,3,2,45,0,1
169738,-52.6315789473684,4,3,2,45,0,1
169864,-52.6315789473684,4,3,12,45,0,1
169991,-52.6315789473684,4,3,11,45,0,1
170117,-52.6315789473684,4,3,5,45,0,1
170244,-52.6315789473684,4,3,10,45,0,1
170497,-52.6315789473684,4,3,8,80,0,0
173345,-52.6315789473684,4,2,10,5,0,0
173535,-52.6315789473684,4,2,10,30,0,0
191763,-83.3333333333333,4,2,10,30,0,0
193852,-83.3333333333333,4,3,2,45,0,0
194801,-83.3333333333333,4,3,1,45,0,0
195181,-83.3333333333333,4,3,5,45,0,0
195560,-83.3333333333333,4,3,2,45,0,0
195940,-83.3333333333333,4,3,5,45,0,0
196320,-83.3333333333333,4,3,2,45,0,0
196700,-83.3333333333333,4,3,5,45,0,0
196890,-83.3333333333333,4,3,2,45,0,0
197079,-83.3333333333333,4,3,12,45,0,0
197269,-83.3333333333333,4,3,11,45,0,0
197459,-83.3333333333333,4,3,10,45,0,0
197839,-66.6666666666667,4,3,9,55,0,0
198155,-66.6666666666667,4,3,9,5,0,0
198219,-66.6666666666667,4,3,9,65,0,0
198535,-66.6666666666667,4,3,9,5,0,0
198598,-66.6666666666667,4,3,9,75,0,0
198915,-66.6666666666667,4,3,9,5,0,0
198978,-66.6666666666667,4,3,9,85,0,0
199295,-66.6666666666667,4,3,9,5,0,0
199358,-66.6666666666667,4,3,9,95,0,0
199738,-66.6666666666667,4,3,9,5,0,0
199927,-66.6666666666667,4,3,2,45,0,0
200117,-66.6666666666667,4,3,2,60,0,0
200782,-66.6666666666667,4,3,1,60,0,0
200877,-58.8235294117647,4,3,1,60,0,0
201636,-58.8235294117647,4,3,2,60,0,0
202016,-58.8235294117647,4,3,5,60,0,0
202396,-58.8235294117647,4,3,7,60,0,0
202776,-58.8235294117647,4,3,5,60,0,0
203155,-58.8235294117647,4,3,2,60,0,0
203535,-58.8235294117647,4,3,5,60,0,0
204674,-58.8235294117647,4,3,2,60,0,0
205054,-58.8235294117647,4,3,5,60,0,0
205434,-58.8235294117647,4,3,7,60,0,0
205814,-58.8235294117647,4,3,5,60,0,0
206193,-58.8235294117647,4,3,2,60,0,0
206573,-58.8235294117647,4,3,5,60,0,0
206953,-58.8235294117647,4,3,1,60,0,0
207333,-58.8235294117647,4,3,5,60,0,0
207712,-58.8235294117647,4,3,2,60,0,0
208092,-58.8235294117647,4,3,5,60,0,0
208472,-58.8235294117647,4,3,7,60,0,0
208852,-58.8235294117647,4,3,5,60,0,0
209231,-58.8235294117647,4,3,2,60,0,0
209611,-58.8235294117647,4,3,5,60,0,0
209991,-58.8235294117647,4,3,1,60,0,0
210371,-58.8235294117647,4,3,5,60,0,0
210750,-58.8235294117647,4,3,2,60,0,0
211130,-58.8235294117647,4,3,5,60,0,0
211320,-58.8235294117647,4,3,2,60,0,0
211510,-58.8235294117647,4,3,1,60,0,0
211890,-58.8235294117647,4,3,5,60,0,0
212269,-58.8235294117647,4,3,2,60,0,0
212649,-58.8235294117647,4,3,5,60,0,0
212839,-58.8235294117647,4,3,2,60,0,0
212934,-58.8235294117647,4,3,1,60,0,0
213788,-58.8235294117647,4,3,2,60,0,0
214168,-58.8235294117647,4,3,5,60,0,0
214548,-58.8235294117647,4,3,7,60,0,0
214927,-58.8235294117647,4,3,5,60,0,0
215307,-58.8235294117647,4,3,2,60,0,0
215687,-58.8235294117647,4,3,5,60,0,0
216826,-58.8235294117647,4,3,2,60,0,0
217206,-58.8235294117647,4,3,5,60,0,0
217586,-58.8235294117647,4,3,7,60,0,0
217965,-58.8235294117647,4,3,5,60,0,0
218345,-58.8235294117647,4,3,2,60,0,0
218725,-58.8235294117647,4,3,5,60,0,0
219105,-58.8235294117647,4,3,1,60,0,0
219484,-58.8235294117647,4,3,5,60,0,0
219864,-58.8235294117647,4,3,2,60,0,0
220244,-58.8235294117647,4,3,5,60,0,0
220624,-58.8235294117647,4,3,7,60,0,0
221003,-58.8235294117647,4,3,5,60,0,0
221383,-58.8235294117647,4,3,2,60,0,0
221763,-58.8235294117647,4,3,5,60,0,0
221953,-58.8235294117647,4,3,2,60,0,0
222143,-58.8235294117647,4,3,1,60,0,0
222522,-58.8235294117647,4,3,5,60,0,0
222902,-58.8235294117647,4,3,2,60,0,0
223472,-58.8235294117647,4,3,11,60,0,0
223662,-58.8235294117647,4,3,1,60,0,0
224041,-58.8235294117647,4,3,5,60,0,0
224421,-58.8235294117647,4,3,2,60,0,0
224548,-58.8235294117647,4,3,10,60,0,0
224801,-58.8235294117647,4,3,5,60,0,0
224927,-58.8235294117647,4,3,10,60,0,0
225086,-58.8235294117647,4,3,2,60,0,0
225181,-58.8235294117647,4,3,1,60,0,0
225940,-58.8235294117647,4,3,2,60,0,0
226320,-58.8235294117647,4,3,5,60,0,0
226700,-58.8235294117647,4,3,7,60,0,0
227079,-58.8235294117647,4,3,5,60,0,0
227459,-58.8235294117647,4,3,2,60,0,0
227839,-58.8235294117647,4,3,5,60,0,0
228219,-58.8235294117647,4,3,2,60,0,0
228598,-58.8235294117647,4,3,5,60,0,0
228978,-58.8235294117647,4,3,2,60,0,0
229358,-58.8235294117647,4,3,5,60,0,0
229738,-58.8235294117647,4,3,7,60,0,0
230117,-58.8235294117647,4,3,5,60,0,0
230497,-58.8235294117647,4,3,2,60,0,0
230877,-58.8235294117647,4,3,5,60,0,0
231257,-58.8235294117647,4,3,1,60,0,0
231636,-58.8235294117647,4,3,5,60,0,0
232016,-58.8235294117647,4,3,2,60,0,0
232396,-58.8235294117647,4,3,5,60,0,0
232776,-58.8235294117647,4,3,7,60,0,0
233155,-58.8235294117647,4,3,5,60,0,0
233535,-58.8235294117647,4,3,2,60,0,0
233915,-58.8235294117647,4,3,5,60,0,0
234105,-58.8235294117647,4,3,2,60,0,0
234295,-58.8235294117647,4,3,1,60,0,0
235054,-58.8235294117647,4,3,2,60,0,0
235434,-58.8235294117647,4,3,5,60,0,0
235624,-58.8235294117647,4,3,2,60,0,0
235814,-58.8235294117647,4,3,1,60,0,0
236003,-58.8235294117647,4,3,2,60,0,0
236193,-58.8235294117647,4,3,5,60,0,0
236573,-58.8235294117647,4,3,2,60,0,0
236763,-58.8235294117647,4,3,1,60,0,0
237238,-58.8235294117647,4,3,2,60,0,0
237333,-58.8235294117647,4,3,1,60,0,0
238092,-58.8235294117647,4,3,2,60,0,0
238852,-58.8235294117647,4,3,1,60,0,0
239611,-58.8235294117647,4,3,2,60,0,0
240560,-58.8235294117647,4,3,12,60,0,0
240750,-58.8235294117647,4,3,11,60,0,0
240940,-58.8235294117647,4,3,12,60,0,0
241130,-58.8235294117647,4,3,11,60,0,0
241510,-58.8235294117647,4,3,10,60,0,0
241700,-58.8235294117647,4,3,11,60,0,0
241890,-58.8235294117647,4,3,10,60,0,0
242079,-58.8235294117647,4,3,11,60,0,0
242269,-58.8235294117647,4,3,10,60,0,0
242459,-58.8235294117647,4,3,2,60,0,0
242839,-58.8235294117647,4,3,1,60,0,0
243409,-55.5555555555556,4,3,3,45,0,1
244168,-55.5555555555556,4,3,2,45,0,1
244548,-55.5555555555556,4,3,5,45,0,1
244927,-55.5555555555556,4,3,7,45,0,1
245307,-55.5555555555556,4,3,5,45,0,1
245687,-55.5555555555556,4,3,2,45,0,1
246067,-55.5555555555556,4,3,5,45,0,1
246446,-55.5555555555556,4,3,7,45,0,1
247206,-55.5555555555556,4,3,2,45,0,1
247586,-55.5555555555556,4,3,5,45,0,1
247965,-55.5555555555556,4,3,7,45,0,1
248345,-55.5555555555556,4,3,5,45,0,1
248725,-55.5555555555556,4,3,2,45,0,1
249105,-55.5555555555556,4,3,5,45,0,1
249295,-55.5555555555556,4,3,2,45,0,1
249484,-55.5555555555556,4,3,3,45,0,1
250244,-55.5555555555556,4,3,2,45,0,1
250624,-55.5555555555556,4,3,5,45,0,1
251003,-55.5555555555556,4,3,7,45,0,1
251383,-55.5555555555556,4,3,5,45,0,1
251763,-55.5555555555556,4,3,2,45,0,1
252143,-55.5555555555556,4,3,5,45,0,1
252522,-55.5555555555556,4,3,3,45,0,1
252902,-55.5555555555556,4,3,5,45,0,1
253282,-55.5555555555556,4,3,2,45,0,1
253662,-55.5555555555556,4,3,5,45,0,1
253852,-55.5555555555556,4,3,2,45,0,1
254041,-55.5555555555556,4,3,3,45,0,1
254801,-55.5555555555556,4,3,2,45,0,1
255181,-55.5555555555556,4,3,5,45,0,1
255371,-55.5555555555556,4,3,2,45,0,1
255560,-55.5555555555556,4,3,8,80,0,1
255940,-55.5555555555556,4,3,5,45,0,1
256320,-55.5555555555556,4,3,2,45,0,1
256700,-55.5555555555556,4,3,5,45,0,1
256890,-55.5555555555556,4,3,2,45,0,1
257079,-55.5555555555556,4,3,7,45,0,1
257269,-55.5555555555556,4,3,2,45,0,1
257459,-55.5555555555556,4,3,5,45,0,1
257839,-55.5555555555556,4,3,2,45,0,1
258219,-55.5555555555556,4,3,5,45,0,1
258409,-55.5555555555556,4,3,2,45,0,1
258598,-55.5555555555556,4,3,3,45,0,1
259168,-55.5555555555556,4,3,2,45,0,1
260117,-55.5555555555556,4,3,3,45,0,1
260307,-55.5555555555556,4,3,11,45,0,1
260497,-55.5555555555556,4,3,10,45,0,1
260687,-55.5555555555556,4,3,2,45,0,1
261636,-55.5555555555556,4,3,3,45,0,1
262396,-55.5555555555556,4,3,2,45,0,1
263155,-55.5555555555556,4,3,7,45,0,1
263345,-55.5555555555556,4,3,2,45,0,1
263535,-55.5555555555556,4,3,5,45,0,1
263915,-55.5555555555556,4,3,2,45,0,1
264674,-55.5555555555556,4,3,3,45,0,1
265054,-55.5555555555556,4,3,5,45,0,1
265434,-55.5555555555556,4,3,2,45,0,1
265814,-55.5555555555556,4,3,5,45,0,1
266003,-55.5555555555556,4,3,2,45,0,1
266193,-55.5555555555556,4,3,3,45,0,1
266573,-55.5555555555556,4,3,2,45,0,1
266700,-55.5555555555556,4,3,12,45,0,1
266953,-55.5555555555556,4,3,3,45,0,1
267079,-55.5555555555556,4,3,11,45,0,1
267333,-55.5555555555556,4,3,2,45,0,1
267459,-55.5555555555556,4,3,10,45,0,1
267712,-55.5555555555556,4,3,9,80,0,0
269991,-76.9230769230769,4,3,9,80,0,0
270371,-76.9230769230769,4,2,9,5,0,0
270560,-76.9230769230769,4,2,10,5,0,0
270750,-76.9230769230769,4,2,10,30,0,0
277586,789.473684210526,4,2,10,30,1,0
279164,967.741935483871,4,2,10,30,1,0
279647,727.272727272727,4,2,10,30,1,0
280374,725.513905683192,4,2,10,30,1,0
282550,548.947849954254,4,2,10,30,1,0
283647,666.666666666667,4,2,10,40,1,0
283647,-100,4,2,10,40,0,0
283980,-100,4,2,10,35,0,0
284313,-100,4,2,10,33,0,0
284647,-100,4,2,10,31,0,0
284980,-100,4,2,10,29,0,0
285313,-100,4,2,10,27,0,0
285647,-100,4,2,10,25,0,0
285980,-100,4,2,10,23,0,0
286313,-100,4,2,10,21,0,0
286647,-100,4,2,10,19,0,0
286980,-100,4,2,10,17,0,0
287313,-100,4,2,10,15,0,0
287647,-100,4,2,10,13,0,0
287980,-100,4,2,10,11,0,0
288313,-100,4,2,10,9,0,0
288647,-100,4,2,10,7,0,0
288980,-100,4,2,10,5,0,0

[Colours]
Combo1 : 106,106,106
Combo2 : 228,154,154
Combo3 : 228,191,154
Combo4 : 228,228,154
Combo5 : 154,191,228
Combo6 : 191,154,228
Combo7 : 228,154,191
Combo8 : 212,212,212

[HitObjects]
118,233,3433,102,0,L|142:139,1,70,2|0,0:0|0:0,0:0:0:0:
199,110,4176,2,0,P|216:148|214:190,1,70,2|0,0:0|0:0,0:0:0:0:
208,259,4920,2,0,P|259:283|288:284,1,70,2|0,0:0|0:0,0:0:0:0:
354,261,5679,2,0,L|331:192,1,70,2|0,0:0|0:0,0:0:0:0:
364,118,6438,2,0,P|417:102|444:104,1,70,2|0,0:0|0:0,0:0:0:0:
501,147,7207,1,2,0:0:0:0:
501,147,7591,1,2,0:0:0:0:
469,226,7976,6,0,P|465:288|479:326,1,70,2|0,0:0|0:0,0:0:0:0:
409,356,8733,2,0,P|362:362|322:353,1,70,2|0,0:0|0:0,0:0:0:0:
264,322,9491,2,0,P|251:264|237:241,2,70,2|0|2,0:0|0:0|0:0,0:0:0:0:
101,365,11006,2,0,P|55:340|21:336,1,70,2|0,0:0|0:0,0:0:0:0:
36,260,11742,1,2,0:0:0:0:
110,221,12134,1,2,0:0:0:0:
193,245,12526,101,2,0:0:0:0:
193,245,12904,2,0,P|255:251|350:229,1,140,0|0,0:0|0:0,0:0:0:0:
377,167,14039,1,2,0:0:0:0:
500,280,14800,1,2,0:0:0:0:
447,102,15561,6,0,B|380:74|277:98|287:111,1,154.000004699707,2|2,0:0|0:0,0:0:0:0:
213,143,16700,2,0,L|200:214,2,38.5000011749268,2|0|2,0:0|0:0|0:0,0:0:0:0:
122,122,17459,1,0,0:0:0:0:
49,179,17839,2,0,P|34:246|37:271,1,77.0000023498536,2|0,0:0|0:0,0:0:0:0:
81,333,18598,2,0,P|144:353|185:346,1,77.0000023498536,2|2,0:0|0:0,0:0:0:0:
192,327,19168,2,0,P|260:315|328:329,1,115.50000352478,0|0,0:0|0:0,0:0:0:0:
389,361,20117,2,0,L|400:277,1,77.0000023498536,2|0,0:0|0:0,0:0:0:0:
491,297,20877,2,0,L|469:213,1,77.0000023498536,2|0,0:0|0:0,0:0:0:0:
490,132,21636,102,0,P|412:108|313:129,1,154.000004699707,2|2,0:0|0:0,0:0:0:0:
262,165,22776,1,2,0:0:0:0:
219,184,22966,2,0,L|156:174,1,38.5000011749268,0|2,0:0|0:0,0:0:0:0:
99,221,23535,1,0,0:0:0:0:
99,128,23915,1,2,0:0:0:0:
53,47,24295,1,0,0:0:0:0:
145,48,24674,6,0,B|218:97|297:55,1,154.000004699707,2|2,0:0|0:0,0:0:0:0:
332,36,25624,2,0,P|367:78|366:136,1,115.50000352478,0|2,0:0|0:0,0:0:0:0:
301,203,26573,1,0,0:0:0:0:
355,277,26953,1,2,0:0:0:0:
268,309,27333,2,0,L|261:346,1,38.5000011749268,2|0,0:0|0:0,0:0:0:0:
215,345,27712,102,0,P|131:314|38:331,1,154.000004699707,2|2,0:0|0:0,0:0:0:0:
34,233,28852,2,0,L|22:184,1,38.5000011749268,2|0,0:0|0:0,0:0:0:0:
66,175,29231,2,0,P|136:194|225:169,1,154.000004699707,2|2,0:0|0:0,0:0:0:0:
283,114,30371,2,0,L|325:168,1,38.5000011749268,2|0,0:0|0:0,0:0:0:0:
352,136,30750,6,0,P|332:232|347:296,1,154.000004699707,2|2,0:0|0:0,0:0:0:0:
413,352,31890,1,0,0:0:0:0:
434,261,32269,2,0,P|442:222|459:181,2,77.0000023498536,2|0|2,0:0|0:0|0:0,0:0:0:0:
342,285,33409,2,0,L|294:310,1,38.5000011749268,2|0,0:0|0:0,0:0:0:0:
275,278,33788,102,0,P|249:221|259:123,1,154.000004699707,2|2,0:0|0:0,0:0:0:0:
315,60,34928,2,0,L|349:22,2,38.5000011749268,2|0|2,0:0|0:0|0:0,0:0:0:0:
226,32,35687,1,0,0:0:0:0:
146,79,36067,1,2,0:0:0:0:
148,171,36447,1,2,0:0:0:0:
78,231,36826,1,0,0:0:0:0:
159,273,37206,2,0,L|220:304,2,38.5000011749268,2|0|0,0:0|0:0|0:0,0:0:0:0:
92,337,37966,5,4,0:0:0:0:
230,337,38535,1,4,0:0:0:0:
230,337,38725,1,8,0:0:0:0:
307,286,39105,2,0,L|313:226,1,45.4999979171754,4|8,0:0|0:0,0:0:0:0:
358,211,39485,2,0,L|352:151,1,45.4999979171754,4|4,0:0|0:0,0:0:0:0:
381,118,39864,6,0,P|451:129|481:278,1,210.000008010865,6|0,0:0|0:0,0:0:0:0:
351,342,41193,1,0,0:0:0:0:
351,342,41383,1,4,0:0:0:0:
258,272,41763,1,4,0:0:0:0:
168,345,42143,2,0,P|135:270|104:228,1,105.000004005432,10|0,0:0|0:0,0:0:0:0:
8,272,42902,2,0,P|13:213|30:158,1,105.000004005432,4|0,0:0|0:0,0:0:0:0:
61,123,43472,2,0,P|124:131|278:113,1,210.000008010865,0|4,0:0|0:0,0:0:0:0:
319,142,44421,1,4,0:0:0:0:
392,52,44801,1,4,0:0:0:0:
493,107,45181,2,0,P|476:176|482:226,1,105.000004005432,10|0,0:0|0:0,0:0:0:0:
435,316,45940,6,0,P|383:271|394:121,1,210.000008010865,4|0,0:0|0:0,0:0:0:0:
264,265,47269,1,4,0:0:0:0:
264,265,47459,1,4,0:0:0:0:
179,186,47839,1,4,0:0:0:0:
271,116,48219,2,0,P|224:81|168:71,1,105.000004005432,10|4,0:0|0:0,0:0:0:0:
78,129,48978,2,0,P|49:199|15:233,2,105.000004005432,4|0|0,0:0|0:0|0:0,0:0:0:0:
32,22,50117,1,4,0:0:0:0:
32,22,50307,1,4,0:0:0:0:
147,28,50687,1,4,0:0:0:0:
198,131,51067,1,4,0:0:0:0:
198,131,51257,2,0,P|193:218|199:253,1,105.000004005432,10|0,0:0|0:0,0:0:0:0:
304,274,52016,6,0,P|279:319|117:323,1,210.000008010865,6|0,0:0|0:0,0:0:0:0:
30,208,53345,1,4,0:0:0:0:
30,208,53535,1,4,0:0:0:0:
123,139,53915,1,4,0:0:0:0:
237,154,54295,2,0,P|210:203|192:257,1,105.000004005432,10|0,0:0|0:0,0:0:0:0:
282,326,55054,2,0,P|344:346|406:326,1,105.000004005432,4|0,0:0|0:0,0:0:0:0:
426,301,55624,2,0,P|402:231|426:94,1,210.000008010865,0|4,0:0|0:0,0:0:0:0:
397,47,56573,1,4,0:0:0:0:
289,88,56953,1,4,0:0:0:0:
186,35,57333,2,0,L|173:168,1,105.000004005432,10|0,0:0|0:0,0:0:0:0:
63,110,58092,6,0,P|78:204|185:255,1,210.000008010865,4|0,0:0|0:0,0:0:0:0:
335,197,59421,1,4,0:0:0:0:
335,197,59611,1,6,0:0:0:0:
442,239,59991,1,2,0:0:0:0:
442,239,60181,2,0,L|487:244,2,26.2500010013581,4|8|8,0:0|0:0|0:0,0:0:0:0:
405,284,60561,1,8,0:0:0:0:
419,339,60750,1,4,0:0:0:0:
308,305,61130,6,0,P|257:294|184:301,1,105.000004005432,6|6,0:0|0:0,0:0:0:0:
155,326,61700,2,0,L|152:370,2,26.2500010013581,4|4|10,0:0|0:0|0:0,0:0:0:0:
103,299,62079,1,8,0:0:0:0:
61,191,62459,2,0,L|25:191,2,26.2500010013581,4|4|10,0:0|0:0|0:0,0:0:0:0:
85,138,62839,1,8,0:0:0:0:
178,70,63219,1,8,0:0:0:0:
178,70,63409,1,8,0:0:0:0:
288,103,63788,1,4,0:0:0:0:
398,67,64168,5,6,0:0:0:0:
371,179,64548,1,4,0:0:0:0:
424,281,64928,1,4,0:0:0:0:
311,307,65307,1,4,0:0:0:0:
353,345,65497,1,0,0:0:0:0:
406,366,65687,1,4,0:0:0:0:
406,366,66257,38,0,L|407:329,2,26.2500010013581,4|4|10,0:0|0:0|0:0,0:0:0:0:
315,294,66826,1,0,0:0:0:0:
213,376,67206,2,0,P|145:378|43:258,1,238.00000453949,6|10,0:0|0:0,0:0:0:0:
107,129,68345,2,0,P|88:63|68:36,1,59.5000011348725,2|4,0:0|0:0,0:0:0:0:
159,44,68725,1,6,0:0:0:0:
200,181,69105,1,6,0:0:0:0:
322,101,69485,2,0,P|399:84|456:114,1,119.000002269745,10|2,0:0|0:0,0:0:0:0:
485,147,70054,1,0,0:0:0:0:
432,195,70244,6,0,B|333:209|293:135|196:183,1,238.00000453949,4|10,0:0|0:0,0:0:0:0:
74,253,71383,1,2,0:0:0:0:
74,253,71573,2,0,P|44:252|15:246,1,59.5000011348725,4|6,0:0|0:0,0:0:0:0:
138,319,72143,1,6,0:0:0:0:
274,275,72523,2,0,P|327:310|335:324,2,59.5000011348725,10|0|6,0:0|0:0|0:0,0:0:0:0:
150,201,73282,6,0,P|117:122|146:61,1,119.000002269745,6|2,0:0|0:0,0:0:0:0:
183,52,73852,1,0,0:0:0:0:
234,101,74042,1,10,0:0:0:0:
370,58,74421,2,0,L|375:-14,2,59.5000011348725,2|4|6,0:0|0:0|0:0,0:0:0:0:
473,152,75181,1,6,0:0:0:0:
365,246,75561,1,10,0:0:0:0:
493,306,75940,2,0,L|505:365,1,59.5000011348725,2|0,0:0|0:0,0:0:0:0:
433,368,76320,6,0,P|359:376|308:365,1,119.000002269745,6|6,0:0|0:0,0:0:0:0:
269,312,76890,1,4,0:0:0:0:
310,254,77079,2,0,P|376:239|447:257,1,119.000002269745,10|2,0:0|0:0,0:0:0:0:
482,203,77649,1,8,0:0:0:0:
452,137,77839,2,0,L|468:73,1,59.5000011348725,6|8,0:0|0:0,0:0:0:0:
431,16,78219,1,6,0:0:0:0:
364,43,78409,2,0,L|361:86,2,29.7500005674362,4|4|10,0:0|0:0|0:0,0:0:0:0:
292,43,78788,2,0,P|242:50|207:48,1,59.5000011348725,8|6,0:0|0:0,0:0:0:0:
162,34,79168,1,8,0:0:0:0:
94,56,79358,6,0,P|40:202|32:302,1,238.00000453949,6|10,0:0|0:0,0:0:0:0:
118,368,80497,1,2,0:0:0:0:
118,368,80687,1,4,0:0:0:0:
112,289,80877,1,6,0:0:0:0:
259,337,81257,1,6,0:0:0:0:
181,223,81636,2,0,P|203:154|253:113,1,119.000002269745,10|2,0:0|0:0,0:0:0:0:
306,131,82206,1,0,0:0:0:0:
334,196,82396,6,0,P|398:204|462:184,1,119.000002269745,4|0,0:0|0:0,0:0:0:0:
506,59,83155,1,10,0:0:0:0:
363,63,83535,1,2,0:0:0:0:
363,63,83725,2,0,P|350:3|338:-28,1,59.5000011348725,4|6,0:0|0:0,0:0:0:0:
220,46,84295,1,6,0:0:0:0:
278,175,84674,1,10,0:0:0:0:
136,152,85054,1,6,0:0:0:0:
203,278,85434,38,0,P|109:293|4:192,1,238.00000453949,6|10,0:0|0:0,0:0:0:0:
46,66,86573,2,0,P|47:-2|41:-23,2,59.5000011348725,2|4|6,0:0|0:0|0:0,0:0:0:0:
175,128,87333,1,6,0:0:0:0:
290,44,87712,2,0,P|363:34|437:60,1,119.000002269745,10|6,0:0|0:0,0:0:0:0:
447,103,88282,1,8,0:0:0:0:
408,163,88472,6,0,P|387:246|397:289,1,119.000002269745,6|6,0:0|0:0,0:0:0:0:
437,333,89042,1,4,0:0:0:0:
376,370,89231,2,0,P|302:374|224:346,1,119.000002269745,10|4,0:0|0:0,0:0:0:0:
213,307,89801,1,8,0:0:0:0:
144,328,89991,2,0,L|110:383,2,59.5000011348725,6|8|8,0:0|0:0|0:0,0:0:0:0:
111,263,90561,2,0,L|111:216,2,29.7500005674362,4|4|10,0:0|0:0|0:0,0:0:0:0:
41,278,90940,2,0,P|13:237|-5:223,1,59.5000011348725,6|2,0:0|0:0,0:0:0:0:
27,162,91320,1,8,0:0:0:0:
12,92,91510,6,0,P|97:75|147:88,1,119.000002269745,6|6,0:0|0:0,0:0:0:0:
165,141,92079,1,4,0:0:0:0:
222,89,92269,1,10,0:0:0:0:
222,89,92459,1,8,0:0:0:0:
250,158,92649,1,6,0:0:0:0:
314,127,92839,2,0,L|314:96,2,29.7500005674362,4|4|10,0:0|0:0|0:0,0:0:0:0:
371,170,93219,1,8,0:0:0:0:
440,221,93409,5,4,0:0:0:0:
440,221,93504,1,8,0:0:0:0:
440,221,93598,2,0,L|486:208,2,31.4999990386963,4|4|8,0:0|0:0|0:0,0:0:0:0:
441,297,93978,1,4,0:0:0:0:
397,359,94168,1,8,0:0:0:0:
329,323,94358,1,4,0:0:0:0:
263,350,94548,6,0,P|178:368|137:358,1,119.000002269745,6|6,0:0|0:0,0:0:0:0:
103,305,95117,1,4,0:0:0:0:
161,264,95307,2,0,P|173:185|149:131,1,119.000002269745,10|6,0:0|0:0,0:0:0:0:
105,103,95877,2,0,L|107:61,2,29.7500005674362,8|8|10,0:0|0:0|0:0,0:0:0:0:
46,145,96257,1,8,0:0:0:0:
76,209,96447,1,4,0:0:0:0:
37,268,96636,2,0,L|13:310,2,29.7500005674362,4|4|14,0:0|0:0|0:0,0:0:0:0:
99,304,97016,6,0,P|151:296|249:345,1,146.999995513916,6|6,0:0|0:0,0:0:0:0:
351,331,97966,2,0,L|387:269,1,52.5000020027161,6|0,0:0|0:0,0:0:0:0:
351,216,98345,2,0,P|350:161|376:105,1,105.000004005432,10|2,0:0|0:0,0:0:0:0:
439,95,98915,1,4,0:0:0:0:
405,29,99105,2,0,P|350:11|288:13,2,105.000004005432,6|6|10,0:0|0:0|0:0,0:0:0:0:
500,140,100244,2,0,P|508:183|507:216,1,52.5000020027161,2|0,0:0|0:0,0:0:0:0:
475,257,100624,38,0,P|422:250|362:265,1,105.000004005432,6|6,0:0|0:0,0:0:0:0:
316,309,101193,1,0,0:0:0:0:
266,254,101383,1,10,0:0:0:0:
154,349,101763,2,0,P|132:299|132:289,1,52.5000020027161,2|4,0:0|0:0,0:0:0:0:
108,232,102143,2,0,P|57:222|-3:225,1,105.000004005432,6|6,0:0|0:0,0:0:0:0:
43,82,102902,2,0,P|79:116|89:129,1,52.5000020027161,10|8,0:0|0:0,0:0:0:0:
146,83,103282,2,0,P|160:125|160:144,1,52.5000020027161,8|4,0:0|0:0,0:0:0:0:
232,115,103662,6,0,B|261:119|281:115|281:115|308:122|308:122|345:117,1,105.000004005432,6|6,0:0|0:0,0:0:0:0:
402,87,104231,1,0,0:0:0:0:
462,128,104421,2,0,P|459:171|461:197,1,52.5000020027161,10|0,0:0|0:0,0:0:0:0:
484,249,104801,2,0,P|489:295|489:319,1,52.5000020027161,6|4,0:0|0:0,0:0:0:0:
453,365,105181,2,0,P|393:350|343:352,1,105.000004005432,6|6,0:0|0:0,0:0:0:0:
205,376,105940,1,10,0:0:0:0:
81,296,106320,1,2,0:0:0:0:
81,296,106510,1,0,0:0:0:0:
137,249,106700,6,0,P|145:208|126:129,1,105.000004005432,6|6,0:0|0:0,0:0:0:0:
78,98,107269,1,0,0:0:0:0:
113,33,107459,1,10,0:0:0:0:
254,74,107839,1,2,0:0:0:0:
213,135,108029,1,4,0:0:0:0:
265,186,108219,1,6,0:0:0:0:
333,159,108409,1,8,0:0:0:0:
335,85,108598,2,0,L|401:76,1,52.5000020027161,6|8,0:0|0:0,0:0:0:0:
454,107,108978,2,0,L|516:133,2,52.5000020027161,10|8|4,0:0|0:0|0:0,0:0:0:0:
444,33,109548,6,0,L|458:3,2,26.2500010013581,4|4|6,0:0|0:0|0:0,0:0:0:0:
370,38,109928,1,6,0:0:0:0:
259,134,110307,6,0,L|273:164,2,26.2500010013581,4|4|10,0:0|0:0|0:0,0:0:0:0:
185,129,110687,1,4,0:0:0:0:
117,98,110877,1,4,0:0:0:0:
48,126,111067,1,14,0:0:0:0:
94,265,111447,6,0,L|84:310,2,26.2500010013581,4|4|10,0:0|0:0|0:0,0:0:0:0:
160,233,111826,2,0,L|171:190,2,26.2500010013581,8|8|8,0:0|0:0|0:0,0:0:0:0:
208,289,112206,1,4,0:0:0:0:
256,344,112396,1,8,0:0:0:0:
326,321,112586,1,4,0:0:0:0:
324,247,112776,1,10,0:0:0:0:
253,226,112966,1,6,0:0:0:0:
316,93,113345,38,0,L|311:46,2,26.2500010013581,4|4|10,0:0|0:0|0:0,0:0:0:0:
435,179,113915,1,4,0:0:0:0:
435,179,114105,1,14,0:0:0:0:
324,275,114485,6,0,L|322:321,2,26.2500010013581,4|4|10,0:0|0:0|0:0,0:0:0:0:
180,241,115054,2,0,L|154:279,2,26.2500010013581,8|8|4,0:0|0:0|0:0,0:0:0:0:
146,175,115434,1,8,0:0:0:0:
182,111,115624,1,8,0:0:0:0:
148,45,115814,6,0,P|102:32|40:54,1,105.000004005432,10|6,0:0|0:0,0:0:0:0:
10,110,116383,1,4,0:0:0:0:
53,169,116573,1,10,0:0:0:0:
14,311,116953,1,6,0:0:0:0:
82,277,117143,1,4,0:0:0:0:
75,351,117333,1,10,0:0:0:0:
221,342,117712,5,0,0:0:0:0:
194,273,117902,1,4,0:0:0:0:
266,282,118092,2,0,P|322:286|351:283,1,52.5000020027161,10|4,0:0|0:0,0:0:0:0:
360,225,118472,1,10,0:0:0:0:
390,291,118662,6,0,L|408:330,2,26.2500010013581,4|0|6,0:0|0:0|0:0,0:0:0:0:
445,154,119231,1,4,0:0:0:0:
326,66,119611,1,4,0:0:0:0:
221,208,119991,1,4,0:0:0:0:
54,148,120371,6,0,L|41:89,2,35.0000013351441,6|8|8,0:0|0:0|0:0,0:0:0:0:
51,196,120750,2,0,L|38:255,2,35.0000013351441,4|8|4,0:0|0:0|0:0,0:0:0:0:
96,178,121130,2,0,P|148:162|180:164,1,52.5000020027161,10|8,0:0|0:0,0:0:0:0:
207,202,121510,2,0,P|269:209|304:200,1,52.5000020027161,4|8,0:0|0:0,0:0:0:0:
339,184,121890,38,0,P|335:268|249:302,1,168,6|0,0:0|0:0,0:0:0:0:
181,276,122649,1,10,0:0:0:0:
101,302,122839,1,0,0:0:0:0:
38,245,123029,1,2,0:0:0:0:
53,162,123219,1,0,0:0:0:0:
129,127,123409,2,0,L|195:136,1,56,6|0,0:0|0:0,0:0:0:0:
210,55,123788,2,0,L|284:41,1,56,0|0,0:0|0:0,0:0:0:0:
328,100,124168,2,0,P|354:127|367:153,1,56,10|0,0:0|0:0,0:0:0:0:
392,222,124548,2,0,P|424:202|450:158,1,56,2|0,0:0|0:0,0:0:0:0:
500,130,124928,6,0,P|411:99|356:170,1,168,2|0,0:0|0:0,0:0:0:0:
309,207,125687,2,0,P|218:220|136:205,1,168,10|0,0:0|0:0,0:0:0:0:
93,141,126447,1,6,0:0:0:0:
56,304,126826,1,6,0:0:0:0:
139,351,127016,1,0,0:0:0:0:
139,351,127111,1,0,0:0:0:0:
139,351,127206,2,0,L|209:344,1,56,10|0,3:0|3:0,0:0:0:0:
240,271,127586,2,0,L|295:276,1,56,6|0,0:0|0:0,0:0:0:0:
376,302,127966,6,0,P|386:229|426:135,1,168,6|0,0:0|0:0,0:0:0:0:
463,128,128630,1,0,0:0:0:0:
463,128,128725,2,0,L|483:57,1,56,10|0,0:0|0:0,0:0:0:0:
399,56,129105,2,0,P|356:60|326:56,1,56,0|0,0:0|0:0,0:0:0:0:
265,26,129485,2,0,L|252:91,1,56,6|0,0:0|0:0,0:0:0:0:
195,141,129864,1,6,0:0:0:0:
247,206,130054,1,0,0:0:0:0:
184,262,130244,1,10,0:0:0:0:
232,330,130434,2,0,P|297:342|310:340,2,56,0|6|0,0:0|0:0|0:0,0:0:0:0:
150,352,131004,5,6,0:0:0:0:
18,248,131383,1,6,0:0:0:0:
43,168,131573,1,4,0:0:0:0:
103,226,131763,1,10,0:0:0:0:
270,245,132143,5,6,0:0:0:0:
245,165,132333,1,8,0:0:0:0:
306,107,132523,2,0,P|374:100|384:102,1,56,6|8,0:0|0:0,0:0:0:0:
432,141,132902,1,6,0:0:0:0:
426,233,133092,1,4,0:0:0:0:
426,233,133187,1,4,0:0:0:0:
426,233,133282,2,0,P|426:273|432:309,1,56,10|8,0:0|0:0,0:0:0:0:
361,337,133662,2,0,P|326:329|288:328,1,56,6|8,0:0|0:0,0:0:0:0:
233,284,134042,6,0,B|148:251|143:315|64:281,1,168,6|0,0:0|0:0,0:0:0:0:
110,209,134801,1,10,0:0:0:0:
185,358,135181,1,6,0:0:0:0:
103,376,135371,1,0,0:0:0:0:
23,349,135561,2,0,P|-9:305|-2:250,1,112,6|6,0:0|0:0,0:0:0:0:
50,184,136130,1,0,0:0:0:0:
58,100,136320,2,0,P|41:44|33:34,1,56,10|0,0:0|0:0,0:0:0:0:
113,0,136700,2,0,P|143:18|174:23,1,56,6|0,0:0|0:0,0:0:0:0:
153,105,137079,38,0,B|190:118|227:108|227:108|237:123|237:123|287:111|317:133,1,168,6|0,0:0|0:0,0:0:0:0:
270,203,137839,1,10,0:0:0:0:
396,92,138219,1,6,0:0:0:0:
456,28,138409,1,0,0:0:0:0:
481,107,138598,2,0,P|479:152|485:174,1,56,6|0,0:0|0:0,0:0:0:0:
434,232,138978,5,6,0:0:0:0:
364,184,139168,1,0,0:0:0:0:
359,267,139358,1,10,0:0:0:0:
289,219,139548,1,0,0:0:0:0:
273,301,139738,1,6,0:0:0:0:
208,247,139928,1,0,0:0:0:0:
225,165,140117,6,0,P|168:146|57:174,1,168,6|0,0:0|0:0,0:0:0:0:
8,231,140877,1,10,0:0:0:0:
77,384,141257,1,6,0:0:0:0:
106,305,141447,1,0,0:0:0:0:
162,366,141636,6,0,P|206:369|233:363,1,56,6|0,0:0|0:0,0:0:0:0:
271,303,142016,1,6,0:0:0:0:
212,242,142206,1,0,0:0:0:0:
267,179,142396,2,0,P|261:139|250:110,1,56,10|0,0:0|0:0,0:0:0:0:
190,70,142776,1,6,0:0:0:0:
106,65,142966,1,0,0:0:0:0:
20,104,143155,6,0,B|18:115|10:131|10:131|18:166|18:166|-5:189|23:226,1,125.999996154785,6|6,0:0|0:0,0:0:0:0:
93,282,143725,1,4,0:0:0:0:
176,237,143915,2,0,B|205:233|222:240|222:240|237:230|237:230|272:249|312:243,1,125.999996154785,10|6,0:0|0:0,0:0:0:0:
374,298,144485,1,10,0:0:0:0:
422,229,144674,6,0,B|466:251|495:253|471:250|469:250,2,37.3333333333333,6|8|8,0:0|0:0|0:0,0:0:0:0:
386,185,145054,2,0,P|365:181|335:178,2,37.3333333333333,10|4|4,0:0|0:0|0:0,0:0:0:0:
427,147,145434,2,0,B|471:125|500:123|476:126|474:126,2,37.3333333333333,6|4|4,0:0|0:0|0:0,0:0:0:0:
392,102,145814,2,0,B|406:50,2,37.3333333333333,6|8|4,0:0|0:0|0:0,0:0:0:0:
338,84,146193,38,0,P|264:56|190:91,1,112,6|6,0:0|0:0,0:0:0:0:
157,98,146763,1,4,0:0:0:0:
97,39,146953,2,0,P|72:112|112:178,1,112,10|0,0:0|0:0,0:0:0:0:
36,214,147523,1,4,0:0:0:0:
36,214,147617,1,4,0:0:0:0:
36,214,147712,2,0,P|53:269|33:319,1,112,4|6,0:0|0:0,0:0:0:0:
199,353,148472,5,10,0:0:0:0:
154,281,148662,1,0,0:0:0:0:
204,213,148852,1,2,0:0:0:0:
281,245,149042,1,0,0:0:0:0:
277,328,149231,2,0,P|349:313|397:306,1,112,6|0,0:0|0:0,0:0:0:0:
446,366,149801,1,4,0:0:0:0:
478,288,149991,2,0,P|476:224|498:122,1,168,10|4,0:0|0:0,0:0:0:0:
436,65,150750,2,0,P|389:79|323:113,1,112,4|6,0:0|0:0,0:0:0:0:
173,99,151510,5,10,0:0:0:0:
109,44,151700,1,0,0:0:0:0:
38,89,151890,1,2,0:0:0:0:
52,171,152079,1,0,0:0:0:0:
136,173,152269,1,6,0:0:0:0:
203,223,152459,2,0,P|218:280|196:347,1,112,0|4,0:0|0:0,0:0:0:0:
134,376,153029,2,0,P|94:366|58:368,1,56,10|0,0:0|0:0,0:0:0:0:
27,298,153409,1,2,0:0:0:0:
89,241,153598,1,4,0:0:0:0:
9,214,153788,5,4,0:0:0:0:
70,156,153978,1,0,0:0:0:0:
145,192,154168,1,6,0:0:0:0:
143,107,154358,1,0,0:0:0:0:
216,147,154548,5,10,0:0:0:0:
214,62,154738,1,0,0:0:0:0:
289,98,154928,1,6,0:0:0:0:
293,181,155117,1,8,0:0:0:0:
362,133,155307,6,0,P|420:123|477:143,1,112,6|6,0:0|0:0,0:0:0:0:
496,219,155877,1,4,0:0:0:0:
412,215,156067,1,10,0:0:0:0:
317,353,156447,2,0,L|283:296,1,56,6|8,0:0|0:0,0:0:0:0:
209,332,156826,86,0,L|228:364,2,37.3333333333333,6|0|4,0:0|0:0|0:0,0:0:0:0:
155,347,157206,2,0,L|135:379,2,37.3333333333333,6|0|4,0:0|0:0|0:0,0:0:0:0:
116,305,157586,2,0,L|56:303,2,37.3333333333333,10|0|0,0:0|0:0|0:0,0:0:0:0:
117,249,157966,2,0,L|100:193,2,37.3333333333333,6|0|0,0:0|0:0|0:0,0:0:0:0:
172,240,158345,70,0,B|212:228|246:243|246:243|252:229|252:229|284:244|339:230,1,168,6|4,0:0|0:0,0:0:0:0:
297,153,159105,2,0,P|267:95|250:75,1,56,10|0,0:0|0:0,0:0:0:0:
188,103,159485,2,0,P|174:127|163:153,1,56,2|4,0:0|0:0,0:0:0:0:
90,195,159864,1,6,0:0:0:0:
38,128,160054,1,10,0:0:0:0:
9,293,160434,6,0,L|14:335,2,28,4|4|10,0:0|0:0|0:0,0:0:0:0:
67,231,160814,1,4,0:0:0:0:
67,231,160909,1,4,0:0:0:0:
67,231,161004,1,6,0:0:0:0:
129,286,161193,1,10,0:0:0:0:
185,223,161383,6,0,P|248:212|325:233,1,112,6|6,0:0|0:0,0:0:0:0:
371,281,161953,1,0,0:0:0:0:
371,281,162048,1,4,0:0:0:0:
371,281,162143,1,10,0:0:0:0:
432,224,162333,1,4,0:0:0:0:
386,62,162712,1,4,0:0:0:0:
386,62,162807,1,0,0:0:0:0:
386,62,162902,5,6,0:0:0:0:
315,107,163092,2,0,P|269:112|244:107,1,56,8|6,0:0|0:0,0:0:0:0:
186,67,163472,1,4,0:0:0:0:
186,67,163567,1,4,0:0:0:0:
186,67,163662,2,0,P|164:123|153:139,1,56,10|8,0:0|0:0,0:0:0:0:
105,177,164042,2,0,P|127:233|138:249,1,56,6|8,0:0|0:0,0:0:0:0:
72,294,164421,6,0,P|128:312|208:247,1,168,6|4,0:3|0:3,0:0:0:0:
185,171,165181,1,10,0:3:0:0:
124,229,165371,1,4,0:0:0:0:
124,229,165466,1,4,0:3:0:0:
124,229,165561,2,0,P|171:254|196:264,1,56,6|4,0:0|0:0,0:0:0:0:
247,294,165940,6,0,P|288:299|320:293,1,56,6|0,0:3|0:3,0:0:0:0:
377,257,166320,1,6,0:3:0:0:
430,321,166510,2,0,L|444:368,2,28,4|4|10,0:3|0:0|0:0,0:0:0:0:
477,251,166890,1,4,0:0:0:0:
425,185,167079,1,6,0:0:0:0:
484,125,167269,1,4,0:0:0:0:
422,67,167459,38,0,L|423:22,2,37.3333333333333,6|0|0,0:0|0:0|0:0,0:0:0:0:
366,71,167839,2,0,L|366:108,2,37.3333333333333,6|0|0,0:0|0:0|0:0,0:0:0:0:
311,57,168219,2,0,L|312:12,2,37.3333333333333,10|0|0,0:0|0:0|0:0,0:0:0:0:
277,101,168598,2,0,L|276:138,2,37.3333333333333,6|0|0,0:0|0:0|0:0,0:0:0:0:
236,62,168978,2,0,L|200:38,2,37.3333333333333,6|8|8,0:0|0:0|0:0,0:0:0:0:
194,99,169358,2,0,L|170:149,2,37.3333333333333,6|8|8,0:0|0:0|0:0,0:0:0:0:
144,72,169738,6,0,P|87:67|39:247,1,265.999992897034,6|6,0:0|0:0,0:0:0:0:
256,192,170687,12,2,173535,0:0:0:0:
157,189,191763,70,0,P|215:177|306:196,1,125.999996154785,2|0,0:0|0:0,0:0:0:0:
311,214,192523,2,0,L|357:154,1,41.9999987182618,2|0,0:0|0:0,0:0:0:0:
376,192,192902,2,0,L|436:179,1,41.9999987182618,2|0,0:0|0:0,0:0:0:0:
500,187,193282,21,2,0:0:0:0:
431,308,193852,2,0,L|430:333,2,20.9999993591309,4|4|10,0:0|0:0|0:0,0:0:0:0:
396,297,194231,2,0,P|343:286|306:295,1,83.9999974365235,8|8,0:0|0:0,0:0:0:0:
286,319,194801,1,6,0:0:0:0:
208,268,195181,1,2,0:0:0:0:
171,295,195371,6,0,L|175:326,2,20.9999993591309,4|0|10,0:0|0:0|0:0,0:0:0:0:
128,276,195750,1,8,0:0:0:0:
49,227,196130,2,0,L|18:231,2,20.9999993591309,4|0|10,0:0|0:0|0:0,0:0:0:0:
68,184,196510,1,8,0:0:0:0:
205,94,197079,1,4,0:0:0:0:
235,129,197269,1,8,0:0:0:0:
255,173,197459,2,0,B|322:181|308:180,1,41.9999987182618,8|4,3:0|0:0,0:0:0:0:
368,143,197839,6,0,P|373:205|335:247,1,105.000004005432,4|4,0:0|0:0,0:0:0:0:
203,266,198598,1,4,0:0:0:0:
323,367,198978,1,4,0:0:0:0:
291,294,199168,1,0,0:0:0:0:
336,224,199358,1,4,0:0:0:0:
201,33,199928,5,4,0:0:0:0:
201,33,200023,1,4,0:0:0:0:
201,33,200117,1,10,0:0:0:0:
72,124,200497,1,0,0:0:0:0:
139,249,200877,2,0,P|239:214|319:246,1,178.500003404617,6|0,0:0|0:0,0:0:0:0:
373,203,201636,6,0,P|354:112|340:10,1,178.500003404617,10|4,0:0|0:0,0:0:0:0:
266,40,202396,1,6,0:0:0:0:
116,18,202776,1,6,0:0:0:0:
178,155,203155,2,0,P|189:203|166:287,1,119.000002269745,10|2,0:0|0:0,0:0:0:0:
122,325,203725,1,0,0:0:0:0:
53,292,203915,6,0,P|29:223|67:111,1,178.500003404617,4|0,0:0|0:0,0:0:0:0:
126,95,204674,2,0,P|179:104|249:87,1,119.000002269745,10|2,0:0|0:0,0:0:0:0:
310,56,205244,1,4,0:0:0:0:
361,111,205434,2,0,P|374:179|365:243,1,119.000002269745,6|6,0:0|0:0,0:0:0:0:
327,291,206004,1,0,0:0:0:0:
357,359,206193,1,10,0:0:0:0:
492,292,206573,1,6,0:0:0:0:
379,190,206953,38,0,P|309:181|248:199,1,119.000002269745,6|2,0:0|0:0,0:0:0:0:
211,248,207523,1,0,0:0:0:0:
143,214,207712,1,10,0:0:0:0:
31,315,208092,1,2,0:0:0:0:
31,315,208282,2,0,P|34:276|30:249,1,59.5000011348725,4|6,0:0|0:0,0:0:0:0:
145,155,208852,1,6,0:0:0:0:
11,83,209231,1,10,0:0:0:0:
143,10,209611,1,2,0:0:0:0:
143,10,209801,1,0,0:0:0:0:
143,10,209991,6,0,P|215:23|277:10,1,119.000002269745,6|6,0:0|0:0,0:0:0:0:
328,47,210561,1,4,0:0:0:0:
312,120,210750,1,10,0:0:0:0:
187,206,211130,2,0,P|179:254|182:283,1,59.5000011348725,6|8,0:0|0:0,0:0:0:0:
239,311,211510,2,0,P|245:339|246:369,2,59.5000011348725,6|8|6,0:0|0:0|0:0,0:0:0:0:
276,245,212079,2,0,L|277:211,2,29.7500005674362,4|0|10,0:0|0:0|0:0,0:0:0:0:
337,289,212459,2,0,P|382:287|413:273,2,59.5000011348725,4|6|8,0:0|0:0|0:0,0:0:0:0:
358,215,213029,6,0,P|397:106|346:2,1,238.00000453949,6|10,0:0|0:0,0:0:0:0:
215,77,214168,1,6,0:0:0:0:
145,47,214358,2,0,P|135:95|128:122,1,59.5000011348725,4|6,0:0|0:0,0:0:0:0:
8,192,214928,1,6,0:0:0:0:
20,342,215307,2,0,P|103:325|158:331,1,119.000002269745,10|0,0:0|0:0,0:0:0:0:
217,343,215877,1,0,0:0:0:0:
293,369,216067,6,0,P|331:209|324:124,1,238.00000453949,4|10,0:0|0:0,0:0:0:0:
246,8,217206,1,2,0:0:0:0:
203,70,217396,1,4,0:0:0:0:
244,133,217586,1,6,0:0:0:0:
381,70,217966,1,6,0:0:0:0:
426,213,218345,6,0,L|418:288,2,39.6666674232483,10|0|0,0:0|0:0|0:0,0:0:0:0:
376,204,218725,2,0,L|371:164,2,39.6666674232483,6|0|0,0:0|0:0|0:0,0:0:0:0:
328,220,219105,2,0,P|238:239|128:218,1,178.500003404617,6|0,0:0|0:0,0:0:0:0:
96,177,219864,2,0,P|33:168|11:234,1,119.000002269745,10|2,0:0|0:0,0:0:0:0:
36,284,220434,1,4,0:0:0:0:
36,284,220624,1,6,0:0:0:0:
162,352,221004,1,6,0:0:0:0:
260,237,221383,1,10,0:0:0:0:
366,344,221763,2,0,L|431:345,1,59.5000011348725,2|8,0:0|0:0,0:0:0:0:
479,291,222143,5,6,0:0:0:0:
443,224,222333,1,8,0:0:0:0:
407,77,222712,2,0,L|422:38,2,29.7500005674362,4|0|10,0:0|0:0|0:0,0:0:0:0:
338,109,223092,1,4,0:0:0:0:
272,70,223282,1,10,0:0:0:0:
126,28,223662,2,0,L|136:96,2,39.6666674232483,6|8|8,0:0|0:0|0:0,0:0:0:0:
76,36,224042,2,0,L|15:13,2,39.6666674232483,14|8|8,0:0|0:0|0:0,0:0:0:0:
36,66,224421,2,0,L|-12:119,2,39.6666674232483,14|8|8,0:0|0:0|0:0,0:0:0:0:
45,115,224801,2,0,L|50:181,2,39.6666674232483,6|4|4,0:0|0:0|0:0,0:0:0:0:
92,132,225181,38,0,P|153:153|341:130,1,238.00000453949,6|10,0:0|0:0,0:0:0:0:
423,25,226320,1,2,0:0:0:0:
444,97,226510,1,4,0:0:0:0:
412,165,226700,2,0,P|401:227|418:296,2,119.000002269745,6|6|10,0:0|0:0|0:0,0:0:0:0:
274,228,227839,1,6,0:0:0:0:
200,211,228029,1,0,0:0:0:0:
132,177,228219,1,6,0:0:0:0:
11,268,228598,2,0,L|0:325,2,39.6666674232483,0|0|0,0:0|0:0|0:0,0:0:0:0:
59,253,228978,2,0,L|51:214,2,39.6666674232483,10|0|0,0:0|0:0|0:0,0:0:0:0:
100,282,229358,2,0,L|178:284,1,59.5000011348725,6|0,0:0|0:0,0:0:0:0:
230,255,229738,6,0,P|303:248|371:261,1,119.000002269745,6|6,0:0|0:0,0:0:0:0:
476,334,230497,2,0,L|501:183,1,119.000002269745,10|6,0:0|0:0,0:0:0:0:
429,80,231257,2,0,P|413:165|421:222,1,119.000002269745,6|2,0:0|0:0,0:0:0:0:
347,229,231826,1,0,0:0:0:0:
272,215,232016,1,10,0:0:0:0:
129,265,232396,1,2,0:0:0:0:
76,210,232586,1,4,0:0:0:0:
77,134,232776,5,6,0:0:0:0:
227,142,233155,1,6,0:0:0:0:
102,55,233535,1,10,0:0:0:0:
252,37,233915,1,2,0:0:0:0:
252,37,234105,1,4,3:0:0:0:
252,37,234295,6,0,P|323:70|372:95,1,119.000002269745,6|6,0:0|0:0,0:0:0:0:
356,163,234864,1,4,0:0:0:0:
391,229,235054,1,10,0:0:0:0:
293,344,235434,1,6,0:0:0:0:
244,285,235624,1,10,0:0:0:0:
204,349,235814,2,0,P|135:353|110:350,1,59.5000011348725,6|10,0:0|0:0,0:0:0:0:
90,301,236193,1,6,0:0:0:0:
71,374,236383,6,0,L|22:385,2,29.7500005674362,4|0|10,0:0|0:0|0:0,0:0:0:0:
3,311,236763,1,6,0:0:0:0:
3,311,237333,5,6,0:0:0:0:
82,182,237712,1,0,0:0:0:0:
159,219,237902,1,4,0:0:0:0:
159,219,237997,1,4,0:0:0:0:
159,219,238092,2,0,P|212:211|236:213,1,59.5000011348725,10|4,0:0|0:0,0:0:0:0:
272,264,238472,2,0,P|323:263|350:254,1,59.5000011348725,10|4,0:0|0:0,0:0:0:0:
380,203,238852,38,0,P|394:149|407:128,1,59.5000011348725,6|8,0:0|0:0,0:0:0:0:
453,97,239231,1,4,0:0:0:0:
405,38,239421,2,0,L|399:-6,2,29.7500005674362,4|0|10,0:0|0:0|0:0,0:0:0:0:
344,83,239801,2,0,P|284:93|268:90,1,59.5000011348725,8|4,0:0|0:0,0:0:0:0:
217,60,240181,38,0,L|213:19,2,29.7500005674362,4|0|10,0:0|0:0|0:0,0:0:0:0:
159,109,240561,1,8,0:0:0:0:
187,178,240750,2,0,P|186:220|175:253,1,59.5000011348725,8|4,0:0|0:0,0:0:0:0:
126,288,241130,2,0,P|80:285|45:294,1,59.5000011348725,4|8,0:0|0:0,0:0:0:0:
9,237,241510,2,0,P|3:197|9:162,1,59.5000011348725,8|4,0:0|0:0,0:0:0:0:
64,130,241890,2,0,P|115:130|139:133,1,59.5000011348725,4|4,0:0|0:0,0:0:0:0:
183,176,242269,1,0,0:0:0:0:
218,109,242459,6,0,L|212:69,2,29.7500005674362,4|0|6,0:0|0:0|0:0,0:0:0:0:
293,114,242839,1,6,0:0:0:0:
358,75,243029,1,0,0:0:0:0:
420,118,243219,1,0,0:0:0:0:
489,78,243409,6,0,B|519:116|480:176|480:176|492:216|492:216|465:261|499:325,1,251.999992309571,6|10,0:0|0:0,0:0:0:0:
357,250,244548,1,2,0:0:0:0:
302,302,244738,1,4,0:0:0:0:
239,259,244928,2,0,P|177:248|102:265,1,125.999996154785,6|6,0:0|0:0,0:0:0:0:
15,145,245687,1,10,0:0:0:0:
40,73,245877,1,0,0:0:0:0:
115,70,246067,1,2,0:0:0:0:
138,141,246257,1,0,0:0:0:0:
87,197,246447,38,0,B|131:232|191:200|191:200|224:211|224:211|279:183|327:212,1,251.999992309571,6|10,0:0|0:0,0:0:0:0:
416,327,247586,1,2,0:0:0:0:
470,274,247776,1,4,0:0:0:0:
450,200,247966,2,0,P|434:148|454:73,1,125.999996154785,6|6,0:0|0:0,0:0:0:0:
299,95,248725,1,10,0:0:0:0:
231,61,248915,2,0,P|179:59|150:66,1,62.9999980773926,8|6,0:0|0:0,0:0:0:0:
117,117,249295,1,10,0:0:0:0:
54,74,249485,5,6,0:0:0:0:
5,131,249674,2,0,P|15:193|-3:278,1,125.999996154785,0|0,0:0|0:0,0:0:0:0:
59,308,250244,1,10,0:0:0:0:
196,244,250624,1,2,0:0:0:0:
242,303,250814,1,4,0:0:0:0:
271,233,251004,1,6,0:0:0:0:
421,221,251383,1,6,0:0:0:0:
374,280,251573,1,0,0:0:0:0:
448,294,251763,2,0,P|502:302|527:311,2,62.9999980773926,10|0|2,0:0|0:0|0:0,0:0:0:0:
401,354,252333,1,0,0:0:0:0:
325,344,252523,6,0,P|268:335|195:348,1,125.999996154785,6|6,0:0|0:0,0:0:0:0:
132,377,253092,1,4,0:0:0:0:
70,332,253282,1,10,0:0:0:0:
134,195,253662,1,6,0:0:0:0:
87,135,253852,1,8,0:0:0:0:
120,67,254042,2,0,P|144:11|148:-11,1,62.9999980773926,6|8,0:0|0:0,0:0:0:0:
216,31,254421,1,6,0:0:0:0:
291,25,254611,38,0,L|303:72,2,31.4999990386963,4|0|10,0:0|0:0|0:0,0:0:0:0:
365,9,254991,1,8,0:0:0:0:
419,61,255181,1,6,0:0:0:0:
418,136,255371,1,8,0:0:0:0:
379,201,255561,2,0,P|363:252|381:335,1,125.999996154785,6|6,0:0|0:0,0:0:0:0:
436,366,256130,1,4,0:0:0:0:
494,318,256320,1,10,0:0:0:0:
451,172,256700,37,6,0:0:0:0:
379,201,256890,2,0,P|334:207|294:200,1,62.9999980773926,8|6,0:0|0:0,0:0:0:0:
258,157,257269,2,0,P|200:154|177:160,2,62.9999980773926,8|6|4,0:0|0:0|0:0,0:0:0:0:
318,110,257839,2,0,P|328:47|315:5,2,94.499997116089,10|0|8,0:0|0:0|0:0,0:0:0:0:
333,184,258598,2,0,P|417:203|459:188,1,125.999996154785,14|4,0:0|0:0,0:0:0:0:
481,164,259073,1,0,0:0:0:0:
481,164,259168,1,10,0:0:0:0:
473,75,259358,2,0,P|469:32|469:26,2,31.4999990386963,4|4|10,0:0|0:0|0:0,0:0:0:0:
400,118,259738,1,10,0:0:0:0:
338,74,259928,1,8,0:0:0:0:
271,108,260117,6,0,P|259:174|262:191,1,62.9999980773926,14|8,0:0|0:0,0:0:0:0:
284,244,260497,1,8,0:0:0:0:
212,276,260687,1,4,0:0:0:0:
212,276,260782,1,0,0:0:0:0:
212,276,260877,2,0,P|159:268|139:272,1,62.9999980773926,10|4,0:0|0:0,0:0:0:0:
79,297,261257,2,0,P|68:262|42:232,1,62.9999980773926,10|4,0:0|0:0,0:0:0:0:
85,172,261636,6,0,P|74:122|30:51,1,125.999996154785,6|0,0:0|0:0,0:0:0:0:
97,13,262206,1,4,0:0:0:0:
163,48,262396,1,10,0:0:0:0:
311,17,262776,2,0,P|364:14|384:15,1,62.9999980773926,0|4,0:0|0:0,0:0:0:0:
432,62,263155,1,6,0:0:0:0:
397,129,263345,2,0,P|390:184|392:218,1,62.9999980773926,8|6,0:0|0:0,0:0:0:0:
426,258,263725,2,0,L|452:301,2,31.4999990386963,4|4|10,0:0|0:0|0:0,0:0:0:0:
280,301,264295,1,4,0:0:0:0:
208,326,264485,1,8,0:0:0:0:
138,296,264674,6,0,P|68:305|-8:294,1,125.999996154785,6|6,0:0|0:0,0:0:0:0:
30,225,265244,1,4,0:0:0:0:
105,225,265434,1,10,0:0:0:0:
22,98,265814,1,6,0:0:0:0:
87,60,266004,1,8,0:0:0:0:
153,94,266193,2,0,L|163:155,2,41.9999987182618,6|8|8,0:0|0:0|0:0,0:0:0:0:
194,64,266573,2,0,L|205:13,2,41.9999987182618,10|8|4,0:0|0:0|0:0,0:0:0:0:
238,88,266953,2,0,P|302:96|324:96,1,62.9999980773926,6|0,0:0|0:0,0:0:0:0:
373,73,267333,1,10,0:0:0:0:
440,106,267523,1,0,0:0:0:0:
449,180,267712,5,6,0:0:0:0:
256,192,267902,12,0,270371,0:0:0:0:
201,43,270750,22,0,P|136:44|86:56,1,90.9999958343508,2|0,0:0|0:0,0:0:0:0:
162,134,271510,2,0,P|227:135|277:147,1,90.9999958343508,2|0,0:0|0:0,0:0:0:0:
309,222,272269,6,0,P|353:215|399:216,1,90.9999958343508,2|0,0:0|0:0,0:0:0:0:
453,301,273029,2,0,P|408:294|362:295,1,90.9999958343508,2|0,0:0|0:0,0:0:0:0:
279,351,273788,102,0,P|213:364|169:362,2,90.9999958343508,2|0|2,0:0|0:0|0:0,0:0:0:0:
218,270,274928,1,2,0:0:0:0:
118,264,275307,2,0,P|95:315|85:364,1,90.9999958343508,2|0,0:0|0:0,0:0:0:0:
19,274,276067,2,0,P|14:230|-1:185,1,90.9999958343508,2|0,0:0|0:0,0:0:0:0:
73,119,276826,5,2,0:0:0:0:
218,89,277586,1,2,0:0:0:0:
324,200,278375,1,2,0:0:0:0:
304,323,279164,1,2,0:0:0:0:
196,351,279647,1,2,0:0:0:0:
222,199,280374,1,2,0:0:0:0:
256,192,280555,12,2,283647,0:0:0:0:
