osu file format v14

[General]
AudioFilename: audio.mp3
AudioLeadIn: 0
PreviewTime: 66209
Countdown: 0
SampleSet: Soft
StackLeniency: 0.2
Mode: 0
LetterboxInBreaks: 0
WidescreenStoryboard: 1

[Editor]
Bookmarks: 39864,67206,79358,91510,97586,109738,121890,134042,146193,158345,173535,200877,213029,225181,237333,243409,255561,270750,288980
DistanceSpacing: 1.8
BeatDivisor: 4
GridSize: 4
TimelineZoom: 1.9

[Metadata]
Title:NO RAIN, NO RAINBOW
TitleUnicode:NO RAIN, NO RAINBOW
Artist:BABYMETAL
ArtistUnicode:BABYMETAL
Creator:Hysteria
Version:Lazy's Light Insane
Source:
Tags:j-pop j-rock pop rock kawaii heavy metal resistance su-metal yuimetal moametal lazyboy007 tokiko nao tomori naotoshi Joe Castle yShadowXOP_
BeatmapID:1301516
BeatmapSetID:585019

[Difficulty]
HPDrainRate:5
CircleSize:3.5
OverallDifficulty:7
ApproachRate:8
SliderMultiplier:1.8
SliderTickRate:2

[Events]
//Background and Video events
0,0,"BG_NO_RAIN_NO_RAINBOW_SCALED_FIXED.jpg",0,0
//Break Periods
2,173734,193102
//Storyboard Layer 0 (Background)
//Storyboard Layer 1 (Fail)
//Storyboard Layer 2 (Pass)
//Storyboard Layer 3 (Foreground)
//Storyboard Sound Samples

[TimingPoints]
3433,743.494423791822,4,2,10,30,1,0
3433,-133.333333333333,4,2,10,30,0,0
4920,759.493670886076,4,2,10,30,1,0
4920,-133.333333333333,4,2,10,30,0,0
6438,769.230769230769,4,2,10,30,1,0
6438,-133.333333333333,4,2,10,30,0,0
7976,757.575757575758,4,2,10,30,1,0
7976,-133.333333333333,4,2,10,30,0,0
11006,758.293838862559,4,2,10,30,1,0
11006,-133.333333333333,4,2,10,30,0,0
11742,784.313725490196,4,2,10,30,1,0
12526,756.620428751576,4,2,10,30,1,0
14039,761.421319796954,4,2,10,30,1,0
15561,759.493670886076,4,2,10,30,1,0
36826,-100,4,3,5,45,0,0
37586,-100,4,3,7,45,0,0
37776,-100,4,3,5,45,0,0
37965,-100,4,3,12,45,0,0
38725,-100,4,3,11,45,0,0
39295,-100,4,3,10,45,0,0
39674,-100,4,3,1,45,0,0
39864,-100,4,3,2,45,0,0
52016,-100,4,3,3,45,0,0
54295,-100,4,3,2,45,0,0
59611,-100,4,3,5,45,0,0
59991,-100,4,3,7,45,0,0
60750,-100,4,3,10,45,0,0
61130,-100,4,3,2,45,0,0
61510,-100,4,3,5,45,0,0
61890,-100,4,3,2,45,0,0
62269,-100,4,3,5,45,0,0
62459,-100,4,3,2,45,0,0
63029,-100,4,3,5,45,0,0
63219,-100,4,3,12,45,0,0
63409,-100,4,3,11,45,0,0
63598,-100,4,3,12,45,0,0
63788,-100,4,3,11,45,0,0
64168,-100,4,3,8,50,0,0
64548,-100,4,3,8,55,0,0
64738,-100,4,3,1,45,0,0
64927,-100,4,3,9,60,0,0
65117,-100,4,3,1,45,0,0
65307,-100,4,3,9,65,0,0
65497,-100,4,3,1,45,0,0
65687,-100,4,3,9,70,0,0
66257,-100,4,3,1,45,0,0
66447,-66.6666666666667,4,3,2,60,0,1
67016,-66.6666666666667,4,3,2,60,0,0
67111,-66.6666666666667,4,3,1,60,0,0
67206,-80,4,3,1,60,0,1
67965,-80,4,3,2,60,0,1
68345,-80,4,3,5,60,0,1
68535,-80,4,3,2,60,0,1
68725,-80,4,3,7,60,0,1
69105,-80,4,3,5,60,0,1
69484,-80,4,3,2,60,0,1
69864,-80,4,3,5,60,0,1
70244,-80,4,3,2,60,0,1
71383,-80,4,3,5,60,0,1
71573,-80,4,3,2,60,0,1
71763,-80,4,3,7,60,0,1
72143,-80,4,3,5,60,0,1
72522,-80,4,3,2,60,0,1
72902,-80,4,3,5,60,0,1
73282,-80,4,3,1,60,0,1
73662,-80,4,3,5,60,0,1
74041,-80,4,3,2,60,0,1
74421,-80,4,3,5,60,0,1
74611,-80,4,3,2,60,0,1
74801,-80,4,3,7,60,0,1
75181,-80,4,3,5,60,0,1
75560,-80,4,3,2,60,0,1
75940,-80,4,3,5,60,0,1
76320,-80,4,3,1,60,0,1
76700,-80,4,3,5,60,0,1
76890,-80,4,3,1,60,0,1
77079,-80,4,3,2,60,0,1
77459,-80,4,3,5,60,0,1
77649,-80,4,3,2,60,0,1
77839,-80,4,3,1,60,0,1
78219,-80,4,3,5,60,0,1
78409,-80,4,3,1,60,0,1
78597,-80,4,3,2,60,0,1
78977,-80,4,3,5,60,0,1
79167,-80,4,3,2,60,0,1
79263,-80,4,3,2,60,0,0
79358,-80,4,3,1,60,0,1
80117,-80,4,3,2,60,0,1
80497,-80,4,3,5,60,0,1
80687,-80,4,3,2,60,0,1
80877,-80,4,3,7,60,0,1
81257,-80,4,3,5,60,0,1
81636,-80,4,3,2,60,0,1
82016,-80,4,3,5,60,0,1
82396,-80,4,3,2,60,0,1
83535,-80,4,3,5,60,0,1
83725,-80,4,3,2,60,0,1
83915,-80,4,3,7,60,0,1
84295,-80,4,3,5,60,0,1
84674,-80,4,3,2,60,0,1
85054,-80,4,3,5,60,0,1
85434,-80,4,3,1,60,0,1
85814,-80,4,3,5,60,0,1
86193,-80,4,3,2,60,0,1
86573,-80,4,3,5,60,0,1
86763,-80,4,3,2,60,0,1
86953,-80,4,3,7,60,0,1
87333,-80,4,3,5,60,0,1
87712,-80,4,3,2,60,0,1
88092,-80,4,3,5,60,0,1
88282,-80,4,3,2,60,0,1
88472,-80,4,3,1,60,0,1
89231,-80,4,3,2,60,0,1
89421,-80,4,3,10,60,0,1
89801,-80,4,3,1,60,0,1
90750,-80,4,3,2,60,0,1
90940,-80,4,3,1,60,0,1
91130,-80,4,3,5,60,0,1
91320,-80,4,3,2,60,0,1
91415,-80,4,3,1,60,0,0
91510,-80,4,3,1,60,0,1
91890,-80,4,3,5,60,0,1
92269,-80,4,3,2,60,0,1
92649,-80,4,3,5,60,0,1
93029,-80,4,3,2,60,0,1
93409,-80,4,3,1,60,0,1
93503,-80,4,3,12,60,0,1
93788,-80,4,3,11,60,0,1
94168,-80,4,3,10,60,0,1
94548,-80,4,3,1,60,0,1
94927,-80,4,3,5,60,0,1
95307,-80,4,3,2,60,0,1
95687,-80,4,3,5,60,0,1
95877,-80,4,3,2,60,0,1
96921,-80,4,3,1,60,0,0
97016,-80,4,3,1,60,0,1
97491,-80,4,3,1,5,0,1
97586,-80,4,3,3,45,0,0
97965,-80,4,3,5,45,0,0
98345,-80,4,3,2,45,0,0
98725,-80,4,3,5,45,0,0
99105,-80,4,3,7,45,0,0
99484,-80,4,3,5,45,0,0
99864,-80,4,3,2,45,0,0
100244,-80,4,3,5,45,0,0
100624,-80,4,3,7,45,0,0
101003,-80,4,3,5,45,0,0
101383,-80,4,3,2,45,0,0
101763,-80,4,3,5,45,0,0
102143,-80,4,3,7,45,0,0
102522,-80,4,3,5,45,0,0
102902,-80,4,3,2,45,0,0
102997,-80,4,3,12,45,0,0
103093,-80,4,3,11,45,0,0
103282,-80,4,3,10,45,0,0
103472,-80,4,3,3,45,0,0
104041,-80,4,3,5,45,0,0
104421,-80,4,3,2,45,0,0
104801,-80,4,3,5,45,0,0
105181,-80,4,3,7,45,0,0
105560,-80,4,3,5,45,0,0
105940,-80,4,3,2,45,0,0
106320,-80,4,3,5,45,0,0
106700,-80,4,3,7,45,0,0
107079,-80,4,3,5,45,0,0
107459,-80,4,3,2,45,0,0
107839,-80,4,3,5,45,0,0
108219,-80,4,3,7,45,0,0
108598,-80,4,3,3,45,0,0
108978,-80,4,3,2,45,0,0
109358,-80,4,3,10,45,0,0
109548,-80,4,3,2,45,0,0
109738,-80,4,3,13,80,0,0
109927,-80,4,3,3,45,0,0
110497,-80,4,3,2,45,0,0
111067,-80,4,3,3,45,0,0
111636,-80,4,3,2,45,0,0
112016,-80,4,3,11,45,0,0
112396,-80,4,3,10,45,0,0
112776,-80,4,3,2,45,0,0
112965,-80,4,3,3,45,0,0
113535,-80,4,3,2,45,0,0
114105,-80,4,3,3,45,0,0
114674,-80,4,3,2,45,0,0
115054,-80,4,3,10,45,0,0
115434,-80,4,3,3,45,0,0
116193,-80,4,3,5,45,0,0
116573,-80,4,3,2,45,0,0
116953,-80,4,3,5,45,0,0
117333,-80,4,3,3,45,0,0
117712,-80,4,3,5,45,0,0
118092,-80,4,3,2,45,0,0
118472,-80,4,3,3,45,0,0
118852,-80,4,3,13,80,0,0
120371,-80,4,3,8,45,0,0
120497,-80,4,3,3,45,0,0
120750,-80,4,3,11,45,0,0
120877,-80,4,3,10,45,0,0
121130,-80,4,3,2,45,0,0
121225,-80,4,3,10,45,0,0
121510,-80,4,3,11,45,0,0
121890,-80,4,3,8,80,0,0
122459,-80,4,3,3,45,0,0
122649,-80,4,3,2,45,0,0
123029,-80,4,3,5,45,0,0
123409,-80,4,3,7,45,0,0
123788,-80,4,3,5,45,0,0
124168,-80,4,3,2,45,0,0
124548,-80,4,3,5,45,0,0
124927,-80,4,3,7,45,0,0
125687,-80,4,3,2,45,0,0
126352,-80,4,3,2,5,0,0
126446,-80,4,3,7,45,0,0
126826,-80,4,3,5,45,0,0
127016,-80,4,3,2,45,0,0
127586,-80,4,3,5,45,0,0
127965,-80,4,3,1,45,0,0
128725,-80,4,3,2,45,0,0
129484,-80,4,3,7,45,0,0
129864,-80,4,3,5,45,0,0
130244,-80,4,3,2,45,0,0
130624,-80,4,3,5,45,0,0
131003,-80,4,3,1,45,0,0
131383,-80,4,3,5,45,0,0
131763,-80,4,3,2,45,0,0
132143,-80,4,3,5,45,0,0
132333,-80,4,3,2,45,0,0
132522,-80,4,3,1,45,0,0
132902,-80,4,3,5,45,0,0
133092,-80,4,3,2,45,0,0
133662,-80,4,3,5,45,0,0
133852,-80,4,3,2,45,0,0
134041,-80,4,3,9,80,0,0
134611,-80,4,3,1,45,0,0
134801,-80,4,3,2,45,0,0
135181,-80,4,3,5,45,0,0
135560,-80,4,3,7,45,0,0
135940,-80,4,3,5,45,0,0
136320,-80,4,3,2,45,0,0
136700,-80,4,3,5,45,0,0
137079,-80,4,3,1,45,0,0
137839,-80,4,3,2,45,0,0
138219,-80,4,3,5,45,0,0
138598,-80,4,3,7,45,0,0
138978,-80,4,3,5,45,0,0
139358,-80,4,3,2,45,0,0
139738,-80,4,3,5,45,0,0
140117,-80,4,3,1,45,0,0
140877,-80,4,3,2,45,0,0
141257,-80,4,3,5,45,0,0
141636,-80,4,3,7,45,0,0
142016,-80,4,3,5,45,0,0
142396,-80,4,3,2,45,0,0
142776,-80,4,3,5,45,0,0
143155,-80,4,3,1,45,0,0
143535,-80,4,3,5,45,0,0
143915,-80,4,3,2,45,0,0
144295,-80,4,3,5,45,0,0
144484,-80,4,3,2,45,0,0
144674,-80,4,3,3,45,0,0
145054,-80,4,3,2,45,0,0
145434,-80,4,3,1,45,0,0
145560,-80,4,3,12,45,0,0
145687,-80,4,3,11,45,0,0
145814,-80,4,3,2,45,0,0
145940,-80,4,3,10,45,0,0
146193,-80,4,3,8,80,0,0
146573,-80,4,3,5,45,0,0
146953,-80,4,3,2,45,0,0
148092,-80,4,3,5,45,0,0
148472,-80,4,3,2,45,0,0
148852,-80,4,3,5,45,0,0
149231,-80,4,3,3,45,0,0
149991,-80,4,3,2,45,0,0
151130,-80,4,3,5,45,0,0
151510,-80,4,3,2,45,0,0
151890,-80,4,3,5,45,0,0
152269,-80,4,3,3,45,0,0
153029,-80,4,3,2,45,0,0
153409,-80,4,3,5,45,0,0
153598,-80,4,3,2,45,0,0
154168,-80,4,3,5,45,0,0
154548,-80,4,3,2,45,0,0
154927,-80,4,3,5,45,0,0
155117,-80,4,3,2,45,0,0
155307,-80,4,3,3,45,0,0
155687,-80,4,3,5,45,0,0
156067,-80,4,3,2,45,0,0
156446,-80,4,3,5,45,0,0
156636,-80,4,3,2,45,0,0
156826,-80,4,3,3,45,0,0
157206,-80,4,3,5,45,0,0
157586,-80,4,3,2,45,0,0
157965,-80,4,3,5,45,0,0
158345,-80,4,3,9,80,0,0
158915,-80,4,3,1,45,0,0
159105,-80,4,3,2,45,0,0
159484,-80,4,3,5,45,0,0
159864,-80,4,3,7,45,0,0
160054,-80,4,3,2,45,0,0
160244,-80,4,3,5,45,0,0
160624,-80,4,3,2,45,0,0
161003,-80,4,3,5,45,0,0
161193,-80,4,3,2,45,0,0
161383,-80,4,3,1,45,0,0
161763,-80,4,3,5,45,0,0
162143,-80,4,3,2,45,0,0
162522,-80,4,3,5,45,0,0
162902,-80,4,3,1,45,0,0
163282,-80,4,3,5,45,0,0
163662,-80,4,3,2,45,0,0
164041,-80,4,3,5,45,0,0
164231,-80,4,3,2,45,0,0
164421,-80,4,3,1,45,0,0
165181,-80,4,3,2,45,0,0
165560,-80,4,3,5,45,0,0
165940,-80,4,3,1,45,0,0
166320,-80,4,3,5,45,0,0
166700,-80,4,3,2,45,0,0
167079,-80,4,3,5,45,0,0
167459,-80,4,3,1,45,0,0
167839,-80,4,3,5,45,0,0
168219,-80,4,3,2,45,0,0
168598,-80,4,3,5,45,0,0
168978,-80,4,3,1,45,0,0
169358,-80,4,3,5,45,0,0
169484,-80,4,3,2,45,0,0
169864,-80,4,3,12,45,0,0
169991,-80,4,3,11,45,0,0
170117,-80,4,3,5,45,0,0
170244,-80,4,3,10,45,0,0
170497,-100,4,3,8,80,0,0
170545,-100,4,3,8,5,0,0
173298,-100,4,3,8,80,0,0
173345,-100,4,2,10,5,0,0
173535,-100,4,2,10,30,0,0
193852,-100,4,3,2,45,0,0
194801,-100,4,3,1,45,0,0
195181,-100,4,3,5,45,0,0
195560,-100,4,3,2,45,0,0
195940,-100,4,3,5,45,0,0
196320,-100,4,3,2,45,0,0
196700,-100,4,3,5,45,0,0
196890,-100,4,3,2,45,0,0
197079,-100,4,3,12,45,0,0
197269,-100,4,3,11,45,0,0
197459,-100,4,3,10,45,0,0
197839,-100,4,3,9,55,0,0
198155,-100,4,3,9,5,0,0
198219,-100,4,3,9,65,0,0
198535,-100,4,3,9,5,0,0
198598,-100,4,3,9,75,0,0
198915,-100,4,3,9,5,0,0
198978,-100,4,3,9,85,0,0
199295,-100,4,3,9,5,0,0
199358,-100,4,3,9,95,0,0
199738,-100,4,3,9,5,0,0
199927,-100,4,3,2,45,0,0
200117,-66.6666666666667,4,3,2,60,0,1
200782,-66.6666666666667,4,3,1,60,0,0
200877,-80,4,3,1,60,0,1
201636,-80,4,3,2,60,0,1
202016,-80,4,3,5,60,0,1
202396,-80,4,3,7,60,0,1
202776,-80,4,3,5,60,0,1
203155,-80,4,3,2,60,0,1
203535,-80,4,3,5,60,0,1
204674,-80,4,3,2,60,0,1
205054,-80,4,3,5,60,0,1
205434,-80,4,3,7,60,0,1
205814,-80,4,3,5,60,0,1
206193,-80,4,3,2,60,0,1
206573,-80,4,3,5,60,0,1
206953,-80,4,3,1,60,0,1
207333,-80,4,3,5,60,0,1
207712,-80,4,3,2,60,0,1
208092,-80,4,3,5,60,0,1
208472,-80,4,3,7,60,0,1
208852,-80,4,3,5,60,0,1
209231,-80,4,3,2,60,0,1
209611,-80,4,3,5,60,0,1
209991,-80,4,3,1,60,0,1
210371,-80,4,3,5,60,0,1
210750,-80,4,3,2,60,0,1
211130,-80,4,3,5,60,0,1
211320,-80,4,3,2,60,0,1
211510,-80,4,3,1,60,0,1
211890,-80,4,3,5,60,0,1
212269,-80,4,3,2,60,0,1
212649,-80,4,3,5,60,0,1
212839,-80,4,3,2,60,0,1
212934,-80,4,3,1,60,0,0
213029,-80,4,3,1,60,0,1
213788,-80,4,3,2,60,0,1
214168,-80,4,3,5,60,0,1
214548,-80,4,3,7,60,0,1
214927,-80,4,3,5,60,0,1
215307,-80,4,3,2,60,0,1
215687,-80,4,3,5,60,0,1
216826,-80,4,3,2,60,0,1
217206,-80,4,3,5,60,0,1
217586,-80,4,3,7,60,0,1
217965,-80,4,3,5,60,0,1
218345,-80,4,3,2,60,0,1
218725,-80,4,3,5,60,0,1
219105,-80,4,3,1,60,0,1
219484,-80,4,3,5,60,0,1
219864,-80,4,3,2,60,0,1
220244,-80,4,3,5,60,0,1
220624,-80,4,3,7,60,0,1
221003,-80,4,3,5,60,0,1
221383,-80,4,3,2,60,0,1
221763,-80,4,3,5,60,0,1
221953,-80,4,3,2,60,0,1
222143,-80,4,3,1,60,0,1
222522,-80,4,3,5,60,0,1
222902,-80,4,3,2,60,0,1
223472,-80,4,3,11,60,0,1
223662,-80,4,3,1,60,0,1
224041,-80,4,3,5,60,0,1
224421,-80,4,3,2,60,0,1
224548,-80,4,3,10,60,0,1
224801,-80,4,3,5,60,0,1
224927,-80,4,3,10,60,0,1
225086,-80,4,3,2,60,0,0
225181,-80,4,3,1,60,0,1
225940,-80,4,3,2,60,0,1
226320,-80,4,3,5,60,0,1
226700,-80,4,3,7,60,0,1
227079,-80,4,3,5,60,0,1
227459,-80,4,3,2,60,0,1
227839,-80,4,3,5,60,0,1
228219,-80,4,3,2,60,0,1
228598,-80,4,3,5,60,0,1
228978,-80,4,3,2,60,0,1
229358,-80,4,3,5,60,0,1
229738,-80,4,3,7,60,0,1
230117,-80,4,3,5,60,0,1
230497,-80,4,3,2,60,0,1
230561,-80,4,2,0,20,0,1
230877,-80,4,3,5,60,0,1
230940,-80,4,2,0,20,0,1
231257,-80,4,3,1,60,0,1
231636,-80,4,3,5,60,0,1
232016,-80,4,3,2,60,0,1
232396,-80,4,3,5,60,0,1
232776,-80,4,3,7,60,0,1
233155,-80,4,3,5,60,0,1
233535,-80,4,3,2,60,0,1
233915,-80,4,3,5,60,0,1
234105,-80,4,3,2,60,0,1
234295,-80,4,3,1,60,0,1
235054,-80,4,3,2,60,0,1
235434,-80,4,3,5,60,0,1
235624,-80,4,3,2,60,0,1
235814,-80,4,3,1,60,0,1
236003,-80,4,3,2,60,0,1
236193,-80,4,3,5,60,0,1
236573,-80,4,3,2,60,0,1
236763,-80,4,3,1,60,0,1
237238,-80,4,3,2,60,0,0
237333,-80,4,3,1,60,0,1
238092,-80,4,3,2,60,0,1
238852,-80,4,3,1,60,0,1
239611,-80,4,3,2,60,0,1
240560,-80,4,3,12,60,0,1
240750,-80,4,3,11,60,0,1
240940,-80,4,3,12,60,0,1
241130,-80,4,3,11,60,0,1
241510,-80,4,3,10,60,0,1
241700,-80,4,3,11,60,0,1
241890,-80,4,3,10,60,0,1
242269,-80,4,3,1,60,0,1
242459,-80,4,3,10,60,0,1
242649,-80,4,3,1,60,0,1
242744,-80,4,3,2,60,0,0
242839,-80,4,3,1,60,0,1
243409,-80,4,3,3,45,0,0
244168,-80,4,3,2,45,0,0
244548,-80,4,3,5,45,0,0
244927,-80,4,3,7,45,0,0
245307,-80,4,3,5,45,0,0
245687,-80,4,3,2,45,0,0
246067,-80,4,3,5,45,0,0
246446,-80,4,3,7,45,0,0
247206,-80,4,3,2,45,0,0
247586,-80,4,3,5,45,0,0
247965,-80,4,3,7,45,0,0
248345,-80,4,3,5,45,0,0
248725,-80,4,3,2,45,0,0
249105,-80,4,3,5,45,0,0
249295,-80,4,3,2,45,0,0
249484,-80,4,3,3,45,0,0
250244,-80,4,3,2,45,0,0
250624,-80,4,3,5,45,0,0
251003,-80,4,3,7,45,0,0
251383,-80,4,3,5,45,0,0
251763,-80,4,3,2,45,0,0
252143,-80,4,3,5,45,0,0
252522,-80,4,3,3,45,0,0
252902,-80,4,3,5,45,0,0
253282,-80,4,3,2,45,0,0
253662,-80,4,3,5,45,0,0
253852,-80,4,3,2,45,0,0
254041,-80,4,3,3,45,0,0
254801,-80,4,3,2,45,0,0
255181,-80,4,3,5,45,0,0
255371,-80,4,3,2,45,0,0
255560,-80,4,3,8,80,0,0
255940,-80,4,3,5,45,0,0
256320,-80,4,3,2,45,0,0
256700,-80,4,3,5,45,0,0
256890,-80,4,3,2,45,0,0
257079,-80,4,3,7,45,0,0
257269,-80,4,3,2,45,0,0
257459,-80,4,3,5,45,0,0
257839,-80,4,3,2,45,0,0
258219,-80,4,3,5,45,0,0
258409,-80,4,3,2,45,0,0
258598,-80,4,3,3,45,0,0
259168,-80,4,3,2,45,0,0
260117,-80,4,3,3,45,0,0
260307,-80,4,3,11,45,0,0
260497,-80,4,3,10,45,0,0
260687,-80,4,3,2,45,0,0
261636,-80,4,3,3,45,0,0
262396,-80,4,3,2,45,0,0
263155,-80,4,3,7,45,0,0
263345,-80,4,3,2,45,0,0
263535,-80,4,3,5,45,0,0
263915,-80,4,3,2,45,0,0
264674,-80,4,3,3,45,0,0
265054,-80,4,3,5,45,0,0
265434,-80,4,3,2,45,0,0
265814,-80,4,3,5,45,0,0
266003,-80,4,3,2,45,0,0
266193,-80,4,3,3,45,0,0
266573,-80,4,3,2,45,0,0
266700,-80,4,3,12,45,0,0
266953,-80,4,3,3,45,0,0
267079,-80,4,3,11,45,0,0
267333,-80,4,3,2,45,0,0
267459,-80,4,3,10,45,0,0
267712,-100,4,3,9,80,0,0
267760,-100,4,3,9,5,0,0
270513,-100,4,3,9,80,0,0
270560,-100,4,2,10,5,0,0
270750,-133.333333333333,4,2,10,30,0,0
277586,789.473684210526,4,2,10,30,1,0
279164,967.741935483871,4,2,10,30,1,0
279647,727.272727272727,4,2,10,30,1,0
280374,725.513905683192,4,2,10,30,1,0
282550,548.947849954254,4,2,10,30,1,0
283647,666.666666666667,4,2,10,40,1,0
283647,-133.333333333333,4,2,10,40,0,0
283980,-133.333333333333,4,2,10,35,0,0
284313,-133.333333333333,4,2,10,33,0,0
284647,-133.333333333333,4,2,10,31,0,0
284980,-133.333333333333,4,2,10,29,0,0
285313,-133.333333333333,4,2,10,27,0,0
285647,-133.333333333333,4,2,10,25,0,0
285980,-133.333333333333,4,2,10,23,0,0
286313,-133.333333333333,4,2,10,21,0,0
286647,-133.333333333333,4,2,10,19,0,0
286980,-133.333333333333,4,2,10,17,0,0
287313,-133.333333333333,4,2,10,15,0,0
287647,-133.333333333333,4,2,10,13,0,0
287980,-133.333333333333,4,2,10,11,0,0
288313,-133.333333333333,4,2,10,9,0,0
288647,-133.333333333333,4,2,10,7,0,0
288980,-133.333333333333,4,2,10,5,0,0

[Colours]
Combo1 : 106,106,106
Combo2 : 228,154,154
Combo3 : 228,191,154
Combo4 : 228,228,154
Combo5 : 154,191,228
Combo6 : 191,154,228
Combo7 : 228,154,191
Combo8 : 212,212,212

[HitObjects]
128,80,3433,102,0,P|119:120|125:151,1,67.5000025749207,2|0,0:0|0:0,0:0:0:0:
132,155,4176,2,0,P|141:195|135:226,1,67.5000025749207,2|0,0:0|0:0,0:0:0:0:
98,291,4920,2,0,P|131:300|166:295,1,67.5000025749208,2|0,0:0|0:0,0:0:0:0:
174,288,5679,2,0,P|214:279|245:285,1,67.5000025749207,2|0,0:0|0:0,0:0:0:0:
297,340,6438,6,0,P|316:303|318:272,1,67.5000025749207,2|0,0:0|0:0,0:0:0:0:
322,264,7207,1,2,0:0:0:0:
334,183,7591,1,2,0:0:0:0:
405,144,7976,1,2,0:0:0:0:
347,85,8354,102,0,L|308:96,1,33.7500012874604,0|0,0:0|0:0,0:0:0:0:
285,65,8733,2,0,L|250:85,1,33.7500012874604,2|0,0:0|0:0,0:0:0:0:
219,60,9112,2,0,L|190:88,1,33.7500012874604,0|0,0:0|0:0,0:0:0:0:
153,72,9491,6,0,P|144:112|150:143,1,67.5000025749207,2|0,0:0|0:0,0:0:0:0:
157,147,10248,2,0,P|166:187|160:218,1,67.5000025749207,2|0,0:0|0:0,0:0:0:0:
123,284,11006,2,0,P|163:293|194:287,1,67.5000025749207,2|0,0:0|0:0,0:0:0:0:
198,279,11742,1,2,0:0:0:0:
274,306,12134,1,2,0:0:0:0:
336,254,12526,1,2,0:0:0:0:
259,226,12904,1,0,0:0:0:0:
259,226,13660,101,0,0:0:0:0:
336,254,14039,1,2,0:0:0:0:
336,254,14800,1,2,0:0:0:0:
336,254,15561,6,0,P|335:198|228:152,1,180,2|2,0:0|0:0,0:0:0:0:
259,226,16700,2,0,P|212:228|197:222,1,45,2|0,0:0|0:0,0:0:0:0:
215,229,17459,102,0,B|207:258|207:258|207:289|207:289|197:323,2,90,0|2|0,0:0|0:0|0:0,0:0:0:0:
270,169,18598,2,0,P|231:149|187:152,1,90,2|2,0:0|0:0,0:0:0:0:
158,180,19168,2,0,B|169:145|150:115|150:115|163:94|163:94|142:52|166:11,1,180,0|0,0:0|0:0,0:0:0:0:
137,39,20117,6,0,P|97:59|53:56,1,90,2|0,0:0|0:0,0:0:0:0:
52,137,20877,2,0,P|92:157|136:154,1,90,2|0,0:0|0:0,0:0:0:0:
193,96,21636,102,0,P|213:178|148:234,1,180,2|2,0:0|0:0,0:0:0:0:
136,153,22776,2,0,P|116:121|113:102,1,45,2|0,0:0|0:0,0:0:0:0:
114,115,23535,6,0,B|122:86|122:86|122:55|122:55|132:21,2,90,0|2|0,0:0|0:0|0:0,0:0:0:0:
56,172,24674,2,0,P|103:196|195:113,1,180,2|2,0:0|0:0,0:0:0:0:
194,86,25624,2,0,P|218:124|258:143,1,90,0|0,0:0|0:0,0:0:0:0:
298,142,26193,2,0,P|277:181|280:225,1,90,2|0,0:0|0:0,0:0:0:0:
342,277,26953,1,2,0:0:0:0:
356,198,27333,1,2,0:0:0:0:
366,158,27523,1,0,0:0:0:0:
396,125,27712,102,0,B|356:135|326:120|326:120|307:133|307:133|268:108|213:136,1,180,2|2,0:0|0:0,0:0:0:0:
167,187,28852,1,2,0:0:0:0:
127,197,29042,1,0,0:0:0:0:
94,227,29231,6,0,B|71:184|91:142|91:142|63:104|76:48,1,180,2|2,0:0|0:0,0:0:0:0:
155,54,30371,1,2,0:0:0:0:
194,64,30561,1,0,0:0:0:0:
227,94,30750,102,0,P|206:133|209:177,1,90,2|2,0:0|0:0,0:0:0:0:
238,206,31320,2,0,P|194:196|152:210,1,90,0|0,0:0|0:0,0:0:0:0:
122,239,31890,2,0,P|101:246|79:249,1,45,0|0,0:0|0:0,0:0:0:0:
50,220,32269,6,0,B|64:171|40:134|40:134|75:92|57:40,1,180,2|2,0:0|0:0,0:0:0:0:
141,49,33409,1,2,0:0:0:0:
180,59,33598,1,0,0:0:0:0:
212,89,33788,102,0,P|296:104|319:187,1,180,2|2,0:0|0:0,0:0:0:0:
243,164,34928,1,2,0:0:0:0:
214,192,35117,2,0,P|228:233|218:277,1,90,0|0,0:0|0:0,0:0:0:0:
189,306,35687,2,0,P|233:302|272:323,1,90,0|2,0:0|0:0,0:0:0:0:
353,323,36447,1,2,0:0:0:0:
363,283,36636,1,0,0:0:0:0:
393,250,36826,5,0,0:0:0:0:
393,250,37206,2,0,L|405:203,1,45,2|2,0:0|0:0,0:0:0:0:
426,129,37586,1,2,0:0:0:0:
347,149,37776,1,2,0:0:0:0:
370,71,37966,1,4,0:0:0:0:
291,91,38155,1,0,0:0:0:0:
291,91,38535,101,4,0:0:0:0:
426,129,38725,1,8,0:0:0:0:
426,129,39105,2,0,P|433:151|433:174,1,45,4|8,0:0|0:0,0:0:0:0:
353,164,39485,2,0,P|346:142|346:119,1,45,4|4,0:0|0:0,0:0:0:0:
426,129,39864,22,0,P|419:212|330:242,1,180,6|0,0:0|0:0,0:0:0:0:
338,244,41004,2,0,P|315:244|293:250,1,45,0|0,0:0|0:0,0:0:0:0:
234,307,41383,2,0,P|212:265|223:207,2,90,4|4|10,0:0|0:0|0:0,0:0:0:0:
234,307,42523,1,0,0:0:0:0:
234,307,42902,6,0,P|196:277|137:277,1,90,4|0,0:0|0:0,0:0:0:0:
166,353,43472,2,0,P|125:347|90:223,1,180,0|4,0:0|0:0,0:0:0:0:
156,192,44421,2,0,P|182:156|186:112,2,90,4|4|10,0:0|0:0|0:0,0:0:0:0:
441,344,45940,6,0,B|458:304|440:267|440:267|452:250|452:250|427:215|443:164,1,180,4|0,0:0|0:0,0:0:0:0:
440,173,47079,2,0,P|440:150|434:128,1,45,0|4,0:0|0:0,0:0:0:0:
376,71,47459,2,0,P|423:48|475:58,2,90,4|4|10,0:0|0:0|0:0,0:0:0:0:
376,71,48598,1,4,0:0:0:0:
375,71,48978,6,0,B|344:103|293:91|293:91|259:130|200:115,1,180,4|0,0:0|0:0,0:0:0:0:
153,59,49928,2,0,P|140:78|132:99,1,45,0|4,0:0|0:0,0:0:0:0:
156,177,50307,1,4,0:0:0:0:
235,194,50497,1,0,0:0:0:0:
293,91,50687,1,4,0:0:0:0:
293,91,51067,1,4,0:0:0:0:
235,194,51257,1,10,0:0:0:0:
235,194,51636,5,0,0:0:0:0:
211,117,51826,1,0,0:0:0:0:
132,100,52016,6,0,P|87:134|117:248,1,180,6|0,0:0|0:0,0:0:0:0:
108,242,53155,1,0,0:0:0:0:
156,177,53345,1,4,0:0:0:0:
188,251,53535,2,0,P|167:296|125:320,2,90,4|4|10,0:0|0:0|0:0,0:0:0:0:
188,251,54674,2,0,P|193:228|205:209,1,45,0|0,0:0|0:0,0:0:0:0:
277,175,55054,38,0,P|284:218|268:259,1,90,4|0,0:0|0:0,0:0:0:0:
205,210,55624,2,0,P|197:170|229:111,1,90,0|0,0:0|0:0,0:0:0:0:
289,95,56193,1,0,0:0:0:0:
277,175,56383,1,4,0:0:0:0:
214,125,56573,2,0,P|173:129|126:176,2,90,4|4|10,0:0|0:0|0:0,0:0:0:0:
214,125,57712,5,0,0:0:0:0:
202,205,57902,1,0,0:0:0:0:
265,255,58092,2,0,P|219:284|124:223,1,180,4|0,0:0|0:0,0:0:0:0:
124,223,59231,1,0,0:0:0:0:
202,205,59421,1,4,0:0:0:0:
264,254,59611,2,0,P|303:277|347:277,1,90,6|2,0:0|0:0,0:0:0:0:
324,197,60181,1,8,0:0:0:0:
334,180,60276,1,8,0:0:0:0:
349,164,60371,6,0,P|367:144|376:120,1,45,8|8,0:0|0:0,0:0:0:0:
322,65,60750,2,0,P|304:85|295:109,1,45,4|0,0:0|0:0,0:0:0:0:
349,164,61130,6,0,P|300:183|260:174,1,90,6|6,0:0|0:0,0:0:0:0:
216,109,61700,1,4,0:0:0:0:
205,127,61795,1,4,0:0:0:0:
190,143,61890,6,0,P|172:163|163:187,1,45,10|8,0:0|0:0,0:0:0:0:
180,259,62269,1,6,0:0:0:0:
241,205,62459,1,4,0:0:0:0:
252,187,62554,1,4,0:0:0:0:
267,171,62649,6,0,P|285:151|294:127,1,45,10|8,0:0|0:0,0:0:0:0:
276,55,63029,1,6,0:0:0:0:
215,108,63219,1,8,0:0:0:0:
196,29,63409,1,8,0:0:0:0:
135,82,63598,1,4,0:0:0:0:
116,3,63788,1,4,0:0:0:0:
55,56,63978,1,8,0:0:0:0:
72,134,64168,38,0,P|89:150|109:160,1,45,6|0,0:0|0:0,0:0:0:0:
191,160,64548,2,0,P|211:169|227:185,1,45,4|0,0:0|0:0,0:0:0:0:
285,242,64928,2,0,P|301:257|321:267,1,45,4|0,0:0|0:0,0:0:0:0:
402,267,65307,2,0,P|422:276|438:292,1,45,4|0,0:0|0:0,0:0:0:0:
496,349,65687,5,4,0:0:0:0:
496,349,66257,5,4,0:0:0:0:
485,331,66352,1,4,0:0:0:0:
463,307,66447,6,0,B|440:266|465:227|465:227|451:206|451:206|475:158|451:113,1,202.500007724762,10|0,0:0|0:0,0:0:0:0:
418,21,67206,6,0,P|359:75|365:166,1,168.75,6|0,0:0|0:0,0:0:0:0:
451,206,67966,2,0,P|414:246|360:261,1,112.5,10|2,0:0|0:0,0:0:0:0:
274,209,68535,1,4,0:0:0:0:
166,316,68725,2,0,P|119:345|63:345,2,112.5,6|6|10,0:0|0:0|0:0,0:0:0:0:
166,316,69864,1,2,0:0:0:0:
126,169,70054,1,0,0:0:0:0:
210,225,70244,6,0,B|266:249|315:207|315:207|364:165|421:187,1,225,4|10,0:0|0:0,0:0:0:0:
419,186,71383,1,2,0:0:0:0:
252,156,71573,1,4,0:0:0:0:
345,116,71763,2,0,B|348:80|348:80|360:44|360:44|363:4,2,112.5,6|6|10,0:0|0:0|0:0,0:0:0:0:
345,116,72902,1,6,0:0:0:0:
344,115,73282,38,0,P|306:75|252:61,1,112.5,6|2,0:0|0:0,0:0:0:0:
252,162,73852,1,0,0:0:0:0:
153,47,74042,1,10,0:0:0:0:
153,47,74421,1,2,0:0:0:0:
102,190,74611,1,4,0:0:0:0:
252,162,74801,2,0,B|288:159|288:159|324:147|324:147|364:144,2,112.5,6|6|10,0:0|0:0|0:0,0:0:0:0:
252,162,75940,1,2,0:0:0:0:
180,233,76130,1,0,0:0:0:0:
278,260,76320,6,0,L|336:293,1,56.25,6|0,0:0|0:0,0:0:0:0:
259,263,76700,2,0,L|307:310,1,56.25,6|4,0:0|0:0,0:0:0:0:
371,374,77079,2,0,P|398:326|395:271,1,112.5,10|2,0:0|0:0,0:0:0:0:
318,202,77649,1,8,0:0:0:0:
299,302,77839,1,6,0:0:0:0:
191,194,78029,1,8,0:0:0:0:
172,294,78219,1,6,0:0:0:0:
64,186,78409,5,4,0:0:0:0:
70,161,78504,1,4,0:0:0:0:
91,138,78598,2,0,P|85:103|92:66,1,56.25,10|8,0:0|0:0,0:0:0:0:
183,48,78978,2,0,P|189:83|185:114,1,56.25,6|8,0:0|0:0,0:0:0:0:
91,138,79358,6,0,P|124:184|248:187,1,168.75,6|0,0:0|0:0,0:0:0:0:
300,125,80117,2,0,P|328:172|326:228,1,112.5,10|2,0:0|0:0,0:0:0:0:
251,297,80687,1,4,0:0:0:0:
143,189,80877,2,0,P|96:160|40:160,2,112.5,6|6|10,0:0|0:0|0:0,0:0:0:0:
142,188,82016,1,2,0:0:0:0:
273,109,82206,1,0,0:0:0:0:
241,205,82396,6,0,B|299:222|343:181|343:181|395:138|451:158,1,225,4|10,0:0|0:0,0:0:0:0:
450,159,83535,1,2,0:0:0:0:
507,299,83725,1,4,0:0:0:0:
415,254,83915,2,0,P|370:222|349:171,2,112.5,6|6|10,0:0|0:0|0:0,0:0:0:0:
415,254,85054,1,6,0:0:0:0:
415,254,85434,6,0,P|360:246|309:269,1,112.5,6|2,0:0|0:0,0:0:0:0:
263,360,86004,1,0,0:0:0:0:
225,213,86193,1,10,0:0:0:0:
225,213,86573,1,2,0:0:0:0:
117,320,86763,1,4,0:0:0:0:
263,360,86953,2,0,B|299:357|299:357|335:345|335:345|375:342,2,112.5,6|6|10,0:0|0:0|0:0,0:0:0:0:
263,360,88092,1,6,0:0:0:0:
190,287,88282,1,8,0:0:0:0:
288,260,88472,38,0,L|350:223,1,56.25,6|0,0:0|0:0,0:0:0:0:
408,159,88852,1,6,0:0:0:0:
309,135,89042,1,4,0:0:0:0:
337,232,89231,2,0,P|395:260|457:249,1,112.5,10|4,0:0|0:0,0:0:0:0:
408,159,89801,1,8,0:0:0:0:
337,232,89991,1,6,0:0:0:0:
260,99,90181,1,8,0:0:0:0:
413,98,90371,1,8,0:0:0:0:
337,232,90561,1,4,0:0:0:0:
312,238,90655,1,4,0:0:0:0:
289,259,90750,6,0,P|253:264|224:259,1,56.25,10|6,0:0|0:0,0:0:0:0:
199,164,91130,2,0,P|235:159|264:164,1,56.25,2|8,0:0|0:0,0:0:0:0:
289,258,91510,6,0,P|334:226|356:175,1,112.5,6|6,0:0|0:0,0:0:0:0:
381,77,92079,1,4,0:0:0:0:
255,161,92269,2,0,L|191:178,1,56.25,10|8,0:0|0:0,0:0:0:0:
104,143,92649,1,6,0:0:0:0:
255,161,92839,1,4,0:0:0:0:
279,167,92934,1,4,0:0:0:0:
302,188,93029,2,0,L|365:171,1,56.25,10|8,0:0|0:0,0:0:0:0:
428,101,93409,5,4,0:0:0:0:
434,125,93504,1,8,0:0:0:0:
441,149,93598,1,4,0:0:0:0:
447,174,93693,1,4,0:0:0:0:
468,195,93788,6,0,L|452:254,1,56.25,8|4,0:0|0:0,0:0:0:0:
351,250,94168,2,0,L|366:308,1,56.25,8|4,0:0|0:0,0:0:0:0:
257,196,94548,6,0,P|304:153|355:141,1,112.5,6|6,0:0|0:0,0:0:0:0:
439,188,95117,1,4,0:0:0:0:
384,46,95307,1,10,0:0:0:0:
384,46,95687,37,6,0:0:0:0:
312,117,95877,1,8,0:0:0:0:
287,123,95972,1,8,0:0:0:0:
264,144,96067,2,0,L|201:127,1,56.25,10|8,0:0|0:0,0:0:0:0:
107,129,96447,1,4,0:0:0:0:
140,224,96636,1,4,0:0:0:0:
164,230,96731,1,4,0:0:0:0:
188,251,96826,1,14,0:0:0:0:
281,212,97015,1,6,0:0:0:0:
281,212,97586,6,0,B|290:176|290:176|284:98,1,112.5,6|6,0:0|0:0,0:0:0:0:
212,29,98155,1,0,0:0:0:0:
363,37,98345,2,0,P|384:81|368:157,1,112.5,10|2,0:0|0:0,0:0:0:0:
286,194,98915,1,4,0:0:0:0:
373,245,99105,6,0,B|427:259|427:259|493:253,1,112.5,6|6,0:0|0:0,0:0:0:0:
435,165,99674,1,0,0:0:0:0:
286,192,99864,2,0,P|271:250|293:309,1,112.5,10|2,0:0|0:0,0:0:0:0:
376,346,100434,1,0,0:0:0:0:
373,245,100624,6,0,P|379:149|274:91,1,225,6|10,0:0|0:0,0:0:0:0:
277,90,101763,1,2,0:0:0:0:
286,192,101953,1,4,0:0:0:0:
193,148,102143,2,0,P|208:191|206:222,1,56.25,6|0,0:0|0:0,0:0:0:0:
139,276,102523,2,0,P|124:233|126:202,1,56.25,6|0,0:0|0:0,0:0:0:0:
193,148,102902,5,10,0:0:0:0:
168,141,102997,1,4,0:0:0:0:
144,134,103092,1,8,0:0:0:0:
119,128,103187,1,4,0:0:0:0:
97,106,103282,2,0,L|66:114,3,28.125,8|4|4|4,0:0|0:0|0:0|0:0,0:0:0:0:
33,149,103662,6,0,B|30:185|30:185|37:223|37:223|33:266,1,112.5,6|6,0:0|0:0,0:0:0:0:
105,332,104231,1,0,0:0:0:0:
212,224,104421,2,0,P|227:170|211:117,1,112.5,10|6,0:0|0:0,0:0:0:0:
126,170,104991,1,4,0:0:0:0:
212,224,105181,86,0,B|247:233|247:233|334:226,1,112.5,6|6,0:0|0:0,0:0:0:0:
394,155,105750,1,0,0:0:0:0:
385,306,105940,2,0,P|335:328|280:319,1,112.5,10|2,0:0|0:0,0:0:0:0:
323,227,106510,1,0,0:0:0:0:
384,146,106700,70,0,P|278:137|222:228,1,225,6|10,0:0|0:0,0:0:0:0:
222,228,107839,1,2,0:0:0:0:
323,227,108029,1,4,0:0:0:0:
273,315,108219,1,6,0:0:0:0:
274,163,108409,1,8,0:0:0:0:
361,212,108598,1,6,0:0:0:0:
274,263,108788,1,8,0:0:0:0:
249,269,108883,1,8,0:0:0:0:
226,290,108978,6,0,B|203:282|176:288|176:288|140:299|107:288,1,112.5,10|4,0:0|0:0,0:0:0:0:
79,194,109548,1,4,0:0:0:0:
72,169,109643,1,4,0:0:0:0:
49,146,109738,6,0,P|94:139|150:76,1,112.5,6|0,0:0|0:0,0:0:0:0:
243,95,110307,1,4,0:0:0:0:
267,101,110402,1,4,0:0:0:0:
290,122,110497,2,0,B|325:112|325:112|408:119,1,112.5,10|4,0:0|0:0,0:0:0:0:
472,46,111067,6,0,P|488:68|499:94,1,56.25,14|0,0:0|0:0,0:0:0:0:
470,191,111447,2,0,L|461:223,2,28.125,4|4|10,0:0|0:0|0:0,0:0:0:0:
345,271,111826,1,8,0:0:0:0:
320,264,111921,1,8,0:0:0:0:
297,243,112016,2,0,L|247:229,3,28.125,8|8|4|4,0:0|0:0|0:0|0:0,0:0:0:0:
233,199,112396,2,0,L|183:212,3,28.125,8|8|4|4,0:0|0:0|0:0|0:0,0:0:0:0:
169,242,112776,5,10,0:0:0:0:
97,170,112966,1,6,0:0:0:0:
97,170,113345,2,0,L|61:179,2,28.125,4|4|10,0:0|0:0|0:0,0:0:0:0:
169,97,113725,1,4,0:0:0:0:
260,142,113915,1,4,0:0:0:0:
245,242,114105,1,14,0:0:0:0:
245,242,114485,1,4,0:0:0:0:
269,248,114579,1,4,0:0:0:0:
292,269,114674,1,10,0:0:0:0:
292,269,115054,5,8,0:0:0:0:
298,244,115149,1,8,0:0:0:0:
305,220,115244,1,4,0:0:0:0:
311,195,115339,1,4,0:0:0:0:
333,167,115434,2,0,L|314:96,1,56.25,8|8,0:0|0:0,0:0:0:0:
245,40,115814,38,0,P|218:88|220:143,1,112.5,10|6,0:0|0:0,0:0:0:0:
292,215,116383,1,4,0:0:0:0:
363,286,116573,2,0,P|411:313|466:311,1,112.5,10|6,0:0|0:0,0:0:0:0:
435,214,117143,1,4,0:0:0:0:
363,142,117333,6,0,P|314:114|259:116,1,112.5,10|6,0:0|0:0,0:0:0:0:
292,212,117902,1,4,0:0:0:0:
363,286,118092,1,10,0:0:0:0:
290,203,118282,1,4,0:0:0:0:
378,256,118472,1,10,0:0:0:0:
286,196,118662,2,0,L|260:204,3,18.75,4|4|4|6,0:0|0:0|0:0|0:0,0:0:0:0:
268,201,119231,5,4,0:0:0:0:
268,201,119611,1,4,0:0:0:0:
268,201,119991,1,4,0:0:0:0:
268,201,120371,2,0,L|225:212,2,37.5,6|8|8,0:0|0:0|0:0,0:0:0:0:
315,153,120750,2,0,L|357:164,2,37.5,4|8|4,0:0|0:0|0:0,0:0:0:0:
267,105,121130,5,10,0:0:0:0:
231,92,121257,1,0,0:0:0:0:
194,93,121383,1,0,0:0:0:0:
159,107,121510,1,4,0:0:0:0:
124,121,121636,1,0,0:0:0:0:
87,121,121763,1,0,0:0:0:0:
57,91,121890,6,0,B|75:132|54:167|54:167|66:183|66:183|47:219|64:268,1,168.75,6|0,0:0|0:0,0:0:0:0:
82,349,122649,2,0,P|109:339|131:322,1,56.25,10|0,0:0|0:0,0:0:0:0:
157,225,123029,1,2,0:0:0:0:
85,153,123219,1,0,0:0:0:0:
236,163,123409,2,0,P|258:212|238:285,2,112.5,6|6|10,0:0|0:0|0:0,0:0:0:0:
236,163,124548,1,2,0:0:0:0:
236,163,124928,6,0,B|267:189|315:186|315:186|363:183|398:209,1,168.75,2|0,0:0|0:0,0:0:0:0:
395,308,125687,2,0,P|450:293|495:189,1,168.75,10|0,0:0|0:0,0:0:0:0:
443,111,126447,2,0,P|405:151|394:206,1,112.5,6|6,0:0|0:0,0:0:0:0:
395,307,127016,1,0,0:0:0:0:
401,332,127111,1,0,0:0:0:0:
422,355,127206,2,0,L|353:336,1,56.25,10|0,3:0|3:0,0:0:0:0:
295,268,127586,2,0,L|363:249,1,56.25,6|0,0:0|0:0,0:0:0:0:
421,181,127966,38,0,B|390:154|348:148|316:159|316:159|329:134|326:102,1,168.75,6|0,0:0|0:0,0:0:0:0:
326,3,128725,2,0,P|251:35|225:113,1,168.75,10|0,0:0|0:0,0:0:0:0:
284,196,129485,1,6,0:0:0:0:
184,206,129674,1,0,0:0:0:0:
124,124,129864,1,6,0:0:0:0:
166,31,130054,1,0,0:0:0:0:
184,206,130244,1,10,0:0:0:0:
112,277,130434,2,0,P|160:304|215:301,1,112.5,0|0,0:0|0:0,0:0:0:0:
283,224,131004,6,0,L|297:173,3,28.125,6|0|0|0,0:0|0:0|0:0|0:0,0:0:0:0:
309,126,131383,2,0,L|295:75,3,28.125,6|0|4|0,0:0|0:0|0:0|0:0,0:0:0:0:
373,27,131763,6,0,L|387:78,3,28.125,10|0|0|0,0:0|0:0|0:0|0:0,0:0:0:0:
399,125,132143,2,0,L|385:175,3,28.125,6|0|8|0,0:0|0:0|0:0|0:0,0:0:0:0:
462,223,132523,6,0,L|476:172,3,28.125,6|0|8|0,0:0|0:0|0:0|0:0,0:0:0:0:
488,125,132902,2,0,L|474:74,3,28.125,6|0|4|0,0:0|0:0|0:0|0:0,0:0:0:0:
408,26,133282,6,0,B|371:39|337:28|337:28|322:40|322:40|286:26|236:39,1,168.75,10|8,0:0|0:0,0:0:0:0:
173,108,134042,6,0,B|188:149|173:190|173:190|158:231|173:273,1,168.75,6|0,0:0|0:0,0:0:0:0:
244,345,134801,2,0,P|219:364|196:371,1,56.25,10|0,0:0|0:0,0:0:0:0:
98,341,135181,1,6,0:0:0:0:
76,242,135371,1,0,0:0:0:0:
214,181,135561,2,0,B|250:184|250:184|286:196|286:196|326:199,1,112.5,6|6,0:0|0:0,0:0:0:0:
380,283,136130,1,0,0:0:0:0:
451,212,136320,2,0,L|507:196,1,56.25,10|0,0:0|0:0,0:0:0:0:
450,111,136700,2,0,L|393:95,1,56.25,6|0,0:0|0:0,0:0:0:0:
324,24,137079,38,0,P|254:25|190:115,1,168.75,6|0,0:0|0:0,0:0:0:0:
291,120,137839,2,0,P|356:121|408:79,1,112.5,10|6,0:0|0:0,0:0:0:0:
324,24,138409,1,0,0:0:0:0:
193,95,138598,2,0,B|186:126|195:152|195:152|181:187|196:221,1,112.5,6|6,0:0|0:0,0:0:0:0:
262,277,139168,1,0,0:0:0:0:
164,303,139358,1,10,0:0:0:0:
93,230,139548,1,0,0:0:0:0:
121,132,139738,1,6,0:0:0:0:
220,109,139928,1,0,0:0:0:0:
262,277,140117,6,0,B|307:297|354:270|354:270|373:281|373:281|427:255|488:280,1,225,6|10,0:0|0:0,0:0:0:0:
477,276,141257,1,6,0:0:0:0:
426,187,141447,1,0,0:0:0:0:
453,88,141636,1,6,0:0:0:0:
453,88,142016,1,6,0:0:0:0:
364,139,142206,1,0,0:0:0:0:
265,112,142396,1,10,0:0:0:0:
176,163,142586,1,0,0:0:0:0:
77,136,142776,1,6,0:0:0:0:
26,46,142966,1,0,0:0:0:0:
176,163,143155,6,0,P|144:215|75:240,1,112.5,6|6,0:0|0:0,0:0:0:0:
27,309,143725,1,4,0:0:0:0:
125,332,143915,2,0,B|198:312,1,56.25,10|0,0:0|0:0,0:0:0:0:
251,245,144295,2,0,B|305:259,1,56.25,6|10,0:0|0:0,0:0:0:0:
376,330,144674,6,0,L|364:371,2,37.5,6|8|8,0:0|0:0|0:0,0:0:0:0:
439,266,145054,2,0,L|450:307,2,37.5,10|4|4,0:0|0:0|0:0,0:0:0:0:
375,202,145434,1,6,0:0:0:0:
359,168,145561,1,4,0:0:0:0:
368,133,145687,1,4,0:0:0:0:
399,112,145814,1,6,0:0:0:0:
429,91,145940,1,8,0:0:0:0:
438,55,146067,1,4,0:0:0:0:
420,22,146193,6,0,B|378:71|319:52|319:52|270:32|215:74,1,225,6|10,0:0|0:0,0:0:0:0:
215,74,147333,1,0,0:0:0:0:
178,167,147523,1,4,0:0:0:0:
185,192,147617,1,4,0:0:0:0:
207,216,147712,6,0,B|210:252|210:252|204:289|204:289|208:334,2,112.5,4|6|10,0:0|0:0|0:0,0:0:0:0:
279,143,148662,1,0,0:0:0:0:
370,188,148852,1,2,0:0:0:0:
355,289,149042,1,0,0:0:0:0:
279,143,149231,38,0,B|297:102|344:88|344:88|368:45|419:33,1,168.75,6|4,0:0|0:0,0:0:0:0:
512,145,149991,1,10,0:0:0:0:
512,145,150371,1,0,0:0:0:0:
440,216,150561,1,4,0:0:0:0:
342,189,150750,1,4,0:0:0:0:
342,189,151130,1,6,0:0:0:0:
342,189,151510,2,0,P|308:200|274:199,1,56.25,10|0,0:0|0:0,0:0:0:0:
238,111,151890,2,0,P|272:100|306:101,1,56.25,2|0,0:0|0:0,0:0:0:0:
342,189,152269,5,6,0:0:0:0:
217,271,152459,2,0,B|210:239|230:206|230:206|222:188|222:188|246:149|238:111,1,168.75,0|10,0:0|0:0,0:0:0:0:
239,111,153409,1,2,0:0:0:0:
141,137,153598,1,4,0:0:0:0:
69,208,153788,5,4,0:0:0:0:
167,234,153978,1,0,0:0:0:0:
239,306,154168,1,6,0:0:0:0:
337,280,154358,1,0,0:0:0:0:
444,172,154548,5,10,0:0:0:0:
346,146,154738,1,0,0:0:0:0:
239,39,154928,1,6,0:0:0:0:
386,0,155117,1,8,0:0:0:0:
346,146,155307,6,0,P|347:203|390:258,1,112.5,6|6,0:0|0:0,0:0:0:0:
444,172,155877,1,4,0:0:0:0:
358,46,156067,2,0,L|295:62,1,56.25,10|0,0:0|0:0,0:0:0:0:
231,132,156447,1,6,0:0:0:0:
134,106,156636,1,8,0:0:0:0:
159,203,156826,6,0,L|146:248,2,37.5,6|0|4,0:0|0:0|0:0,0:0:0:0:
222,139,157206,2,0,L|209:93,2,37.5,6|0|4,0:0|0:0|0:0,0:0:0:0:
285,202,157586,1,10,0:0:0:0:
320,214,157712,1,0,0:0:0:0:
357,214,157839,1,0,0:0:0:0:
392,200,157966,1,6,0:0:0:0:
426,186,158092,1,0,0:0:0:0:
463,185,158219,1,0,0:0:0:0:
490,212,158345,38,0,B|480:166|497:138|497:138|473:101|473:101|507:54|483:-5,1,225,6|10,0:0|0:0,0:0:0:0:
391,40,159295,1,0,0:0:0:0:
375,140,159485,1,2,0:0:0:0:
280,176,159674,1,4,0:0:0:0:
263,275,159864,2,0,P|237:267|213:253,1,56.25,6|10,0:0|0:0,0:0:0:0:
180,156,160244,1,6,0:0:0:0:
247,80,160434,2,0,L|236:40,2,28.125,4|4|10,0:0|0:0|0:0,0:0:0:0:
280,176,160814,2,0,L|269:215,2,28.125,4|4|6,0:0|0:0|0:0,0:0:0:0:
351,104,161193,1,10,0:0:0:0:
180,156,161383,6,0,B|173:189|182:218|182:218|192:249|184:284,1,112.5,6|6,0:0|0:0,0:0:0:0:
288,259,161953,1,4,0:0:0:0:
312,252,162048,1,0,0:0:0:0:
337,233,162143,2,0,L|352:174,1,56.25,10|4,0:0|0:0,0:0:0:0:
351,178,162712,2,0,L|340:139,2,28.125,4|0|6,0:0|0:0|0:0,0:0:0:0:
423,250,163092,1,8,0:0:0:0:
325,276,163282,1,6,0:0:0:0:
227,303,163472,2,0,L|238:342,2,28.125,4|4|10,0:0|0:0|0:0,0:0:0:0:
155,231,163852,1,8,0:0:0:0:
253,205,164042,1,6,0:0:0:0:
227,303,164231,1,8,0:0:0:0:
189,147,164421,6,0,B|209:142|222:122|222:122|245:129|245:129|264:112|264:112|322:142|417:128,1,225,6|10,0:3|0:3,0:0:0:0:
464,211,165371,2,0,L|496:202,2,28.125,4|4|6,0:3|0:0|0:0,0:0:0:0:
392,282,165750,1,4,0:0:0:0:
302,235,165940,2,0,L|231:216,1,56.25,6|0,0:3|0:3,0:0:0:0:
175,148,166320,1,6,0:3:0:0:
246,76,166510,2,0,L|237:43,2,28.125,4|4|10,0:3|0:0|0:0,0:0:0:0:
318,148,166890,1,4,0:0:0:0:
271,238,167079,1,6,0:0:0:0:
342,310,167269,1,4,0:0:0:0:
432,264,167459,6,0,L|470:274,2,37.5,6|0|0,0:0|0:0|0:0,0:0:0:0:
368,200,167839,1,6,0:0:0:0:
355,164,167966,1,0,0:0:0:0:
355,127,168092,1,0,0:0:0:0:
366,91,168219,6,0,L|406:52,2,37.5,10|0|0,0:0|0:0|0:0,0:0:0:0:
278,114,168598,1,6,0:0:0:0:
241,107,168725,1,0,0:0:0:0:
209,88,168852,1,0,0:0:0:0:
184,61,168978,6,0,L|169:7,2,37.5,6|8|8,0:0|0:0|0:0,0:0:0:0:
158,149,169358,1,6,0:0:0:0:
134,177,169485,1,8,0:0:0:0:
101,195,169611,1,8,0:0:0:0:
65,203,169738,38,0,L|11:188,2,37.5,6|4|8,0:0|0:0|0:0,0:0:0:0:
128,266,170117,2,0,L|74:280,2,37.5,6|8|4,0:0|0:0|0:0,0:0:0:0:
191,202,170497,6,0,B|230:195|280:211|280:211|322:191|322:191|367:224|422:206|446:162|441:115|418:63|343:57|296:82|282:152|322:191|322:191|360:272|337:347|234:358,1,720,6|2,0:0|0:0,0:0:0:0:
108,114,193852,6,0,L|100:86,2,15,4|4|4,0:0|0:0|0:0,0:0:0:0:
118,123,194042,2,0,L|106:168,1,45,10|8,0:0|0:0,0:0:0:0:
106,167,194611,1,8,0:0:0:0:
191,252,194801,6,0,P|237:276|289:267,1,90,6|2,0:0|0:0,0:0:0:0:
329,214,195371,2,0,L|318:173,1,30,4|4,0:0|0:0,0:0:0:0:
301,165,195561,2,0,L|314:113,1,45,10|8,0:0|0:0,0:0:0:0:
369,64,195940,1,2,0:0:0:0:
426,121,196130,2,0,L|435:156,1,30,4|4,0:0|0:0,0:0:0:0:
453,169,196320,2,0,L|438:223,1,45,10|8,0:0|0:0,0:0:0:0:
354,298,196700,5,6,0:0:0:0:
332,178,196890,1,10,0:0:0:0:
389,120,197079,2,0,P|371:107|350:99,1,45,4|8,0:0|0:0,0:0:0:0:
273,123,197459,1,8,3:0:0:0:
255,202,197649,1,4,0:0:0:0:
367,251,197839,6,0,P|386:237|400:220,1,45,4|0,0:0|0:0,0:0:0:0:
401,139,198219,2,0,P|387:119|370:105,1,45,4|0,0:0|0:0,0:0:0:0:
289,105,198598,2,0,P|269:118|255:135,1,45,4|0,0:0|0:0,0:0:0:0:
255,217,198978,2,0,P|268:236|285:250,1,45,4|0,0:0|0:0,0:0:0:0:
332,178,199358,37,4,0:0:0:0:
332,178,199928,5,4,0:0:0:0:
312,183,200023,1,4,0:0:0:0:
286,207,200117,6,0,B|237:199|195:215|195:215|174:204|174:204|124:227|61:205,1,202.500007724762,10|0,0:0|0:0,0:0:0:0:
17,140,200877,6,0,P|-10:190|28:294,1,168.75,6|0,0:0|0:0,0:0:0:0:
89,211,201636,2,0,P|116:163|114:107,1,112.5,10|2,0:0|0:0,0:0:0:0:
37,41,202206,1,4,0:0:0:0:
189,39,202396,2,0,P|236:68|292:68,2,112.5,6|6|10,0:0|0:0|0:0,0:0:0:0:
189,39,203535,1,2,0:0:0:0:
228,184,203725,1,0,0:0:0:0:
141,140,203915,6,0,B|79:164|34:127|34:127|79:164|83:223,1,225,4|10,0:0|0:0,0:0:0:0:
83,223,205054,1,2,0:0:0:0:
97,48,205244,1,4,0:0:0:0:
141,140,205434,2,0,B|177:137|177:137|213:125|213:125|253:122,2,112.5,6|6|10,0:0|0:0|0:0,0:0:0:0:
141,140,206573,1,6,0:0:0:0:
141,140,206953,6,0,P|196:144|242:177,1,112.5,6|2,0:0|0:0,0:0:0:0:
161,240,207523,1,0,0:0:0:0:
312,250,207712,1,10,0:0:0:0:
312,250,208092,1,2,0:0:0:0:
363,107,208282,1,4,0:0:0:0:
213,135,208472,2,0,B|177:138|177:138|141:150|141:150|101:153,2,112.5,6|6|10,0:0|0:0|0:0,0:0:0:0:
213,135,209611,1,2,0:0:0:0:
285,206,209801,1,0,0:0:0:0:
187,233,209991,38,0,L|129:266,1,56.25,6|0,0:0|0:0,0:0:0:0:
206,236,210371,2,0,L|158:283,1,56.25,6|4,0:0|0:0,0:0:0:0:
165,376,210750,2,0,P|113:361|69:305,1,112.5,10|6,0:0|0:0,0:0:0:0:
182,211,211320,1,8,0:0:0:0:
110,139,211510,1,6,0:0:0:0:
258,170,211700,1,8,0:0:0:0:
207,82,211890,1,6,0:0:0:0:
342,151,212079,6,0,L|333:181,2,18.75,4|4|4,0:0|0:0|0:0,0:0:0:0:
366,126,212269,2,0,P|376:99|379:71,1,56.25,10|4,0:0|0:0,0:0:0:0:
290,21,212649,2,0,P|279:46|276:74,1,56.25,6|8,0:0|0:0,0:0:0:0:
366,126,213029,6,0,P|308:173|205:149,1,168.75,6|0,0:0|0:0,0:0:0:0:
187,64,213788,2,0,P|141:95|119:146,1,112.5,10|6,0:0|0:0,0:0:0:0:
157,240,214358,1,4,0:0:0:0:
297,296,214548,2,0,P|344:267|400:267,2,112.5,6|6|10,0:0|0:0|0:0,0:0:0:0:
297,296,215687,1,2,0:0:0:0:
257,149,215877,1,0,0:0:0:0:
212,240,216067,6,0,B|157:209|156:149|156:149|153:77|77:46,1,225,4|10,0:0|0:0,0:0:0:0:
99,57,217206,1,2,0:0:0:0:
257,149,217396,1,4,0:0:0:0:
200,65,217586,2,0,P|175:89|159:172,2,112.5,6|6|10,0:0|0:0|0:0,0:0:0:0:
200,65,218725,1,6,0:0:0:0:
199,65,219105,6,0,P|223:89|307:105,1,112.5,6|2,0:0|0:0,0:0:0:0:
377,45,219674,1,0,0:0:0:0:
351,194,219864,1,10,0:0:0:0:
351,194,220244,1,2,0:0:0:0:
377,45,220434,1,4,0:0:0:0:
235,97,220624,2,0,B|199:94|199:94|163:82|163:82|123:79,2,112.5,6|6|10,0:0|0:0|0:0,0:0:0:0:
235,97,221763,1,2,0:0:0:0:
261,194,221953,1,8,0:0:0:0:
333,122,222143,6,0,L|405:142,1,56.25,6|8,0:0|0:0,0:0:0:0:
459,209,222523,1,2,0:0:0:0:
485,110,222712,2,0,L|507:116,2,18.75,4|4|4,0:0|0:0|0:0,0:0:0:0:
460,86,222902,38,0,L|379:107,1,56.25,10|4,0:0|0:0,0:0:0:0:
333,172,223282,1,10,0:0:0:0:
306,74,223472,1,4,0:0:0:0:
234,145,223662,2,0,L|181:131,2,37.5,6|8|8,0:0|0:0|0:0,0:0:0:0:
234,235,224042,2,0,L|286:221,2,37.5,14|8|8,0:0|0:0|0:0,0:0:0:0:
170,298,224421,1,14,0:0:0:0:
133,306,224548,1,8,0:0:0:0:
97,297,224674,1,8,0:0:0:0:
69,273,224801,1,6,0:0:0:0:
87,241,224928,1,4,0:0:0:0:
88,204,225054,1,4,0:0:0:0:
72,170,225181,6,0,B|122:185|177:157|177:157|190:177|190:177|233:158|303:178,1,225,6|10,0:0|0:0,0:0:0:0:
281,172,226320,1,2,0:0:0:0:
331,260,226510,1,4,0:0:0:0:
433,261,226700,2,0,P|417:315|359:359,2,112.5,6|6|10,0:0|0:0|0:0,0:0:0:0:
85,53,228219,5,6,0:0:0:0:
85,53,228598,2,0,L|39:40,2,37.5,6|0|0,0:0|0:0|0:0,0:0:0:0:
148,116,228978,2,0,L|102:128,2,37.5,10|0|0,0:0|0:0|0:0,0:0:0:0:
219,44,229358,1,6,0:0:0:0:
246,141,229548,1,0,0:0:0:0:
317,69,229738,6,0,L|363:57,2,37.5,6|0|0,0:0|0:0|0:0,0:0:0:0:
380,132,230117,2,0,L|426:144,2,37.5,6|0|0,0:0|0:0|0:0,0:0:0:0:
443,68,230497,1,10,0:0:0:0:
443,68,230877,1,6,0:0:0:0:
443,68,231257,6,0,P|411:114|415:187,1,112.5,6|2,0:0|0:0,0:0:0:0:
480,242,231826,1,0,0:0:0:0:
328,230,232016,1,10,0:0:0:0:
328,230,232396,1,2,0:0:0:0:
480,242,232586,1,4,0:0:0:0:
415,105,232776,2,0,B|435:75|435:75|463:50|463:50|486:17,2,112.5,6|6|10,0:0|0:0|0:0,0:0:0:0:
415,105,233915,1,2,0:0:0:0:
268,66,234105,1,4,3:0:0:0:
324,151,234295,6,0,L|307:213,1,56.25,6|0,0:0|0:0,0:0:0:0:
237,276,234674,1,6,0:0:0:0:
212,177,234864,1,4,0:0:0:0:
142,312,235054,38,0,L|123:244,1,56.25,10|0,0:0|0:0,0:0:0:0:
104,158,235434,1,6,0:0:0:0:
234,83,235624,1,10,0:0:0:0:
207,180,235814,1,6,0:0:0:0:
352,141,236004,1,10,0:0:0:0:
300,227,236193,1,6,0:0:0:0:
401,230,236383,2,0,L|391:264,2,18.75,4|4|4,0:0|0:0|0:0,0:0:0:0:
425,205,236573,6,0,L|410:150,1,56.25,10|6,0:0|0:0,0:0:0:0:
410,150,237333,6,0,P|349:131|313:86,1,112.5,6|6,0:0|0:0,0:0:0:0:
246,24,237902,1,4,0:0:0:0:
221,30,237997,1,4,0:0:0:0:
198,51,238092,6,0,L|139:35,1,56.25,10|4,0:0|0:0,0:0:0:0:
143,138,238472,2,0,L|201:122,1,56.25,10|4,0:0|0:0,0:0:0:0:
296,100,238852,1,6,0:0:0:0:
257,246,239042,1,8,0:0:0:0:
340,190,239231,1,4,0:0:0:0:
347,290,239421,2,0,L|337:323,2,18.75,4|4|4,0:0|0:0|0:0,0:0:0:0:
371,265,239611,6,0,L|355:207,1,56.25,10|8,0:0|0:0,0:0:0:0:
428,138,239991,1,4,0:0:0:0:
377,50,240181,2,0,L|405:42,2,18.75,4|4|4,0:0|0:0|0:0,0:0:0:0:
352,74,240371,6,0,L|288:56,1,56.25,10|8,0:0|0:0,0:0:0:0:
199,33,240750,1,8,0:0:0:0:
111,84,240940,1,4,0:0:0:0:
199,134,241130,1,4,0:0:0:0:
111,185,241320,1,8,0:0:0:0:
199,235,241510,1,8,0:0:0:0:
111,286,241700,1,4,0:0:0:0:
199,336,241890,1,4,0:0:0:0:
345,295,242079,1,8,0:0:0:0:
237,189,242269,1,4,0:0:0:0:
383,148,242459,1,4,0:0:0:0:
388,123,242554,1,0,0:0:0:0:
412,98,242649,38,0,L|348:81,1,56.25,8|6,0:0|0:0,0:0:0:0:
285,156,243029,2,0,L|221:173,1,56.25,0|0,0:0|0:0,0:0:0:0:
158,98,243409,6,0,P|131:146|226:273,1,225,6|10,0:0|0:0,0:0:0:0:
214,271,244548,1,2,0:0:0:0:
359,231,244738,1,4,0:0:0:0:
269,186,244928,6,0,P|304:146|365:129,2,112.5,6|6|10,0:0|0:0|0:0,0:0:0:0:
359,231,245877,1,0,0:0:0:0:
275,288,246067,1,2,0:0:0:0:
365,333,246257,1,0,0:0:0:0:
218,371,246447,6,0,B|166:341|111:346|111:346|156:320|180:249,1,225,6|10,0:0|0:0,0:0:0:0:
177,256,247586,1,2,0:0:0:0:
69,148,247776,1,4,0:0:0:0:
170,154,247966,2,0,B|206:157|206:157|242:169|242:169|282:172,2,112.5,6|6|10,0:0|0:0|0:0,0:0:0:0:
69,148,248915,1,8,0:0:0:0:
115,239,249105,1,6,0:0:0:0:
14,233,249295,1,10,0:0:0:0:
60,323,249485,5,6,0:0:0:0:
160,329,249674,2,0,P|201:291|192:174,1,168.75,0|10,0:0|0:0,0:0:0:0:
199,184,250624,1,2,0:0:0:0:
270,112,250814,1,4,0:0:0:0:
367,137,251004,6,0,L|383:198,1,56.25,6|0,0:0|0:0,0:0:0:0:
381,292,251383,1,6,0:0:0:0:
310,364,251573,1,0,0:0:0:0:
213,339,251763,2,0,L|196:277,1,56.25,10|0,0:0|0:0,0:0:0:0:
126,212,252143,1,2,0:0:0:0:
233,104,252333,1,0,0:0:0:0:
132,111,252523,38,0,P|68:129|30:183,1,112.5,6|6,0:0|0:0,0:0:0:0:
39,263,253092,1,4,0:0:0:0:
45,287,253187,1,0,0:0:0:0:
64,308,253282,2,0,P|119:306|169:330,1,112.5,10|6,0:0|0:0,0:0:0:0:
277,223,253852,1,8,0:0:0:0:
205,151,254042,1,6,0:0:0:0:
355,163,254231,1,8,0:0:0:0:
304,75,254421,1,6,0:0:0:0:
404,75,254611,2,0,L|437:65,2,18.75,4|4|4,0:0|0:0|0:0,0:0:0:0:
379,98,254801,6,0,L|362:159,1,56.25,10|8,0:0|0:0,0:0:0:0:
292,225,255181,2,0,L|308:285,1,56.25,6|8,0:0|0:0,0:0:0:0:
378,351,255561,6,0,P|316:380|258:368,1,112.5,6|6,0:0|0:0,0:0:0:0:
207,298,256130,1,4,0:0:0:0:
378,351,256320,1,10,0:0:0:0:
378,351,256700,1,6,0:0:0:0:
485,243,256890,1,8,0:0:0:0:
384,243,257079,1,6,0:0:0:0:
382,91,257269,1,8,0:0:0:0:
310,162,257459,1,6,0:0:0:0:
201,56,257649,2,0,L|207:29,2,18.75,4|4|4,0:0|0:0|0:0,0:0:0:0:
176,80,257839,6,0,L|191:138,1,56.25,10|8,0:0|0:0,0:0:0:0:
262,206,258219,2,0,L|246:264,1,56.25,6|8,0:0|0:0,0:0:0:0:
318,331,258598,6,0,P|297:348|270:358,1,56.25,14|0,0:0|0:0,0:0:0:0:
173,329,258978,2,0,L|142:321,2,28.125,4|4|10,0:0|0:0|0:0,0:0:0:0:
247,260,259358,2,0,L|277:252,2,28.125,4|4|10,0:0|0:0|0:0,0:0:0:0:
174,187,259738,1,10,0:0:0:0:
245,115,259928,1,8,0:0:0:0:
93,126,260117,6,0,P|74:173|85:238,1,112.5,14|8,0:0|0:0,0:0:0:0:
154,304,260687,2,0,L|143:344,2,28.125,4|4|10,0:0|0:0|0:0,0:0:0:0:
226,231,261067,2,0,L|215:190,2,28.125,4|4|10,0:0|0:0|0:0,0:0:0:0:
298,303,261447,1,4,0:0:0:0:
405,195,261636,38,0,B|392:158|355:145|355:145|360:132|360:132|313:116|298:59,1,168.75,6|4,0:0|0:0,0:0:0:0:
281,176,262396,2,0,P|258:228|193:267,1,112.5,10|0,0:0|0:0,0:0:0:0:
180,165,262966,1,4,0:0:0:0:
303,76,263155,1,6,0:0:0:0:
164,15,263345,1,8,0:0:0:0:
105,97,263535,1,6,0:0:0:0:
180,165,263725,1,4,0:0:0:0:
173,189,263820,1,4,0:0:0:0:
152,212,263915,6,0,P|167:264|154:317,2,84.375,10|0|8,0:0|0:0|0:0,0:0:0:0:
44,104,264674,6,0,P|96:119|151:103,1,112.5,6|6,0:0|0:0,0:0:0:0:
222,31,265244,1,4,0:0:0:0:
293,102,265434,2,0,B|298:177|298:177|289:213,1,112.5,10|6,0:0|0:0,0:0:0:0:
182,320,266004,1,8,0:0:0:0:
282,315,266193,6,0,L|322:325,2,37.5,6|8|8,0:0|0:0|0:0,0:0:0:0:
345,251,266573,2,0,L|385:240,2,37.5,10|8|4,0:0|0:0|0:0,0:0:0:0:
408,314,266953,1,6,0:0:0:0:
438,293,267079,1,8,0:0:0:0:
456,260,267206,1,4,0:0:0:0:
456,223,267333,1,10,0:0:0:0:
439,190,267459,1,0,0:0:0:0:
409,169,267586,1,4,0:0:0:0:
372,164,267712,6,0,B|282:209|201:132|201:132|146:155|113:218|113:218|65:211|48:179|48:179|66:145|92:110|128:79|162:58|197:38|226:46|249:74|262:88|278:99,1,675,6|0,0:0|0:0,0:0:0:0:
372,164,270750,22,0,P|381:204|375:235,1,67.5000025749207,2|0,0:0|0:0,0:0:0:0:
368,239,271510,2,0,P|359:279|365:310,1,67.5000025749207,2|0,0:0|0:0,0:0:0:0:
446,344,272269,2,0,P|455:304|449:273,1,67.5000025749207,2|0,0:0|0:0,0:0:0:0:
442,269,273029,2,0,P|433:229|439:198,1,67.5000025749207,2|0,0:0|0:0,0:0:0:0:
476,132,273788,6,0,P|436:123|405:129,1,67.5000025749207,2|0,0:0|0:0,0:0:0:0:
401,136,274548,1,2,0:0:0:0:
344,194,274928,1,2,0:0:0:0:
266,174,275307,1,2,0:0:0:0:
245,97,275687,101,0,0:0:0:0:
187,39,276067,1,2,0:0:0:0:
164,116,276447,1,0,0:0:0:0:
105,58,276826,6,0,P|84:97|85:134,1,67.5000025749208,2|0,0:0|0:0,0:0:0:0:
95,131,277586,1,2,0:0:0:0:
120,156,278375,1,2,0:0:0:0:
99,176,279164,102,0,P|93:224|99:270,1,90,2|2,0:0|0:0,0:0:0:0:
123,290,280313,2,0,L|130:303,1,15,0|2,0:0|0:0,0:0:0:0:
256,192,280555,12,0,283647,0:0:0:0:
