osu file format v14

[General]
AudioFilename: audio.mp3
AudioLeadIn: 0
PreviewTime: 66209
Countdown: 0
SampleSet: Soft
StackLeniency: 0.2
Mode: 0
LetterboxInBreaks: 0
WidescreenStoryboard: 0

[Editor]
Bookmarks: 39864,67206,79358,91510,97586,109738,121890,134042,146193,158345,173535,200877,213029,225181,237333,243409,255561,270750,288980
DistanceSpacing: 0.8
BeatDivisor: 8
GridSize: 4
TimelineZoom: 4.099998

[Metadata]
Title:NO RAIN, NO RAINBOW
TitleUnicode:NO RAIN, NO RAINBOW
Artist:BABYMETAL
ArtistUnicode:BABYMETAL
Creator:Hysteria
Version:Kagirinaku
Source:
Tags:j-pop j-rock pop rock kawaii heavy metal resistance su-metal yuimetal moametal lazyboy007 tokiko nao tomori naotoshi Joe Castle yShadowXOP_
BeatmapID:1238425
BeatmapSetID:585019

[Difficulty]
HPDrainRate:6.9
CircleSize:4
OverallDifficulty:8.5
ApproachRate:9
SliderMultiplier:2.1
SliderTickRate:2

[Events]
//Background and Video events
0,0,"BG_NO_RAIN_NO_RAINBOW_SCALED_FIXED.jpg",0,0
//Break Periods
//Storyboard Layer 0 (Background)
//Storyboard Layer 1 (Fail)
//Storyboard Layer 2 (Pass)
//Storyboard Layer 3 (Foreground)
//Storyboard Sound Samples

[TimingPoints]
3433,743.494423791822,4,2,10,30,1,0
3433,-133.333333333333,4,2,10,30,0,0
4920,759.493670886076,4,2,10,30,1,0
6438,769.230769230769,4,2,10,30,1,0
7976,757.575757575758,4,2,10,30,1,0
11006,758.293838862559,4,2,10,30,1,0
11742,784.313725490196,4,2,10,30,1,0
12526,756.620428751576,4,2,10,30,1,0
14039,761.421319796954,4,2,10,30,1,0
15561,759.493670886076,4,2,10,30,1,0
15561,-100,4,2,10,30,0,0
36826,-100,4,3,5,45,0,0
37586,-100,4,3,7,45,0,0
37776,-100,4,3,5,45,0,0
37965,-100,4,3,12,45,0,0
38535,-100,4,3,12,45,0,0
38725,-100,4,3,11,45,0,0
39295,-100,4,3,10,45,0,0
39674,-100,4,3,1,45,0,0
39864,-100,4,3,2,45,0,0
48978,-133.333333333333,4,3,2,45,0,0
49738,-100,4,3,2,45,0,0
52016,-100,4,3,3,45,0,0
54295,-100,4,3,2,45,0,0
59611,-100,4,3,5,45,0,0
59991,-100,4,3,7,45,0,0
60750,-100,4,3,10,45,0,0
61130,-100,4,3,2,45,0,0
61510,-100,4,3,5,45,0,0
61890,-100,4,3,2,45,0,0
62269,-100,4,3,5,45,0,0
62459,-100,4,3,2,45,0,0
63029,-100,4,3,5,45,0,0
63219,-100,4,3,12,45,0,0
63409,-100,4,3,11,45,0,0
63598,-100,4,3,12,45,0,0
63788,-100,4,3,11,45,0,0
63978,-100,4,3,11,45,0,0
64168,-100,4,3,8,55,0,0
64548,-100,4,3,8,60,0,0
64738,-100,4,3,1,45,0,0
64927,-100,4,3,9,65,0,0
65117,-100,4,3,1,45,0,0
65307,-100,4,3,9,70,0,0
65497,-100,4,3,1,45,0,0
65687,-100,4,3,9,75,0,0
66257,-100,4,3,1,45,0,0
66447,-66.6666666666667,4,3,2,60,0,1
67111,-66.6666666666667,4,3,1,60,0,0
67206,-80,4,3,1,60,0,1
67965,-80,4,3,2,60,0,1
68345,-80,4,3,5,60,0,1
68535,-80,4,3,2,60,0,1
68725,-80,4,3,7,60,0,1
69105,-80,4,3,5,60,0,1
69484,-80,4,3,2,60,0,1
69864,-80,4,3,5,60,0,1
70244,-80,4,3,2,60,0,1
71383,-80,4,3,5,60,0,1
71573,-80,4,3,2,60,0,1
71763,-80,4,3,7,60,0,1
72143,-80,4,3,5,60,0,1
72522,-80,4,3,2,60,0,1
72902,-80,4,3,5,60,0,1
73282,-80,4,3,1,60,0,1
73662,-80,4,3,5,60,0,1
74041,-80,4,3,2,60,0,1
74421,-80,4,3,5,60,0,1
74611,-80,4,3,2,60,0,1
74801,-80,4,3,7,60,0,1
75181,-80,4,3,5,60,0,1
75560,-80,4,3,2,60,0,1
75940,-80,4,3,5,60,0,1
76320,-80,4,3,1,60,0,1
76700,-80,4,3,5,60,0,1
76890,-80,4,3,1,60,0,1
77079,-80,4,3,2,60,0,1
77459,-80,4,3,5,60,0,1
77649,-80,4,3,2,60,0,1
77839,-80,4,3,1,60,0,1
78219,-80,4,3,5,60,0,1
78409,-80,4,3,1,60,0,1
78597,-80,4,3,2,60,0,1
78977,-80,4,3,5,60,0,1
79167,-80,4,3,2,60,0,1
79263,-80,4,3,2,60,0,0
79358,-80,4,3,1,60,0,1
80117,-80,4,3,2,60,0,1
80497,-80,4,3,5,60,0,1
80687,-80,4,3,2,60,0,1
80877,-80,4,3,7,60,0,1
81257,-80,4,3,5,60,0,1
81636,-80,4,3,2,60,0,1
82016,-80,4,3,5,60,0,1
82396,-80,4,3,2,60,0,1
83535,-80,4,3,5,60,0,1
83725,-80,4,3,2,60,0,1
83915,-80,4,3,7,60,0,1
84295,-80,4,3,5,60,0,1
84674,-80,4,3,2,60,0,1
85054,-80,4,3,5,60,0,1
85434,-80,4,3,1,60,0,1
85814,-80,4,3,5,60,0,1
86193,-80,4,3,2,60,0,1
86573,-80,4,3,5,60,0,1
86763,-80,4,3,2,60,0,1
86953,-80,4,3,7,60,0,1
87333,-80,4,3,5,60,0,1
87712,-80,4,3,2,60,0,1
88092,-80,4,3,5,60,0,1
88282,-80,4,3,2,60,0,1
88472,-80,4,3,1,60,0,1
89231,-80,4,3,2,60,0,1
89421,-80,4,3,10,60,0,1
89801,-80,4,3,1,60,0,1
90750,-80,4,3,2,60,0,1
90940,-80,4,3,1,60,0,1
91130,-80,4,3,5,60,0,1
91320,-80,4,3,2,60,0,1
91415,-80,4,3,1,60,0,0
91510,-80,4,3,1,60,0,1
91890,-80,4,3,5,60,0,1
92269,-80,4,3,2,60,0,1
92649,-80,4,3,5,60,0,1
93029,-80,4,3,2,60,0,1
93409,-64.5161290322581,4,3,1,60,0,1
93503,-64.5161290322581,4,3,12,60,0,1
93788,-80,4,3,11,60,0,1
94168,-80,4,3,10,60,0,1
94548,-80,4,3,1,60,0,1
94927,-80,4,3,5,60,0,1
95307,-80,4,3,2,60,0,1
95687,-80,4,3,5,60,0,1
95877,-80,4,3,2,60,0,1
96921,-80,4,3,1,60,0,0
97016,-200,4,3,1,60,0,1
97491,-200,4,3,1,5,0,1
97586,-100,4,3,3,45,0,0
97965,-100,4,3,5,45,0,0
98345,-100,4,3,2,45,0,0
98725,-100,4,3,5,45,0,0
99105,-100,4,3,7,45,0,0
99484,-100,4,3,5,45,0,0
99864,-100,4,3,2,45,0,0
100244,-100,4,3,5,45,0,0
100624,-100,4,3,7,45,0,0
101003,-100,4,3,5,45,0,0
101383,-100,4,3,2,45,0,0
101763,-100,4,3,5,45,0,0
102143,-100,4,3,7,45,0,0
102522,-100,4,3,5,45,0,0
102902,-100,4,3,2,45,0,0
102997,-100,4,3,12,45,0,0
103093,-100,4,3,11,45,0,0
103282,-100,4,3,10,45,0,0
103472,-100,4,3,3,45,0,0
104041,-100,4,3,5,45,0,0
104421,-100,4,3,2,45,0,0
104801,-100,4,3,5,45,0,0
105181,-100,4,3,7,45,0,0
105560,-100,4,3,5,45,0,0
105940,-100,4,3,2,45,0,0
106320,-100,4,3,5,45,0,0
106700,-100,4,3,7,45,0,0
107079,-100,4,3,5,45,0,0
107459,-100,4,3,2,45,0,0
107839,-100,4,3,5,45,0,0
108219,-100,4,3,7,45,0,0
108598,-100,4,3,3,45,0,0
108978,-100,4,3,2,45,0,0
109358,-100,4,3,10,45,0,0
109548,-100,4,3,2,45,0,0
109738,-100,4,3,13,80,0,0
109927,-80,4,3,3,45,0,0
110497,-80,4,3,2,45,0,0
111067,-80,4,3,3,45,0,0
111636,-80,4,3,2,45,0,0
112016,-80,4,3,11,45,0,0
112396,-80,4,3,10,45,0,0
112776,-80,4,3,2,45,0,0
112965,-80,4,3,3,45,0,0
113535,-80,4,3,2,45,0,0
114105,-80,4,3,3,45,0,0
114674,-66.6666666666667,4,3,2,45,0,0
115054,-80,4,3,10,45,0,0
115434,-80,4,3,3,45,0,0
116193,-80,4,3,5,45,0,0
116573,-80,4,3,2,45,0,0
116953,-80,4,3,5,45,0,0
117333,-80,4,3,3,45,0,0
117712,-80,4,3,5,45,0,0
118092,-80,4,3,2,45,0,0
118472,-80,4,3,3,45,0,0
118852,-80,4,3,13,80,0,0
120371,-80,4,3,8,45,0,0
120497,-80,4,3,3,45,0,0
120750,-80,4,3,11,45,0,0
120877,-80,4,3,10,45,0,0
121130,-50,4,3,2,45,0,0
121225,-50,4,3,10,45,0,0
121510,-50,4,3,11,45,0,0
121890,-80,4,3,8,80,0,0
122459,-80,4,3,3,45,0,0
122649,-80,4,3,2,45,0,0
123029,-80,4,3,5,45,0,0
123409,-80,4,3,7,45,0,0
123788,-80,4,3,5,45,0,0
124168,-80,4,3,2,45,0,0
124548,-80,4,3,5,45,0,0
124927,-80,4,3,7,45,0,0
125687,-80,4,3,2,45,0,0
126352,-80,4,3,2,5,0,0
126446,-66.6666666666667,4,3,7,45,0,0
126826,-66.6666666666667,4,3,5,45,0,0
127016,-80,4,3,2,45,0,0
127586,-80,4,3,5,45,0,0
127965,-80,4,3,1,45,0,0
128725,-80,4,3,2,45,0,0
129484,-80,4,3,7,45,0,0
129864,-80,4,3,5,45,0,0
130244,-80,4,3,2,45,0,0
130624,-80,4,3,5,45,0,0
131003,-138.888888888889,4,3,1,45,0,0
131383,-138.888888888889,4,3,5,45,0,0
131573,-69.4444444444444,4,3,5,45,0,0
131763,-138.888888888889,4,3,2,45,0,0
132143,-138.888888888889,4,3,5,45,0,0
132333,-69.4444444444444,4,3,2,45,0,0
132522,-138.888888888889,4,3,1,45,0,0
132902,-138.888888888889,4,3,5,45,0,0
133092,-93.4579439252336,4,3,2,45,0,0
133662,-93.4579439252336,4,3,5,45,0,0
133852,-93.4579439252336,4,3,2,45,0,0
134041,-80,4,3,9,80,0,0
134611,-80,4,3,1,45,0,0
134801,-80,4,3,2,45,0,0
135181,-80,4,3,5,45,0,0
135560,-80,4,3,7,45,0,0
135940,-80,4,3,5,45,0,0
136320,-80,4,3,2,45,0,0
136700,-80,4,3,5,45,0,0
137079,-74.0740740740741,4,3,1,45,0,0
137839,-74.0740740740741,4,3,2,45,0,0
138219,-74.0740740740741,4,3,5,45,0,0
138598,-74.0740740740741,4,3,7,45,0,0
138978,-74.0740740740741,4,3,5,45,0,0
139358,-74.0740740740741,4,3,2,45,0,0
139738,-74.0740740740741,4,3,5,45,0,0
140117,-80,4,3,1,45,0,0
140877,-80,4,3,2,45,0,0
141257,-80,4,3,5,45,0,0
141636,-80,4,3,7,45,0,0
142016,-80,4,3,5,45,0,0
142396,-80,4,3,2,45,0,0
142776,-80,4,3,5,45,0,0
143155,-68.9655172413793,4,3,1,45,0,0
143535,-68.9655172413793,4,3,5,45,0,0
143915,-68.9655172413793,4,3,2,45,0,0
144295,-68.9655172413793,4,3,5,45,0,0
144484,-68.9655172413793,4,3,2,45,0,0
144674,-68.9655172413793,4,3,3,45,0,0
145054,-68.9655172413793,4,3,2,45,0,0
145434,-68.9655172413793,4,3,1,45,0,0
145560,-68.9655172413793,4,3,12,45,0,0
145687,-68.9655172413793,4,3,11,45,0,0
145814,-68.9655172413793,4,3,2,45,0,0
145940,-68.9655172413793,4,3,10,45,0,0
146193,-59.8802395209581,4,3,8,80,0,0
146573,-59.8802395209581,4,3,5,45,0,0
146953,-59.8802395209581,4,3,2,45,0,0
148092,-59.8802395209581,4,3,5,45,0,0
148472,-59.8802395209581,4,3,2,45,0,0
148852,-59.8802395209581,4,3,5,45,0,0
149231,-59.8802395209581,4,3,3,45,0,0
149991,-59.8802395209581,4,3,2,45,0,0
151130,-59.8802395209581,4,3,5,45,0,0
151510,-59.8802395209581,4,3,2,45,0,0
151890,-59.8802395209581,4,3,5,45,0,0
152269,-59.8802395209581,4,3,3,45,0,0
153029,-59.8802395209581,4,3,2,45,0,0
153409,-59.8802395209581,4,3,5,45,0,0
153598,-59.8802395209581,4,3,2,45,0,0
154168,-59.8802395209581,4,3,5,45,0,0
154548,-59.8802395209581,4,3,2,45,0,0
154927,-59.8802395209581,4,3,5,45,0,0
155117,-59.8802395209581,4,3,2,45,0,0
155307,-59.8802395209581,4,3,3,45,0,0
155687,-59.8802395209581,4,3,5,45,0,0
156067,-59.8802395209581,4,3,2,45,0,0
156446,-59.8802395209581,4,3,5,45,0,0
156636,-59.8802395209581,4,3,2,45,0,0
156826,-59.8802395209581,4,3,3,45,0,0
157206,-59.8802395209581,4,3,5,45,0,0
157586,-50,4,3,2,45,0,0
157965,-50,4,3,5,45,0,0
158345,-59.8802395209581,4,3,9,80,0,0
158915,-59.8802395209581,4,3,1,45,0,0
159105,-59.8802395209581,4,3,2,45,0,0
159484,-59.8802395209581,4,3,5,45,0,0
159864,-59.8802395209581,4,3,7,45,0,0
160054,-59.8802395209581,4,3,2,45,0,0
160244,-59.8802395209581,4,3,5,45,0,0
160624,-59.8802395209581,4,3,2,45,0,0
161003,-59.8802395209581,4,3,5,45,0,0
161193,-59.8802395209581,4,3,2,45,0,0
161383,-59.8802395209581,4,3,1,45,0,0
161763,-59.8802395209581,4,3,5,45,0,0
162143,-59.8802395209581,4,3,2,45,0,0
162522,-59.8802395209581,4,3,5,45,0,0
162902,-59.8802395209581,4,3,1,45,0,0
163282,-59.8802395209581,4,3,5,45,0,0
163662,-59.8802395209581,4,3,2,45,0,0
164041,-59.8802395209581,4,3,5,45,0,0
164231,-59.8802395209581,4,3,2,45,0,0
164421,-59.8802395209581,4,3,1,45,0,0
165181,-59.8802395209581,4,3,2,45,0,0
165560,-59.8802395209581,4,3,5,45,0,0
165940,-59.8802395209581,4,3,1,45,0,0
166320,-59.8802395209581,4,3,5,45,0,0
166700,-59.8802395209581,4,3,2,45,0,0
167079,-59.8802395209581,4,3,5,45,0,0
167459,-59.8802395209581,4,3,1,45,0,0
167839,-59.8802395209581,4,3,5,45,0,0
168219,-59.8802395209581,4,3,2,45,0,0
168598,-59.8802395209581,4,3,5,45,0,0
168978,-59.8802395209581,4,3,1,45,0,0
169358,-59.8802395209581,4,3,5,45,0,0
169484,-59.8802395209581,4,3,2,45,0,0
169738,-59.8802395209581,4,3,2,45,0,0
169864,-59.8802395209581,4,3,12,45,0,0
169991,-59.8802395209581,4,3,11,45,0,0
170117,-59.8802395209581,4,3,5,45,0,0
170244,-59.8802395209581,4,3,10,45,0,0
170497,-300,4,3,8,80,0,0
170545,-300,4,3,8,5,0,0
173298,-300,4,3,8,80,0,0
173345,-300,4,2,10,5,0,0
173535,-100,4,2,10,30,0,0
193852,-100,4,3,2,45,0,0
194801,-100,4,3,1,45,0,0
195181,-100,4,3,5,45,0,0
195560,-100,4,3,2,45,0,0
195940,-100,4,3,5,45,0,0
196320,-100,4,3,2,45,0,0
196700,-100,4,3,5,45,0,0
196890,-100,4,3,2,45,0,0
197079,-100,4,3,12,45,0,0
197269,-100,4,3,11,45,0,0
197459,-100,4,3,10,45,0,0
197839,-100,4,3,9,55,0,0
198155,-100,4,3,9,5,0,0
198219,-83.3333333333333,4,3,9,65,0,0
198535,-83.3333333333333,4,3,9,5,0,0
198598,-71.4285714285714,4,3,9,75,0,0
198915,-71.4285714285714,4,3,9,5,0,0
198978,-62.5,4,3,9,85,0,0
199295,-62.5,4,3,9,5,0,0
199358,-66.6666666666667,4,3,9,95,0,0
199738,-66.6666666666667,4,3,9,5,0,0
199927,-66.6666666666667,4,3,2,45,0,0
200117,-66.6666666666667,4,3,2,60,0,1
200782,-66.6666666666667,4,3,1,60,0,0
200877,-80,4,3,1,60,0,1
201636,-80,4,3,2,60,0,1
202016,-80,4,3,5,60,0,1
202396,-80,4,3,7,60,0,1
202776,-80,4,3,5,60,0,1
203155,-80,4,3,2,60,0,1
203535,-80,4,3,5,60,0,1
204674,-80,4,3,2,60,0,1
205054,-80,4,3,5,60,0,1
205434,-80,4,3,7,60,0,1
205814,-80,4,3,5,60,0,1
206193,-80,4,3,2,60,0,1
206573,-80,4,3,5,60,0,1
206953,-80,4,3,1,60,0,1
207333,-80,4,3,5,60,0,1
207712,-80,4,3,2,60,0,1
208092,-80,4,3,5,60,0,1
208472,-80,4,3,7,60,0,1
208852,-80,4,3,5,60,0,1
209231,-80,4,3,2,60,0,1
209611,-80,4,3,5,60,0,1
209991,-80,4,3,1,60,0,1
210371,-80,4,3,5,60,0,1
210750,-80,4,3,2,60,0,1
211130,-80,4,3,5,60,0,1
211320,-80,4,3,2,60,0,1
211510,-80,4,3,1,60,0,1
211890,-80,4,3,5,60,0,1
212269,-80,4,3,2,60,0,1
212649,-80,4,3,5,60,0,1
212839,-80,4,3,2,60,0,1
212934,-80,4,3,1,60,0,0
213029,-80,4,3,1,60,0,1
213788,-80,4,3,2,60,0,1
214168,-80,4,3,5,60,0,1
214548,-80,4,3,7,60,0,1
214927,-80,4,3,5,60,0,1
215307,-80,4,3,2,60,0,1
215687,-80,4,3,5,60,0,1
216826,-80,4,3,2,60,0,1
217206,-80,4,3,5,60,0,1
217586,-80,4,3,7,60,0,1
217965,-80,4,3,5,60,0,1
218345,-80,4,3,2,60,0,1
218725,-80,4,3,5,60,0,1
219105,-80,4,3,1,60,0,1
219484,-80,4,3,5,60,0,1
219864,-80,4,3,2,60,0,1
220244,-80,4,3,5,60,0,1
220624,-80,4,3,7,60,0,1
221003,-80,4,3,5,60,0,1
221383,-80,4,3,2,60,0,1
221763,-80,4,3,5,60,0,1
221953,-80,4,3,2,60,0,1
222143,-80,4,3,1,60,0,1
222522,-80,4,3,5,60,0,1
222902,-80,4,3,2,60,0,1
223282,-80,4,3,2,60,0,1
223472,-80,4,3,11,60,0,1
223662,-50,4,3,1,60,0,1
224041,-50,4,3,5,60,0,1
224421,-64.9350649350649,4,3,2,60,0,1
224548,-64.9350649350649,4,3,10,60,0,1
224801,-64.9350649350649,4,3,5,60,0,1
224927,-64.9350649350649,4,3,10,60,0,1
225086,-80,4,3,2,60,0,0
225181,-58.8235294117647,4,3,1,60,0,1
225940,-58.8235294117647,4,3,2,60,0,1
226320,-58.8235294117647,4,3,5,60,0,1
226700,-80,4,3,7,60,0,1
227079,-80,4,3,5,60,0,1
227459,-80,4,3,2,60,0,1
227839,-80,4,3,5,60,0,1
228219,-80,4,3,2,60,0,1
228598,-80,4,3,5,60,0,1
228978,-80,4,3,2,60,0,1
229358,-80,4,3,5,60,0,1
229738,-80,4,3,7,60,0,1
230117,-80,4,3,5,60,0,1
230497,-80,4,3,2,60,0,1
230561,-80,4,2,0,20,0,1
230877,-80,4,3,5,60,0,1
230940,-80,4,2,0,20,0,1
231257,-80,4,3,1,60,0,1
231636,-80,4,3,5,60,0,1
232016,-80,4,3,2,60,0,1
232396,-80,4,3,5,60,0,1
232776,-80,4,3,7,60,0,1
233155,-80,4,3,5,60,0,1
233535,-80,4,3,2,60,0,1
233915,-80,4,3,5,60,0,1
234105,-80,4,3,2,60,0,1
234295,-80,4,3,1,60,0,1
235054,-80,4,3,2,60,0,1
235434,-80,4,3,5,60,0,1
235624,-80,4,3,2,60,0,1
235814,-80,4,3,1,60,0,1
236003,-80,4,3,2,60,0,1
236193,-80,4,3,5,60,0,1
236573,-80,4,3,2,60,0,1
236763,-80,4,3,1,60,0,1
237238,-80,4,3,2,60,0,0
237333,-80,4,3,1,60,0,1
238092,-80,4,3,2,60,0,1
238852,-80,4,3,1,60,0,1
239611,-80,4,3,2,60,0,1
240371,-80,4,3,2,60,0,1
240560,-80,4,3,12,60,0,1
240750,-80,4,3,11,60,0,1
240940,-80,4,3,12,60,0,1
241130,-80,4,3,11,60,0,1
241510,-80,4,3,10,60,0,1
241700,-80,4,3,11,60,0,1
241890,-80,4,3,10,60,0,1
242269,-80,4,3,1,60,0,1
242459,-80,4,3,10,60,0,1
242554,-80,4,3,1,60,0,1
242649,-80,4,3,1,60,0,1
242744,-80,4,3,2,60,0,0
242839,-80,4,3,1,60,0,1
243409,-80,4,3,3,45,0,0
244168,-80,4,3,2,45,0,0
244548,-80,4,3,5,45,0,0
244927,-80,4,3,7,45,0,0
245307,-80,4,3,5,45,0,0
245687,-80,4,3,2,45,0,0
246067,-80,4,3,5,45,0,0
246446,-80,4,3,7,45,0,0
247206,-80,4,3,2,45,0,0
247586,-80,4,3,5,45,0,0
247965,-80,4,3,7,45,0,0
248345,-80,4,3,5,45,0,0
248725,-80,4,3,2,45,0,0
249105,-80,4,3,5,45,0,0
249295,-80,4,3,2,45,0,0
249484,-80,4,3,3,45,0,0
250244,-80,4,3,2,45,0,0
250624,-80,4,3,5,45,0,0
251003,-80,4,3,7,45,0,0
251383,-80,4,3,5,45,0,0
251763,-80,4,3,2,45,0,0
252143,-80,4,3,5,45,0,0
252522,-80,4,3,3,45,0,0
252902,-80,4,3,5,45,0,0
253282,-80,4,3,2,45,0,0
253662,-80,4,3,5,45,0,0
253852,-80,4,3,2,45,0,0
254041,-80,4,3,3,45,0,0
254801,-80,4,3,2,45,0,0
255181,-80,4,3,5,45,0,0
255371,-80,4,3,2,45,0,0
255560,-59.8802395209581,4,3,8,80,0,0
255940,-59.8802395209581,4,3,5,45,0,0
256320,-59.8802395209581,4,3,2,45,0,0
256700,-59.8802395209581,4,3,5,45,0,0
256890,-59.8802395209581,4,3,2,45,0,0
257079,-59.8802395209581,4,3,7,45,0,0
257269,-59.8802395209581,4,3,2,45,0,0
257459,-59.8802395209581,4,3,5,45,0,0
257839,-59.8802395209581,4,3,2,45,0,0
258219,-59.8802395209581,4,3,5,45,0,0
258409,-59.8802395209581,4,3,2,45,0,0
258598,-59.8802395209581,4,3,3,45,0,0
259168,-59.8802395209581,4,3,2,45,0,0
260117,-59.8802395209581,4,3,3,45,0,0
260307,-59.8802395209581,4,3,11,45,0,0
260497,-59.8802395209581,4,3,10,45,0,0
260687,-59.8802395209581,4,3,2,45,0,0
261636,-59.8802395209581,4,3,3,45,0,0
262396,-59.8802395209581,4,3,2,45,0,0
263155,-59.8802395209581,4,3,7,45,0,0
263345,-59.8802395209581,4,3,2,45,0,0
263535,-59.8802395209581,4,3,5,45,0,0
263915,-59.8802395209581,4,3,2,45,0,0
264674,-59.8802395209581,4,3,3,45,0,0
265054,-59.8802395209581,4,3,5,45,0,0
265434,-59.8802395209581,4,3,2,45,0,0
265814,-59.8802395209581,4,3,5,45,0,0
266003,-59.8802395209581,4,3,2,45,0,0
266193,-59.8802395209581,4,3,3,45,0,0
266573,-59.8802395209581,4,3,2,45,0,0
266700,-59.8802395209581,4,3,12,45,0,0
266953,-100,4,3,3,45,0,0
267079,-100,4,3,11,45,0,0
267333,-100,4,3,2,45,0,0
267459,-100,4,3,10,45,0,0
267712,-300,4,3,9,80,0,0
267760,-300,4,3,9,5,0,0
270513,-300,4,3,9,80,0,0
270560,-300,4,2,10,5,0,0
270750,-133.333333333333,4,2,10,30,0,0
277586,789.473684210526,4,2,10,30,1,0
279164,967.741935483871,4,2,10,30,1,0
279647,727.272727272727,4,2,10,30,1,0
280374,725.513905683192,4,2,10,30,1,0
282550,548.947849954254,4,2,10,30,1,0
283579,-100,4,2,10,30,0,0
283647,666.666666666667,4,2,10,40,1,0
283647,-151.515151515152,4,2,10,40,0,0
283980,-151.515151515152,4,2,10,35,0,0
284313,-151.515151515152,4,2,10,33,0,0
284647,-151.515151515152,4,2,10,31,0,0
284980,-151.515151515152,4,2,10,29,0,0
285313,-151.515151515152,4,2,10,27,0,0
285647,-151.515151515152,4,2,10,25,0,0
285980,-151.515151515152,4,2,10,23,0,0
286313,-151.515151515152,4,2,10,21,0,0
286647,-151.515151515152,4,2,10,19,0,0
286980,-151.515151515152,4,2,10,17,0,0
287313,-151.515151515152,4,2,10,15,0,0
287647,-151.515151515152,4,2,10,13,0,0
287980,-151.515151515152,4,2,10,11,0,0
288313,-151.515151515152,4,2,10,9,0,0
288647,-151.515151515152,4,2,10,7,0,0
288980,-151.515151515152,4,2,10,5,0,0

[Colours]
Combo1 : 106,106,106
Combo2 : 228,154,154
Combo3 : 228,191,154
Combo4 : 228,228,154
Combo5 : 154,191,228
Combo6 : 191,154,228
Combo7 : 228,154,191
Combo8 : 212,212,212

[HitObjects]
233,180,3433,101,2,0:0:0:0:
168,244,3804,1,0,0:0:0:0:
211,93,4176,1,2,0:0:0:0:
298,117,4548,1,0,0:0:0:0:
147,156,4919,5,2,0:0:0:0:
124,67,5299,1,0,0:0:0:0:
124,245,5679,1,2,0:0:0:0:
147,156,6059,1,0,0:0:0:0:
147,334,6438,101,2,0:0:0:0:
124,245,6822,1,0,0:0:0:0:
300,293,7207,1,2,0:0:0:0:
235,358,7591,1,2,0:0:0:0:
189,180,7976,5,2,0:0:0:0:
277,204,8354,1,0,0:0:0:0:
388,91,8733,1,2,0:0:0:0:
300,115,9112,1,0,0:0:0:0:
189,2,9491,101,2,0:0:0:0:
277,26,9869,1,0,0:0:0:0:
300,293,10248,1,2,0:0:0:0:
277,204,10627,1,0,0:0:0:0:
497,52,11006,5,2,0:0:0:0:
432,116,11385,1,0,0:0:0:0:
212,90,11742,101,2,0:0:0:0:
409,27,12134,1,2,0:0:0:0:
365,229,12477,1,2,0:0:0:0:
369,233,12526,5,2,0:0:0:0:
277,204,12904,1,0,0:0:0:0:
300,293,13282,1,2,0:0:0:0:
342,140,13660,1,0,0:0:0:0:
211,268,14039,101,2,0:0:0:0:
384,314,14752,1,2,0:0:0:0:
388,318,14800,1,2,0:0:0:0:
388,318,15561,6,0,P|436:288|456:240,1,105,2|0,0:0|0:0,0:0:0:0:
342,140,16320,2,0,P|294:170|274:218,1,105,2|2,0:0|0:0,0:0:0:0:
365,229,16890,1,0,0:0:0:0:
365,229,17079,1,2,0:0:0:0:
245,117,17459,1,0,0:0:0:0:
209,277,17839,1,2,0:0:0:0:
275,213,18219,1,0,0:0:0:0:
239,372,18598,102,0,P|187:375|142:350,1,105,2|2,0:0|0:0,0:0:0:0:
112,256,19168,1,0,0:0:0:0:
180,182,19358,2,0,P|208:224|209:276,1,105,2|0,0:0|0:0,0:0:0:0:
45,329,20117,1,2,0:0:0:0:
112,256,20497,1,0,0:0:0:0:
54,68,20877,1,2,0:0:0:0:
83,162,21257,1,0,0:0:0:0:
274,213,21636,6,0,P|231:183|180:182,1,105,2|0,0:0|0:0,0:0:0:0:
18,287,22396,2,0,P|60:257|111:256,1,105,2|2,0:0|0:0,0:0:0:0:
88,344,22966,1,0,0:0:0:0:
88,344,23155,1,2,0:0:0:0:
39,189,23535,1,0,0:0:0:0:
18,287,23915,1,2,0:0:0:0:
112,257,24295,1,0,0:0:0:0:
96,117,24674,102,0,P|91:65|116:20,2,105,2|0|2,0:0|0:0|0:0,0:0:0:0:
256,149,25624,2,0,P|230:105|183:84,1,105
75,206,26193,2,0,P|126:205|169:176,1,105,2|0,0:0|0:0,0:0:0:0:
96,117,26953,1,2,0:0:0:0:
148,272,27333,1,2,0:0:0:0:
75,206,27523,1,0,0:0:0:0:
127,362,27712,6,0,P|178:361|220:331,1,105,2|0,0:0|0:0,0:0:0:0:
169,176,28472,1,2,0:0:0:0:
243,242,28852,1,2,0:0:0:0:
149,273,29042,1,0,0:0:0:0:
264,145,29231,102,0,P|311:166|337:210,1,105,2|0,0:0|0:0,0:0:0:0:
221,332,29991,1,2,0:0:0:0:
243,242,30371,1,2,0:0:0:0:
149,273,30561,1,0,0:0:0:0:
316,301,30750,6,0,P|367:300|409:270,1,105,2|2,0:0|0:0,0:0:0:0:
424,177,31320,1,0,0:0:0:0:
358,114,31510,2,0,P|332:159|337:210,1,105,2|0,0:0|0:0,0:0:0:0:
498,243,32269,2,0,P|471:198|424:177,1,105,2|0,0:0|0:0,0:0:0:0:
316,301,33029,1,2,0:0:0:0:
410,270,33409,1,2,0:0:0:0:
338,211,33598,1,0,0:0:0:0:
243,242,33788,102,0,P|191:246|146:221,1,105,2|0,0:0|0:0,0:0:0:0:
178,69,34548,2,0,P|234:66|278:93,1,105,2|2,0:0|0:0,0:0:0:0:
210,155,35117,1,0,0:0:0:0:
210,155,35307,1,2,0:0:0:0:
340,25,35687,1,0,0:0:0:0:
387,202,36067,1,2,0:0:0:0:
312,127,36447,1,2,0:0:0:0:
414,99,36636,1,0,0:0:0:0:
489,173,36826,6,0,P|491:229|464:273,1,105,0|2,0:0|0:0,0:0:0:0:
387,202,37396,1,2,0:0:0:0:
285,230,37586,1,2,0:0:0:0:
312,127,37776,1,2,0:0:0:0:
361,305,37966,1,4,0:0:0:0:
361,305,38155,1,0,0:0:0:0:
387,202,38535,101,4,0:0:0:0:
285,230,38725,1,8,0:0:0:0:
352,275,39105,5,4,0:0:0:0:
365,223,39295,1,8,0:0:0:0:
314,237,39485,1,4,0:0:0:0:
344,245,39674,1,4,0:0:0:0:
312,127,39864,6,0,B|249:92|183:137|183:137|152:112|152:112|82:158|21:124,1,315,6|0,0:0|0:0,0:0:0:0:
75,29,41193,1,0,0:0:0:0:
152,113,41383,5,4,0:0:0:0:
64,339,41763,2,0,P|58:313|60:287,1,52.5,4|0,0:0|0:0,0:0:0:0:
224,152,42143,2,0,P|230:178|228:204,1,52.5,10|0,0:0|0:0,0:0:0:0:
43,348,42523,2,0,P|37:322|39:296,1,52.5
245,143,42902,6,0,P|251:169|249:195,1,52.5,4|0,0:0|0:0,0:0:0:0:
182,295,43282,1,0,0:0:0:0:
128,186,43472,2,0,B|110:139|131:112|131:107|152:81|134:32,1,157.5
39,67,44231,5,4,0:0:0:0:
224,152,44421,1,4,0:0:0:0:
18,58,44801,1,4,0:0:0:0:
245,161,45181,2,0,L|356:151,1,105,10|0,0:0|0:0,0:0:0:0:
459,382,45940,6,0,B|421:321|463:253|463:253|436:223|436:223|478:151|441:92,1,315,4|0,0:0|0:0,0:0:0:0:
350,152,47269,1,4,0:0:0:0:
436,223,47459,1,4,0:0:0:0:
324,122,47839,6,0,P|320:96|324:70,1,52.5,4|0,0:0|0:0,0:0:0:0:
463,253,48219,2,0,P|466:278|462:304,1,52.5,10|0,0:0|0:0,0:0:0:0:
350,152,48598,2,0,P|346:126|350:100,1,52.5,4|0,0:0|0:0,0:0:0:0:
436,223,48978,38,0,B|449:273|425:296|425:302|401:327|414:375,1,157.5,4|0,0:0|0:0,0:0:0:0:
507,352,49928,1,0,0:0:0:0:
344,247,50117,1,4,0:0:0:0:
512,152,50307,1,4,0:0:0:0:
454,250,50497,37,0,0:0:0:0:
397,150,50687,1,4,0:0:0:0:
397,150,51067,5,4,0:0:0:0:
291,344,51257,1,10,0:0:0:0:
291,344,51636,5,0,0:0:0:0:
344,247,51826,1,0,0:0:0:0:
233,249,52016,38,0,B|186:266|142:238|142:238|126:254|126:254|86:226|34:245,1,210,6|0,0:0|0:0,0:0:0:0:
233,249,53155,2,0,P|237:223|233:197,1,52.5,0|4,0:0|0:0,0:0:0:0:
38,244,53535,6,0,P|33:269|37:295,1,52.5,4|0,0:0|0:0,0:0:0:0:
134,245,53915,1,4,0:0:0:0:
126,86,54295,1,10,0:0:0:0:
126,254,54674,2,0,P|121:279|125:305,1,52.5
142,238,55054,6,0,B|157:191|134:165|133:159|111:135|126:86,1,157.5,4|0,0:0|0:0,0:0:0:0:
52,211,55814,2,0,P|26:214|0:210,1,52.5
219,112,56193,1,0,0:0:0:0:
312,138,56383,1,4,0:0:0:0:
405,112,56573,6,0,P|430:108|456:112,1,52.5,4|0,0:0|0:0,0:0:0:0:
338,183,56953,2,0,P|321:162|312:137,1,52.5,4|0,0:0|0:0,0:0:0:0:
433,207,57333,2,0,P|423:231|406:251,1,52.5,10|0,0:0|0:0,0:0:0:0:
312,278,57712,1,0,0:0:0:0:
391,166,57902,1,0,0:0:0:0:
382,346,58092,6,0,P|300:376|216:264,1,210,4|0,0:0|0:0,0:0:0:0:
312,278,59231,1,0,0:0:0:0:
123,324,59421,1,4,0:0:0:0:
177,137,59611,6,0,P|178:110|172:85,1,52.5,6|0,0:0|0:0,0:0:0:0:
119,272,59991,2,0,P|117:298|123:323,1,52.5,2|8,0:0|0:0,0:0:0:0:
127,327,60276,1,8,0:0:0:0:
131,330,60371,37,8,0:0:0:0:
312,278,60561,1,8,0:0:0:0:
244,207,60750,1,4,0:0:0:0:
217,301,60940,1,0,0:0:0:0:
339,183,61130,38,0,P|312:136|244:108,1,105,6|6,0:0|0:0,0:0:0:0:
177,137,61700,1,4,0:0:0:0:
173,140,61795,1,4,0:0:0:0:
169,143,61890,5,10,0:0:0:0:
123,323,62079,1,8,0:0:0:0:
150,231,62269,1,6,0:0:0:0:
244,207,62459,1,4,0:0:0:0:
247,211,62554,1,4,0:0:0:0:
250,215,62649,5,10,0:0:0:0:
375,344,62839,1,8,0:0:0:0:
308,277,63029,1,6,0:0:0:0:
217,301,63219,1,8,0:0:0:0:
402,250,63409,37,8,0:0:0:0:
429,155,63598,1,4,0:0:0:0:
271,113,63788,1,4,0:0:0:0:
339,183,63978,1,8,0:0:0:0:
455,68,64168,5,6,0:0:0:0:
402,250,64358,1,0,0:0:0:0:
271,113,64548,1,4,0:0:0:0:
489,81,64738,5,0,0:0:0:0:
373,273,64928,1,4,0:0:0:0:
265,76,65117,1,0,0:0:0:0:
507,111,65307,5,4,0:0:0:0:
338,273,65497,1,0,0:0:0:0:
282,46,65687,1,4,0:0:0:0:
282,46,66257,5,4,0:0:0:0:
265,76,66352,1,4,0:0:0:0:
271,113,66447,2,0,B|278:136|263:162|263:162|279:182|279:182|259:214|275:265,1,157.500006008148,10|0,0:0|0:0,0:0:0:0:
349,223,67016,1,0,0:0:0:0:
192,120,67206,6,0,B|141:94|101:122|93:122|57:150|1:122,1,196.875,6|0,0:0|0:0,0:0:0:0:
150,206,67966,2,0,P|166:268|141:328,1,131.25,10|2,0:0|0:0,0:0:0:0:
60,261,68535,1,4,0:0:0:0:
192,120,68725,38,0,L|267:126,1,65.625,6|0,0:0|0:0,0:0:0:0:
337,107,69105,2,0,L|261:113,1,65.625,6|0,0:0|0:0,0:0:0:0:
418,174,69485,2,0,P|443:114|427:52,1,131.25,10|2,0:0|0:0,0:0:0:0:
337,107,70054,1,0,0:0:0:0:
418,174,70244,6,0,B|433:225|409:257|409:257|425:273|425:273|401:309|415:357,1,196.875,4|0,0:0|0:0,0:0:0:0:
409,257,71004,2,0,P|377:249|341:257,1,65.625,10|0,0:0|0:0,0:0:0:0:
295,366,71383,1,2,0:0:0:0:
425,273,71573,1,4,0:0:0:0:
279,350,71763,6,0,P|246:355|215:347,1,65.625,6|0,0:0|0:0,0:0:0:0:
142,328,72143,2,0,P|174:322|205:330,1,65.625,6|0,0:0|0:0,0:0:0:0:
5,306,72523,2,0,L|-2:222,1,65.625,10|0,0:0|0:0,0:0:0:0:
146,161,72902,2,0,L|138:244,1,65.625,6|0,0:0|0:0,0:0:0:0:
214,80,73282,6,0,P|154:55|91:71,1,131.25,6|2,0:0|0:0,0:0:0:0:
41,163,73852,1,0,0:0:0:0:
78,263,74042,2,0,P|128:223|146:161,1,131.25,10|2,0:0|0:0,0:0:0:0:
41,163,74611,1,4,0:0:0:0:
200,271,74801,6,0,L|265:265,1,65.625,6|0,0:0|0:0,0:0:0:0:
345,284,75181,2,0,L|279:278,1,65.625,6|0,0:0|0:0,0:0:0:0:
427,217,75561,2,0,P|451:276|435:339,1,131.25,10|2,0:0|0:0,0:0:0:0:
345,284,76130,1,0,0:0:0:0:
397,141,76320,6,0,P|429:135|460:143,1,65.625,6|0,0:0|0:0,0:0:0:0:
345,284,76700,1,6,0:0:0:0:
427,217,76890,1,4,0:0:0:0:
375,360,77079,38,0,P|342:365|311:357,1,65.625,10|0,0:0|0:0,0:0:0:0:
264,291,77459,1,2,0:0:0:0:
330,143,77649,1,8,0:0:0:0:
297,217,77839,37,6,0:0:0:0:
136,233,78029,1,8,0:0:0:0:
217,225,78219,1,6,0:0:0:0:
311,357,78409,1,4,0:0:0:0:
287,324,78504,1,4,0:0:0:0:
264,291,78598,5,10,0:0:0:0:
170,159,78788,1,8,0:0:0:0:
231,365,78978,1,6,0:0:0:0:
378,209,79168,1,8,0:0:0:0:
84,117,79358,6,0,B|58:168|86:208|86:216|114:252|86:308,1,196.875,6|0,0:0|0:0,0:0:0:0:
170,159,80117,2,0,P|232:143|292:168,1,131.25,10|2,0:0|0:0,0:0:0:0:
225,249,80687,1,4,0:0:0:0:
149,22,80877,38,0,P|143:54|151:85,1,65.625,6|0,0:0|0:0,0:0:0:0:
170,159,81257,2,0,P|176:126|167:95,1,65.625,6|0,0:0|0:0,0:0:0:0:
103,240,81636,2,0,P|162:264|225:249,1,131.25,10|2,0:0|0:0,0:0:0:0:
292,168,82206,1,0,0:0:0:0:
376,317,82396,6,0,B|348:261|376:225|376:217|404:177|378:126,1,196.875,4|0,0:0|0:0,0:0:0:0:
228,171,83155,2,0,P|260:176|291:168,1,65.625,10|0,0:0|0:0,0:0:0:0:
254,76,83535,1,2,0:0:0:0:
198,247,83725,1,4,0:0:0:0:
263,60,83915,6,0,P|294:51|327:58,1,65.625,6|0,0:0|0:0,0:0:0:0:
402,68,84295,2,0,P|370:76|338:71,1,65.625,6|0,0:0|0:0,0:0:0:0:
512,191,84674,2,0,L|504:282,1,65.625,10|0,0:0|0:0,0:0:0:0:
360,363,85054,2,0,L|354:297,1,65.625,6|0,0:0|0:0,0:0:0:0:
338,71,85434,38,0,P|319:131|340:193,1,131.25,6|2,0:0|0:0,0:0:0:0:
425,131,86004,1,0,0:0:0:0:
246,239,86193,2,0,P|288:285|352:298,1,131.25,10|2,0:0|0:0,0:0:0:0:
437,235,86763,1,4,0:0:0:0:
280,118,86953,38,0,L|346:124,1,65.625,6|0,0:0|0:0,0:0:0:0:
425,131,87333,2,0,L|360:137,1,65.625,6|0,0:0|0:0,0:0:0:0:
193,178,87712,2,0,P|174:117|195:55,1,131.25,10|6,0:0|0:0,0:0:0:0:
280,118,88282,1,8,0:0:0:0:
106,238,88472,6,0,P|95:268|99:300,1,65.625,6|0,0:0|0:0,0:0:0:0:
242,314,88852,1,6,0:0:0:0:
174,276,89042,1,4,0:0:0:0:
310,352,89231,6,0,P|320:321|316:289,1,65.625,10|8,0:0|0:0,0:0:0:0:
240,236,89611,1,4,0:0:0:0:
176,354,89801,1,8,0:0:0:0:
242,314,89991,5,6,0:0:0:0:
239,159,90181,1,8,0:0:0:0:
240,236,90371,1,8,0:0:0:0:
376,311,90561,1,4,0:0:0:0:
342,292,90655,1,4,0:0:0:0:
308,273,90750,5,10,0:0:0:0:
172,199,90940,1,6,0:0:0:0:
239,159,91130,1,2,0:0:0:0:
104,162,91320,1,8,0:0:0:0:
307,196,91510,6,0,P|370:200|425:165,1,131.25,6|6,0:0|0:0,0:0:0:0:
344,97,92079,1,4,0:0:0:0:
391,282,92269,37,10,0:0:0:0:
335,81,92459,1,8,0:0:0:0:
382,266,92649,1,6,0:0:0:0:
359,178,92839,1,4,0:0:0:0:
362,182,92934,1,4,0:0:0:0:
365,186,93029,5,10,0:0:0:0:
179,215,93219,1,8,0:0:0:0:
252,275,93409,1,4,0:0:0:0:
270,239,93504,1,8,0:0:0:0:
271,199,93598,1,4,0:0:0:0:
256,161,93693,1,4,0:0:0:0:
227,133,93788,5,8,0:0:0:0:
174,76,93978,1,4,0:0:0:0:
193,0,94168,1,8,0:0:0:0:
249,54,94358,1,4,0:0:0:0:
99,98,94548,38,0,P|77:158|97:220,1,131.25,6|6,0:0|0:0,0:0:0:0:
185,159,95117,1,4,0:0:0:0:
9,281,95307,37,10,0:0:0:0:
97,220,95497,1,0,0:0:0:0:
203,373,95687,1,6,0:0:0:0:
112,334,95877,1,8,0:0:0:0:
115,338,95972,1,8,0:0:0:0:
118,342,96067,5,10,0:0:0:0:
185,159,96257,1,8,0:0:0:0:
193,267,96447,1,4,0:0:0:0:
99,98,96636,1,4,0:0:0:0:
95,101,96731,1,4,0:0:0:0:
91,104,96826,1,14,0:0:0:0:
283,207,97016,6,0,L|356:201,1,65.625,6|0,0:0|0:0,0:0:0:0:
370,218,97586,6,0,L|265:227,1,105,6|6,0:0|0:0,0:0:0:0:
326,313,98155,1,0,0:0:0:0:
309,131,98345,2,0,L|204:122,1,105,10|2,0:0|0:0,0:0:0:0:
265,36,98915,1,4,0:0:0:0:
361,127,99105,6,0,L|308:131,1,52.5,6|0,0:0|0:0,0:0:0:0:
238,106,99485,2,0,L|290:110,1,52.5,6|0,0:0|0:0,0:0:0:0:
432,142,99864,2,0,L|379:146,1,52.5,10|0,0:0|0:0,0:0:0:0:
168,81,100244,2,0,L|220:85,1,52.5,2|0,0:0|0:0,0:0:0:0:
290,224,100624,6,0,B|286:188|295:176|295:168|304:157|300:121,1,105,6|6,0:0|0:0,0:0:0:0:
213,139,101193,1,0,0:0:0:0:
377,206,101383,2,0,B|381:242|372:253|372:261|363:273|367:309,1,105,10|2,0:0|0:0,0:0:0:0:
454,291,101953,1,4,0:0:0:0:
290,224,102143,2,0,L|237:228,1,52.5,6|0,0:0|0:0,0:0:0:0:
167,245,102523,2,0,L|219:249,1,52.5,6|0,0:0|0:0,0:0:0:0:
276,160,102902,38,0,L|279:134,1,26.25,10|4,0:0|0:0,0:0:0:0:
185,316,103092,2,0,L|188:343,1,26.25,8|4,0:0|0:0,0:0:0:0:
255,206,103282,2,0,L|258:180,1,26.25,8|4,0:0|0:0,0:0:0:0:
201,270,103472,2,0,L|203:296,1,26.25,4|4,0:0|0:0,0:0:0:0:
228,238,103662,6,0,B|186:238|186:238|163:228|163:228|125:228,1,105,6|6,0:0|0:0,0:0:0:0:
147,316,104231,1,0,0:0:0:0:
206,151,104421,2,0,B|244:150|244:150|267:160|267:160|308:160,1,105,10|6,0:0|0:0,0:0:0:0:
286,73,104991,1,4,0:0:0:0:
228,238,105181,6,0,L|232:290,1,52.5,6|0,0:0|0:0,0:0:0:0:
249,220,105561,2,0,L|253:167,1,52.5,6|0,0:0|0:0,0:0:0:0:
212,308,105940,2,0,L|229:357,1,52.5,10|0,0:0|0:0,0:0:0:0:
274,150,106320,2,0,L|264:97,1,52.5,2|0,0:0|0:0,0:0:0:0:
239,229,106700,6,0,P|289:236|344:200,1,105,6|6,0:0|0:0,0:0:0:0:
274,150,107269,1,0,0:0:0:0:
189,299,107459,2,0,P|139:306|84:270,1,105,10|2,0:0|0:0,0:0:0:0:
154,220,108029,1,4,0:0:0:0:
239,369,108219,5,6,0:0:0:0:
274,290,108409,1,8,0:0:0:0:
189,299,108598,1,6,0:0:0:0:
324,359,108788,1,8,0:0:0:0:
327,363,108883,1,8,0:0:0:0:
330,367,108978,5,10,0:0:0:0:
54,239,109168,1,8,0:0:0:0:
274,290,109358,1,4,0:0:0:0:
104,308,109548,1,4,0:0:0:0:
100,311,109643,1,4,0:0:0:0:
96,314,109738,1,6,0:0:0:0:
374,188,109928,38,0,P|398:128|382:66,1,131.25,6|4,0:0|0:0,0:0:0:0:
378,62,110402,1,4,0:0:0:0:
374,58,110497,1,10,0:0:0:0:
293,121,110687,1,4,0:0:0:0:
293,121,110877,1,4,0:0:0:0:
455,255,111067,2,0,P|479:314|463:376,1,131.25,14|4,0:0|0:0,0:0:0:0:
459,381,111542,1,4,0:0:0:0:
455,384,111636,1,10,0:0:0:0:
322,353,111826,37,8,0:0:0:0:
343,328,111921,1,8,0:0:0:0:
374,322,112016,5,8,0:0:0:0:
364,308,112111,1,8,0:0:0:0:
356,294,112206,1,4,0:0:0:0:
351,278,112301,1,4,0:0:0:0:
349,262,112396,1,8,0:0:0:0:
349,246,112491,1,8,0:0:0:0:
351,229,112586,1,4,0:0:0:0:
357,214,112681,1,4,0:0:0:0:
365,200,112776,1,10,0:0:0:0:
322,353,112966,6,0,P|263:377|201:361,1,131.25,6|4,0:0|0:0,0:0:0:0:
196,356,113440,1,4,0:0:0:0:
192,352,113535,1,10,0:0:0:0:
255,272,113725,1,4,0:0:0:0:
255,272,113915,1,4,0:0:0:0:
199,69,114105,2,0,P|175:128|191:190,1,131.25,14|4,0:0|0:0,0:0:0:0:
196,195,114579,1,4,0:0:0:0:
200,199,114674,38,0,B|216:203|236:194|236:194|248:202|248:202|280:186|316:198,1,118.125004506111,10|0,0:0|0:0,0:0:0:0:
289,322,115054,2,0,L|287:290,1,32.8125,8|8,0:0|0:0,0:0:0:0:
316,165,115244,2,0,L|313:197,1,32.8125,4|4,0:0|0:0,0:0:0:0:
293,355,115434,1,8,0:0:0:0:
319,133,115624,1,8,0:0:0:0:
501,262,115814,6,0,P|517:324|493:384,1,131.25,10|6,0:0|0:0,0:0:0:0:
413,317,116383,1,4,0:0:0:0:
316,165,116573,6,0,P|361:119|425:110,1,131.25,10|6,0:0|0:0,0:0:0:0:
407,213,117143,1,4,0:0:0:0:
327,372,117333,6,0,P|264:355|224:304,1,131.25,10|6,0:0|0:0,0:0:0:0:
323,268,117902,1,4,0:0:0:0:
127,342,118092,5,10,0:0:0:0:
225,305,118282,1,4,0:0:0:0:
160,135,118472,1,10,0:0:0:0:
143,238,118662,2,0,L|156:272,2,21.875,4|4|4,0:0|0:0|0:0,0:0:0:0:
62,171,118852,5,6,0:0:0:0:
258,99,119231,1,4,0:0:0:0:
225,305,119611,1,4,0:0:0:0:
178,33,119991,1,4,0:0:0:0:
307,372,120371,37,6,0:0:0:0:
376,357,120497,1,8,0:0:0:0:
406,293,120624,1,8,0:0:0:0:
376,230,120750,1,4,0:0:0:0:
307,215,120877,1,8,0:0:0:0:
253,258,121004,1,4,0:0:0:0:
253,328,121130,6,0,P|281:322|307:301,1,52.5,10|4,0:0|0:0,0:0:0:0:
307,145,121320,2,0,P|279:151|253:172,1,52.5,8|8,0:0|0:0,0:0:0:0:
376,357,121510,2,0,P|389:331|390:298,1,52.5,4|4,0:0|0:0,0:0:0:0:
184,116,121700,2,0,P|170:141|169:174,1,52.5,8|8,0:0|0:0,0:0:0:0:
476,280,121890,6,0,B|502:229|474:189|474:181|446:145|473:89,1,196.875,6|0,0:0|0:0,0:0:0:0:
390,237,122649,2,0,P|359:246|322:235,1,65.625,10|0,0:0|0:0,0:0:0:0:
212,101,123029,2,0,P|243:91|280:102,1,65.625,2|0,0:0|0:0,0:0:0:0:
237,293,123409,6,0,P|221:230|246:171,1,131.25,6|6,0:0|0:0,0:0:0:0:
365,45,124168,2,0,P|380:107|356:166,1,131.25,10|2,0:0|0:0,0:0:0:0:
84,96,124928,2,0,B|135:70|175:98|183:98|219:126|275:99,1,196.875,2|0,0:0|0:0,0:0:0:0:
128,168,125687,6,0,B|107:226|136:260|136:260|120:292|120:292|147:326|129:384,1,229.6875,10|0,0:0|0:0,0:0:0:0:
136,260,126447,6,0,B|159:253|185:268|185:268|205:252|205:252|237:272|283:257,1,157.500006008148,6|6,0:0|0:0,0:0:0:0:
264,102,127016,37,0,0:0:0:0:
260,105,127111,1,0,0:0:0:0:
257,109,127206,2,0,P|248:140|251:176,1,65.625,10|0,3:0|3:0,3:0:0:0:
353,296,127586,2,0,P|361:264|358:228,1,65.625,6|0,0:0|0:0,0:0:0:0:
284,336,127966,6,0,P|342:375|432:307,1,196.875,6|0,0:0|0:0,0:0:0:0:
367,110,128630,1,0,0:0:0:0:
363,113,128725,2,0,B|345:159|367:197|367:197|350:212|350:212|371:245|353:295,1,196.875,10|0,0:0|0:0,0:0:0:0:
229,206,129485,6,0,P|291:188|351:212,1,131.25,6|6,0:0|0:0,0:0:0:0:
489,204,130054,1,0,0:0:0:0:
489,204,130244,2,0,P|426:221|366:197,1,131.25,10|6,0:0|0:0,0:0:0:0:
378,0,131004,5,6,0:0:0:0:
393,10,131098,1,0,0:0:0:0:
407,22,131193,1,0,0:0:0:0:
419,37,131288,1,0,0:0:0:0:
428,54,131383,1,6,0:0:0:0:
433,72,131478,1,0,0:0:0:0:
436,91,131573,2,0,L|431:132,1,37.8000009228516,4|0,0:0|0:0,0:0:0:0:
235,211,131763,5,10,0:0:0:0:
236,192,131858,1,0,0:0:0:0:
240,174,131953,1,0,0:0:0:0:
247,156,132048,1,0,0:0:0:0:
257,140,132143,1,6,0:0:0:0:
271,127,132238,1,0,0:0:0:0:
285,116,132333,2,0,L|322:98,1,37.8000009228516,8|0,0:0|0:0,0:0:0:0:
490,204,132523,5,6,0:0:0:0:
473,212,132617,1,0,0:0:0:0:
455,218,132712,1,8,0:0:0:0:
436,221,132807,1,0,0:0:0:0:
417,220,132902,1,6,0:0:0:0:
399,215,132997,1,0,0:0:0:0:
382,208,133092,2,0,L|356:190,2,18.7249994285584,4|4|4,0:0|0:0|0:0,0:0:0:0:
367,137,133282,37,10,0:0:0:0:
433,300,133472,1,8,0:0:0:0:
319,100,133662,1,6,0:0:0:0:
481,338,133852,1,8,0:0:0:0:
258,108,134042,6,0,B|202:81|166:109|158:109|118:137|67:111,1,196.875,6|0,0:0|0:0,0:0:0:0:
110,25,134801,1,10,0:0:0:0:
110,25,134991,1,0,0:0:0:0:
215,194,135181,1,6,0:0:0:0:
14,31,135371,1,0,0:0:0:0:
310,188,135561,6,0,P|372:202|431:175,1,131.25,6|6,0:0|0:0,0:0:0:0:
363,96,136130,1,0,0:0:0:0:
381,287,136320,5,10,0:0:0:0:
346,124,136510,1,0,0:0:0:0:
397,259,136700,1,6,0:0:0:0:
386,73,136890,1,0,0:0:0:0:
360,311,137079,6,0,B|312:330|271:304|271:304|256:321|256:321|210:296|162:315,1,212.6250008111,6|0,0:0|0:0,0:0:0:0:
271,304,137839,2,0,P|290:242|265:171,1,141.750000540733,10|6,0:0|0:0,0:0:0:0:
75,41,138409,1,0,0:0:0:0:
75,41,138598,6,0,P|55:102|80:173,1,141.750000540733,6|6,0:0|0:0,0:0:0:0:
159,104,139168,1,0,0:0:0:0:
1,242,139358,37,10,0:0:0:0:
100,275,139548,1,0,0:0:0:0:
80,173,139738,1,6,0:0:0:0:
60,230,139928,1,0,0:0:0:0:
251,227,140117,6,0,B|195:200|159:228|151:228|111:256|60:230,1,196.875,6|0,0:0|0:0,0:0:0:0:
57,112,140877,2,0,P|83:171|60:231,1,131.25,10|6,0:0|0:0,0:0:0:0:
0,173,141447,1,0,0:0:0:0:
145,252,141636,38,0,P|106:303|43:313,1,131.25,6|6,0:0|0:0,0:0:0:0:
61,230,142206,1,0,0:0:0:0:
228,273,142396,5,10,0:0:0:0:
43,313,142586,1,0,0:0:0:0:
246,190,142776,1,6,0:0:0:0:
106,371,142966,1,0,0:0:0:0:
183,132,143155,38,0,B|187:108|167:84|167:84|191:64|191:64|170:36|178:-1,1,152.250004646301,6|6,0:0|0:0,0:0:0:0:
253,18,143725,1,4,0:0:0:0:
167,84,143915,2,0,P|103:112|29:66,1,152.250004646301,10|6,0:0|0:0,0:0:0:0:
191,64,144485,1,10,0:0:0:0:
456,81,144674,5,6,0:0:0:0:
413,106,144801,1,8,0:0:0:0:
363,103,144928,1,8,0:0:0:0:
323,72,145054,1,10,0:0:0:0:
283,41,145181,1,4,0:0:0:0:
233,38,145307,1,4,0:0:0:0:
191,64,145434,5,6,0:0:0:0:
254,122,145561,1,4,0:0:0:0:
235,206,145687,1,4,0:0:0:0:
152,230,145814,1,6,0:0:0:0:
90,170,145940,1,8,0:0:0:0:
108,86,146067,1,4,0:0:0:0:
191,64,146193,6,0,P|168:148|66:161,1,175.349994514961,6|6,0:0|0:0,0:0:0:0:
108,86,146763,1,4,0:0:0:0:
235,206,146953,2,0,B|290:228|343:191|343:191|367:215|367:215|423:181|479:201,1,263.024991772442,10|4,0:0|0:0,0:0:0:0:
391,330,147617,1,4,0:0:0:0:
387,334,147712,6,0,P|354:258|385:192,1,131.512495886221,4|0,0:0|0:0,0:0:0:0:
325,72,148092,2,0,P|357:147|326:213,1,131.512495886221,6|0,0:0|0:0,0:0:0:0:
175,151,148472,6,0,L|263:144,1,87.6749972574807,10|0,0:0|0:0,0:0:0:0:
151,175,148852,2,0,L|63:167,1,87.6749972574807,2|0,0:0|0:0,0:0:0:0:
1,356,149231,38,0,B|55:286|1:236|1:228|-51:179|0:110,1,263.024991772442,6|4,0:0|0:0,0:0:0:0:
262,144,149991,2,0,P|173:227|54:121,1,263.024991772442,10|4,0:0|0:0,0:0:0:0:
152,33,150750,38,0,L|159:121,1,87.6749972574807,4|0,0:0|0:0,0:0:0:0:
176,9,151130,2,0,L|182:96,1,87.6749972574807,6|0,0:0|0:0,0:0:0:0:
342,192,151510,5,10,0:0:0:0:
262,144,151700,1,0,0:0:0:0:
261,238,151890,1,2,0:0:0:0:
288,191,152079,1,0,0:0:0:0:
182,96,152269,5,6,0:0:0:0:
260,332,152459,2,0,B|285:338|312:320|312:320|340:344|340:344|376:320|420:336,1,175.349994514961,0|4,0:0|0:0,0:0:0:0:
312,320,153029,38,0,B|288:264|312:240|312:232|336:204|312:148,1,175.349994514961,10|2,0:0|0:0,0:0:0:0:
234,97,153598,1,4,0:0:0:0:
227,192,153788,5,4,0:0:0:0:
313,150,153978,1,0,0:0:0:0:
148,138,154168,1,6,0:0:0:0:
306,245,154358,1,0,0:0:0:0:
320,56,154548,5,10,0:0:0:0:
141,234,154738,1,0,0:0:0:0:
392,204,154928,1,6,0:0:0:0:
242,3,155117,1,8,0:0:0:0:
61,222,155307,6,0,B|86:227|113:210|113:210|141:234|141:234|177:210|221:226,1,175.349994514961,6|6,0:0|0:0,0:0:0:0:
188,308,155877,1,4,0:0:0:0:
113,210,156067,6,0,L|120:122,1,87.6749972574807,10|0,0:0|0:0,0:0:0:0:
81,19,156447,2,0,L|88:106,1,87.6749972574807,6|8,0:0|0:0,0:0:0:0:
273,178,156826,5,6,0:0:0:0:
277,182,156953,2,0,L|281:131,2,29.2249990858269,0|8|4,0:0|0:0|0:0,0:0:0:0:
265,32,157206,1,6,0:0:0:0:
261,28,157333,2,0,L|265:78,2,29.2249990858269,0|4|4,0:0|0:0|0:0,0:0:0:0:
447,95,157586,37,10,0:0:0:0:
400,45,157712,1,0,0:0:0:0:
331,44,157839,1,0,0:0:0:0:
283,93,157966,1,6,0:0:0:0:
235,141,158092,1,0,0:0:0:0:
167,140,158219,1,0,0:0:0:0:
120,91,158345,6,0,B|170:158|118:207|118:215|64:265|118:335,1,263.024991772442,6|4,0:0|0:0,0:0:0:0:
182,279,159105,5,10,0:0:0:0:
182,279,159295,1,0,0:0:0:0:
55,147,159485,1,2,0:0:0:0:
119,336,159674,1,4,0:0:0:0:
120,91,159864,5,6,0:0:0:0:
120,91,160054,2,0,L|219:99,1,87.6749972574807,10|6,0:0|0:0,0:0:0:0:
289,294,160434,1,4,0:0:0:0:
285,297,160529,1,4,0:0:0:0:
281,300,160624,5,10,0:0:0:0:
383,56,160814,1,4,0:0:0:0:
387,59,160909,1,4,0:0:0:0:
391,62,161004,1,6,0:0:0:0:
332,127,161193,1,10,0:0:0:0:
124,46,161383,6,0,B|177:22|205:46|213:46|237:70|293:46,1,175.349994514961,6|6,0:0|0:0,0:0:0:0:
166,132,161953,1,4,0:0:0:0:
162,135,162048,1,0,0:0:0:0:
158,138,162143,38,0,L|167:245,2,87.6749972574807,10|4|2,0:0|0:0|0:0,0:0:0:0:
302,227,162712,1,4,0:0:0:0:
306,230,162807,1,0,0:0:0:0:
310,233,162902,6,0,L|300:340,2,87.6749972574807,6|8|6,0:0|0:0|0:0,0:0:0:0:
166,322,163472,1,4,0:0:0:0:
162,325,163567,1,4,0:0:0:0:
158,328,163662,5,10,0:0:0:0:
381,284,163852,1,8,0:0:0:0:
232,112,164042,1,6,0:0:0:0:
229,377,164231,1,8,0:0:0:0:
460,247,164421,6,0,B|479:192|445:136|445:136|469:112|469:112|432:59|454:4,1,263.024991772442,6|4,0:3|0:3,0:0:0:0:
358,206,165181,6,0,L|270:199,1,87.6749972574807,10|4,0:3|0:3,0:0:0:0:
267,202,165466,1,4,0:0:0:0:
264,206,165561,1,6,0:0:0:0:
302,321,165750,1,4,0:0:0:0:
469,112,165940,6,0,L|462:24,1,87.6749972574807,6|0,0:3|0:3,0:0:0:0:
445,136,166320,2,0,L|438:48,1,87.6749972574807,6|4,0:3|0:3,0:0:0:0:
434,51,166605,1,4,0:0:0:0:
431,55,166700,37,10,0:0:0:0:
358,206,166890,1,4,0:0:0:0:
462,246,167079,1,6,0:0:0:0:
254,166,167269,2,0,L|201:170,2,29.2249990858269,4|4|4,0:0|0:0|0:0,0:0:0:0:
358,206,167459,5,6,0:0:0:0:
314,241,167586,1,0,0:0:0:0:
262,221,167712,1,0,0:0:0:0:
254,166,167839,1,6,0:0:0:0:
297,130,167966,1,0,0:0:0:0:
349,150,168092,1,0,0:0:0:0:
366,229,168219,5,10,0:0:0:0:
298,259,168345,1,0,0:0:0:0:
238,216,168472,1,0,0:0:0:0:
245,142,168598,1,6,0:0:0:0:
313,112,168725,1,0,0:0:0:0:
373,155,168852,1,0,0:0:0:0:
368,262,168978,5,6,0:0:0:0:
270,278,169105,1,8,0:0:0:0:
208,201,169231,1,8,0:0:0:0:
243,109,169358,1,6,0:0:0:0:
341,93,169485,1,8,0:0:0:0:
403,170,169611,1,8,0:0:0:0:
317,211,169738,5,6,0:0:0:0:
289,208,169864,1,4,0:0:0:0:
278,183,169991,1,8,0:0:0:0:
294,160,170117,1,6,0:0:0:0:
322,163,170244,1,8,0:0:0:0:
333,188,170371,1,4,0:0:0:0:
317,211,170497,6,0,B|292:215|272:199|272:199|244:223|244:223|186:195|158:227|158:219|130:251|70:223,1,262.5,6|0,0:0|0:0,0:0:0:0:
269,100,173535,6,0,P|285:148|272:199,1,105,2|0,0:0|0:0,0:0:0:0:
248,322,174295,2,0,P|231:273|244:222,1,105,2|2,0:0|0:0,0:0:0:0:
322,269,174864,1,0,0:0:0:0:
322,269,175054,1,2,0:0:0:0:
161,276,175434,1,0,0:0:0:0:
235,133,175814,1,2,0:0:0:0:
244,223,176193,1,0,0:0:0:0:
318,80,176573,6,0,P|280:43|229:34,1,105,2|2,0:0|0:0,0:0:0:0:
148,87,177143,1,0,0:0:0:0:
152,186,177333,2,0,P|202:171|236:131,1,105,2|0,0:0|0:0,0:0:0:0:
64,139,178092,1,2,0:0:0:0:
67,238,178472,1,0,0:0:0:0:
240,233,178852,1,2,0:0:0:0:
152,186,179231,1,0,0:0:0:0:
70,338,179611,102,0,P|120:323|154:283,1,105,2|0,0:0|0:0,0:0:0:0:
236,133,180371,2,0,P|185:147|151:187,1,105,2|2,0:0|0:0,0:0:0:0:
240,233,180940,1,0,0:0:0:0:
240,233,181130,1,2,0:0:0:0:
147,86,181510,1,0,0:0:0:0:
236,133,181890,1,2,0:0:0:0:
152,185,182269,1,0,0:0:0:0:
60,40,182649,6,0,P|111:50|148:87,2,105,2|0|2,0:0|0:0|0:0,0:0:0:0:
152,185,183598,2,0,P|202:172|236:133,1,105
66,140,184168,2,0,P|52:190|69:238,1,105,2|0,0:0|0:0,0:0:0:0:
153,185,184928,1,2,0:0:0:0:
148,86,185307,1,2,0:0:0:0:
236,133,185497,1,0,0:0:0:0:
65,139,185687,102,0,P|48:91|62:41,1,105,2|0,0:0|0:0,0:0:0:0:
233,34,186447,1,2,0:0:0:0:
236,133,186826,1,2,0:0:0:0:
148,86,187016,1,0,0:0:0:0:
321,81,187206,6,0,P|338:129|324:179,1,105,2|0,0:0|0:0,0:0:0:0:
153,186,187966,1,2,0:0:0:0:
236,133,188345,1,2,0:0:0:0:
148,86,188535,1,0,0:0:0:0:
241,233,188725,102,0,P|207:272|157:285,1,105,2|2,0:0|0:0,0:0:0:0:
69,240,189295,1,0,0:0:0:0:
66,140,189485,2,0,P|116:149|153:186,1,105,2|0,0:0|0:0,0:0:0:0:
73,339,190244,2,0,P|55:290|69:240,1,105,2|0,0:0|0:0,0:0:0:0:
241,233,191004,1,2,0:0:0:0:
158,286,191383,1,2,0:0:0:0:
154,186,191573,1,0,0:0:0:0:
237,133,191763,6,0,P|250:83|234:34,1,105,2|2,0:0|0:0,0:0:0:0:
150,86,192333,1,0,0:0:0:0:
154,186,192523,1,2,0:0:0:0:
241,233,192712,1,0,0:0:0:0:
324,180,192902,1,2,0:0:0:0:
320,80,193092,1,0,0:0:0:0:
237,133,193282,101,2,0:0:0:0:
403,27,193662,1,0,0:0:0:0:
411,227,193852,2,0,L|429:237,2,17.5,4|4|4,0:0|0:0|0:0,0:0:0:0:
324,180,194042,21,10,0:0:0:0:
328,278,194231,1,8,0:0:0:0:
407,127,194421,1,4,0:0:0:0:
237,133,194611,1,8,0:0:0:0:
493,177,194801,38,0,P|506:127|493:76,1,105,6|2,0:0|0:0,0:0:0:0:
372,125,195371,2,0,L|415:127,1,35,4|4,0:0|0:0,0:0:0:0:
411,130,195561,5,10,0:0:0:0:
408,27,195750,1,8,0:0:0:0:
408,27,195940,1,2,0:0:0:0:
324,180,196130,2,0,L|280:182,1,35,4|4,0:0|0:0,0:0:0:0:
285,185,196320,5,10,0:0:0:0:
288,82,196510,1,8,0:0:0:0:
288,82,196700,1,6,0:0:0:0:
372,235,196890,1,10,0:0:0:0:
463,86,197079,37,4,0:0:0:0:
374,134,197269,1,8,0:0:0:0:
460,186,197459,1,8,3:0:0:0:
376,33,197649,1,4,0:0:0:0:
289,182,197839,6,0,L|296:269,1,87.5,4|0,0:0|0:0,0:0:0:0:
255,176,198219,22,0,L|265:281,1,104.999996795654,4|0,0:0|0:0,0:0:0:0:
221,170,198598,6,0,L|231:292,1,122.499996261597,4|0,0:0|0:0,0:0:0:0:
187,163,198978,6,0,L|200:303,1,140,4|0,0:0|0:0,0:0:0:0:
153,158,199358,70,0,L|167:319,1,157.500006008148,4|0,0:0|0:0,0:0:0:0:
17,161,199928,5,4,0:0:0:0:
47,144,200023,1,4,0:0:0:0:
84,150,200117,2,0,B|107:157|133:142|133:142|153:158|153:158|185:138|236:153,1,157.500006008148,10|0,0:0|0:0,0:0:0:0:
391,255,200687,1,0,0:0:0:0:
305,297,200877,6,0,B|279:246|307:206|307:198|335:162|307:106,1,196.875,6|0,0:0|0:0,0:0:0:0:
391,255,201636,2,0,P|453:271|513:246,1,131.25,10|2,0:0|0:0,0:0:0:0:
446,165,202206,1,4,0:0:0:0:
305,297,202396,6,0,L|239:291,1,65.625,6|0,0:0|0:0,0:0:0:0:
160,283,202776,2,0,L|225:277,1,65.625,6|0,0:0|0:0,0:0:0:0:
68,337,203155,2,0,P|53:275|78:216,1,131.25,10|2,0:0|0:0,0:0:0:0:
176,177,203725,1,0,0:0:0:0:
359,177,203915,38,0,B|308:192|275:169|275:169|260:185|260:185|223:162|175:177,1,196.875,4|0,0:0|0:0,0:0:0:0:
276,169,204674,2,0,P|283:136|274:101,1,65.625,10|0,0:0|0:0,0:0:0:0:
166,55,205054,1,2,0:0:0:0:
260,185,205244,1,4,0:0:0:0:
150,39,205434,6,0,P|117:31|82:40,1,65.625,6|0,0:0|0:0,0:0:0:0:
11,51,205814,2,0,P|42:59|73:53,1,65.625,6|0,0:0|0:0,0:0:0:0:
23,190,206193,2,0,L|28:255,1,65.625,10|0,0:0|0:0,0:0:0:0:
164,335,206573,2,0,L|169:269,1,65.625,6|0,0:0|0:0,0:0:0:0:
150,39,206953,6,0,P|172:97|154:160,1,131.25,6|2,0:0|0:0,0:0:0:0:
64,101,207523,1,0,0:0:0:0:
260,187,207712,2,0,P|230:241|171:269,1,131.25,10|2,0:0|0:0,0:0:0:0:
68,228,208282,1,4,0:0:0:0:
209,88,208472,6,0,L|143:94,1,65.625,6|0,0:0|0:0,0:0:0:0:
64,101,208852,2,0,L|129:107,1,65.625,6|0,0:0|0:0,0:0:0:0:
296,148,209231,2,0,P|315:87|294:25,1,131.25,10|2,0:0|0:0,0:0:0:0:
209,88,209801,1,0,0:0:0:0:
383,208,209991,6,0,P|394:238|390:270,1,65.625,6|0,0:0|0:0,0:0:0:0:
247,284,210371,1,6,0:0:0:0:
315,246,210561,1,4,0:0:0:0:
179,322,210750,6,0,P|169:291|173:259,1,65.625,10|0,0:0|0:0,0:0:0:0:
249,207,211130,1,6,0:0:0:0:
313,323,211320,1,8,0:0:0:0:
317,169,211510,37,6,0:0:0:0:
247,284,211700,1,8,0:0:0:0:
383,208,211890,1,6,0:0:0:0:
249,207,212079,2,0,L|208:204,2,21.875,4|4|4,0:0|0:0|0:0,0:0:0:0:
381,285,212269,5,10,0:0:0:0:
251,130,212459,1,4,0:0:0:0:
179,322,212649,1,6,0:0:0:0:
449,247,212839,1,8,0:0:0:0:
293,44,213029,6,0,B|242:18|202:46|194:46|158:74|102:46,1,196.875,6|0,0:0|0:0,0:0:0:0:
251,130,213788,2,0,P|267:192|242:252,1,131.25,10|6,0:0|0:0,0:0:0:0:
161,185,214358,1,4,0:0:0:0:
388,109,214548,6,0,P|356:103|325:111,1,65.625,6|0,0:0|0:0,0:0:0:0:
251,130,214928,2,0,P|284:136|315:127,1,65.625,6|0,0:0|0:0,0:0:0:0:
169,63,215307,2,0,P|145:122|161:185,1,131.25,10|2,0:0|0:0,0:0:0:0:
251,130,215877,1,0,0:0:0:0:
441,132,216067,6,0,B|390:158|350:130|342:130|306:102|250:130,1,196.875,4|0,0:0|0:0,0:0:0:0:
295,280,216826,2,0,P|300:248|292:217,1,65.625,10|0,0:0|0:0,0:0:0:0:
219,250,217206,1,2,0:0:0:0:
371,310,217396,1,4,0:0:0:0:
205,235,217586,6,0,L|140:229,1,65.625,6|0,0:0|0:0,0:0:0:0:
60,249,217966,2,0,L|126:243,1,65.625,6|0,0:0|0:0,0:0:0:0:
251,130,218345,2,0,L|186:124,1,65.625,10|0,0:0|0:0,0:0:0:0:
33,361,218725,2,0,L|99:356,1,65.625,6|0,0:0|0:0,0:0:0:0:
105,56,219105,38,0,P|80:116|96:179,1,131.25,6|2,0:0|0:0,0:0:0:0:
188,229,219674,1,0,0:0:0:0:
288,192,219864,2,0,P|248:141|186:124,1,131.25,10|2,0:0|0:0,0:0:0:0:
188,229,220434,1,4,0:0:0:0:
296,69,220624,6,0,P|329:63|360:72,1,65.625,6|0,0:0|0:0,0:0:0:0:
433,90,221004,2,0,P|401:96|370:88,1,65.625,6|0,0:0|0:0,0:0:0:0:
510,27,221383,2,0,P|530:88|512:150,1,131.25,10|2,0:0|0:0,0:0:0:0:
420,188,221953,1,8,0:0:0:0:
264,68,222143,5,6,0:0:0:0:
498,248,222333,1,8,0:0:0:0:
498,248,222523,1,2,0:0:0:0:
342,128,222712,2,0,L|341:149,2,21.875,4|4|4,0:0|0:0|0:0,0:0:0:0:
407,285,222902,5,10,0:0:0:0:
316,322,223092,1,4,0:0:0:0:
498,248,223282,1,10,0:0:0:0:
225,359,223472,1,4,0:0:0:0:
330,225,223662,5,6,0:0:0:0:
283,175,223788,1,8,0:0:0:0:
214,174,223915,1,8,0:0:0:0:
166,223,224042,1,14,0:0:0:0:
118,271,224168,1,8,0:0:0:0:
50,270,224295,1,8,0:0:0:0:
2,221,224421,5,14,0:0:0:0:
50,201,224548,1,8,0:0:0:0:
98,221,224674,1,8,0:0:0:0:
118,271,224801,1,6,0:0:0:0:
138,321,224928,1,4,0:0:0:0:
186,341,225054,1,4,0:0:0:0:
234,321,225181,38,0,B|287:296|342:330|342:330|365:305|365:305|423:336|481:310,1,267.750005106926,6|0,0:0|0:0,0:0:0:0:
364,132,225940,2,0,B|340:186|364:214|364:222|388:250|365:304,1,178.500003404617,10|2,0:0|0:0,0:0:0:0:
287,263,226510,1,4,0:0:0:0:
364,132,226700,6,0,P|397:126|428:135,1,65.625,6|0,0:0|0:0,0:0:0:0:
501,153,227079,2,0,P|469:159|438:151,1,65.625,6|0,0:0|0:0,0:0:0:0:
481,311,227459,2,0,L|476:376,1,65.625,10|0,0:0|0:0,0:0:0:0:
292,328,227839,2,0,L|287:263,1,65.625,6|0,0:0|0:0,0:0:0:0:
103,215,228219,54,0,P|164:235|225:216,1,131.25,6|6,0:0|0:0,0:0:0:0:
296,187,228725,37,0,0:0:0:0:
358,233,228852,1,0,0:0:0:0:
349,309,228978,1,10,0:0:0:0:
278,339,229105,1,0,0:0:0:0:
216,292,229231,1,0,0:0:0:0:
226,215,229358,1,6,0:0:0:0:
287,263,229485,1,0,0:0:0:0:
155,244,229738,21,6,0:0:0:0:
79,251,229864,1,0,0:0:0:0:
3,257,229991,1,0,0:0:0:0:
48,321,230117,5,6,0:0:0:0:
86,318,230244,1,0,0:0:0:0:
124,315,230371,1,0,0:0:0:0:
103,384,230497,6,0,L|81:385,9,21.875,10|0|0|0|0|0|6|0|0|0,0:0|0:0|0:0|0:0|0:0|0:0|0:0|0:0|0:0|0:0,0:0:0:0:
72,183,231257,6,0,P|133:162|194:181,1,131.25,6|2,0:0|0:0,0:0:0:0:
135,266,231826,1,0,0:0:0:0:
235,85,232016,2,0,P|283:127|297:189,1,131.25,10|2,0:0|0:0,0:0:0:0:
195,181,232586,1,4,0:0:0:0:
401,200,232776,38,0,L|407:266,1,65.625,6|0,0:0|0:0,0:0:0:0:
415,345,233155,2,0,L|421:280,1,65.625,6|0,0:0|0:0,0:0:0:0:
278,282,233535,2,0,P|339:303|400:283,1,131.25,10|2,0:0|0:0,0:0:0:0:
339,199,234105,1,4,3:0:0:0:
200,257,234295,6,0,P|196:289|206:319,1,65.625,6|0,0:0|0:0,0:0:0:0:
339,199,234674,1,6,0:0:0:0:
278,282,234864,1,4,0:0:0:0:
416,222,235054,6,0,P|418:188|408:158,1,65.625,10|0,0:0|0:0,0:0:0:0:
339,119,235434,1,6,0:0:0:0:
276,363,235624,1,10,0:0:0:0:
236,187,235814,5,6,0:0:0:0:
381,294,236004,1,10,0:0:0:0:
200,257,236193,1,6,0:0:0:0:
416,222,236383,2,0,L|455:217,2,21.875,4|4|4,0:0|0:0|0:0,0:0:0:0:
309,241,236573,5,10,0:0:0:0:
453,347,236763,1,6,0:0:0:0:
236,187,237333,6,0,P|174:167|113:188,1,131.25,6|6,0:0|0:0,0:0:0:0:
71,284,237902,1,4,0:0:0:0:
74,288,237997,1,4,0:0:0:0:
77,292,238092,37,10,0:0:0:0:
176,273,238282,1,4,0:0:0:0:
52,105,238472,1,10,0:0:0:0:
9,201,238662,1,4,0:0:0:0:
9,201,238852,5,6,0:0:0:0:
216,178,239042,1,8,0:0:0:0:
154,93,239231,1,4,0:0:0:0:
114,188,239421,2,0,L|116:219,2,21.875,4|4|4,0:0|0:0|0:0,0:0:0:0:
258,81,239611,5,10,0:0:0:0:
278,263,239801,1,8,0:0:0:0:
216,178,239991,1,4,0:0:0:0:
320,166,240181,2,0,L|351:168,2,21.875,4|4|4,0:0|0:0|0:0,0:0:0:0:
202,375,240371,5,10,0:0:0:0:
356,188,240561,1,8,0:0:0:0:
111,150,240750,1,8,0:0:0:0:
181,333,240940,5,4,0:0:0:0:
329,227,241130,1,4,0:0:0:0:
158,152,241320,1,8,0:0:0:0:
174,299,241510,5,8,0:0:0:0:
302,251,241700,1,4,0:0:0:0:
193,163,241890,1,4,0:0:0:0:
176,273,242079,37,8,0:0:0:0:
278,263,242269,1,4,0:0:0:0:
216,178,242459,1,4,0:0:0:0:
219,208,242554,1,4,0:0:0:0:
223,238,242649,5,8,0:0:0:0:
90,287,242839,1,6,0:0:0:0:
111,150,243029,1,0,0:0:0:0:
141,225,243219,1,0,0:0:0:0:
77,69,243409,6,0,B|125:55|161:79|161:79|177:63|177:63|209:87|260:72,1,196.875,6|0,0:0|0:0,0:0:0:0:
161,79,244168,2,0,P|142:140|162:201,1,131.25,10|2,0:0|0:0,0:0:0:0:
258,242,244738,1,4,0:0:0:0:
353,199,244928,2,0,P|309:152|246:138,1,131.25,6|6,0:0|0:0,0:0:0:0:
176,305,245687,5,10,0:0:0:0:
258,242,245877,1,0,0:0:0:0:
163,202,246067,1,2,0:0:0:0:
198,249,246257,1,0,0:0:0:0:
8,251,246447,6,0,B|59:277|99:249|107:249|143:221|199:249,1,196.875,6|0,0:0|0:0,0:0:0:0:
10,374,247206,2,0,P|-10:312|8:251,1,131.25,10|2,0:0|0:0,0:0:0:0:
198,126,247776,1,4,0:0:0:0:
198,126,247966,2,0,P|218:187|199:248,1,131.25,6|6,0:0|0:0,0:0:0:0:
100,309,248725,5,10,0:0:0:0:
114,184,248915,1,8,0:0:0:0:
119,329,249105,1,6,0:0:0:0:
94,163,249295,1,10,0:0:0:0:
151,348,249485,38,0,B|199:362|235:338|235:338|251:354|251:354|283:330|334:345,1,196.875,6|0,0:0|0:0,0:0:0:0:
235,338,250244,2,0,P|216:276|236:215,1,131.25,10|2,0:0|0:0,0:0:0:0:
324,280,250814,1,4,0:0:0:0:
148,150,251004,2,0,P|199:111|264:109,1,131.25,6|6,0:0|0:0,0:0:0:0:
341,186,251573,1,0,0:0:0:0:
236,215,251763,5,10,0:0:0:0:
368,80,251953,1,0,0:0:0:0:
419,260,252143,1,2,0:0:0:0:
376,45,252333,1,0,0:0:0:0:
202,224,252523,6,0,P|140:242|79:221,1,131.25,6|6,0:0|0:0,0:0:0:0:
142,112,253029,2,0,L|144:143,2,21.875,0|4|0,0:0|0:0|0:0,0:0:0:0:
309,219,253282,2,0,P|294:281|245:324,1,131.25,10|6,0:0|0:0,0:0:0:0:
202,224,253852,1,8,0:0:0:0:
367,310,254042,5,6,0:0:0:0:
358,123,254231,1,8,0:0:0:0:
309,219,254421,1,6,0:0:0:0:
416,213,254611,2,0,L|443:210,2,21.875,4|4|4,0:0|0:0|0:0,0:0:0:0:
259,314,254801,5,10,0:0:0:0:
475,306,254991,1,8,0:0:0:0:
319,104,255181,1,6,0:0:0:0:
262,357,255371,1,8,0:0:0:0:
512,281,255561,6,0,B|535:227|511:199|511:191|487:167|511:111,1,175.349994514961,6|6,0:0|0:0,0:0:0:0:
426,239,256130,1,4,0:0:0:0:
426,239,256320,2,0,B|401:245|374:227|374:227|346:251|346:251|310:227|266:243,1,175.349994514961,10|6,0:0|0:0,0:0:0:0:
299,333,256890,1,8,0:0:0:0:
374,227,257079,38,0,L|381:139,1,87.6749972574807,6|8,0:0|0:0,0:0:0:0:
342,36,257459,1,6,0:0:0:0:
342,36,257649,2,0,L|344:67,2,29.2249990858269,4|4|4,0:0|0:0|0:0,0:0:0:0:
427,71,257839,5,10,0:0:0:0:
299,134,258029,1,8,0:0:0:0:
464,146,258219,1,6,0:0:0:0:
262,59,258409,1,8,0:0:0:0:
501,221,258598,6,0,B|507:246|487:273|487:273|515:301|515:301|488:337|504:377,1,175.349994514961,14|4,0:0|0:0,0:0:0:0:
507,380,259073,1,4,0:0:0:0:
510,384,259168,1,10,0:0:0:0:
423,226,259358,5,4,0:0:0:0:
420,230,259453,1,4,0:0:0:0:
417,234,259548,1,10,0:0:0:0:
501,221,259738,1,10,0:0:0:0:
458,156,259928,1,8,0:0:0:0:
388,296,260117,5,14,0:0:0:0:
501,91,260307,1,8,0:0:0:0:
459,77,260402,1,4,0:0:0:0:
418,89,260497,1,8,0:0:0:0:
388,121,260592,1,4,0:0:0:0:
359,152,260687,1,4,0:0:0:0:
318,164,260782,1,4,0:0:0:0:
276,151,260877,5,10,0:0:0:0:
306,38,261067,1,4,0:0:0:0:
309,42,261162,1,4,0:0:0:0:
312,46,261257,1,10,0:0:0:0:
388,121,261447,1,4,0:0:0:0:
190,109,261636,38,0,B|168:164|205:217|205:217|181:241|181:241|215:297|195:353,1,263.024991772442,6|4,0:0|0:0,0:0:0:0:
10,258,262396,2,0,P|91:167|219:262,1,263.024991772442,10|4,0:0|0:0,0:0:0:0:
106,358,263155,6,0,L|113:270,1,87.6749972574807,6|8,0:0|0:0,0:0:0:0:
81,382,263535,2,0,L|87:295,1,87.6749972574807,6|4,0:0|0:0,0:0:0:0:
3,208,263820,1,4,0:0:0:0:
6,212,263915,6,0,L|78:260,1,87.6749972574807,10|0,0:0|0:0,0:0:0:0:
190,232,264200,1,0,0:0:0:0:
185,232,264295,1,4,0:0:0:0:
113,271,264485,1,8,0:0:0:0:
275,360,264674,6,0,B|268:334|287:308|287:308|263:279|263:279|287:243|271:199,1,175.349994514961,6|6,0:0|0:0,0:0:0:0:
190,232,265244,1,4,0:0:0:0:
287,308,265434,2,0,B|312:314|339:296|339:296|367:320|367:320|403:296|447:312,1,175.349994514961,10|6,0:0|0:0,0:0:0:0:
413,384,266004,1,8,0:0:0:0:
339,296,266193,5,6,0:0:0:0:
303,250,266320,1,8,0:0:0:0:
303,195,266447,1,8,0:0:0:0:
337,150,266573,1,10,0:0:0:0:
371,106,266700,1,8,0:0:0:0:
371,51,266826,1,4,0:0:0:0:
337,8,266953,5,6,0:0:0:0:
312,27,267079,1,8,0:0:0:0:
317,59,267206,1,4,0:0:0:0:
346,70,267333,1,10,0:0:0:0:
371,51,267459,1,0,0:0:0:0:
366,19,267586,1,4,0:0:0:0:
337,8,267712,38,0,B|311:7|293:23|293:23|263:3|263:3|207:35|177:6|177:13|147:-15|89:17,1,262.5,6|0,0:0|0:0,0:0:0:0:
190,168,270750,85,2,0:0:0:0:
143,90,271130,1,0,0:0:0:0:
146,246,271510,1,2,0:0:0:0:
236,245,271890,1,0,0:0:0:0:
100,168,272269,5,2,0:0:0:0:
55,248,272649,1,0,0:0:0:0:
55,88,273029,1,2,0:0:0:0:
100,168,273409,1,0,0:0:0:0:
100,8,273788,101,2,0:0:0:0:
55,88,274168,1,0,0:0:0:0:
239,86,274548,1,2,0:0:0:0:
147,87,274928,1,2,0:0:0:0:
240,245,275307,5,2,0:0:0:0:
194,166,275687,1,0,0:0:0:0:
332,245,276067,1,2,0:0:0:0:
286,324,276447,1,0,0:0:0:0:
286,166,276826,101,2,0:0:0:0:
377,165,277206,1,0,0:0:0:0:
265,148,277586,5,2,0:0:0:0:
397,182,277980,1,0,0:0:0:0:
242,115,278375,101,2,0:0:0:0:
420,215,278770,1,0,0:0:0:0:
221,58,279164,5,2,0:0:0:0:
441,272,279647,101,2,0:0:0:0:
145,354,280328,1,0,0:0:0:0:
141,358,280374,5,2,0:0:0:0:
256,192,280555,12,0,282550,0:0:0:0:
265,224,283579,5,2,0:0:0:0:
269,228,283647,2,0,B|269:194|269:194|293:169|293:169|286:134|286:134|302:104|302:104|367:48|483:79|520:188|444:284|274:271|271:345|232:368|232:368|207:329|244:263|87:189|77:66|162:4|253:34|288:80,1,1108.79999661621,2|0,0:0|0:0,0:0:0:0:
