osu file format v14

[General]
AudioFilename: audio.mp3
AudioLeadIn: 0
PreviewTime: 71514
Countdown: 1
SampleSet: Normal
StackLeniency: 0.7
Mode: 0
LetterboxInBreaks: 0
WidescreenStoryboard: 0

[Editor]
Bookmarks: 951,7711,11092,14472,27993,29683,41514,43204,49965,55035,56726,66866,68557,70247,71937,85458,98979,104049,110810,113345,133555,139871,154237,167758,177899,179589,182969,193110,196490,210011,221842,223532,237054,240434,243709
DistanceSpacing: 1
BeatDivisor: 4
GridSize: 4
TimelineZoom: 1

[Metadata]
Title:Megitsune
TitleUnicode:Megitsune
Artist:BABYMETAL
ArtistUnicode:BABYMETAL
Creator:[ Same ]
Version:
Source:
Tags:
BeatmapID:1304011
BeatmapSetID:618631

[Difficulty]
HPDrainRate:5
CircleSize:4
OverallDifficulty:5
ApproachRate:9.3
SliderMultiplier:2.84
SliderTickRate:1

[Events]
//Background and Video events
0,0,"stretched-1366-768-760619.jpg",0,0
//Break Periods
//Storyboard Layer 0 (Background)
//Storyboard Layer 1 (Fail)
//Storyboard Layer 2 (Pass)
//Storyboard Layer 3 (Foreground)
//Storyboard Sound Samples

[TimingPoints]
951.391018961545,422.535211267606,4,1,0,100,1,0
14472,-83.3333333333333,4,1,0,100,0,0
56726,-100,4,1,0,100,0,0
66866,-83.3333333333333,4,1,0,100,0,0
71937,-76.9230769230769,4,1,0,100,0,0
113345,631.578947368421,4,1,0,100,1,0
139871,422.535211267606,4,1,0,100,1,0

[HitObjects]
181,109,951,6,0,L|152:198,3,71
211,277,1479,1,0,0:0:0:0:
349,185,1690,1,0,0:0:0:0:
349,185,1796,1,0,0:0:0:0:
253,53,2007,5,0,0:0:0:0:
185,76,2112,1,0,0:0:0:0:
118,99,2218,1,0,0:0:0:0:
92,249,2641,5,0,0:0:0:0:
152,284,2746,1,0,0:0:0:0:
222,281,2852,1,0,0:0:0:0:
279,240,2957,1,0,0:0:0:0:
306,175,3064,1,0,0:0:0:0:
312,105,3169,1,0,0:0:0:0:
359,53,3275,1,0,0:0:0:0:
428,40,3380,1,0,0:0:0:0:
494,70,3486,5,0,0:0:0:0:
460,131,3591,1,0,0:0:0:0:
402,171,3697,1,0,0:0:0:0:
332,179,3802,1,0,0:0:0:0:
270,156,3909,1,0,0:0:0:0:
209,119,4014,1,0,0:0:0:0:
139,114,4120,1,0,0:0:0:0:
141,246,4331,5,0,0:0:0:0:
141,246,4437,1,0,0:0:0:0:
141,246,4542,1,0,0:0:0:0:
141,246,4648,1,0,0:0:0:0:
205,140,4859,1,0,0:0:0:0:
172,334,5071,1,0,0:0:0:0:
172,334,5176,1,0,0:0:0:0:
360,331,5388,5,0,0:0:0:0:
377,262,5493,1,0,0:0:0:0:
394,193,5599,1,0,0:0:0:0:
432,27,5810,5,0,0:0:0:0:
262,67,6021,1,0,0:0:0:0:
99,24,6233,1,0,0:0:0:0:
263,209,6444,1,0,0:0:0:0:
432,27,6655,1,0,0:0:0:0:
237,47,6866,5,0,0:0:0:0:
171,71,6971,1,0,0:0:0:0:
133,132,7078,2,0,L|110:191,3,47.3333333333333
117,330,7500,1,0,0:0:0:0:
256,192,7711,12,0,8451,0:0:0:0:
256,192,8557,12,0,9296,0:0:0:0:
256,192,9402,12,0,10141,0:0:0:0:
255,191,10247,5,0,0:0:0:0:
124,49,10458,1,0,0:0:0:0:
61,265,10669,1,0,0:0:0:0:
257,289,10880,1,0,0:0:0:0:
327,285,10985,1,0,0:0:0:0:
398,281,11091,1,0,0:0:0:0:
397,56,11514,5,0,0:0:0:0:
108,109,11726,1,0,0:0:0:0:
314,333,11937,1,0,0:0:0:0:
454,132,12148,1,0,0:0:0:0:
152,224,12359,1,0,0:0:0:0:
450,345,12571,1,0,0:0:0:0:
363,66,12782,6,0,L|221:77,1,142
154,100,13099,1,0,0:0:0:0:
94,137,13204,1,0,0:0:0:0:
54,195,13309,1,0,0:0:0:0:
50,265,13415,1,0,0:0:0:0:
80,327,13521,1,0,0:0:0:0:
108,262,13626,1,0,0:0:0:0:
165,223,13732,1,0,0:0:0:0:
235,224,13838,2,0,L|293:237,3,47.3333333333333
377,161,14472,5,0,0:0:0:0:
450,126,14577,1,0,0:0:0:0:
459,46,14683,1,0,0:0:0:0:
393,2,14789,2,0,L|382:93,1,85.1999973999024
377,203,15000,1,0,0:0:0:0:
290,77,15211,1,0,0:0:0:0:
365,314,15317,6,0,L|262:321,1,85.1999973999024
177,319,15528,1,0,0:0:0:0:
147,239,15633,1,0,0:0:0:0:
155,156,15740,2,0,B|176:114|176:114|134:25,2,85.1999973999024
74,193,16057,1,0,0:0:0:0:
54,275,16162,5,0,0:0:0:0:
136,255,16267,1,0,0:0:0:0:
220,268,16373,1,0,0:0:0:0:
292,312,16478,1,0,0:0:0:0:
367,342,16585,1,0,0:0:0:0:
445,333,16690,1,0,0:0:0:0:
422,95,16902,1,0,0:0:0:0:
422,95,17007,6,0,P|366:77|257:93,1,170.399994799805
103,51,17324,2,0,L|77:148,1,85.1999973999024
261,239,17535,2,0,L|166:231,1,85.1999973999024
111,344,17852,5,0,0:0:0:0:
191,315,17957,1,0,0:0:0:0:
275,314,18063,1,0,0:0:0:0:
357,338,18168,1,0,0:0:0:0:
432,299,18275,1,0,0:0:0:0:
427,69,18486,1,0,0:0:0:0:
427,69,18592,6,0,L|485:160,2,85.1999973999024
326,53,18909,2,0,P|281:45|150:75,1,170.399994799805
94,149,19226,2,0,L|52:252,2,85.1999973999024
215,93,19542,5,0,0:0:0:0:
298,82,19647,1,0,0:0:0:0:
370,124,19753,1,0,0:0:0:0:
403,201,19858,1,0,0:0:0:0:
300,164,19965,5,0,0:0:0:0:
216,160,20070,1,0,0:0:0:0:
150,211,20176,1,0,0:0:0:0:
130,292,20281,1,0,0:0:0:0:
228,242,20388,5,0,0:0:0:0:
216,158,20493,1,0,0:0:0:0:
163,93,20599,1,0,0:0:0:0:
83,67,20704,1,0,0:0:0:0:
128,170,20810,5,0,0:0:0:0:
188,228,20915,1,0,0:0:0:0:
270,245,21021,1,0,0:0:0:0:
349,215,21126,1,0,0:0:0:0:
398,151,21233,6,0,P|426:114|479:92,1,85.1999973999024
432,295,21444,2,0,P|406:319|352:342,1,85.1999973999024
172,309,21655,2,0,P|226:268|276:262,1,85.1999973999024
324,196,21866,1,0,0:0:0:0:
381,79,21972,1,0,0:0:0:0:
381,79,22078,6,0,B|315:82|315:82|270:52|270:52|188:52,1,170.399994799805
72,132,22500,1,0,0:0:0:0:
83,216,22605,1,0,0:0:0:0:
96,304,22711,2,0,P|160:340|256:328,1,170.399994799805
324,288,23028,5,0,0:0:0:0:
339,205,23133,1,0,0:0:0:0:
315,124,23239,1,0,0:0:0:0:
336,44,23345,2,0,L|404:104,1,85.1999973999024
448,296,23662,5,0,0:0:0:0:
448,296,23768,2,0,B|348:276|348:276|240:288,1,170.399994799805
112,284,24190,1,0,0:0:0:0:
45,235,24295,1,0,0:0:0:0:
40,152,24402,2,0,B|80:76|80:76|116:76|184:64,1,170.399994799805
244,60,24718,5,0,0:0:0:0:
324,87,24823,1,0,0:0:0:0:
409,89,24929,1,0,0:0:0:0:
492,64,25035,2,0,P|508:104|492:168,1,85.1999973999024
464,336,25352,1,0,0:0:0:0:
464,336,25458,6,0,P|356:308|284:332,1,170.399994799805
244,184,25880,1,0,0:0:0:0:
159,172,25985,1,0,0:0:0:0:
76,160,26091,1,0,0:0:0:0:
232,76,26303,5,0,0:0:0:0:
316,90,26408,1,0,0:0:0:0:
400,104,26514,1,0,0:0:0:0:
484,118,26619,1,0,0:0:0:0:
346,173,26726,5,0,0:0:0:0:
263,192,26831,1,0,0:0:0:0:
180,212,26937,1,0,0:0:0:0:
97,232,27042,1,0,0:0:0:0:
237,275,27148,5,0,0:0:0:0:
321,288,27253,1,0,0:0:0:0:
405,302,27359,1,0,0:0:0:0:
489,316,27464,1,0,0:0:0:0:
351,367,27571,5,0,0:0:0:0:
266,376,27676,1,0,0:0:0:0:
181,374,27782,1,0,0:0:0:0:
97,358,27887,1,0,0:0:0:0:
20,323,27993,1,0,0:0:0:0:
245,192,29261,6,0,B|248:178|258:173|270:173|278:178|284:188|279:202|270:204|260:209|246:201,4,85.1999973999024
341,239,29789,1,0,0:0:0:0:
419,218,29894,1,0,0:0:0:0:
439,139,30000,1,0,0:0:0:0:
381,86,30106,2,0,L|272:57,1,85.1999973999024
164,224,30317,2,0,L|280:197,1,85.1999973999024
296,29,30528,2,0,L|332:150,1,85.1999973999024
229,274,30740,2,0,L|241:175,1,85.1999973999024
107,49,30951,2,0,L|259:112,2,85.1999973999024
426,246,31373,6,0,L|328:270,1,85.1999973999024
101,186,31585,2,0,L|211:223,1,85.1999973999024
426,246,31796,2,0,L|328:270,1,85.1999973999024
101,186,32007,2,0,L|211:223,1,85.1999973999024
181,213,32218,1,0,0:0:0:0:
397,77,32430,6,0,L|374:202,1,85.1999973999024
213,308,32641,2,0,L|234:206,1,85.1999973999024
397,77,32852,2,0,L|374:202,1,85.1999973999024
366,257,33064,1,0,0:0:0:0:
135,291,33275,5,0,0:0:0:0:
106,210,33380,1,0,0:0:0:0:
78,130,33486,1,0,0:0:0:0:
114,53,33592,1,0,0:0:0:0:
114,53,33697,2,0,B|163:74|163:74|239:53|316:62,1,170.399994799805
369,54,34014,5,0,0:0:0:0:
451,51,34119,1,0,0:0:0:0:
507,111,34225,1,0,0:0:0:0:
503,193,34331,2,0,P|472:242|492:357,2,170.399994799805
507,111,34859,5,0,0:0:0:0:
450,50,34964,1,0,0:0:0:0:
368,37,35070,1,0,0:0:0:0:
400,117,35176,2,0,P|316:134|228:89,1,170.399994799805
86,46,35599,5,0,0:0:0:0:
48,121,35704,1,0,0:0:0:0:
57,204,35810,1,0,0:0:0:0:
110,269,35915,1,0,0:0:0:0:
139,184,36021,2,0,L|228:242,1,85.1999973999024
264,334,36233,2,0,L|105:331,1,85.1999973999024
297,178,36444,6,0,L|399:169,1,85.1999973999024
443,324,36655,2,0,L|334:344,1,85.1999973999024
365,230,36866,2,0,L|415:119,1,85.1999973999024
235,123,37078,2,0,P|132:113|98:88,2,85.1999973999024
80,258,37500,1,0,0:0:0:0:
139,316,37605,1,0,0:0:0:0:
221,330,37711,2,0,P|314:315|400:338,1,170.399994799805
446,164,38134,5,0,0:0:0:0:
400,94,38239,1,0,0:0:0:0:
319,79,38345,1,0,0:0:0:0:
251,127,38450,1,0,0:0:0:0:
233,206,38557,2,0,P|229:301|186:333,1,85.1999973999024
125,123,38768,2,0,B|125:70|125:70|155:30,1,85.1999973999024
248,42,38979,5,0,0:0:0:0:
322,82,39084,1,0,0:0:0:0:
380,143,39190,1,0,0:0:0:0:
416,220,39295,1,0,0:0:0:0:
417,308,39402,2,0,L|304:339,1,85.1999973999024
115,220,39613,2,0,L|259:244,1,85.1999973999024
327,245,39824,5,0,0:0:0:0:
308,161,39929,1,0,0:0:0:0:
290,78,40035,1,0,0:0:0:0:
227,131,40141,2,0,L|143:205,1,85.1999973999024
87,277,40352,1,0,0:0:0:0:
87,277,40458,2,0,L|177:309,1,85.1999973999024
409,275,40669,6,0,L|305:308,1,85.1999973999024
105,210,40880,2,0,L|213:255,1,85.1999973999024
374,75,41092,2,0,L|285:155,2,85.1999973999024
211,349,41514,5,0,0:0:0:0:
191,42,41726,1,0,0:0:0:0:
211,349,41937,5,0,0:0:0:0:
191,42,42148,1,0,0:0:0:0:
262,116,42254,1,0,0:0:0:0:
137,330,42465,1,0,0:0:0:0:
118,64,42676,1,0,0:0:0:0:
99,157,42782,1,0,0:0:0:0:
249,337,43204,5,0,0:0:0:0:
331,317,43309,1,0,0:0:0:0:
413,336,43415,1,0,0:0:0:0:
479,285,43521,2,0,B|495:234|495:234|477:172,1,85.1999973999024
277,32,43838,2,0,B|329:42|329:42|359:80,1,85.1999973999024
206,157,44049,6,0,B|151:146|151:146|112:105,1,85.1999973999024
95,282,44261,1,0,0:0:0:0:
95,282,44366,1,0,0:0:0:0:
181,328,44472,2,0,P|271:323|359:336,1,170.399994799805
448,123,44895,5,0,0:0:0:0:
440,204,45000,1,0,0:0:0:0:
371,248,45106,1,0,0:0:0:0:
294,220,45211,1,0,0:0:0:0:
270,141,45317,1,0,0:0:0:0:
314,73,45423,1,0,0:0:0:0:
449,286,45634,1,0,0:0:0:0:
449,286,45740,6,0,P|368:335|287:313,1,170.399994799805
134,308,46162,1,0,0:0:0:0:
90,236,46267,1,0,0:0:0:0:
90,151,46373,1,0,0:0:0:0:
133,80,46478,1,0,0:0:0:0:
210,38,46585,6,0,P|264:26|332:45,1,85.1999973999024
235,259,46796,2,0,P|186:273|128:253,1,85.1999973999024
61,69,47007,2,0,P|37:164|45:191,1,85.1999973999024
146,329,47324,1,0,0:0:0:0:
146,329,47430,2,0,L|326:341,1,170.399994799805
471,138,47852,6,0,L|454:231,1,85.1999973999024
288,108,48064,2,0,L|257:21,1,85.1999973999024
127,244,48275,1,0,0:0:0:0:
131,160,48380,1,0,0:0:0:0:
180,91,48486,1,0,0:0:0:0:
258,60,48591,1,0,0:0:0:0:
216,170,48697,5,0,0:0:0:0:
132,157,48802,1,0,0:0:0:0:
68,103,48908,1,0,0:0:0:0:
42,23,49013,1,0,0:0:0:0:
150,73,49120,5,0,0:0:0:0:
178,152,49225,1,0,0:0:0:0:
170,236,49331,1,0,0:0:0:0:
125,308,49436,1,0,0:0:0:0:
100,183,49542,5,0,0:0:0:0:
178,150,49647,1,0,0:0:0:0:
263,145,49753,1,0,0:0:0:0:
344,168,49858,1,0,0:0:0:0:
422,59,49965,6,0,L|302:79,1,85.1999973999024
237,248,50176,2,0,L|348:263,1,85.1999973999024
134,62,50388,2,0,L|237:78,1,85.1999973999024
461,194,50704,1,0,0:0:0:0:
461,194,50810,6,0,P|356:203|292:240,1,170.399994799805
154,344,51233,1,0,0:0:0:0:
77,309,51338,1,0,0:0:0:0:
31,239,51444,1,0,0:0:0:0:
32,155,51549,1,0,0:0:0:0:
107,55,51655,5,0,0:0:0:0:
191,67,51760,1,0,0:0:0:0:
214,181,51866,2,0,L|113:211,1,85.1999973999024
304,277,52078,2,0,L|397:313,1,85.1999973999024
443,71,52395,1,0,0:0:0:0:
443,71,52500,6,0,B|355:87|355:87|240:62,1,170.399994799805
83,82,52923,2,0,L|57:179,1,85.1999973999024
241,335,53134,2,0,L|214:222,1,85.1999973999024
83,81,53345,1,0,0:0:0:0:
157,41,53450,1,0,0:0:0:0:
242,39,53556,1,0,0:0:0:0:
318,74,53661,1,0,0:0:0:0:
367,148,53768,2,0,P|401:197|478:201,1,85.1999973999024
165,133,54085,1,0,0:0:0:0:
165,133,54190,6,0,P|95:213|130:310,1,170.399994799805
279,339,54613,2,0,P|366:317|391:322,1,85.1999973999024
487,197,54824,2,0,P|454:230|436:289,1,85.1999973999024
356,188,55035,5,0,0:0:0:0:
281,146,55140,1,0,0:0:0:0:
206,105,55246,1,0,0:0:0:0:
132,64,55351,1,0,0:0:0:0:
279,63,55458,5,0,0:0:0:0:
362,56,55563,1,0,0:0:0:0:
433,100,55669,1,0,0:0:0:0:
463,178,55774,1,0,0:0:0:0:
399,289,55880,5,0,0:0:0:0:
316,299,55986,1,0,0:0:0:0:
244,257,56092,1,0,0:0:0:0:
211,181,56197,1,0,0:0:0:0:
184,46,56303,5,0,0:0:0:0:
105,73,56408,1,0,0:0:0:0:
66,147,56514,1,0,0:0:0:0:
86,228,56619,1,0,0:0:0:0:
160,280,56726,6,0,P|237:329|306:320,1,142
406,278,57042,1,0,0:0:0:0:
406,278,57148,2,0,P|387:195|408:126,1,142
348,37,57465,1,0,0:0:0:0:
282,27,57571,2,0,B|214:64|145:65|92:22|92:22|147:57|168:101|200:76,1,284
282,222,58204,5,0,0:0:0:0:
347,202,58309,1,0,0:0:0:0:
366,136,58415,1,0,0:0:0:0:
254,56,58627,2,0,L|170:81,1,71
136,143,58838,1,0,0:0:0:0:
178,318,59049,2,0,L|266:321,2,71
46,164,59472,1,0,0:0:0:0:
204,26,59683,6,0,P|292:47|353:28,1,142
366,204,60106,2,0,P|341:282|370:360,1,142
355,338,60423,1,0,0:0:0:0:
211,329,60740,1,0,0:0:0:0:
140,319,60845,1,0,0:0:0:0:
73,312,60951,2,0,P|85:235|36:104,1,213
219,42,61585,1,0,0:0:0:0:
219,42,61690,1,0,0:0:0:0:
303,88,61796,6,0,P|383:73|454:90,1,142
441,84,62113,1,0,0:0:0:0:
384,251,62430,2,0,P|364:313|365:319,3,47.3333333333333
217,333,62852,1,0,0:0:0:0:
146,328,62957,1,0,0:0:0:0:
87,291,63063,1,0,0:0:0:0:
52,230,63168,1,0,0:0:0:0:
51,159,63274,1,0,0:0:0:0:
83,97,63380,1,0,0:0:0:0:
138,60,63486,6,0,B|205:91|228:68|305:29|373:77,1,213
295,143,64120,1,0,0:0:0:0:
295,143,64226,1,0,0:0:0:0:
295,143,64331,2,0,P|305:217|239:135,1,284
387,42,64965,1,0,0:0:0:0:
446,77,65070,1,0,0:0:0:0:
468,143,65176,1,0,0:0:0:0:
440,303,65493,5,0,0:0:0:0:
305,307,65810,2,0,L|221:302,2,71
443,217,66233,1,0,0:0:0:0:
291,134,66444,1,0,0:0:0:0:
286,67,66549,1,0,0:0:0:0:
222,47,66655,1,0,0:0:0:0:
181,100,66760,1,0,0:0:0:0:
215,157,66866,1,0,0:0:0:0:
321,295,67078,5,0,0:0:0:0:
57,257,67289,1,0,0:0:0:0:
325,187,67500,1,0,0:0:0:0:
240,172,67605,1,0,0:0:0:0:
156,158,67711,1,0,0:0:0:0:
79,302,67923,1,0,0:0:0:0:
163,289,68028,1,0,0:0:0:0:
247,277,68134,1,0,0:0:0:0:
386,122,68346,1,0,0:0:0:0:
301,133,68451,1,0,0:0:0:0:
217,148,68557,6,0,L|76:169,1,85.1999973999024
155,332,68768,2,0,L|244:315,1,85.1999973999024
363,178,68979,2,0,L|245:199,1,85.1999973999024
130,74,69190,2,0,L|223:77,1,85.1999973999024
346,73,69402,1,0,0:0:0:0:
428,88,69507,1,0,0:0:0:0:
484,150,69613,1,0,0:0:0:0:
492,234,69718,1,0,0:0:0:0:
447,304,69824,2,0,L|329:329,1,85.1999973999024
164,160,70035,2,0,L|291:167,1,85.1999973999024
415,38,70247,6,0,L|345:56,7,42.5999986999512
263,115,70669,2,0,L|324:130,7,42.5999986999512
394,213,71092,2,0,L|339:226,8,42.5999986999512
312,314,71937,6,0,P|213:316|114:283,1,184.599991549683
76,183,72254,1,0,0:0:0:0:
76,183,72359,2,0,P|93:138|58:54,1,92.2999957748415
175,48,72571,1,0,0:0:0:0:
265,32,72676,1,0,0:0:0:0:
356,43,72782,1,0,0:0:0:0:
440,81,72887,1,0,0:0:0:0:
366,132,72993,6,0,P|315:131|271:151,1,92.2999957748415
317,318,73204,2,0,P|374:319|408:298,1,92.2999957748415
252,206,73416,2,0,P|201:204|160:222,1,92.2999957748415
86,337,73627,1,0,0:0:0:0:
177,329,73732,1,0,0:0:0:0:
269,321,73838,1,0,0:0:0:0:
361,314,73943,1,0,0:0:0:0:
450,252,74049,6,0,L|473:137,1,92.2999957748415
313,46,74261,2,0,L|334:157,1,92.2999957748415
269,321,74472,2,0,L|277:205,1,92.2999957748415
132,104,74683,2,0,L|239:151,1,92.2999957748415
356,178,74895,1,0,0:0:0:0:
442,184,75000,1,0,0:0:0:0:
482,106,75106,1,0,0:0:0:0:
426,40,75211,1,0,0:0:0:0:
394,115,75317,6,0,B|343:101|314:132|268:168|197:125,1,184.599991549683
144,148,75634,1,0,0:0:0:0:
68,192,75740,1,0,0:0:0:0:
68,284,75845,1,0,0:0:0:0:
88,300,75951,2,0,B|171:341|171:341|275:344,1,184.599991549683
369,317,76268,1,0,0:0:0:0:
424,246,76373,1,0,0:0:0:0:
423,78,76585,5,0,0:0:0:0:
331,87,76690,1,0,0:0:0:0:
239,97,76796,1,0,0:0:0:0:
148,104,76902,1,0,0:0:0:0:
30,170,77007,2,0,P|174:200|221:238,1,184.599991549683
228,329,77430,1,0,0:0:0:0:
138,322,77535,1,0,0:0:0:0:
85,250,77641,1,0,0:0:0:0:
174,68,77852,1,0,0:0:0:0:
249,117,77957,1,0,0:0:0:0:
306,190,78063,1,0,0:0:0:0:
386,236,78168,1,0,0:0:0:0:
471,207,78275,6,0,L|390:134,1,92.2999957748415
203,256,78486,2,0,L|281:332,1,92.2999957748415
408,80,78697,6,0,P|314:98|211:68,1,184.599991549683
129,54,79014,1,0,0:0:0:0:
48,94,79119,1,0,0:0:0:0:
19,180,79225,1,0,0:0:0:0:
58,261,79330,1,0,0:0:0:0:
109,186,79437,1,0,0:0:0:0:
153,264,79542,6,0,P|179:315|307:338,1,184.599991549683
441,245,79965,1,0,0:0:0:0:
428,153,80070,1,0,0:0:0:0:
416,62,80176,1,0,0:0:0:0:
339,18,80282,1,0,0:0:0:0:
250,26,80388,2,0,B|173:39|173:39|66:32,1,184.599991549683
68,237,80810,5,0,0:0:0:0:
68,237,80916,2,0,P|174:289|275:286,1,184.599991549683
334,269,81233,1,0,0:0:0:0:
398,210,81338,1,0,0:0:0:0:
372,126,81444,1,0,0:0:0:0:
285,116,81549,1,0,0:0:0:0:
239,192,81655,1,0,0:0:0:0:
178,257,81760,1,0,0:0:0:0:
88,257,81866,1,0,0:0:0:0:
28,191,81971,1,0,0:0:0:0:
25,103,82078,6,0,P|34:46|85:121,1,184.599991549683
107,186,82395,1,0,0:0:0:0:
121,274,82500,1,0,0:0:0:0:
199,318,82606,1,0,0:0:0:0:
337,325,82711,2,0,L|228:264,1,92.2999957748415
394,120,82923,2,0,L|367:254,1,92.2999957748415
136,182,83134,2,0,L|192:49,1,92.2999957748415
312,225,83345,6,0,L|354:339,1,92.2999957748415
394,69,83557,2,0,L|341:170,1,92.2999957748415
197,208,83768,2,0,L|161:89,1,92.2999957748415
59,55,83979,1,0,0:0:0:0:
69,146,84084,1,0,0:0:0:0:
79,238,84190,1,0,0:0:0:0:
89,330,84295,1,0,0:0:0:0:
192,289,84402,6,0,P|292:273|338:299,1,92.2999957748415
433,164,84613,2,0,P|375:205|348:240,1,92.2999957748415
173,104,84824,2,0,P|183:164|211:205,1,92.2999957748415
434,164,85035,2,0,P|431:110|399:44,1,92.2999957748415
246,231,85247,2,0,P|255:278|281:329,1,92.2999957748415
388,78,85458,6,0,P|280:52|207:58,1,184.599991549683
77,80,85775,1,0,0:0:0:0:
66,171,85880,1,0,0:0:0:0:
130,233,85986,1,0,0:0:0:0:
122,324,86091,1,0,0:0:0:0:
195,376,86197,1,0,0:0:0:0:
321,325,86303,6,0,L|441:286,1,92.2999957748415
185,126,86514,2,0,L|226:238,1,92.2999957748415
323,273,86726,1,0,0:0:0:0:
411,261,86831,1,0,0:0:0:0:
455,186,86937,1,0,0:0:0:0:
419,100,87042,1,0,0:0:0:0:
293,78,87148,6,0,L|184:46,1,92.2999957748415
147,248,87359,2,0,L|255:286,1,92.2999957748415
112,46,87571,2,0,L|82:156,1,92.2999957748415
333,235,87782,2,0,L|359:136,1,92.2999957748415
370,51,87993,5,0,0:0:0:0:
453,20,88098,1,0,0:0:0:0:
512,72,88204,1,0,0:0:0:0:
512,161,88309,1,0,0:0:0:0:
448,209,88416,2,0,P|405:240|350:237,1,92.2999957748415
132,135,88627,2,0,P|188:125|232:135,1,92.2999957748415
330,323,88838,6,0,B|229:340|229:340|111:318,1,184.599991549683
68,277,89155,1,0,0:0:0:0:
59,185,89260,1,0,0:0:0:0:
51,93,89366,1,0,0:0:0:0:
117,22,89472,1,0,0:0:0:0:
133,112,89577,1,0,0:0:0:0:
174,200,89683,6,0,L|296:228,1,92.2999957748415
426,33,89895,2,0,L|311:57,1,92.2999957748415
128,87,90106,2,0,L|245:110,1,92.2999957748415
465,152,90317,2,0,L|416:293,1,92.2999957748415
353,334,90528,1,0,0:0:0:0:
264,309,90633,1,0,0:0:0:0:
172,311,90739,1,0,0:0:0:0:
85,342,90844,1,0,0:0:0:0:
23,277,90951,6,0,P|30:209|17:120,1,92.2999957748415
210,36,91162,2,0,L|219:141,1,92.2999957748415
227,228,91373,1,0,0:0:0:0:
295,283,91478,1,0,0:0:0:0:
377,252,91584,1,0,0:0:0:0:
390,165,91689,1,0,0:0:0:0:
319,113,91796,2,0,B|288:91|288:91|208:84,1,92.2999957748415
217,305,92007,2,0,B|246:327|246:327|322:330,1,92.2999957748415
414,311,92218,5,0,0:0:0:0:
453,229,92323,1,0,0:0:0:0:
431,140,92430,2,0,P|423:91|368:46,1,92.2999957748415
