osu file format v14

[General]
AudioFilename: audio.mp3
AudioLeadIn: 0
PreviewTime: 82871
Countdown: 0
SampleSet: Soft
StackLeniency: 0.7
Mode: 0
LetterboxInBreaks: 0
WidescreenStoryboard: 0

[Editor]
DistanceSpacing: 0.7
BeatDivisor: 12
GridSize: 4
TimelineZoom: 1.6

[Metadata]
Title:KARATE
TitleUnicode:KARATE
Artist:BABYMETAL
ArtistUnicode:BABYMETAL
Creator:DoAcre
Version:SEIYA
Source:
Tags:Rock
BeatmapID:1022975
BeatmapSetID:479045

[Difficulty]
HPDrainRate:5.5
CircleSize:4.1
OverallDifficulty:8
ApproachRate:9.2
SliderMultiplier:2.6
SliderTickRate:1

[Events]
//Background and Video events
0,0,"babymetal__karate_by_jfivemedia-da95a1j.png",0,0
//Break Periods
2,172071,203301
//Storyboard Layer 0 (Background)
//Storyboard Layer 1 (Fail)
//Storyboard Layer 2 (Pass)
//Storyboard Layer 3 (Foreground)
//Storyboard Sound Samples

[TimingPoints]
25205,333.333333333333,4,2,2,100,1,0
35872,-133.333333333333,4,2,0,100,0,0
39038,-113.636363636364,4,2,0,100,0,0
39539,-133.333333333333,4,2,0,100,0,0
44371,-100,4,2,0,100,0,0
46205,-200,4,2,0,100,0,0
46539,-100,4,2,0,100,0,0
46872,-133.333333333333,4,2,0,100,0,0
48872,-100,4,2,0,100,0,0
52872,-133.333333333333,4,2,0,100,0,0
53206,-100,4,2,0,100,0,0
83038,-100,4,2,0,100,0,1
105204,-133.333333333333,4,2,0,100,0,0
115427,-200,4,2,0,100,0,0
115871,-133.333333333333,4,2,0,100,0,0
131204,-100,4,2,0,100,0,0
149538,-100,4,2,0,100,0,1
171871,-100,4,2,0,100,0,0
214538,-100,4,2,0,100,0,1
216204,-133.333333333333,4,2,0,100,0,0
216538,-100,4,2,0,100,0,1
257204,-100,4,2,0,100,0,0

[HitObjects]
13,329,25206,5,0,0:0:0:0:
191,273,25372,1,0,0:0:0:0:
99,162,25539,2,0,L|94:299,1,130
369,217,25871,1,0,0:0:0:0:
276,106,26038,2,0,L|271:243,1,130
456,190,26371,2,0,L|452:61,1,130
191,273,26705,5,0,0:0:0:0:
369,217,26872,1,0,0:0:0:0:
245,92,27039,1,0,0:0:0:0:
245,92,27122,1,0,0:0:0:0:
245,92,27206,1,0,0:0:0:0:
288,292,27372,1,0,0:0:0:0:
456,190,27539,2,0,P|439:137|347:104,1,130
218,35,27872,5,0,0:0:0:0:
157,199,28039,1,0,0:0:0:0:
154,197,28205,2,0,P|163:294|224:323,1,130
385,226,28538,2,0,P|395:163|357:112,1,130
25,199,28872,2,0,L|40:329,1,130
232,305,29206,5,0,0:0:0:0:
481,232,29372,1,0,0:0:0:0:
396,57,29539,1,0,0:0:0:0:
213,48,29705,5,0,0:0:0:0:
175,66,29788,1,0,0:0:0:0:
138,94,29871,1,0,0:0:0:0:
108,129,29955,1,0,0:0:0:0:
102,173,30038,1,0,0:0:0:0:
108,217,30121,1,0,0:0:0:0:
133,255,30205,1,0,0:0:0:0:
167,284,30288,1,0,0:0:0:0:
212,284,30371,1,0,0:0:0:0:
251,261,30455,1,0,0:0:0:0:
368,184,30538,1,0,0:0:0:0:
484,112,30706,5,0,0:0:0:0:
416,53,30872,2,0,L|286:54,1,130
216,126,31206,2,0,L|345:124,1,130
194,57,31539,1,0,0:0:0:0:
61,168,31706,1,0,0:0:0:0:
216,126,31872,6,0,P|135:113|82:80,1,130
250,183,32206,1,0,0:0:0:0:
156,309,32371,1,0,0:0:0:0:
156,309,32454,1,0,0:0:0:0:
156,309,32538,1,0,0:0:0:0:
149,144,32706,1,0,0:0:0:0:
277,75,32872,2,0,L|257:228,1,130
430,107,33206,5,0,0:0:0:0:
278,219,33372,1,0,0:0:0:0:
474,293,33539,1,0,0:0:0:0:
378,37,33706,1,0,0:0:0:0:
273,297,33872,1,0,0:0:0:0:
461,204,34039,1,0,0:0:0:0:
296,63,34206,1,0,0:0:0:0:
390,345,34372,1,0,0:0:0:0:
504,91,34539,1,0,0:0:0:0:
215,138,34706,1,0,0:0:0:0:
365,94,34872,5,0,0:0:0:0:
410,104,34955,1,0,0:0:0:0:
439,139,35038,1,0,0:0:0:0:
445,183,35121,1,0,0:0:0:0:
428,225,35205,1,0,0:0:0:0:
61,193,35372,1,0,0:0:0:0:
68,32,35872,6,0,B|175:33|175:93|281:93,1,195.00000743866
330,77,36372,1,0,0:0:0:0:
99,144,36539,1,0,0:0:0:0:
450,109,36872,2,0,L|429:314,1,195.00000743866
339,51,37372,1,0,0:0:0:0:
316,303,37539,1,0,0:0:0:0:
346,52,37706,1,0,0:0:0:0:
316,303,37872,2,0,L|283:97,1,195.00000743866
36,90,38372,1,0,0:0:0:0:
205,160,38539,5,0,0:0:0:0:
22,202,38706,1,0,0:0:0:0:
229,292,38872,1,0,0:0:0:0:
50,304,39038,2,0,B|100:363|185:310|101:268|101:268|70:257|169:195|129:178|130:69,1,341.250013017655
301,220,39706,1,0,0:0:0:0:
416,56,39872,5,0,0:0:0:0:
416,62,39956,1,0,0:0:0:0:
416,68,40039,2,0,L|416:212,1,130
261,244,40371,1,0,0:0:0:0:
261,244,40455,1,0,0:0:0:0:
261,244,40538,1,0,0:0:0:0:
268,120,40705,1,0,0:0:0:0:
97,59,40872,5,0,0:0:0:0:
87,103,40956,1,0,0:0:0:0:
74,146,41038,1,0,0:0:0:0:
177,172,41205,2,0,B|168:223|131:246|131:246|160:336|106:349,1,195.00000743866
241,45,41705,1,0,0:0:0:0:
259,311,41871,1,0,0:0:0:0:
357,41,42205,2,0,L|330:234,1,195.00000743866
224,82,42706,5,0,0:0:0:0:
451,107,42872,2,0,B|427:147|427:147|352:169,2,97.50000371933
305,84,43371,1,0,0:0:0:0:
84,70,43539,2,0,L|196:74,1,97.50000371933
385,240,43872,6,0,L|254:231,1,97.50000371933
283,91,44206,1,0,0:0:0:0:
124,175,44371,2,0,B|167:211|102:209|62:278|109:320|109:320|175:288|175:288|333:323,1,390
325,184,45038,1,0,0:0:0:0:
221,93,45206,5,0,0:0:0:0:
156,66,45317,1,0,0:0:0:0:
93,95,45428,1,0,0:0:0:0:
65,158,45539,1,0,0:0:0:0:
93,225,45649,2,0,P|106:246|126:258,4,43.3333333333333
160,153,45983,5,0,0:0:0:0:
263,130,46094,1,0,0:0:0:0:
351,177,46205,2,0,P|355:95|325:55,1,130
241,139,46705,1,0,0:0:0:0:
140,224,46872,1,0,0:0:0:0:
163,136,47039,2,0,B|98:131|71:176|61:205,2,97.50000371933
250,279,47539,2,0,B|285:247|332:235|397:271|395:360,1,195.00000743866
312,341,48039,5,0,0:0:0:0:
414,202,48206,1,0,0:0:0:0:
276,133,48372,1,0,0:0:0:0:
445,54,48538,2,0,B|349:25|356:64|247:45,1,195.00000743866
41,80,49039,5,0,0:0:0:0:
185,69,49206,1,0,0:0:0:0:
41,80,49372,1,0,0:0:0:0:
109,190,49538,1,0,0:0:0:0:
41,80,49705,1,0,0:0:0:0:
219,168,49871,2,0,P|203:256|54:282,1,260
295,72,50371,5,0,0:0:0:0:
340,76,50456,1,0,0:0:0:0:
385,81,50539,1,0,0:0:0:0:
429,87,50622,1,0,0:0:0:0:
466,87,50706,1,0,0:0:0:0:
78,44,50872,5,0,0:0:0:0:
388,210,51039,5,0,0:0:0:0:
388,210,51122,1,0,0:0:0:0:
388,210,51206,1,0,0:0:0:0:
108,289,51372,5,0,0:0:0:0:
384,340,51539,5,0,0:0:0:0:
384,340,51622,1,0,0:0:0:0:
384,340,51706,1,0,0:0:0:0:
444,63,51872,6,0,L|437:216,1,130
438,192,52206,1,0,0:0:0:0:
312,106,52372,1,0,0:0:0:0:
438,192,52539,1,0,0:0:0:0:
143,176,52705,1,0,0:0:0:0:
250,41,52872,6,0,B|195:112|269:163|206:245,1,195.00000743866
306,213,53372,1,0,0:0:0:0:
105,110,53539,1,0,0:0:0:0:
44,276,53706,1,0,0:0:0:0:
44,276,53789,1,0,0:0:0:0:
44,276,53872,1,0,0:0:0:0:
208,274,54039,1,0,0:0:0:0:
274,113,54206,1,0,0:0:0:0:
57,146,54372,5,0,0:0:0:0:
60,100,54456,1,0,0:0:0:0:
86,63,54539,1,0,0:0:0:0:
130,54,54622,1,0,0:0:0:0:
170,75,54706,1,0,0:0:0:0:
191,121,54789,1,0,0:0:0:0:
175,157,54872,1,0,0:0:0:0:
143,190,54956,1,0,0:0:0:0:
118,227,55039,1,0,0:0:0:0:
80,252,55122,1,0,0:0:0:0:
45,281,55206,1,0,0:0:0:0:
17,316,55289,1,0,0:0:0:0:
62,319,55372,1,0,0:0:0:0:
107,316,55456,5,0,0:0:0:0:
150,328,55539,1,0,0:0:0:0:
193,340,55622,1,0,0:0:0:0:
238,332,55706,1,0,0:0:0:0:
253,289,55789,1,0,0:0:0:0:
219,249,55872,1,0,0:0:0:0:
270,256,55956,1,0,0:0:0:0:
315,262,56039,1,0,0:0:0:0:
359,235,56122,1,0,0:0:0:0:
329,191,56206,1,0,0:0:0:0:
281,170,56289,5,0,0:0:0:0:
236,168,56372,1,0,0:0:0:0:
196,144,56456,1,0,0:0:0:0:
212,100,56539,1,0,0:0:0:0:
252,76,56622,1,0,0:0:0:0:
296,64,56706,1,0,0:0:0:0:
340,68,56789,1,0,0:0:0:0:
384,80,56872,1,0,0:0:0:0:
424,104,56956,1,0,0:0:0:0:
428,148,57039,1,0,0:0:0:0:
416,192,57122,1,0,0:0:0:0:
432,236,57206,1,0,0:0:0:0:
177,273,57371,6,0,L|175:142,1,130
309,164,57705,5,0,0:0:0:0:
269,246,57871,1,0,0:0:0:0:
186,112,58038,2,0,L|192:81,4,32.5
366,72,58371,1,0,0:0:0:0:
432,272,58705,6,0,L|302:272,1,130
83,163,59038,5,0,0:0:0:0:
125,157,59121,1,0,0:0:0:0:
163,164,59205,1,0,0:0:0:0:
120,277,59371,1,0,0:0:0:0:
31,78,59538,5,0,0:0:0:0:
73,63,59621,1,0,0:0:0:0:
118,57,59705,1,0,0:0:0:0:
160,62,59788,1,0,0:0:0:0:
203,73,59871,1,0,0:0:0:0:
250,202,60038,5,0,0:0:0:0:
414,79,60205,1,0,0:0:0:0:
414,79,60288,1,0,0:0:0:0:
414,79,60371,1,0,0:0:0:0:
221,83,60538,2,0,L|189:220,1,130
73,109,60871,1,0,0:0:0:0:
73,109,60955,1,0,0:0:0:0:
73,109,61038,1,0,0:0:0:0:
309,330,61205,6,0,L|309:187,1,130
84,298,61538,1,0,0:0:0:0:
84,298,61621,1,0,0:0:0:0:
84,298,61705,1,0,0:0:0:0:
310,184,61871,2,0,B|241:156|226:219|137:178,1,130
390,307,62205,1,0,0:0:0:0:
390,307,62288,1,0,0:0:0:0:
390,307,62371,1,0,0:0:0:0:
390,307,62455,1,0,0:0:0:0:
390,307,62538,1,0,0:0:0:0:
213,67,62705,6,0,B|142:84|142:39|86:60,1,130
86,60,62955,1,0,0:0:0:0:
86,60,63038,1,0,0:0:0:0:
229,264,63205,2,0,P|169:240|139:185,1,130
252,161,63538,1,0,0:0:0:0:
252,161,63621,1,0,0:0:0:0:
252,161,63705,1,0,0:0:0:0:
379,324,63871,2,0,P|452:265|455:180,1,130
425,91,64205,5,0,0:0:0:0:
388,120,64288,1,0,0:0:0:0:
349,114,64371,1,0,0:0:0:0:
246,198,64538,1,0,0:0:0:0:
209,211,64621,1,0,0:0:0:0:
184,241,64705,1,0,0:0:0:0:
178,277,64788,1,0,0:0:0:0:
163,321,64871,1,0,0:0:0:0:
120,338,64955,1,0,0:0:0:0:
76,325,65038,1,0,0:0:0:0:
49,282,65121,1,0,0:0:0:0:
44,236,65205,2,0,P|47:180|120:142,1,130
311,66,65538,6,0,L|160:66,1,130
181,66,65871,1,0,0:0:0:0:
181,66,66038,1,0,0:0:0:0:
368,144,66204,1,0,0:0:0:0:
364,183,66288,1,0,0:0:0:0:
382,217,66371,1,0,0:0:0:0:
178,261,66538,5,0,0:0:0:0:
178,261,66704,1,0,0:0:0:0:
123,59,66871,1,0,0:0:0:0:
130,97,66954,1,0,0:0:0:0:
117,134,67038,1,0,0:0:0:0:
75,151,67121,1,0,0:0:0:0:
40,137,67204,1,0,0:0:0:0:
119,329,67371,1,0,0:0:0:0:
263,199,67538,5,0,0:0:0:0:
307,188,67621,1,0,0:0:0:0:
322,145,67704,1,0,0:0:0:0:
306,101,67788,1,0,0:0:0:0:
262,88,67871,1,0,0:0:0:0:
372,280,68038,5,0,0:0:0:0:
428,62,68204,2,0,L|417:235,2,130
256,160,68704,1,0,0:0:0:0:
78,55,68871,1,0,0:0:0:0:
71,51,68954,1,0,0:0:0:0:
78,55,69038,1,0,0:0:0:0:
181,337,69204,5,0,0:0:0:0:
181,337,69288,1,0,0:0:0:0:
181,337,69371,1,0,0:0:0:0:
490,154,69538,5,0,0:0:0:0:
490,154,69622,1,0,0:0:0:0:
490,154,69705,1,0,0:0:0:0:
464,124,69788,1,0,0:0:0:0:
439,93,69871,1,0,0:0:0:0:
400,94,69954,1,0,0:0:0:0:
363,108,70038,1,0,0:0:0:0:
336,136,70121,1,0,0:0:0:0:
308,163,70204,1,0,0:0:0:0:
271,176,70288,1,0,0:0:0:0:
232,177,70371,1,0,0:0:0:0:
198,157,70454,1,0,0:0:0:0:
163,137,70538,1,0,0:0:0:0:
261,307,70704,5,0,0:0:0:0:
412,221,70871,1,0,0:0:0:0:
412,221,70954,1,0,0:0:0:0:
412,221,71038,1,0,0:0:0:0:
261,307,71204,2,0,L|279:141,1,130
380,39,71538,2,0,L|366:169,1,130
475,68,71871,1,0,0:0:0:0:
474,329,72038,5,0,0:0:0:0:
474,329,72121,1,0,0:0:0:0:
474,329,72204,1,0,0:0:0:0:
314,302,72371,1,0,0:0:0:0:
176,269,72538,1,0,0:0:0:0:
176,269,72621,1,0,0:0:0:0:
176,269,72704,1,0,0:0:0:0:
443,166,72871,2,0,P|395:143|356:60,1,130
336,288,73204,5,0,0:0:0:0:
336,288,73287,1,0,0:0:0:0:
336,288,73370,1,0,0:0:0:0:
94,182,73538,1,0,0:0:0:0:
94,182,73621,1,0,0:0:0:0:
94,182,73704,1,0,0:0:0:0:
431,67,73871,1,0,0:0:0:0:
342,292,74038,1,0,0:0:0:0:
297,78,74204,2,0,B|229:93|227:59|141:79,1,130
168,74,74538,1,0,0:0:0:0:
419,302,74704,5,0,0:0:0:0:
419,302,74788,1,0,0:0:0:0:
419,302,74871,1,0,0:0:0:0:
158,272,75038,1,0,0:0:0:0:
66,69,75204,1,0,0:0:0:0:
266,48,75371,5,0,0:0:0:0:
287,88,75454,1,0,0:0:0:0:
285,134,75538,1,0,0:0:0:0:
268,176,75621,1,0,0:0:0:0:
243,214,75704,1,0,0:0:0:0:
227,257,75788,1,0,0:0:0:0:
237,301,75871,1,0,0:0:0:0:
277,321,75954,1,0,0:0:0:0:
318,300,76038,1,0,0:0:0:0:
87,259,76204,5,0,0:0:0:0:
87,259,76288,1,0,0:0:0:0:
87,259,76371,1,0,0:0:0:0:
471,91,76538,1,0,0:0:0:0:
425,215,76704,1,0,0:0:0:0:
456,342,76871,2,0,P|391:339|338:303,1,130
338,303,77204,1,0,0:0:0:0:
358,80,77371,5,0,0:0:0:0:
392,100,77455,1,0,0:0:0:0:
414,132,77538,1,0,0:0:0:0:
65,180,77704,1,0,0:0:0:0:
212,52,77870,5,0,0:0:0:0:
246,72,77954,1,0,0:0:0:0:
268,104,78037,1,0,0:0:0:0:
384,276,78204,5,0,0:0:0:0:
384,276,78371,1,0,0:0:0:0:
95,204,78538,5,0,0:0:0:0:
55,190,78622,1,0,0:0:0:0:
32,160,78705,1,0,0:0:0:0:
256,250,78871,1,0,0:0:0:0:
233,286,78954,1,0,0:0:0:0:
196,310,79038,1,0,0:0:0:0:
433,333,79204,1,0,0:0:0:0:
373,120,79371,1,0,0:0:0:0:
274,142,79538,2,0,P|279:77|382:35,1,130
346,293,79871,1,0,0:0:0:0:
465,177,80038,5,0,0:0:0:0:
466,139,80121,1,0,0:0:0:0:
466,100,80205,1,0,0:0:0:0:
337,176,80371,1,0,0:0:0:0:
220,47,80538,1,0,0:0:0:0:
220,85,80621,1,0,0:0:0:0:
220,123,80704,1,0,0:0:0:0:
181,147,80788,1,0,0:0:0:0:
181,192,80871,1,0,0:0:0:0:
182,237,80954,1,0,0:0:0:0:
180,282,81038,1,0,0:0:0:0:
181,327,81121,1,0,0:0:0:0:
256,192,81204,12,0,82538,0:0:0:0:
87,168,83038,5,0,0:0:0:0:
87,168,83121,1,0,0:0:0:0:
87,168,83204,1,0,0:0:0:0:
253,196,83371,1,0,0:0:0:0:
422,128,83538,1,0,0:0:0:0:
343,291,83704,1,0,0:0:0:0:
282,119,83871,6,0,B|154:39|169:157|22:121,1,260
210,174,84371,2,0,B|130:280|-70:153|131:266|19:327,1,260
104,138,84871,1,0,0:0:0:0:
224,274,85038,1,0,0:0:0:0:
320,120,85204,5,0,0:0:0:0:
202,259,85371,1,0,0:0:0:0:
351,154,85538,2,0,P|284:113|262:41,1,130
328,286,85871,1,0,0:0:0:0:
72,329,86038,1,0,0:0:0:0:
188,185,86204,2,0,L|174:351,1,130
63,248,86538,5,0,0:0:0:0:
266,148,86704,1,0,0:0:0:0:
113,83,86871,1,0,0:0:0:0:
113,83,87038,2,0,B|195:71|200:97|265:75,1,130
396,104,87371,1,0,0:0:0:0:
259,243,87538,1,0,0:0:0:0:
396,111,87704,1,0,0:0:0:0:
259,243,87871,6,0,P|210:324|134:349,1,130
267,161,88204,2,0,P|337:219|321:292,1,130
17,114,88538,1,0,0:0:0:0:
195,84,88704,1,0,0:0:0:0:
234,81,88788,1,0,0:0:0:0:
272,83,88871,1,0,0:0:0:0:
205,252,89038,1,0,0:0:0:0:
364,338,89204,6,0,B|364:250|364:250|379:179|379:179|379:68,1,260
274,340,89704,2,0,B|290:271|273:240|288:169,1,130
282,210,90038,1,0,0:0:0:0:
187,233,90204,1,0,0:0:0:0:
366,266,90371,1,0,0:0:0:0:
291,99,90538,1,0,0:0:0:0:
177,240,90704,1,0,0:0:0:0:
356,274,90871,2,0,B|394:220|361:208|414:91,1,130
459,323,91204,1,0,0:0:0:0:
278,352,91371,1,0,0:0:0:0:
117,284,91538,1,0,0:0:0:0:
117,284,91704,5,0,0:0:0:0:
276,205,91871,1,0,0:0:0:0:
99,99,92038,1,0,0:0:0:0:
368,128,92204,2,0,L|232:157,1,130
108,266,92538,1,0,0:0:0:0:
108,261,92704,1,0,0:0:0:0:
277,291,92871,1,0,0:0:0:0:
435,329,93038,1,0,0:0:0:0:
420,107,93204,6,0,B|407:171|379:178|365:262,1,130
206,156,93538,1,0,0:0:0:0:
43,85,93704,5,0,0:0:0:0:
72,71,93788,1,0,0:0:0:0:
104,72,93871,1,0,0:0:0:0:
283,103,94038,1,0,0:0:0:0:
126,195,94204,1,0,0:0:0:0:
283,103,94371,1,0,0:0:0:0:
308,331,94538,6,0,B|178:364|146:297|52:338,1,260
244,249,95038,1,0,0:0:0:0:
135,103,95204,1,0,0:0:0:0:
46,262,95371,1,0,0:0:0:0:
64,64,95538,1,0,0:0:0:0:
206,66,95704,5,0,0:0:0:0:
134,226,95871,1,0,0:0:0:0:
247,155,96038,1,0,0:0:0:0:
278,250,96204,1,0,0:0:0:0:
162,143,96371,1,0,0:0:0:0:
278,250,96538,5,0,0:0:0:0:
434,49,96704,1,0,0:0:0:0:
325,203,96871,2,0,L|312:61,1,130
412,161,97204,1,0,0:0:0:0:
212,62,97371,1,0,0:0:0:0:
216,229,97538,1,0,0:0:0:0:
264,127,97704,1,0,0:0:0:0:
246,348,97871,2,0,B|170:328|169:358|83:353,1,130
31,136,98204,6,0,B|48:223|10:223|50:292,1,130
39,351,98538,1,0,0:0:0:0:
128,190,98704,1,0,0:0:0:0:
94,64,98871,2,0,B|234:31|235:98|377:65,1,260
286,175,99371,5,0,0:0:0:0:
434,66,99538,1,0,0:0:0:0:
452,238,99704,1,0,0:0:0:0:
120,345,99871,6,0,B|98:337|69:293|75:286|76:231|111:197|147:208|187:207|187:207|199:119,1,260
161,280,100371,1,0,0:0:0:0:
93,71,100538,2,0,B|122:132|122:132|134:149|125:157|134:113|151:114|205:49|279:136|260:184,1,260
328,63,101038,1,0,0:0:0:0:
425,212,101204,2,0,L|431:83,1,130
292,156,101538,2,0,L|302:316,1,130
328,63,101871,2,0,B|264:82|259:54|165:68,1,130
172,159,102204,1,0,0:0:0:0:
384,191,102371,1,0,0:0:0:0:
384,191,102454,1,0,0:0:0:0:
384,191,102538,1,0,0:0:0:0:
194,62,102704,5,0,0:0:0:0:
168,107,102788,1,0,0:0:0:0:
180,157,102871,1,0,0:0:0:0:
220,189,102954,1,0,0:0:0:0:
267,212,103038,1,0,0:0:0:0:
289,258,103121,1,0,0:0:0:0:
286,110,103371,5,0,0:0:0:0:
49,124,103871,2,0,B|101:110|89:77|155:46,2,130
173,142,104371,1,0,0:0:0:0:
110,208,104538,2,0,B|176:242|237:210,2,130
132,303,104982,5,0,0:0:0:0:
227,304,105093,1,0,0:0:0:0:
310,249,105204,2,0,B|397:148|303:58|303:58|265:82|221:61,1,292.50001115799
274,151,105871,2,0,P|186:142|150:40,1,195.00000743866
141,212,106371,1,0,0:0:0:0:
57,85,106538,6,0,L|61:220,1,97.50000371933
143,309,106871,6,0,L|141:212,1,97.50000371933
137,113,107204,1,0,0:0:0:0:
274,220,107371,1,0,0:0:0:0:
54,346,107538,2,0,B|117:326|116:357|181:335,2,97.50000371933
249,340,108038,5,0,0:0:0:0:
327,155,108204,1,0,0:0:0:0:
453,76,108371,2,0,P|491:166|452:248,1,195.00000743866
243,79,108871,1,0,0:0:0:0:
228,329,109038,1,0,0:0:0:0:
68,84,109204,5,0,0:0:0:0:
98,68,109288,1,0,0:0:0:0:
129,54,109371,1,0,0:0:0:0:
399,83,109538,1,0,0:0:0:0:
152,180,109704,1,0,0:0:0:0:
151,214,109788,1,0,0:0:0:0:
150,247,109871,1,0,0:0:0:0:
399,83,110038,1,0,0:0:0:0:
392,315,110204,1,0,0:0:0:0:
358,320,110288,1,0,0:0:0:0:
324,326,110371,1,0,0:0:0:0:
79,136,110538,6,0,B|75:176|53:248|76:272|46:313|142:365|192:315,1,292.50001115799
149,243,111204,1,0,0:0:0:0:
195,119,111371,1,0,0:0:0:0:
83,58,111538,1,0,0:0:0:0:
292,92,111704,1,0,0:0:0:0:
440,47,111871,6,0,L|442:168,1,97.50000371933
316,164,112204,1,0,0:0:0:0:
440,336,112371,1,0,0:0:0:0:
440,47,112538,2,0,L|442:248,1,195.00000743866
345,168,113038,1,0,0:0:0:0:
166,324,113204,6,0,B|269:303|269:339|369:328,1,195.00000743866
194,244,113704,1,0,0:0:0:0:
63,355,113871,2,0,B|74:330|74:330|36:250|49:125,1,195.00000743866
100,69,114371,1,0,0:0:0:0:
291,93,114538,5,0,0:0:0:0:
356,66,114649,1,0,0:0:0:0:
419,95,114760,1,0,0:0:0:0:
447,158,114871,1,0,0:0:0:0:
419,225,114981,2,0,P|406:246|386:258,2,43.3333333333333
352,153,115204,5,0,0:0:0:0:
249,130,115315,1,0,0:0:0:0:
161,177,115427,1,0,0:0:0:0:
161,177,115538,2,0,P|157:95|187:55,1,130
63,89,116038,5,0,0:0:0:0:
51,200,116204,2,0,B|43:338|43:338,1,97.50000371933
245,258,116538,1,0,0:0:0:0:
100,349,116704,1,0,0:0:0:0:
384,347,116871,2,0,B|305:327|302:359|191:348,1,195.00000743866
477,337,117371,1,0,0:0:0:0:
336,232,117538,1,0,0:0:0:0:
484,140,117704,1,0,0:0:0:0:
468,52,117871,2,0,P|399:106|439:208,1,195.00000743866
332,38,118371,1,0,0:0:0:0:
277,190,118538,5,0,0:0:0:0:
27,63,118704,2,0,B|130:98|130:57|220:81,1,195.00000743866
174,179,119204,1,0,0:0:0:0:
305,226,119371,1,0,0:0:0:0:
440,147,119538,1,0,0:0:0:0:
276,33,119704,5,0,0:0:0:0:
261,63,119787,1,0,0:0:0:0:
255,96,119870,1,0,0:0:0:0:
261,133,119954,1,0,0:0:0:0:
270,165,120038,1,0,0:0:0:0:
405,78,120204,5,0,0:0:0:0:
117,34,120371,1,0,0:0:0:0:
105,68,120454,1,0,0:0:0:0:
116,99,120537,1,0,0:0:0:0:
405,78,120705,1,0,0:0:0:0:
111,211,120871,1,0,0:0:0:0:
99,245,120954,1,0,0:0:0:0:
110,276,121037,1,0,0:0:0:0:
389,202,121204,6,0,B|468:152|448:359|339:304|339:192|253:134|258:304|308:268,1,292.50001115799
433,86,121871,1,0,0:0:0:0:
265,55,122038,1,0,0:0:0:0:
114,236,122204,2,0,B|130:135|97:135|114:32,1,195.00000743866
192,100,122704,1,0,0:0:0:0:
234,254,122871,1,0,0:0:0:0:
89,335,123038,1,0,0:0:0:0:
210,179,123204,2,0,P|287:190|287:309,1,195.00000743866
454,338,123704,5,0,0:0:0:0:
302,292,123871,1,0,0:0:0:0:
381,221,124038,2,0,B|444:251|422:146|422:146|439:93|439:93|435:42,1,195.00000743866
437,72,124538,1,0,0:0:0:0:
228,184,124704,1,0,0:0:0:0:
346,99,124871,1,0,0:0:0:0:
454,338,125038,5,0,0:0:0:0:
417,323,125121,1,0,0:0:0:0:
364,322,125204,1,0,0:0:0:0:
327,335,125287,1,0,0:0:0:0:
289,346,125371,1,0,0:0:0:0:
250,352,125454,1,0,0:0:0:0:
211,355,125537,1,0,0:0:0:0:
172,345,125621,1,0,0:0:0:0:
137,327,125704,1,0,0:0:0:0:
111,298,125787,1,0,0:0:0:0:
108,258,125871,1,0,0:0:0:0:
161,38,126038,5,0,0:0:0:0:
258,258,126204,1,0,0:0:0:0:
343,31,126371,5,0,0:0:0:0:
343,69,126454,1,0,0:0:0:0:
345,111,126538,1,0,0:0:0:0:
380,126,126621,1,0,0:0:0:0:
427,181,126704,1,0,0:0:0:0:
424,254,126788,1,0,0:0:0:0:
364,295,126871,1,0,0:0:0:0:
103,118,127204,5,0,0:0:0:0:
447,53,127371,1,0,0:0:0:0:
447,53,127454,1,0,0:0:0:0:
167,22,127621,1,0,0:0:0:0:
167,22,127704,1,0,0:0:0:0:
241,331,128038,1,0,0:0:0:0:
241,331,128121,1,0,0:0:0:0:
241,331,128204,1,0,0:0:0:0:
357,149,128371,5,0,0:0:0:0:
101,113,128538,1,0,0:0:0:0:
101,113,128621,1,0,0:0:0:0:
101,113,128704,1,0,0:0:0:0:
407,246,128871,2,0,P|440:208|454:132,2,97.50000371933
407,246,129288,1,0,0:0:0:0:
262,65,129454,5,0,0:0:0:0:
262,65,129538,1,0,0:0:0:0:
102,231,129704,5,0,0:0:0:0:
104,235,129788,1,0,0:0:0:0:
107,238,129871,1,0,0:0:0:0:
111,239,129954,1,0,0:0:0:0:
115,239,130038,1,0,0:0:0:0:
353,55,130204,1,0,0:0:0:0:
376,307,130371,6,0,B|359:256|412:200|382:146,1,146.250005578995
380,125,130704,1,0,0:0:0:0:
380,125,130788,1,0,0:0:0:0:
380,125,130871,1,0,0:0:0:0:
119,102,131038,1,0,0:0:0:0:
119,102,131122,1,0,0:0:0:0:
119,102,131204,2,0,L|106:262,1,130
403,231,131538,2,0,L|393:102,1,130
141,132,131871,5,0,0:0:0:0:
87,181,131954,1,0,0:0:0:0:
98,253,132038,1,0,0:0:0:0:
153,300,132121,1,0,0:0:0:0:
222,278,132204,1,0,0:0:0:0:
415,62,132538,5,0,0:0:0:0:
80,96,132704,5,0,0:0:0:0:
80,96,132788,1,0,0:0:0:0:
227,172,132954,5,0,0:0:0:0:
227,172,133038,1,0,0:0:0:0:
331,348,133371,5,0,0:0:0:0:
389,307,133454,1,0,0:0:0:0:
447,265,133538,1,0,0:0:0:0:
433,69,133704,1,0,0:0:0:0:
101,142,133871,1,0,0:0:0:0:
101,142,133954,1,0,0:0:0:0:
101,142,134038,1,0,0:0:0:0:
292,71,134204,2,0,B|363:79|363:59|439:70,2,130
292,71,134621,1,0,0:0:0:0:
114,88,134788,5,0,0:0:0:0:
114,88,134871,1,0,0:0:0:0:
241,152,135038,5,0,0:0:0:0:
307,176,135121,1,0,0:0:0:0:
337,240,135204,1,0,0:0:0:0:
308,305,135287,1,0,0:0:0:0:
237,321,135371,1,0,0:0:0:0:
49,326,135538,1,0,0:0:0:0:
233,240,135704,1,0,0:0:0:0:
96,94,135871,5,0,0:0:0:0:
165,28,135982,1,0,0:0:0:0:
253,47,136093,1,0,0:0:0:0:
325,108,136204,1,0,0:0:0:0:
318,203,136316,1,0,0:0:0:0:
230,239,136427,1,0,0:0:0:0:
144,280,136538,1,0,0:0:0:0:
228,323,136649,1,0,0:0:0:0:
323,325,136760,1,0,0:0:0:0:
418,318,136871,2,0,B|422:288|391:264|391:264|447:243|446:202|457:170|436:135|445:98|445:98|445:61,2,260
313,70,137871,5,0,0:0:0:0:
134,325,138204,1,0,0:0:0:0:
31,206,138371,1,0,0:0:0:0:
184,177,138538,1,0,0:0:0:0:
458,324,138871,1,0,0:0:0:0:
108,38,139204,1,0,0:0:0:0:
480,187,139538,1,0,0:0:0:0:
325,210,139705,1,0,0:0:0:0:
378,59,139872,1,0,0:0:0:0:
63,308,140204,5,0,0:0:0:0:
463,291,140538,1,0,0:0:0:0:
32,187,140871,1,0,0:0:0:0:
187,210,141038,1,0,0:0:0:0:
134,59,141205,1,0,0:0:0:0:
378,325,141538,5,0,0:0:0:0:
325,174,141705,1,0,0:0:0:0:
480,197,141872,1,0,0:0:0:0:
429,207,141954,1,0,0:0:0:0:
387,242,142038,1,0,0:0:0:0:
336,254,142121,1,0,0:0:0:0:
284,250,142204,1,0,0:0:0:0:
249,210,142288,1,0,0:0:0:0:
244,158,142371,1,0,0:0:0:0:
274,116,142454,1,0,0:0:0:0:
324,103,142538,1,0,0:0:0:0:
126,337,142871,5,0,0:0:0:0:
86,44,143204,1,0,0:0:0:0:
469,235,143538,1,0,0:0:0:0:
319,193,143704,1,0,0:0:0:0:
165,223,143871,1,0,0:0:0:0:
430,59,144204,1,0,0:0:0:0:
256,293,144538,5,0,0:0:0:0:
154,191,144704,1,0,0:0:0:0:
256,90,144871,1,0,0:0:0:0:
357,192,145038,1,0,0:0:0:0:
211,312,145204,1,0,0:0:0:0:
135,147,145371,1,0,0:0:0:0:
300,71,145538,1,0,0:0:0:0:
376,236,145704,1,0,0:0:0:0:
155,311,145871,1,0,0:0:0:0:
136,91,146038,1,0,0:0:0:0:
356,72,146204,1,0,0:0:0:0:
375,292,146371,1,0,0:0:0:0:
156,326,146538,5,0,0:0:0:0:
205,311,146621,1,0,0:0:0:0:
256,302,146704,1,0,0:0:0:0:
305,310,146788,1,0,0:0:0:0:
356,316,146871,1,0,0:0:0:0:
406,327,146954,1,0,0:0:0:0:
455,309,147038,1,0,0:0:0:0:
478,262,147121,1,0,0:0:0:0:
468,211,147204,1,0,0:0:0:0:
436,169,147288,1,0,0:0:0:0:
385,180,147371,1,0,0:0:0:0:
344,212,147454,1,0,0:0:0:0:
292,201,147538,1,0,0:0:0:0:
264,157,147621,1,0,0:0:0:0:
276,106,147704,1,0,0:0:0:0:
327,95,147788,1,0,0:0:0:0:
256,192,147871,12,0,149204,0:0:0:0:
130,137,149704,5,0,0:0:0:0:
134,130,149788,1,0,0:0:0:0:
137,124,149871,1,0,0:0:0:0:
67,272,150038,1,0,0:0:0:0:
292,264,150204,2,0,L|162:269,1,130
416,300,150538,6,0,B|397:235|417:181|417:181|391:166|391:166|430:91|404:36,1,260
170,72,151038,1,0,0:0:0:0:
328,104,151204,2,0,B|288:164|341:246,2,130
168,308,151704,1,0,0:0:0:0:
171,145,151871,5,0,0:0:0:0:
168,308,152038,1,0,0:0:0:0:
74,107,152204,2,0,B|98:158|93:253|93:253|172:206|225:244,1,260
450,274,152704,1,0,0:0:0:0:
295,167,152871,2,0,L|445:157,1,130
446,66,153204,6,0,L|277:77,1,130
75,107,153538,1,0,0:0:0:0:
425,157,153871,1,0,0:0:0:0:
66,200,154204,1,0,0:0:0:0:
253,212,154371,1,0,0:0:0:0:
166,59,154538,5,0,0:0:0:0:
253,212,154704,1,0,0:0:0:0:
33,308,154871,2,0,B|88:293|149:305|149:305|188:288|188:288|240:302|312:289,1,260
376,107,155371,1,0,0:0:0:0:
376,107,155454,1,0,0:0:0:0:
376,107,155538,1,0,0:0:0:0:
169,84,155704,1,0,0:0:0:0:
345,238,155871,6,0,B|321:283|321:283|313:219|295:196|295:196|299:178|299:178|257:138|268:66,1,260
223,266,156371,1,0,0:0:0:0:
425,186,156538,2,0,B|424:133|424:133|397:41,2,130
419,327,157038,1,0,0:0:0:0:
74,161,157204,6,0,L|230:165,1,130
252,240,157538,2,0,L|123:237,1,130
167,314,157871,2,0,L|331:318,1,130
484,95,158204,2,0,P|415:106|317:62,1,130
389,232,158538,6,0,L|384:86,1,130
201,186,158871,1,0,0:0:0:0:
301,117,159038,1,0,0:0:0:0:
199,64,159204,1,0,0:0:0:0:
201,186,159371,1,0,0:0:0:0:
335,322,159538,2,0,P|416:291|437:239,1,130
348,231,159871,6,0,P|270:256|246:315,2,130
429,158,160371,1,0,0:0:0:0:
417,129,160454,1,0,0:0:0:0:
395,114,160538,1,0,0:0:0:0:
97,88,160704,1,0,0:0:0:0:
304,97,160871,2,0,L|307:241,1,130
103,326,161204,6,0,B|89:273|110:247|110:247|94:217|94:217|109:193|109:193|94:164|94:164|132:122|76:60,1,260
187,306,161704,1,0,0:0:0:0:
232,85,161871,2,0,B|254:177|254:177|245:241,2,130
293,322,162371,1,0,0:0:0:0:
360,101,162538,6,0,L|361:242,1,130
472,296,162871,2,0,B|452:248|472:200|472:200|456:156|456:156|480:100|456:20,1,260
124,112,163371,5,0,0:0:0:0:
360,101,163538,2,0,L|200:109,1,130
227,225,163871,6,0,B|279:173|223:97,1,130
144,208,164204,1,0,0:0:0:0:
348,272,164371,1,0,0:0:0:0:
130,292,164538,2,0,P|218:248|226:188,1,130
236,52,164871,1,0,0:0:0:0:
396,128,165038,1,0,0:0:0:0:
297,333,165204,6,0,L|221:217,1,130
160,132,165538,1,0,0:0:0:0:
352,232,165704,1,0,0:0:0:0:
204,352,165871,2,0,P|216:283|232:183,1,130
464,112,166204,2,0,B|420:84|344:132|344:132|344:100|344:100|252:128|192:96,1,260
120,108,166704,5,0,0:0:0:0:
157,212,166871,1,0,0:0:0:0:
49,193,167038,1,0,0:0:0:0:
248,116,167204,2,0,B|257:294|257:294|272:172,1,260
344,92,167704,1,0,0:0:0:0:
144,300,167871,1,0,0:0:0:0:
396,280,168038,5,0,0:0:0:0:
144,300,168204,1,0,0:0:0:0:
396,280,168371,1,0,0:0:0:0:
144,300,168538,2,0,B|72:292|72:292|264:268,1,260
428,132,169038,1,0,0:0:0:0:
432,88,169121,1,0,0:0:0:0:
416,52,169204,5,0,0:0:0:0:
216,124,169371,1,0,0:0:0:0:
212,168,169454,1,0,0:0:0:0:
216,208,169538,1,0,0:0:0:0:
260,200,169621,1,0,0:0:0:0:
304,192,169704,1,0,0:0:0:0:
348,192,169788,1,0,0:0:0:0:
392,204,169871,1,0,0:0:0:0:
396,296,170038,1,0,0:0:0:0:
300,92,170204,1,0,0:0:0:0:
160,276,170371,1,0,0:0:0:0:
452,196,170538,6,0,L|448:64,1,130
360,176,170871,2,0,L|364:28,1,130
272,200,171204,2,0,L|264:48,1,130
168,300,171538,1,0,0:0:0:0:
148,168,171704,1,0,0:0:0:0:
124,40,171871,1,0,0:0:0:0:
136,112,203871,5,0,0:0:0:0:
132,120,204538,1,0,0:0:0:0:
124,136,205204,1,0,0:0:0:0:
112,168,205871,1,0,0:0:0:0:
344,256,206538,5,0,0:0:0:0:
344,248,207204,1,0,0:0:0:0:
344,224,207871,1,0,0:0:0:0:
344,188,208538,1,0,0:0:0:0:
80,188,208704,1,0,0:0:0:0:
200,64,208871,1,0,0:0:0:0:
224,296,209038,1,0,0:0:0:0:
200,72,209204,5,0,0:0:0:0:
228,312,209538,1,0,0:0:0:0:
204,88,209871,1,0,0:0:0:0:
232,332,210204,1,0,0:0:0:0:
208,112,210538,5,0,0:0:0:0:
96,224,210704,1,0,0:0:0:0:
340,220,210871,1,0,0:0:0:0:
200,64,211038,1,0,0:0:0:0:
84,240,211204,1,0,0:0:0:0:
356,232,211371,1,0,0:0:0:0:
196,40,211538,1,0,0:0:0:0:
64,260,211704,1,0,0:0:0:0:
376,256,211871,5,0,0:0:0:0:
420,256,211954,1,0,0:0:0:0:
456,228,212038,1,0,0:0:0:0:
476,188,212121,1,0,0:0:0:0:
472,144,212204,1,0,0:0:0:0:
436,116,212288,1,0,0:0:0:0:
392,128,212371,1,0,0:0:0:0:
348,140,212454,1,0,0:0:0:0:
304,144,212538,1,0,0:0:0:0:
260,136,212621,1,0,0:0:0:0:
216,124,212704,1,0,0:0:0:0:
172,108,212788,1,0,0:0:0:0:
128,96,212871,1,0,0:0:0:0:
84,100,212954,1,0,0:0:0:0:
44,120,213038,1,0,0:0:0:0:
28,164,213121,1,0,0:0:0:0:
256,192,213204,12,0,213871,0:0:0:0:
88,116,214538,6,0,B|128:80|208:120|208:120|232:96|232:96|284:120|348:104,1,260
136,188,215038,1,0,0:0:0:0:
312,28,215204,2,0,P|392:56|408:124,1,130
339,220,215538,2,0,P|311:132|367:88,2,130
312,32,216038,5,0,0:0:0:0:
341,345,216204,2,0,B|358:377|358:377|338:217,1,195
96,128,216704,1,0,0:0:0:0:
327,107,216871,2,0,L|179:122,2,130
476,200,217371,5,0,0:0:0:0:
116,240,217538,2,0,L|396:208,1,260
336,304,218038,1,0,0:0:0:0:
192,108,218204,2,0,P|176:176|216:236,2,130
260,160,218704,6,0,L|400:160,1,130
152,276,219038,1,0,0:0:0:0:
52,160,219204,1,0,0:0:0:0:
172,72,219371,1,0,0:0:0:0:
208,60,219454,1,0,0:0:0:0:
248,72,219538,1,0,0:0:0:0:
388,112,219704,1,0,0:0:0:0:
248,304,219871,6,0,B|284:244|260:167|260:167|196:196|196:196|128:192,1,260
144,272,220371,2,0,B|88:268|60:240|48:168|60:116|140:103|192:116,1,260
396,120,220871,1,0,0:0:0:0:
396,120,221038,1,0,0:0:0:0:
372,224,221204,6,0,P|304:188|300:100,1,130
472,176,221538,2,0,P|484:240|448:320,1,130
208,192,221871,2,0,P|204:118|232:52,1,130
318,163,222204,1,0,0:0:0:0:
222,260,222371,1,0,0:0:0:0:
125,163,222538,5,0,0:0:0:0:
222,66,222704,1,0,0:0:0:0:
80,220,222871,1,0,0:0:0:0:
180,320,223038,1,0,0:0:0:0:
264,200,223204,1,0,0:0:0:0:
168,104,223371,1,0,0:0:0:0:
344,108,223538,2,0,L|492:104,1,130
355,189,223871,6,0,P|344:251|292:288,1,130
88,248,224204,1,0,0:0:0:0:
64,128,224371,1,0,0:0:0:0:
56,84,224454,1,0,0:0:0:0:
76,44,224538,1,0,0:0:0:0:
336,144,224704,1,0,0:0:0:0:
164,132,224871,1,0,0:0:0:0:
256,40,225038,1,0,0:0:0:0:
420,56,225204,6,0,P|464:128|424:312,1,260
388,220,225704,2,0,B|404:92|296:224|296:224|384:324,1,260
220,292,226204,2,0,P|208:208|260:152,2,130
136,136,226704,5,0,0:0:0:0:
36,280,226871,1,0,0:0:0:0:
64,84,227038,1,0,0:0:0:0:
160,228,227204,2,0,P|220:176|220:100,1,130
328,280,227538,1,0,0:0:0:0:
360,124,227704,1,0,0:0:0:0:
452,328,227871,5,0,0:0:0:0:
456,56,228038,1,0,0:0:0:0:
396,220,228204,2,0,P|316:208|288:52,1,260
356,116,228704,1,0,0:0:0:0:
224,264,228871,1,0,0:0:0:0:
168,104,229038,1,0,0:0:0:0:
96,280,229204,6,0,P|72:204|120:136,1,130
367,222,229538,1,0,0:0:0:0:
168,224,229704,1,0,0:0:0:0:
444,160,229871,2,0,P|465:212|444:288,1,130
276,288,230204,1,0,0:0:0:0:
240,172,230371,1,0,0:0:0:0:
208,52,230538,6,0,B|152:108|88:88|88:88|116:176|72:236,1,260
304,96,231038,1,0,0:0:0:0:
172,192,231204,2,0,B|168:296|84:292|80:292|80:292|236:288,1,260
408,184,231704,1,0,0:0:0:0:
304,348,231871,6,0,B|312:312|312:312|264:336|264:336|288:256|240:228|240:228|256:200|244:156,1,260
456,328,232371,1,0,0:0:0:0:
328,192,232538,2,0,B|320:104|412:100|412:100|408:32|408:32|336:40,1,260
184,56,233038,1,0,0:0:0:0:
140,64,233121,1,0,0:0:0:0:
108,92,233204,5,0,0:0:0:0:
88,292,233371,1,0,0:0:0:0:
132,280,233454,1,0,0:0:0:0:
176,276,233538,1,0,0:0:0:0:
220,280,233621,1,0,0:0:0:0:
260,296,233704,1,0,0:0:0:0:
304,304,233788,1,0,0:0:0:0:
348,296,233871,1,0,0:0:0:0:
472,216,234038,1,0,0:0:0:0:
288,192,234204,1,0,0:0:0:0:
448,76,234371,1,0,0:0:0:0:
236,116,234538,5,0,0:0:0:0:
172,76,234649,1,0,0:0:0:0:
100,104,234760,1,0,0:0:0:0:
80,180,234871,1,0,0:0:0:0:
144,224,234982,1,0,0:0:0:0:
220,224,235093,1,0,0:0:0:0:
288,260,235204,1,0,0:0:0:0:
324,332,235316,1,0,0:0:0:0:
372,272,235427,1,0,0:0:0:0:
436,228,235538,1,0,0:0:0:0:
424,152,235649,1,0,0:0:0:0:
348,148,235760,1,0,0:0:0:0:
288,96,235871,5,0,0:0:0:0:
192,284,236038,1,0,0:0:0:0:
108,188,236204,2,0,L|108:36,1,130
224,188,236538,1,0,0:0:0:0:
64,300,236704,1,0,0:0:0:0:
344,316,236871,2,0,L|340:152,1,130
260,268,237204,5,0,0:0:0:0:
464,280,237371,1,0,0:0:0:0:
336,88,237538,2,0,L|180:92,1,130
152,160,237871,2,0,P|116:100|160:24,1,130
280,348,238204,1,0,0:0:0:0:
52,264,238371,1,0,0:0:0:0:
368,296,238538,5,0,0:0:0:0:
136,196,238704,1,0,0:0:0:0:
452,184,238871,2,0,B|464:172|464:172|316:160,1,130
288,96,239204,2,0,P|268:204|316:236,1,130
392,304,239538,1,0,0:0:0:0:
408,80,239704,1,0,0:0:0:0:
160,239,239871,6,0,P|256:231|280:191,1,130
184,144,240204,1,0,0:0:0:0:
368,160,240371,1,0,0:0:0:0:
188,156,240538,1,0,0:0:0:0:
368,148,240704,1,0,0:0:0:0:
192,168,240871,1,0,0:0:0:0:
364,136,241038,1,0,0:0:0:0:
92,180,241204,6,0,B|84:220|84:220|96:324,1,130
224,312,241538,1,0,0:0:0:0:
368,288,241704,1,0,0:0:0:0:
504,268,241871,2,0,B|504:220|504:220|476:136,1,130
224,168,242204,1,0,0:0:0:0:
356,140,242371,1,0,0:0:0:0:
80,216,242538,6,0,B|48:204|48:204|164:180,1,130
316,280,242871,1,0,0:0:0:0:
184,252,243038,1,0,0:0:0:0:
460,328,243205,2,0,B|492:316|492:316|376:292,1,130
216,336,243538,1,0,0:0:0:0:
364,176,243704,1,0,0:0:0:0:
96,332,243871,6,0,B|88:296|88:296|92:144,1,130
224,208,244204,1,0,0:0:0:0:
304,64,244371,1,0,0:0:0:0:
90,202,244538,2,0,B|82:166|82:166|86:14,1,130
208,96,244871,1,0,0:0:0:0:
336,148,245038,1,0,0:0:0:0:
432,296,245204,6,0,P|400:216|444:176,1,130
308,232,245538,2,0,P|228:196|220:144,1,130
216,152,245788,1,0,0:0:0:0:
216,144,245871,1,0,0:0:0:0:
140,292,246038,1,0,0:0:0:0:
100,132,246204,1,0,0:0:0:0:
232,312,246371,1,0,0:0:0:0:
368,176,246538,6,0,P|384:100|352:40,1,130
280,124,246871,1,0,0:0:0:0:
484,224,247038,1,0,0:0:0:0:
280,308,247204,2,0,L|416:292,1,130
152,320,247538,1,0,0:0:0:0:
304,220,247704,1,0,0:0:0:0:
100,228,247871,6,0,P|76:160|92:92,1,130
336,144,248204,1,0,0:0:0:0:
176,152,248371,1,0,0:0:0:0:
412,56,248538,2,0,L|416:220,1,130
256,68,248871,1,0,0:0:0:0:
496,188,249038,1,0,0:0:0:0:
264,280,249204,6,0,L|260:144,1,130
332,224,249538,2,0,P|348:316|308:360,1,130
192,342,249871,2,0,P|169:283|192:224,1,130
432,288,250204,1,0,0:0:0:0:
264,280,250371,1,0,0:0:0:0:
88,280,250538,6,0,L|92:136,1,130
88,48,250871,1,0,0:0:0:0:
191,224,251038,1,0,0:0:0:0:
328,112,251204,2,0,L|192:108,1,130
440,120,251538,1,0,0:0:0:0:
280,208,251704,1,0,0:0:0:0:
412,256,251871,5,0,0:0:0:0:
448,304,251954,1,0,0:0:0:0:
424,356,252038,1,0,0:0:0:0:
364,356,252121,1,0,0:0:0:0:
308,336,252204,1,0,0:0:0:0:
260,300,252288,1,0,0:0:0:0:
204,308,252371,1,0,0:0:0:0:
148,324,252454,1,0,0:0:0:0:
88,312,252538,1,0,0:0:0:0:
88,312,252621,1,0,0:0:0:0:
64,260,252704,1,0,0:0:0:0:
76,200,252788,1,0,0:0:0:0:
72,140,252871,1,0,0:0:0:0:
64,84,252954,1,0,0:0:0:0:
120,100,253038,1,0,0:0:0:0:
176,112,253121,1,0,0:0:0:0:
232,100,253204,5,0,0:0:0:0:
232,100,253288,1,0,0:0:0:0:
292,100,253371,1,0,0:0:0:0:
336,60,253454,1,0,0:0:0:0:
392,36,253538,1,0,0:0:0:0:
376,92,253621,1,0,0:0:0:0:
372,152,253704,1,0,0:0:0:0:
388,208,253788,1,0,0:0:0:0:
412,260,253871,1,0,0:0:0:0:
412,260,253954,1,0,0:0:0:0:
356,240,254038,1,0,0:0:0:0:
300,236,254121,1,0,0:0:0:0:
244,256,254204,1,0,0:0:0:0:
132,284,254371,5,0,0:0:0:0:
76,264,254454,1,0,0:0:0:0:
72,204,254538,1,0,0:0:0:0:
104,92,254704,1,0,0:0:0:0:
152,56,254788,1,0,0:0:0:0:
208,64,254871,1,0,0:0:0:0:
264,84,254954,1,0,0:0:0:0:
320,72,255038,1,0,0:0:0:0:
380,64,255121,1,0,0:0:0:0:
436,76,255204,1,0,0:0:0:0:
356,200,255371,1,0,0:0:0:0:
468,280,255538,1,0,0:0:0:0:
284,308,255704,1,0,0:0:0:0:
88,248,255871,5,0,0:0:0:0:
104,192,255954,1,0,0:0:0:0:
108,132,256038,1,0,0:0:0:0:
76,84,256121,1,0,0:0:0:0:
132,96,256204,1,0,0:0:0:0:
188,112,256288,1,0,0:0:0:0:
240,84,256371,1,0,0:0:0:0:
296,72,256454,1,0,0:0:0:0:
356,64,256538,1,0,0:0:0:0:
412,76,256621,1,0,0:0:0:0:
452,120,256704,1,0,0:0:0:0:
460,180,256788,1,0,0:0:0:0:
448,236,256871,1,0,0:0:0:0:
388,236,256954,1,0,0:0:0:0:
336,208,257038,1,0,0:0:0:0:
280,200,257121,1,0,0:0:0:0:
224,216,257204,5,0,0:0:0:0:
