osu file format v14

[General]
AudioFilename: Ijime Dame Zettai.mp3
AudioLeadIn: 0
PreviewTime: 113174
Countdown: 0
SampleSet: Normal
StackLeniency: 0.6
Mode: 1
LetterboxInBreaks: 0
WidescreenStoryboard: 0

[Editor]
DistanceSpacing: 0.7
BeatDivisor: 4
GridSize: 4
TimelineZoom: 1.899999

[Metadata]
Title:Ijime, Dame, Zettai
TitleUnicode:イジメ、ダメ、ゼッタイ
Artist:BABYMETAL
ArtistUnicode:BABYMETAL
Creator:iloveyou4ever
Version:Inner Oni
Source:
Tags:su-metal yuimetal moametal suzuka nakamoto yui mizuno moa kikuchi
BeatmapID:1321798
BeatmapSetID:627248

[Difficulty]
HPDrainRate:5
CircleSize:2
OverallDifficulty:6.5
ApproachRate:0
SliderMultiplier:1.4
SliderTickRate:1

[Events]
//Background and Video events
0,0,"BG.jpg",0,65
//Break Periods
//Storyboard Layer 0 (Background)
//Storyboard Layer 1 (Fail)
//Storyboard Layer 2 (Pass)
//Storyboard Layer 3 (Foreground)
//Storyboard Sound Samples

[TimingPoints]
1148,447.761194029851,4,1,0,40,1,0
11684,447.761194029851,4,1,0,40,1,0
11914,454.545454545455,4,1,0,40,1,0
13726,447.761194029851,4,1,0,40,1,0
15518,444.444444444444,4,1,0,40,1,0
16851,576.923076923077,4,1,0,40,1,0
17427,444.444444444444,4,1,0,50,1,0
28982,500,4,1,0,50,1,0
30041,600,4,1,0,50,1,0
37050,375,4,1,0,90,1,0
49050,-95.2380952380952,4,1,0,90,0,0
73143,-100,4,1,0,90,0,0
113175,-99.009900990099,4,1,0,90,0,0
113268,-98.0392156862745,4,1,0,90,0,0
113362,-97.0873786407767,4,1,0,90,0,0
113456,-96.1538461538461,4,1,0,90,0,0
113550,-95.2380952380952,4,1,0,90,0,1
137550,-95.2380952380952,4,1,0,90,0,0
146550,-95.2380952380952,4,1,0,90,0,1
152550,-95.2380952380952,4,1,0,90,0,0
160893,-96.1538461538461,4,1,0,90,0,0
160987,-97.0873786407767,4,1,0,90,0,0
161081,-98.0392156862745,4,1,0,90,0,0
161175,-99.009900990099,4,1,0,90,0,0
161268,-100,4,1,0,90,0,0
161362,-101.010101010101,4,1,0,90,0,0
161550,375,4,1,0,90,1,8
161557,389.61038961039,4,1,0,90,1,0
162337,400,4,1,0,90,1,8
162337,-97.0873786407767,4,1,0,90,0,0
162735,368.098159509202,4,1,0,90,1,8
162735,-105.263157894737,4,1,0,90,0,0
163098,365.853658536585,4,1,0,90,1,0
163098,-106.382978723404,4,1,0,90,0,0
164401,365.853658536585,4,1,0,90,1,8
164401,-106.382978723404,4,1,0,90,0,0
164577,372.670807453416,4,1,0,90,1,0
164577,-104.166666666667,4,1,0,90,0,0
165311,379.746835443038,4,1,0,90,1,8
165311,-102.040816326531,4,1,0,90,0,0
166066,368.098159509202,4,1,0,90,1,0
166066,-105.263157894737,4,1,0,90,0,0
166446,375,4,1,0,90,1,8
166446,-104.166666666667,4,1,0,90,0,8
167352,-103.092783505155,4,1,0,90,0,0
167414,-102.040816326531,4,1,0,90,0,0
167477,-101.010101010101,4,1,0,90,0,0
167551,375,4,1,0,90,1,0
200176,-99.009900990099,4,1,0,90,0,0
200269,-98.0392156862745,4,1,0,90,0,0
200363,-97.0873786407767,4,1,0,90,0,0
200457,-96.1538461538461,4,1,0,90,0,0
200551,-95.2380952380952,4,1,0,90,0,1
227551,375,4,1,0,50,1,8
227564,375,4,1,0,50,1,0
227566,-105.263157894737,4,1,0,50,0,0
238626,-102.040816326531,4,1,0,50,0,0
238720,-101.010101010101,4,1,0,50,0,0
238811,375,4,1,0,70,1,8
239556,375,4,1,0,70,1,0
250056,-100,4,1,0,100,0,0
250806,-100,4,1,0,90,0,0
251087,-99.009900990099,4,1,0,90,0,0
251181,-98.0392156862745,4,1,0,90,0,0
251274,-97.0873786407767,4,1,0,90,0,0
251368,-96.1538461538461,4,1,0,90,0,0
251556,-95.2380952380952,4,1,0,90,0,1
275556,-95.2380952380952,4,1,0,90,0,0
290649,-100,4,1,0,90,0,0
303681,-99.009900990099,4,1,0,90,0,0
303868,-97.0873786407767,4,1,0,90,0,0
304056,-95.2380952380952,4,1,0,90,0,1
328056,-95.2380952380952,4,1,0,90,0,0
333868,-93.4579439252336,4,1,0,90,0,0
334056,-90.9090909090909,4,1,0,90,0,1
361056,-86.9565217391304,4,1,0,90,0,1
361243,-86.9565217391304,4,1,0,90,0,0

[HitObjects]
397,254,37050,5,4,0:0:0:0:
389,185,38362,1,0,0:0:0:0:
389,185,38425,1,0,0:0:0:0:
389,185,38487,1,0,0:0:0:0:
268,160,38550,1,8,0:0:0:0:
284,176,38737,1,8,0:0:0:0:
373,156,40050,1,4,0:0:0:0:
396,176,41425,1,0,0:0:0:0:
396,176,41487,1,0,0:0:0:0:
224,192,41550,1,8,0:0:0:0:
396,176,41737,1,8,0:0:0:0:
344,160,41831,1,0,0:0:0:0:
376,168,42018,1,0,0:0:0:0:
336,184,42112,1,8,0:0:0:0:
400,152,42300,1,8,0:0:0:0:
336,240,42362,1,8,0:0:0:0:
360,156,42425,1,0,0:0:0:0:
360,156,42487,1,0,0:0:0:0:
400,204,42581,1,0,0:0:0:0:
432,244,42675,1,8,0:0:0:0:
384,168,42768,1,8,0:0:0:0:
464,184,42862,1,8,0:0:0:0:
464,184,42956,1,8,0:0:0:0:
452,192,43050,1,0,0:0:0:0:
400,204,43425,1,8,0:0:0:0:
416,256,44175,1,8,0:0:0:0:
420,136,44425,1,8,0:0:0:0:
420,136,44487,1,8,0:0:0:0:
288,180,44550,1,0,0:0:0:0:
484,192,44737,1,0,0:0:0:0:
384,168,44925,1,8,0:0:0:0:
360,160,45675,1,8,0:0:0:0:
320,156,46050,1,0,0:0:0:0:
376,176,46425,1,8,0:0:0:0:
316,136,47175,1,8,0:0:0:0:
488,156,47362,1,0,0:0:0:0:
192,124,47425,1,0,0:0:0:0:
192,124,47487,1,0,0:0:0:0:
360,156,47550,1,8,0:0:0:0:
476,124,47737,1,8,0:0:0:0:
488,168,47831,1,0,0:0:0:0:
488,168,48018,1,0,0:0:0:0:
392,144,48112,1,8,0:0:0:0:
416,140,48300,1,8,0:0:0:0:
412,140,48362,1,8,0:0:0:0:
440,156,48425,1,0,0:0:0:0:
440,156,48487,1,0,0:0:0:0:
441,177,48581,1,0,0:0:0:0:
416,173,48675,1,8,0:0:0:0:
422,150,49050,1,8,0:0:0:0:
369,139,49143,1,0,0:0:0:0:
369,139,49237,1,0,0:0:0:0:
369,139,49331,1,0,0:0:0:0:
353,137,49425,1,8,0:0:0:0:
379,171,49518,1,0,0:0:0:0:
386,163,49612,1,0,0:0:0:0:
386,163,49706,1,0,0:0:0:0:
398,203,49800,1,8,0:0:0:0:
350,147,49893,1,0,0:0:0:0:
350,147,49987,1,0,0:0:0:0:
350,147,50081,1,0,0:0:0:0:
411,150,50175,1,8,0:0:0:0:
379,171,50268,1,0,0:0:0:0:
350,147,50362,1,0,0:0:0:0:
350,147,50456,1,0,0:0:0:0:
411,150,50550,1,8,0:0:0:0:
400,144,50643,1,0,0:0:0:0:
400,144,50737,1,0,0:0:0:0:
400,144,50831,1,0,0:0:0:0:
472,172,50925,1,8,0:0:0:0:
379,171,51018,1,0,0:0:0:0:
496,180,51112,1,0,0:0:0:0:
496,180,51206,1,0,0:0:0:0:
440,168,51300,1,8,0:0:0:0:
452,160,51393,1,0,0:0:0:0:
452,160,51487,1,0,0:0:0:0:
452,160,51581,1,0,0:0:0:0:
352,160,51675,1,8,0:0:0:0:
379,171,51768,1,0,0:0:0:0:
379,171,51862,1,0,0:0:0:0:
460,164,51956,1,0,0:0:0:0:
400,208,52050,1,8,0:0:0:0:
340,160,52143,1,0,0:0:0:0:
340,160,52237,1,0,0:0:0:0:
340,160,52331,1,0,0:0:0:0:
352,160,52425,1,8,0:0:0:0:
379,171,52518,1,0,0:0:0:0:
379,171,52612,1,0,0:0:0:0:
464,160,52706,1,0,0:0:0:0:
396,160,52800,1,8,0:0:0:0:
284,148,52893,1,0,0:0:0:0:
284,148,52987,1,0,0:0:0:0:
284,148,53081,1,0,0:0:0:0:
340,160,53175,1,8,0:0:0:0:
379,171,53268,1,0,0:0:0:0:
448,160,53362,1,0,0:0:0:0:
368,188,53456,1,0,0:0:0:0:
456,176,53550,1,8,0:0:0:0:
458,156,53643,1,0,0:0:0:0:
417,158,53737,1,8,0:0:0:0:
469,175,53831,1,8,0:0:0:0:
443,188,53925,1,0,0:0:0:0:
447,167,54018,1,0,0:0:0:0:
380,188,54112,1,8,0:0:0:0:
489,165,54300,1,8,0:0:0:0:
294,168,54393,1,8,0:0:0:0:
408,176,54487,1,0,0:0:0:0:
392,184,54581,1,0,0:0:0:0:
451,173,54675,1,8,0:0:0:0:
450,173,54768,1,8,0:0:0:0:
404,178,54862,1,8,0:0:0:0:
406,205,54956,1,0,0:0:0:0:
456,176,55050,1,8,0:0:0:0:
445,148,55143,1,8,0:0:0:0:
384,185,55237,1,0,0:0:0:0:
469,175,55331,1,8,0:0:0:0:
294,168,55425,1,8,0:0:0:0:
328,160,55518,1,0,0:0:0:0:
380,188,55612,1,8,0:0:0:0:
423,158,55706,1,8,0:0:0:0:
370,168,55800,1,0,0:0:0:0:
456,154,55893,1,8,0:0:0:0:
437,173,55987,1,8,0:0:0:0:
436,176,56081,1,0,0:0:0:0:
392,162,56175,1,8,0:0:0:0:
380,175,56268,1,0,0:0:0:0:
404,178,56362,1,8,0:0:0:0:
406,205,56456,1,0,0:0:0:0:
333,174,56550,1,8,0:0:0:0:
434,189,56643,1,8,0:0:0:0:
402,194,56737,1,0,0:0:0:0:
408,160,56831,1,8,0:0:0:0:
408,160,56925,1,8,0:0:0:0:
440,156,57018,1,0,0:0:0:0:
344,160,57112,1,8,0:0:0:0:
344,160,57206,1,8,0:0:0:0:
460,156,57300,1,0,0:0:0:0:
424,152,57393,1,8,0:0:0:0:
412,152,57487,1,8,0:0:0:0:
424,152,57581,1,0,0:0:0:0:
436,156,57675,1,8,0:0:0:0:
380,156,57768,1,0,0:0:0:0:
364,168,57862,1,8,0:0:0:0:
444,160,57956,1,0,0:0:0:0:
360,160,58050,1,8,0:0:0:0:
360,160,58143,1,8,0:0:0:0:
408,168,58237,1,0,0:0:0:0:
360,160,58331,1,8,0:0:0:0:
360,160,58425,1,8,0:0:0:0:
408,168,58518,1,0,0:0:0:0:
360,160,58612,1,8,0:0:0:0:
360,160,58706,1,8,0:0:0:0:
408,168,58800,1,0,0:0:0:0:
360,160,58893,1,8,0:0:0:0:
360,160,58987,1,8,0:0:0:0:
408,168,59081,1,0,0:0:0:0:
416,172,59175,1,8,0:0:0:0:
428,160,59268,1,0,0:0:0:0:
404,172,59362,1,8,0:0:0:0:
416,280,59456,1,0,0:0:0:0:
408,184,59550,1,8,0:0:0:0:
404,160,59643,1,0,0:0:0:0:
376,168,59737,1,8,0:0:0:0:
376,168,59831,1,8,0:0:0:0:
416,160,59925,1,0,0:0:0:0:
416,160,60018,1,0,0:0:0:0:
380,184,60112,1,8,0:0:0:0:
456,172,60300,1,8,0:0:0:0:
456,172,60393,1,8,0:0:0:0:
376,168,60487,1,0,0:0:0:0:
368,168,60581,1,0,0:0:0:0:
372,164,60675,1,8,0:0:0:0:
416,184,60768,1,0,0:0:0:0:
424,160,60862,1,8,0:0:0:0:
280,172,61050,1,4,0:0:0:0:
416,184,61237,1,8,0:0:0:0:
384,156,61518,1,0,0:0:0:0:
344,164,61612,1,8,0:0:0:0:
360,192,61800,1,0,0:0:0:0:
320,172,61987,1,8,0:0:0:0:
396,172,62081,1,0,0:0:0:0:
396,172,62268,1,0,0:0:0:0:
320,172,62362,1,8,0:0:0:0:
392,148,62550,1,0,0:0:0:0:
284,160,62737,1,8,0:0:0:0:
398,164,62925,1,0,0:0:0:0:
398,164,63018,1,0,0:0:0:0:
389,171,63112,1,8,0:0:0:0:
375,170,63300,1,0,0:0:0:0:
375,170,63393,1,0,0:0:0:0:
259,162,63487,1,8,0:0:0:0:
382,164,63581,1,0,0:0:0:0:
382,164,63768,1,0,0:0:0:0:
368,190,63862,1,8,0:0:0:0:
386,155,64050,1,0,0:0:0:0:
417,199,64237,1,8,0:0:0:0:
398,188,64425,1,0,0:0:0:0:
398,188,64518,1,0,0:0:0:0:
306,167,64612,1,8,0:0:0:0:
419,169,64800,1,0,0:0:0:0:
497,168,64987,1,8,0:0:0:0:
368,216,65081,1,0,0:0:0:0:
446,171,65268,1,0,0:0:0:0:
423,186,65362,1,8,0:0:0:0:
333,151,65550,1,0,0:0:0:0:
444,172,65737,1,8,0:0:0:0:
432,160,65925,1,0,0:0:0:0:
428,160,66018,1,0,0:0:0:0:
352,172,66112,1,8,0:0:0:0:
432,200,66300,1,0,0:0:0:0:
432,200,66362,1,0,0:0:0:0:
432,200,66425,1,0,0:0:0:0:
384,168,66487,1,8,0:0:0:0:
448,178,66675,1,0,0:0:0:0:
448,178,66737,1,0,0:0:0:0:
412,184,66800,1,8,0:0:0:0:
412,184,66862,1,8,0:0:0:0:
396,152,67050,1,4,0:0:0:0:
410,149,67237,1,8,0:0:0:0:
460,173,67518,1,0,0:0:0:0:
340,181,67612,1,8,0:0:0:0:
448,172,67800,1,0,0:0:0:0:
359,174,67987,1,8,0:0:0:0:
387,176,68081,1,0,0:0:0:0:
387,176,68268,1,0,0:0:0:0:
345,173,68362,1,8,0:0:0:0:
449,173,68550,1,0,0:0:0:0:
346,171,68737,1,8,0:0:0:0:
449,173,68925,1,8,0:0:0:0:
380,175,69018,1,0,0:0:0:0:
434,182,69112,1,8,0:0:0:0:
406,186,69300,1,0,0:0:0:0:
406,186,69393,1,0,0:0:0:0:
228,188,69487,1,8,0:0:0:0:
276,172,69581,1,0,0:0:0:0:
276,172,69768,1,0,0:0:0:0:
388,168,69862,1,8,0:0:0:0:
420,188,70050,1,0,0:0:0:0:
420,188,70143,1,0,0:0:0:0:
324,160,70237,1,8,0:0:0:0:
456,188,70425,1,8,0:0:0:0:
300,168,70518,1,0,0:0:0:0:
456,188,70612,1,8,0:0:0:0:
444,240,70800,1,0,0:0:0:0:
348,176,70893,1,0,0:0:0:0:
267,183,70987,1,8,0:0:0:0:
396,168,71081,1,0,0:0:0:0:
406,195,71175,1,8,0:0:0:0:
406,195,71268,1,8,0:0:0:0:
505,153,71362,1,8,0:0:0:0:
410,175,71456,1,0,0:0:0:0:
486,169,71550,1,8,0:0:0:0:
409,171,71643,1,0,0:0:0:0:
416,179,71737,1,8,0:0:0:0:
468,186,71831,1,0,0:0:0:0:
468,186,71925,1,0,0:0:0:0:
404,177,72018,1,8,0:0:0:0:
451,195,72112,1,0,0:0:0:0:
451,195,72206,1,0,0:0:0:0:
457,229,72300,1,8,0:0:0:0:
412,166,72393,1,0,0:0:0:0:
425,160,72487,1,8,0:0:0:0:
426,168,72581,1,8,0:0:0:0:
455,164,72675,1,8,0:0:0:0:
441,143,72768,1,0,0:0:0:0:
365,164,72862,1,8,0:0:0:0:
328,140,73050,1,4,0:0:0:0:
432,168,74050,1,0,0:0:0:0:
432,168,74112,1,0,0:0:0:0:
392,164,74175,1,8,0:0:0:0:
448,168,74268,1,8,0:0:0:0:
360,176,74362,1,0,0:0:0:0:
249,181,74550,1,12,0:0:0:0:
439,178,74831,1,4,0:0:0:0:
459,158,75112,1,12,0:0:0:0:
404,148,75300,1,0,0:0:0:0:
404,148,75393,1,0,0:0:0:0:
480,184,75487,1,8,0:0:0:0:
412,172,75581,1,0,0:0:0:0:
480,184,75675,1,8,0:0:0:0:
468,184,75862,1,8,0:0:0:0:
468,184,75956,1,8,0:0:0:0:
364,184,76050,1,0,0:0:0:0:
420,168,76237,1,8,0:0:0:0:
384,184,76425,1,0,0:0:0:0:
384,184,76518,1,0,0:0:0:0:
360,156,76612,1,8,0:0:0:0:
348,184,76800,1,0,0:0:0:0:
384,184,76987,1,8,0:0:0:0:
420,192,77081,1,0,0:0:0:0:
420,192,77268,1,0,0:0:0:0:
384,184,77362,1,8,0:0:0:0:
472,176,77550,1,0,0:0:0:0:
392,172,77737,1,8,0:0:0:0:
268,156,77925,1,0,0:0:0:0:
268,156,78018,1,0,0:0:0:0:
332,168,78112,1,8,0:0:0:0:
392,160,78300,1,0,0:0:0:0:
288,124,78393,1,0,0:0:0:0:
292,160,78487,1,8,0:0:0:0:
312,152,78581,1,0,0:0:0:0:
312,152,78768,1,0,0:0:0:0:
360,164,78862,1,8,0:0:0:0:
284,160,78956,1,8,0:0:0:0:
156,140,79050,1,0,0:0:0:0:
308,112,79237,1,8,0:0:0:0:
328,168,79425,1,0,0:0:0:0:
328,168,79518,1,0,0:0:0:0:
416,180,79612,1,8,0:0:0:0:
416,192,79800,1,0,0:0:0:0:
192,220,79987,1,8,0:0:0:0:
380,184,80081,1,0,0:0:0:0:
380,184,80268,1,0,0:0:0:0:
389,177,80362,1,8,0:0:0:0:
361,177,80550,1,0,0:0:0:0:
430,181,80737,1,8,0:0:0:0:
373,153,80987,1,0,0:0:0:0:
373,153,81050,1,0,0:0:0:0:
380,134,81112,1,8,0:0:0:0:
330,175,81206,1,0,0:0:0:0:
430,181,81300,1,0,0:0:0:0:
430,181,81393,1,0,0:0:0:0:
430,181,81487,1,8,0:0:0:0:
378,176,81581,1,0,0:0:0:0:
405,168,81675,1,8,0:0:0:0:
401,166,81768,1,0,0:0:0:0:
497,166,81862,1,8,0:0:0:0:
481,166,81956,1,8,0:0:0:0:
330,175,82050,1,0,0:0:0:0:
424,178,82237,1,8,0:0:0:0:
484,182,82425,1,0,0:0:0:0:
484,182,82518,1,0,0:0:0:0:
444,162,82612,1,8,0:0:0:0:
482,171,82800,1,0,0:0:0:0:
451,149,82987,1,8,0:0:0:0:
487,147,83081,1,0,0:0:0:0:
485,146,83268,1,0,0:0:0:0:
476,146,83362,1,8,0:0:0:0:
414,154,83550,1,0,0:0:0:0:
419,157,83737,1,8,0:0:0:0:
405,160,83925,1,0,0:0:0:0:
405,160,84018,1,0,0:0:0:0:
471,169,84112,1,8,0:0:0:0:
458,169,84300,1,0,0:0:0:0:
458,169,84393,1,0,0:0:0:0:
447,173,84487,1,8,0:0:0:0:
399,173,84581,1,0,0:0:0:0:
399,173,84768,1,0,0:0:0:0:
403,179,84862,1,8,0:0:0:0:
403,179,84956,1,8,0:0:0:0:
347,175,85050,1,0,0:0:0:0:
292,136,85237,1,8,0:0:0:0:
338,150,85425,1,0,0:0:0:0:
338,150,85518,1,0,0:0:0:0:
378,174,85612,1,8,0:0:0:0:
428,184,85800,1,8,0:0:0:0:
392,152,85987,1,0,0:0:0:0:
338,150,86175,1,8,0:0:0:0:
338,150,86268,1,8,0:0:0:0:
338,150,86362,1,0,0:0:0:0:
438,178,86550,1,0,0:0:0:0:
438,178,86643,1,0,0:0:0:0:
107,190,86737,1,8,0:0:0:0:
385,187,86831,1,0,0:0:0:0:
283,189,86925,1,8,0:0:0:0:
283,189,87018,1,8,0:0:0:0:
343,167,87112,1,8,0:0:0:0:
296,166,87206,1,0,0:0:0:0:
365,163,87300,1,8,0:0:0:0:
367,181,87393,1,0,0:0:0:0:
422,175,87487,1,8,0:0:0:0:
422,175,87581,1,8,0:0:0:0:
361,160,87675,1,0,0:0:0:0:
361,160,87768,1,0,0:0:0:0:
380,163,87862,1,8,0:0:0:0:
380,163,87956,1,8,0:0:0:0:
481,181,88050,1,0,0:0:0:0:
368,136,88237,1,8,0:0:0:0:
345,151,88425,1,0,0:0:0:0:
345,151,88518,1,0,0:0:0:0:
256,172,88612,1,8,0:0:0:0:
244,160,88800,1,0,0:0:0:0:
372,176,88987,1,8,0:0:0:0:
416,156,89081,1,0,0:0:0:0:
416,156,89268,1,0,0:0:0:0:
372,176,89362,1,8,0:0:0:0:
416,168,89550,1,0,0:0:0:0:
460,168,89737,1,8,0:0:0:0:
376,184,89925,1,0,0:0:0:0:
404,220,90018,1,0,0:0:0:0:
416,156,90112,1,8,0:0:0:0:
380,176,90300,1,0,0:0:0:0:
440,152,90487,1,8,0:0:0:0:
468,184,90581,1,0,0:0:0:0:
444,192,90675,1,0,0:0:0:0:
416,172,90768,1,0,0:0:0:0:
432,188,90862,1,8,0:0:0:0:
432,188,90956,1,8,0:0:0:0:
412,172,91050,1,0,0:0:0:0:
264,180,91237,1,8,0:0:0:0:
440,168,91425,1,0,0:0:0:0:
440,168,91518,1,0,0:0:0:0:
436,168,91612,1,8,0:0:0:0:
432,176,91800,1,0,0:0:0:0:
312,136,91987,1,8,0:0:0:0:
400,156,92081,1,0,0:0:0:0:
348,116,92268,1,0,0:0:0:0:
304,180,92362,1,8,0:0:0:0:
324,172,92550,1,0,0:0:0:0:
324,172,92643,1,0,0:0:0:0:
372,181,92737,1,8,0:0:0:0:
411,169,92925,1,0,0:0:0:0:
410,169,93018,1,0,0:0:0:0:
285,122,93112,1,8,0:0:0:0:
391,136,93300,1,0,0:0:0:0:
391,136,93393,1,0,0:0:0:0:
298,172,93487,1,8,0:0:0:0:
392,168,93581,1,0,0:0:0:0:
297,172,93675,1,8,0:0:0:0:
298,172,93768,1,8,0:0:0:0:
391,136,93862,1,0,0:0:0:0:
391,136,93956,1,0,0:0:0:0:
392,168,94050,1,0,0:0:0:0:
332,159,94237,1,8,0:0:0:0:
358,158,94425,1,0,0:0:0:0:
358,158,94518,1,0,0:0:0:0:
375,160,94612,1,8,0:0:0:0:
362,163,94800,1,0,0:0:0:0:
402,164,94987,1,8,0:0:0:0:
455,181,95081,1,0,0:0:0:0:
455,181,95268,1,0,0:0:0:0:
402,164,95362,1,8,0:0:0:0:
455,181,95550,1,0,0:0:0:0:
364,180,95737,1,8,0:0:0:0:
387,169,95925,1,0,0:0:0:0:
387,169,96018,1,0,0:0:0:0:
380,175,96112,1,8,0:0:0:0:
397,189,96300,1,0,0:0:0:0:
397,189,96393,1,0,0:0:0:0:
389,164,96487,1,8,0:0:0:0:
397,189,96581,1,0,0:0:0:0:
404,158,96768,1,0,0:0:0:0:
387,169,96862,1,8,0:0:0:0:
349,179,96956,1,8,0:0:0:0:
403,159,97050,1,0,0:0:0:0:
434,175,97237,1,8,0:0:0:0:
260,143,97425,1,0,0:0:0:0:
260,143,97518,1,0,0:0:0:0:
434,175,97612,1,8,0:0:0:0:
404,158,97800,1,0,0:0:0:0:
403,159,97893,1,0,0:0:0:0:
378,162,97987,1,8,0:0:0:0:
369,182,98081,1,0,0:0:0:0:
369,182,98268,1,0,0:0:0:0:
352,184,98362,1,8,0:0:0:0:
303,175,98550,1,8,0:0:0:0:
326,126,98643,1,0,0:0:0:0:
432,181,98737,1,8,0:0:0:0:
438,162,98925,1,0,0:0:0:0:
438,162,99018,1,0,0:0:0:0:
383,175,99112,1,8,0:0:0:0:
260,143,99206,1,0,0:0:0:0:
454,174,99300,1,8,0:0:0:0:
454,174,99393,1,8,0:0:0:0:
454,174,99487,1,8,0:0:0:0:
408,173,99581,1,0,0:0:0:0:
414,166,99675,1,8,0:0:0:0:
414,166,99768,1,8,0:0:0:0:
464,164,99862,1,0,0:0:0:0:
477,191,99956,1,8,0:0:0:0:
426,171,100050,1,0,0:0:0:0:
450,157,100143,1,0,0:0:0:0:
464,146,100237,1,8,0:0:0:0:
388,155,100331,1,0,0:0:0:0:
388,155,100425,1,0,0:0:0:0:
388,155,100518,1,0,0:0:0:0:
432,138,100612,1,8,0:0:0:0:
397,133,100706,1,0,0:0:0:0:
421,129,100800,1,0,0:0:0:0:
464,146,100893,1,0,0:0:0:0:
263,173,100987,1,8,0:0:0:0:
308,158,101081,1,0,0:0:0:0:
407,182,101175,1,8,0:0:0:0:
419,174,101268,1,0,0:0:0:0:
394,171,101362,1,8,0:0:0:0:
308,158,101456,1,8,0:0:0:0:
388,155,101550,1,8,0:0:0:0:
462,173,101643,1,0,0:0:0:0:
469,185,101737,1,8,0:0:0:0:
462,173,101831,1,0,0:0:0:0:
462,173,101925,1,0,0:0:0:0:
462,173,102018,1,0,0:0:0:0:
408,168,102112,1,8,0:0:0:0:
398,151,102206,1,0,0:0:0:0:
398,151,102300,1,0,0:0:0:0:
398,151,102393,1,0,0:0:0:0:
422,150,102487,1,8,0:0:0:0:
397,146,102581,1,0,0:0:0:0:
372,142,102675,1,0,0:0:0:0:
347,139,102768,1,0,0:0:0:0:
372,142,102862,1,8,0:0:0:0:
397,146,102956,1,0,0:0:0:0:
398,151,103050,1,8,0:0:0:0:
376,144,103143,1,0,0:0:0:0:
422,150,103237,1,8,0:0:0:0:
422,150,103331,1,8,0:0:0:0:
398,151,103425,1,0,0:0:0:0:
422,150,103518,1,0,0:0:0:0:
396,144,103612,1,8,0:0:0:0:
397,146,103706,1,0,0:0:0:0:
374,155,103800,1,8,0:0:0:0:
422,150,103893,1,0,0:0:0:0:
376,144,103987,1,8,0:0:0:0:
388,164,104081,1,8,0:0:0:0:
376,144,104175,1,0,0:0:0:0:
376,144,104268,1,0,0:0:0:0:
396,160,104362,1,8,0:0:0:0:
422,150,104456,1,0,0:0:0:0:
396,148,104550,1,8,0:0:0:0:
396,144,104643,1,0,0:0:0:0:
397,146,104737,1,8,0:0:0:0:
422,150,104831,1,0,0:0:0:0:
422,150,104925,1,0,0:0:0:0:
422,150,105018,1,0,0:0:0:0:
396,152,105112,1,8,0:0:0:0:
409,172,105206,1,0,0:0:0:0:
396,148,105300,1,0,0:0:0:0:
396,148,105393,1,0,0:0:0:0:
419,155,105487,1,8,0:0:0:0:
388,172,105581,1,0,0:0:0:0:
467,159,105675,1,0,0:0:0:0:
491,162,105768,1,0,0:0:0:0:
414,167,105862,1,8,0:0:0:0:
388,172,105956,1,8,0:0:0:0:
414,167,106050,1,0,0:0:0:0:
365,162,106237,1,8,0:0:0:0:
365,162,106487,1,0,0:0:0:0:
365,162,106550,1,0,0:0:0:0:
416,179,106612,1,8,0:0:0:0:
457,205,106800,1,0,0:0:0:0:
414,167,106893,1,0,0:0:0:0:
365,162,106987,1,8,0:0:0:0:
414,167,107081,1,0,0:0:0:0:
416,179,107268,1,0,0:0:0:0:
416,179,107362,1,8,0:0:0:0:
370,160,107550,1,0,0:0:0:0:
370,160,107737,1,8,0:0:0:0:
304,148,107987,1,0,0:0:0:0:
288,144,108050,1,0,0:0:0:0:
414,167,108112,1,8,0:0:0:0:
460,152,108300,1,0,0:0:0:0:
460,152,108393,1,0,0:0:0:0:
460,152,108487,1,8,0:0:0:0:
414,167,108581,1,0,0:0:0:0:
414,167,108675,1,0,0:0:0:0:
414,167,108768,1,0,0:0:0:0:
460,152,108862,1,8,0:0:0:0:
460,152,108956,1,8,0:0:0:0:
460,152,109050,1,0,0:0:0:0:
460,152,109112,1,0,0:0:0:0:
460,152,109175,1,0,0:0:0:0:
476,152,109237,1,8,0:0:0:0:
452,144,109331,1,0,0:0:0:0:
476,152,109425,1,0,0:0:0:0:
460,152,109518,1,8,0:0:0:0:
460,152,109612,1,0,0:0:0:0:
460,152,109706,1,0,0:0:0:0:
414,167,109800,1,8,0:0:0:0:
414,167,109893,1,8,0:0:0:0:
414,167,109987,1,0,0:0:0:0:
414,167,110081,1,0,0:0:0:0:
414,167,110175,1,8,0:0:0:0:
375,229,110456,1,8,0:0:0:0:
320,146,110550,1,4,0:0:0:0:
352,128,110831,1,4,0:0:0:0:
348,200,111112,1,4,0:0:0:0:
414,167,111300,1,12,0:0:0:0:
352,128,111581,1,4,0:0:0:0:
288,164,111862,1,12,0:0:0:0:
336,173,112050,1,8,0:0:0:0:
288,164,112112,1,0,0:0:0:0:
320,168,112175,1,0,0:0:0:0:
320,168,112237,1,8,0:0:0:0:
320,168,112425,1,0,0:0:0:0:
352,128,112612,1,8,0:0:0:0:
372,142,112706,1,0,0:0:0:0:
288,164,112893,1,8,0:0:0:0:
241,146,113081,1,0,0:0:0:0:
409,182,113175,1,8,0:0:0:0:
288,152,113268,1,0,0:0:0:0:
409,182,113362,1,8,0:0:0:0:
372,142,113456,1,8,0:0:0:0:
374,149,113550,1,0,0:0:0:0:
334,177,113737,1,8,0:0:0:0:
374,149,113925,1,0,0:0:0:0:
374,149,114018,1,0,0:0:0:0:
374,149,114112,1,8,0:0:0:0:
409,182,114300,1,0,0:0:0:0:
384,180,114393,1,0,0:0:0:0:
423,162,114487,1,8,0:0:0:0:
334,177,114675,1,0,0:0:0:0:
334,177,114768,1,0,0:0:0:0:
358,173,114862,1,8,0:0:0:0:
374,149,114956,1,8,0:0:0:0:
374,149,115050,1,0,0:0:0:0:
334,177,115237,1,8,0:0:0:0:
374,149,115425,1,0,0:0:0:0:
358,173,115518,1,0,0:0:0:0:
336,164,115612,1,8,0:0:0:0:
374,149,115800,1,0,0:0:0:0:
374,149,115893,1,0,0:0:0:0:
374,149,115987,1,8,0:0:0:0:
422,146,116175,1,8,0:0:0:0:
401,133,116268,1,0,0:0:0:0:
400,144,116362,1,8,0:0:0:0:
400,144,116456,1,8,0:0:0:0:
424,140,116550,1,0,0:0:0:0:
375,134,116737,1,8,0:0:0:0:
422,146,116925,1,0,0:0:0:0:
422,146,117018,1,0,0:0:0:0:
422,146,117112,1,8,0:0:0:0:
422,146,117300,1,0,0:0:0:0:
424,140,117393,1,0,0:0:0:0:
400,144,117487,1,8,0:0:0:0:
440,162,117581,1,0,0:0:0:0:
440,162,117675,1,8,0:0:0:0:
325,131,117768,1,0,0:0:0:0:
400,144,117862,1,8,0:0:0:0:
400,144,117956,1,8,0:0:0:0:
375,143,118050,1,0,0:0:0:0:
422,146,118143,1,0,0:0:0:0:
440,162,118237,1,8,0:0:0:0:
432,212,118425,1,0,0:0:0:0:
488,172,118518,1,0,0:0:0:0:
422,146,118612,1,8,0:0:0:0:
440,162,118800,1,8,0:0:0:0:
488,172,118893,1,0,0:0:0:0:
400,144,118987,1,8,0:0:0:0:
422,146,119175,1,8,0:0:0:0:
400,144,119268,1,0,0:0:0:0:
422,146,119362,1,8,0:0:0:0:
400,144,119456,1,8,0:0:0:0:
376,150,119550,1,0,0:0:0:0:
331,171,119737,1,8,0:0:0:0:
331,171,119925,1,0,0:0:0:0:
331,171,120018,1,0,0:0:0:0:
376,150,120112,1,8,0:0:0:0:
360,196,120300,1,0,0:0:0:0:
360,196,120393,1,0,0:0:0:0:
360,196,120487,1,8,0:0:0:0:
397,162,120675,1,0,0:0:0:0:
331,171,120768,1,0,0:0:0:0:
331,171,120862,1,8,0:0:0:0:
331,171,120956,1,8,0:0:0:0:
376,150,121050,1,0,0:0:0:0:
422,163,121237,1,8,0:0:0:0:
397,162,121425,1,0,0:0:0:0:
372,162,121518,1,0,0:0:0:0:
376,150,121612,1,8,0:0:0:0:
376,150,121800,1,0,0:0:0:0:
376,150,121893,1,0,0:0:0:0:
422,163,121987,1,8,0:0:0:0:
422,163,122175,1,0,0:0:0:0:
397,162,122268,1,0,0:0:0:0:
397,162,122362,1,8,0:0:0:0:
397,162,122456,1,8,0:0:0:0:
402,185,122550,1,8,0:0:0:0:
386,181,122643,1,0,0:0:0:0:
422,163,122737,1,8,0:0:0:0:
422,163,122925,1,8,0:0:0:0:
422,163,123018,1,0,0:0:0:0:
397,164,123112,1,8,0:0:0:0:
420,120,123300,1,8,0:0:0:0:
444,156,123393,1,0,0:0:0:0:
422,163,123487,1,8,0:0:0:0:
397,164,123581,1,8,0:0:0:0:
397,164,123675,1,0,0:0:0:0:
397,164,123768,1,0,0:0:0:0:
397,164,123862,1,8,0:0:0:0:
348,156,123956,1,0,0:0:0:0:
397,164,124050,1,8,0:0:0:0:
436,135,124237,1,0,0:0:0:0:
448,156,124331,1,8,0:0:0:0:
430,173,124425,1,0,0:0:0:0:
430,173,124518,1,0,0:0:0:0:
448,156,124612,1,8,0:0:0:0:
448,156,124706,1,0,0:0:0:0:
422,163,124800,1,8,0:0:0:0:
422,163,124893,1,8,0:0:0:0:
436,135,124987,1,0,0:0:0:0:
436,135,125081,1,0,0:0:0:0:
412,128,125175,1,8,0:0:0:0:
422,163,125268,1,0,0:0:0:0:
412,128,125362,1,8,0:0:0:0:
412,128,125456,1,8,0:0:0:0:
352,128,125550,1,0,0:0:0:0:
334,177,125737,1,8,0:0:0:0:
374,149,125925,1,0,0:0:0:0:
374,149,126018,1,0,0:0:0:0:
374,149,126112,1,8,0:0:0:0:
409,182,126300,1,0,0:0:0:0:
384,180,126393,1,0,0:0:0:0:
423,162,126487,1,8,0:0:0:0:
334,177,126675,1,0,0:0:0:0:
334,177,126768,1,0,0:0:0:0:
358,173,126862,1,8,0:0:0:0:
374,149,126956,1,8,0:0:0:0:
374,149,127050,1,0,0:0:0:0:
334,177,127237,1,8,0:0:0:0:
374,149,127425,1,0,0:0:0:0:
358,173,127518,1,0,0:0:0:0:
336,164,127612,1,8,0:0:0:0:
374,149,127800,1,0,0:0:0:0:
374,149,127893,1,0,0:0:0:0:
374,149,127987,1,8,0:0:0:0:
422,146,128175,1,8,0:0:0:0:
401,133,128268,1,0,0:0:0:0:
400,144,128362,1,8,0:0:0:0:
400,144,128456,1,8,0:0:0:0:
424,140,128550,1,0,0:0:0:0:
375,134,128737,1,8,0:0:0:0:
422,146,128925,1,0,0:0:0:0:
422,146,129018,1,0,0:0:0:0:
422,146,129112,1,8,0:0:0:0:
422,146,129300,1,0,0:0:0:0:
424,140,129393,1,0,0:0:0:0:
400,144,129487,1,8,0:0:0:0:
440,162,129581,1,0,0:0:0:0:
440,162,129675,1,8,0:0:0:0:
325,131,129768,1,0,0:0:0:0:
400,144,129862,1,8,0:0:0:0:
400,144,129956,1,8,0:0:0:0:
375,143,130050,1,0,0:0:0:0:
422,146,130143,1,0,0:0:0:0:
440,162,130237,1,8,0:0:0:0:
488,172,130425,1,0,0:0:0:0:
488,172,130518,1,0,0:0:0:0:
422,146,130612,1,8,0:0:0:0:
440,162,130800,1,8,0:0:0:0:
488,172,130893,1,0,0:0:0:0:
400,144,130987,1,8,0:0:0:0:
422,146,131175,1,8,0:0:0:0:
400,144,131268,1,0,0:0:0:0:
422,146,131362,1,8,0:0:0:0:
400,144,131456,1,8,0:0:0:0:
376,150,131550,1,0,0:0:0:0:
331,171,131737,1,8,0:0:0:0:
331,171,131925,1,0,0:0:0:0:
331,171,132018,1,0,0:0:0:0:
376,150,132112,1,8,0:0:0:0:
360,196,132300,1,0,0:0:0:0:
360,196,132393,1,0,0:0:0:0:
360,196,132487,1,8,0:0:0:0:
397,162,132675,1,0,0:0:0:0:
331,171,132768,1,0,0:0:0:0:
331,171,132862,1,8,0:0:0:0:
331,171,132956,1,8,0:0:0:0:
376,150,133050,1,0,0:0:0:0:
422,163,133237,1,8,0:0:0:0:
397,162,133425,1,0,0:0:0:0:
372,162,133518,1,0,0:0:0:0:
376,150,133612,1,8,0:0:0:0:
376,150,133800,1,0,0:0:0:0:
376,150,133893,1,0,0:0:0:0:
422,163,133987,1,8,0:0:0:0:
422,163,134175,1,0,0:0:0:0:
397,162,134268,1,0,0:0:0:0:
397,162,134362,1,8,0:0:0:0:
376,150,134456,1,0,0:0:0:0:
402,185,134550,1,8,0:0:0:0:
376,150,134737,1,0,0:0:0:0:
353,160,134831,1,0,0:0:0:0:
328,164,134925,1,8,0:0:0:0:
328,164,135112,1,0,0:0:0:0:
328,164,135206,1,0,0:0:0:0:
353,160,135300,1,8,0:0:0:0:
353,160,135393,1,0,0:0:0:0:
353,160,135487,1,8,0:0:0:0:
353,160,135581,1,8,0:0:0:0:
353,160,135675,1,0,0:0:0:0:
376,150,135768,1,0,0:0:0:0:
353,160,135862,1,8,0:0:0:0:
328,164,135956,1,8,0:0:0:0:
328,164,136050,1,0,0:0:0:0:
428,168,136237,1,8,0:0:0:0:
428,168,136331,1,0,0:0:0:0:
428,168,136518,1,0,0:0:0:0:
428,168,136612,1,8,0:0:0:0:
376,150,136800,1,8,0:0:0:0:
400,148,136893,1,8,0:0:0:0:
400,148,136987,1,8,0:0:0:0:
400,148,137081,1,8,0:0:0:0:
400,148,137175,1,0,0:0:0:0:
400,148,137268,1,0,0:0:0:0:
424,152,137362,1,8,0:0:0:0:
400,148,137456,1,8,0:0:0:0:
328,164,137550,1,0,0:0:0:0:
424,152,138175,1,0,0:0:0:0:
424,152,138237,1,0,0:0:0:0:
428,168,138300,1,8,0:0:0:0:
404,168,138393,1,8,0:0:0:0:
328,164,138487,1,0,0:0:0:0:
328,164,138581,1,0,0:0:0:0:
328,164,138675,1,8,0:0:0:0:
428,168,138768,1,0,0:0:0:0:
424,152,138862,1,8,0:0:0:0:
424,152,138956,1,8,0:0:0:0:
424,152,139050,1,0,0:0:0:0:
280,188,139612,1,0,0:0:0:0:
296,184,139675,1,0,0:0:0:0:
312,180,139737,1,0,0:0:0:0:
304,168,139800,1,8,0:0:0:0:
324,184,139893,1,8,0:0:0:0:
352,184,139987,1,0,0:0:0:0:
376,192,140081,1,0,0:0:0:0:
280,188,140175,1,8,0:0:0:0:
376,184,140550,1,8,0:0:0:0:
400,176,140643,1,0,0:0:0:0:
400,176,140737,1,0,0:0:0:0:
400,176,140831,1,0,0:0:0:0:
352,184,140925,1,8,0:0:0:0:
352,184,141018,1,0,0:0:0:0:
376,192,141112,1,0,0:0:0:0:
376,184,141206,1,0,0:0:0:0:
376,184,141300,1,8,0:0:0:0:
376,184,141393,1,0,0:0:0:0:
376,184,141487,1,0,0:0:0:0:
376,184,141581,1,0,0:0:0:0:
400,176,141675,1,8,0:0:0:0:
400,176,141768,1,8,0:0:0:0:
350,171,141862,1,0,0:0:0:0:
325,169,141956,1,0,0:0:0:0:
400,176,142050,1,8,0:0:0:0:
400,176,142143,1,0,0:0:0:0:
400,176,142237,1,0,0:0:0:0:
400,176,142331,1,0,0:0:0:0:
350,171,142425,1,8,0:0:0:0:
326,167,142518,1,0,0:0:0:0:
325,166,142612,1,0,0:0:0:0:
300,162,142706,1,0,0:0:0:0:
350,171,142800,1,8,0:0:0:0:
350,171,142893,1,8,0:0:0:0:
325,169,142987,1,0,0:0:0:0:
372,168,143081,1,8,0:0:0:0:
348,172,143175,1,0,0:0:0:0:
350,171,143268,1,0,0:0:0:0:
350,171,143362,1,8,0:0:0:0:
300,162,143456,1,0,0:0:0:0:
324,166,143550,1,8,0:0:0:0:
348,167,143643,1,0,0:0:0:0:
372,168,143737,1,0,0:0:0:0:
396,170,143831,1,0,0:0:0:0:
396,170,143925,1,8,0:0:0:0:
300,162,144018,1,0,0:0:0:0:
300,162,144112,1,0,0:0:0:0:
300,162,144206,1,0,0:0:0:0:
396,170,144300,1,8,0:0:0:0:
396,170,144393,1,0,0:0:0:0:
396,170,144487,1,0,0:0:0:0:
396,170,144581,1,0,0:0:0:0:
300,162,144675,1,8,0:0:0:0:
300,162,144768,1,8,0:0:0:0:
324,164,144862,1,0,0:0:0:0:
348,168,144956,1,0,0:0:0:0:
396,170,145050,1,8,0:0:0:0:
324,164,145143,1,8,0:0:0:0:
408,172,145237,1,0,0:0:0:0:
324,164,145331,1,8,0:0:0:0:
300,164,145425,1,8,0:0:0:0:
276,156,145518,1,0,0:0:0:0:
252,168,145612,1,8,0:0:0:0:
300,180,145800,1,8,0:0:0:0:
300,164,145893,1,0,0:0:0:0:
348,168,145987,1,8,0:0:0:0:
372,180,146081,1,8,0:0:0:0:
324,164,146175,1,0,0:0:0:0:
324,164,146268,1,0,0:0:0:0:
420,168,146362,1,8,0:0:0:0:
420,168,146550,1,4,0:0:0:0:
444,124,146737,1,0,0:0:0:0:
428,144,146831,1,8,0:0:0:0:
300,164,146925,1,0,0:0:0:0:
324,164,147018,1,8,0:0:0:0:
300,160,147112,1,0,0:0:0:0:
300,164,147206,1,8,0:0:0:0:
319,179,147300,1,0,0:0:0:0:
300,164,147393,1,8,0:0:0:0:
324,166,147487,1,0,0:0:0:0:
300,164,147581,1,8,0:0:0:0:
324,166,147675,1,0,0:0:0:0:
324,166,147768,1,8,0:0:0:0:
302,176,147862,1,0,0:0:0:0:
324,166,147956,1,8,0:0:0:0:
348,165,148050,1,0,0:0:0:0:
372,164,148143,1,8,0:0:0:0:
300,164,148237,1,0,0:0:0:0:
324,166,148331,1,8,0:0:0:0:
348,165,148425,1,0,0:0:0:0:
372,164,148518,1,8,0:0:0:0:
348,165,148612,1,0,0:0:0:0:
372,164,148706,1,8,0:0:0:0:
348,165,148800,1,0,0:0:0:0:
348,165,148893,1,8,0:0:0:0:
348,165,148987,1,0,0:0:0:0:
372,164,149081,1,8,0:0:0:0:
372,164,149175,1,0,0:0:0:0:
390,179,149268,1,8,0:0:0:0:
390,179,149362,1,0,0:0:0:0:
427,210,149456,1,8,0:0:0:0:
390,179,149550,1,0,0:0:0:0:
368,135,149737,1,0,0:0:0:0:
345,144,149831,1,8,0:0:0:0:
409,160,149925,1,0,0:0:0:0:
384,162,150018,1,8,0:0:0:0:
433,165,150112,1,0,0:0:0:0:
433,165,150206,1,8,0:0:0:0:
433,165,150300,1,0,0:0:0:0:
390,179,150393,1,8,0:0:0:0:
433,165,150487,1,0,0:0:0:0:
390,179,150581,1,8,0:0:0:0:
433,165,150675,1,0,0:0:0:0:
384,162,150768,1,8,0:0:0:0:
433,165,150862,1,0,0:0:0:0:
384,162,150956,1,8,0:0:0:0:
407,168,151050,1,0,0:0:0:0:
320,179,151143,1,8,0:0:0:0:
320,179,151237,1,0,0:0:0:0:
320,179,151331,1,8,0:0:0:0:
320,179,151425,1,0,0:0:0:0:
320,179,151518,1,8,0:0:0:0:
320,179,151612,1,0,0:0:0:0:
320,179,151706,1,8,0:0:0:0:
320,179,151800,1,0,0:0:0:0:
384,162,151893,1,8,0:0:0:0:
407,168,151987,1,0,0:0:0:0:
388,152,152081,1,8,0:0:0:0:
388,176,152175,1,0,0:0:0:0:
360,160,152268,1,0,0:0:0:0:
320,179,152362,1,8,0:0:0:0:
312,144,152456,1,0,0:0:0:0:
384,162,152550,1,8,0:0:0:0:
312,144,152737,1,0,0:0:0:0:
360,160,152831,1,0,0:0:0:0:
388,152,152925,1,8,0:0:0:0:
388,152,153018,1,8,0:0:0:0:
452,168,153112,1,8,0:0:0:0:
312,144,153206,1,0,0:0:0:0:
288,144,153300,1,8,0:0:0:0:
320,179,153393,1,8,0:0:0:0:
392,144,153487,1,0,0:0:0:0:
352,188,153581,1,0,0:0:0:0:
432,156,153675,1,8,0:0:0:0:
320,132,153768,1,0,0:0:0:0:
452,168,153862,1,0,0:0:0:0:
360,156,153956,1,0,0:0:0:0:
320,132,154050,1,8,0:0:0:0:
344,129,154143,1,8,0:0:0:0:
368,136,154237,1,0,0:0:0:0:
392,144,154331,1,0,0:0:0:0:
416,188,154425,1,8,0:0:0:0:
416,188,154518,1,8,0:0:0:0:
432,156,154612,1,0,0:0:0:0:
360,156,154706,1,0,0:0:0:0:
360,156,154800,1,8,0:0:0:0:
384,156,154893,1,8,0:0:0:0:
344,129,154987,1,8,0:0:0:0:
432,156,155081,1,0,0:0:0:0:
452,168,155175,1,8,0:0:0:0:
432,156,155268,1,0,0:0:0:0:
476,164,155362,1,0,0:0:0:0:
476,164,155456,1,0,0:0:0:0:
384,156,155550,1,8,0:0:0:0:
416,188,155643,1,8,0:0:0:0:
312,144,155737,1,0,0:0:0:0:
360,160,155831,1,0,0:0:0:0:
388,152,155925,1,8,0:0:0:0:
388,152,156018,1,8,0:0:0:0:
408,168,156112,1,8,0:0:0:0:
312,144,156206,1,0,0:0:0:0:
288,144,156300,1,8,0:0:0:0:
320,179,156393,1,8,0:0:0:0:
392,144,156487,1,0,0:0:0:0:
352,188,156581,1,0,0:0:0:0:
432,156,156675,1,8,0:0:0:0:
320,132,156768,1,0,0:0:0:0:
452,168,156862,1,0,0:0:0:0:
360,156,156956,1,0,0:0:0:0:
320,132,157050,1,8,0:0:0:0:
344,129,157143,1,8,0:0:0:0:
368,136,157237,1,0,0:0:0:0:
392,144,157331,1,0,0:0:0:0:
416,188,157425,1,8,0:0:0:0:
416,188,157518,1,8,0:0:0:0:
432,156,157612,1,0,0:0:0:0:
360,156,157706,1,0,0:0:0:0:
392,144,157800,1,8,0:0:0:0:
392,144,157893,1,8,0:0:0:0:
476,164,157987,1,8,0:0:0:0:
432,156,158081,1,0,0:0:0:0:
397,176,158175,1,8,0:0:0:0:
432,156,158268,1,0,0:0:0:0:
432,156,158362,1,0,0:0:0:0:
476,164,158456,1,0,0:0:0:0:
384,156,158550,1,8,0:0:0:0:
452,168,158643,1,8,0:0:0:0:
384,156,158831,1,0,0:0:0:0:
397,176,158925,1,8,0:0:0:0:
432,156,159018,1,0,0:0:0:0:
446,175,159112,1,0,0:0:0:0:
384,156,159206,1,8,0:0:0:0:
336,148,159393,1,0,0:0:0:0:
448,168,159487,1,8,0:0:0:0:
468,152,159581,1,0,0:0:0:0:
476,164,159675,1,8,0:0:0:0:
476,164,159768,1,8,0:0:0:0:
452,168,159862,1,0,0:0:0:0:
452,168,159956,1,0,0:0:0:0:
448,168,160050,1,8,0:0:0:0:
468,152,160425,1,0,0:0:0:0:
468,152,160800,1,0,0:0:0:0:
468,152,160893,1,8,0:0:0:0:
468,152,160987,1,0,0:0:0:0:
468,152,161081,1,0,0:0:0:0:
444,160,161175,1,8,0:0:0:0:
444,160,161268,1,8,0:0:0:0:
468,152,161362,1,0,0:0:0:0:
347,164,161557,1,12,0:0:0:0:
228,76,162141,1,0,0:0:0:0:
360,188,162735,1,0,0:0:0:0:
440,169,163098,1,8,0:0:0:0:
440,169,163646,1,8,0:0:0:0:
260,112,164401,1,8,0:0:0:0:
276,44,164577,1,0,0:0:0:0:
440,169,164949,1,8,0:0:0:0:
364,112,165311,1,0,0:0:0:0:
364,112,165500,1,0,0:0:0:0:
414,166,165690,1,8,0:0:0:0:
414,166,165880,1,8,0:0:0:0:
384,148,166066,1,0,0:0:0:0:
384,148,166250,1,0,0:0:0:0:
432,128,166446,1,8,0:0:0:0:
414,166,166633,1,0,0:0:0:0:
460,160,166821,1,8,0:0:0:0:
414,166,167008,1,8,0:0:0:0:
376,140,167196,1,0,0:0:0:0:
376,140,167352,1,0,0:0:0:0:
414,166,167414,1,0,0:0:0:0:
414,166,167477,1,0,0:0:0:0:
414,166,167551,1,8,0:0:0:0:
414,166,167738,1,8,0:0:0:0:
414,166,167832,1,8,0:0:0:0:
414,166,168113,1,4,0:0:0:0:
417,213,168488,1,4,0:0:0:0:
388,119,168863,1,12,0:0:0:0:
478,49,169301,1,0,0:0:0:0:
465,58,169363,1,0,0:0:0:0:
461,74,169426,1,8,0:0:0:0:
447,93,169519,1,8,0:0:0:0:
424,102,169613,1,0,0:0:0:0:
401,111,169707,1,0,0:0:0:0:
383,128,169801,1,8,0:0:0:0:
383,128,169988,1,0,0:0:0:0:
431,126,170082,1,8,0:0:0:0:
408,158,170176,1,0,0:0:0:0:
431,126,170269,1,0,0:0:0:0:
408,134,170363,1,8,0:0:0:0:
408,158,170457,1,8,0:0:0:0:
432,162,170551,1,0,0:0:0:0:
431,126,170926,1,0,0:0:0:0:
382,132,171113,1,8,0:0:0:0:
408,158,171301,1,0,0:0:0:0:
360,164,171488,1,8,0:0:0:0:
408,172,171676,1,0,0:0:0:0:
407,143,171863,1,0,0:0:0:0:
407,143,171957,1,8,0:0:0:0:
384,140,172051,1,8,0:0:0:0:
359,133,172144,1,0,0:0:0:0:
450,166,172238,1,0,0:0:0:0:
407,143,172301,1,0,0:0:0:0:
407,143,172363,1,0,0:0:0:0:
361,142,172426,1,8,0:0:0:0:
370,124,172519,1,0,0:0:0:0:
376,172,172613,1,8,0:0:0:0:
357,132,172707,1,0,0:0:0:0:
373,149,172801,1,8,0:0:0:0:
373,149,172863,1,0,0:0:0:0:
373,149,172926,1,0,0:0:0:0:
407,143,172988,1,8,0:0:0:0:
407,143,173082,1,0,0:0:0:0:
382,140,173176,1,8,0:0:0:0:
357,132,173551,1,4,0:0:0:0:
400,156,173738,1,8,0:0:0:0:
352,156,173926,1,0,0:0:0:0:
328,156,174019,1,0,0:0:0:0:
328,156,174113,1,8,0:0:0:0:
376,172,174301,1,0,0:0:0:0:
352,156,174488,1,8,0:0:0:0:
376,156,174582,1,0,0:0:0:0:
424,160,174769,1,0,0:0:0:0:
352,156,174863,1,8,0:0:0:0:
348,204,175051,1,0,0:0:0:0:
424,160,175238,1,8,0:0:0:0:
374,160,175426,1,0,0:0:0:0:
352,156,175519,1,0,0:0:0:0:
329,165,175613,1,8,0:0:0:0:
377,158,175801,1,0,0:0:0:0:
401,155,175894,1,0,0:0:0:0:
401,155,175988,1,8,0:0:0:0:
414,178,176082,1,0,0:0:0:0:
350,175,176176,1,8,0:0:0:0:
350,175,176269,1,0,0:0:0:0:
401,155,176363,1,8,0:0:0:0:
401,155,176457,1,8,0:0:0:0:
377,158,176551,1,0,0:0:0:0:
377,158,176738,1,8,0:0:0:0:
401,155,176926,1,0,0:0:0:0:
401,155,177019,1,0,0:0:0:0:
401,155,177113,1,8,0:0:0:0:
377,158,177301,1,0,0:0:0:0:
424,172,177488,1,8,0:0:0:0:
399,173,177582,1,0,0:0:0:0:
350,175,177769,1,0,0:0:0:0:
401,155,177863,1,8,0:0:0:0:
424,172,178051,1,0,0:0:0:0:
350,175,178238,1,8,0:0:0:0:
373,153,178488,1,0,0:0:0:0:
373,153,178551,1,0,0:0:0:0:
380,134,178613,1,8,0:0:0:0:
378,176,178707,1,0,0:0:0:0:
373,153,178801,1,0,0:0:0:0:
373,153,178894,1,0,0:0:0:0:
424,172,178988,1,8,0:0:0:0:
378,176,179082,1,0,0:0:0:0:
405,168,179176,1,8,0:0:0:0:
401,166,179269,1,0,0:0:0:0:
497,166,179363,1,8,0:0:0:0:
481,166,179457,1,8,0:0:0:0:
330,175,179551,1,0,0:0:0:0:
481,166,179738,1,8,0:0:0:0:
436,188,179926,1,0,0:0:0:0:
436,188,180019,1,0,0:0:0:0:
405,168,180113,1,8,0:0:0:0:
406,217,180301,1,0,0:0:0:0:
405,168,180488,1,8,0:0:0:0:
405,168,180582,1,0,0:0:0:0:
405,168,180769,1,0,0:0:0:0:
405,168,180863,1,8,0:0:0:0:
447,192,181051,1,0,0:0:0:0:
405,168,181238,1,8,0:0:0:0:
363,194,181426,1,0,0:0:0:0:
363,194,181519,1,0,0:0:0:0:
386,187,181613,1,8,0:0:0:0:
405,168,181801,1,0,0:0:0:0:
405,168,181894,1,0,0:0:0:0:
405,168,181988,1,8,0:0:0:0:
381,161,182082,1,0,0:0:0:0:
334,147,182269,1,0,0:0:0:0:
405,168,182363,1,8,0:0:0:0:
405,168,182457,1,8,0:0:0:0:
381,161,182551,1,0,0:0:0:0:
424,184,182738,1,8,0:0:0:0:
381,161,182926,1,0,0:0:0:0:
381,161,183019,1,0,0:0:0:0:
356,156,183113,1,8,0:0:0:0:
404,160,183301,1,8,0:0:0:0:
428,168,183394,1,0,0:0:0:0:
404,168,183488,1,8,0:0:0:0:
356,168,183676,1,0,0:0:0:0:
381,161,183769,1,0,0:0:0:0:
356,156,183863,1,8,0:0:0:0:
356,156,183957,1,0,0:0:0:0:
381,161,184051,1,8,0:0:0:0:
404,160,184144,1,0,0:0:0:0:
427,166,184238,1,8,0:0:0:0:
427,166,184332,1,0,0:0:0:0:
427,166,184426,1,0,0:0:0:0:
427,166,184519,1,0,0:0:0:0:
427,166,184613,1,8,0:0:0:0:
451,168,184707,1,0,0:0:0:0:
427,166,184801,1,8,0:0:0:0:
448,176,184894,1,0,0:0:0:0:
427,166,184988,1,8,0:0:0:0:
424,168,185082,1,8,0:0:0:0:
399,171,185176,1,0,0:0:0:0:
374,174,185269,1,0,0:0:0:0:
399,171,185363,1,8,0:0:0:0:
375,177,185457,1,0,0:0:0:0:
399,171,185551,1,8,0:0:0:0:
383,152,185644,1,0,0:0:0:0:
378,191,185738,1,8,0:0:0:0:
471,162,186113,1,8,0:0:0:0:
399,171,186488,1,8,0:0:0:0:
420,215,186676,1,0,0:0:0:0:
420,215,186769,1,0,0:0:0:0:
399,171,186863,1,8,0:0:0:0:
425,170,186957,1,8,0:0:0:0:
399,171,187051,1,0,0:0:0:0:
394,194,187144,1,0,0:0:0:0:
425,170,187238,1,8,0:0:0:0:
399,171,187613,1,8,0:0:0:0:
425,170,187988,1,8,0:0:0:0:
425,170,188082,1,0,0:0:0:0:
442,187,188176,1,0,0:0:0:0:
442,187,188269,1,0,0:0:0:0:
383,258,188363,1,8,0:0:0:0:
403,243,188457,1,0,0:0:0:0:
425,170,188551,1,8,0:0:0:0:
425,170,188644,1,8,0:0:0:0:
425,170,188738,1,0,0:0:0:0:
400,168,188832,1,8,0:0:0:0:
425,170,189113,1,8,0:0:0:0:
375,170,189301,1,0,0:0:0:0:
375,170,189394,1,0,0:0:0:0:
375,170,189488,1,8,0:0:0:0:
400,168,189582,1,8,0:0:0:0:
400,168,189863,1,8,0:0:0:0:
419,213,190051,1,0,0:0:0:0:
419,213,190144,1,0,0:0:0:0:
395,206,190238,1,8,0:0:0:0:
375,170,190332,1,8,0:0:0:0:
444,204,190426,1,0,0:0:0:0:
395,206,190519,1,8,0:0:0:0:
400,168,190613,1,0,0:0:0:0:
419,213,190707,1,0,0:0:0:0:
375,170,190801,1,8,0:0:0:0:
419,213,190988,1,8,0:0:0:0:
419,213,191035,1,8,0:0:0:0:
375,170,191129,1,0,0:0:0:0:
375,170,191176,1,0,0:0:0:0:
396,216,191363,1,0,0:0:0:0:
382,263,191551,1,12,0:0:0:0:
396,216,192113,1,0,0:0:0:0:
396,216,192207,1,0,0:0:0:0:
375,202,192301,1,8,0:0:0:0:
417,187,192863,1,8,0:0:0:0:
417,187,193051,1,0,0:0:0:0:
368,180,193238,1,0,0:0:0:0:
333,145,193426,1,8,0:0:0:0:
381,146,193613,1,0,0:0:0:0:
405,147,193707,1,0,0:0:0:0:
380,147,193801,1,8,0:0:0:0:
368,180,193988,1,8,0:0:0:0:
356,168,194551,1,4,0:0:0:0:
414,132,195113,1,0,0:0:0:0:
427,152,195207,1,0,0:0:0:0:
404,160,195301,1,8,0:0:0:0:
381,169,195394,1,8,0:0:0:0:
381,169,195488,1,0,0:0:0:0:
381,169,195582,1,0,0:0:0:0:
356,168,195676,1,8,0:0:0:0:
356,168,195926,1,8,0:0:0:0:
372,176,195988,1,8,0:0:0:0:
388,176,196051,1,0,0:0:0:0:
406,130,196238,1,0,0:0:0:0:
381,169,196332,1,8,0:0:0:0:
381,169,196519,1,8,0:0:0:0:
356,169,196613,1,0,0:0:0:0:
325,130,196801,1,8,0:0:0:0:
372,142,196988,1,8,0:0:0:0:
381,169,197082,1,0,0:0:0:0:
381,169,197269,1,0,0:0:0:0:
381,169,197363,1,8,0:0:0:0:
390,216,197551,1,8,0:0:0:0:
427,185,197738,1,0,0:0:0:0:
446,169,197832,1,0,0:0:0:0:
427,185,197926,1,8,0:0:0:0:
427,185,198113,1,8,0:0:0:0:
446,169,198207,1,8,0:0:0:0:
427,185,198301,1,0,0:0:0:0:
403,178,198488,1,0,0:0:0:0:
403,178,198582,1,0,0:0:0:0:
414,199,198676,1,8,0:0:0:0:
414,199,198769,1,8,0:0:0:0:
414,199,198863,1,8,0:0:0:0:
414,199,198957,1,8,0:0:0:0:
403,178,199051,1,0,0:0:0:0:
424,166,199144,1,8,0:0:0:0:
403,178,199238,1,0,0:0:0:0:
403,178,199332,1,0,0:0:0:0:
424,166,199426,1,8,0:0:0:0:
424,166,199519,1,0,0:0:0:0:
403,178,199613,1,8,0:0:0:0:
403,178,199707,1,8,0:0:0:0:
424,164,199801,1,0,0:0:0:0:
444,152,199894,1,0,0:0:0:0:
460,172,199988,1,8,0:0:0:0:
403,178,200082,1,0,0:0:0:0:
424,166,200176,1,8,0:0:0:0:
424,166,200269,1,0,0:0:0:0:
424,166,200363,1,8,0:0:0:0:
424,164,200457,1,8,0:0:0:0:
400,160,200551,1,0,0:0:0:0:
444,152,200738,1,8,0:0:0:0:
432,176,200832,1,0,0:0:0:0:
424,200,200926,1,0,0:0:0:0:
460,172,201019,1,0,0:0:0:0:
480,160,201113,1,8,0:0:0:0:
400,160,201301,1,0,0:0:0:0:
400,160,201394,1,0,0:0:0:0:
376,152,201488,1,8,0:0:0:0:
424,200,201676,1,0,0:0:0:0:
460,172,201769,1,0,0:0:0:0:
376,152,201863,1,8,0:0:0:0:
350,151,201957,1,8,0:0:0:0:
396,168,202051,1,0,0:0:0:0:
400,160,202238,1,8,0:0:0:0:
392,136,202332,1,0,0:0:0:0:
404,156,202426,1,0,0:0:0:0:
384,112,202519,1,0,0:0:0:0:
360,112,202613,1,8,0:0:0:0:
336,112,202801,1,0,0:0:0:0:
396,168,202894,1,0,0:0:0:0:
336,112,202988,1,8,0:0:0:0:
400,160,203176,1,8,0:0:0:0:
400,145,203269,1,0,0:0:0:0:
424,146,203363,1,8,0:0:0:0:
424,146,203457,1,8,0:0:0:0:
379,134,203551,1,0,0:0:0:0:
336,112,203738,1,8,0:0:0:0:
400,145,203926,1,0,0:0:0:0:
400,145,204019,1,0,0:0:0:0:
336,112,204113,1,8,0:0:0:0:
312,112,204207,1,0,0:0:0:0:
312,112,204301,1,0,0:0:0:0:
312,112,204394,1,0,0:0:0:0:
336,120,204488,1,8,0:0:0:0:
336,120,204582,1,8,0:0:0:0:
380,160,204676,1,0,0:0:0:0:
428,160,204863,1,8,0:0:0:0:
428,160,204957,1,8,0:0:0:0:
380,160,205051,1,0,0:0:0:0:
380,164,205144,1,0,0:0:0:0:
380,164,205238,1,8,0:0:0:0:
428,172,205426,1,0,0:0:0:0:
428,160,205519,1,0,0:0:0:0:
372,156,205613,1,8,0:0:0:0:
324,148,205801,1,8,0:0:0:0:
404,164,205894,1,0,0:0:0:0:
380,164,205988,1,8,0:0:0:0:
428,172,206176,1,8,0:0:0:0:
380,164,206269,1,0,0:0:0:0:
356,168,206363,1,8,0:0:0:0:
356,168,206457,1,8,0:0:0:0:
380,164,206551,1,0,0:0:0:0:
428,172,206738,1,8,0:0:0:0:
380,164,206832,1,0,0:0:0:0:
380,164,206926,1,0,0:0:0:0:
380,164,207019,1,0,0:0:0:0:
404,166,207113,1,8,0:0:0:0:
404,166,207301,1,0,0:0:0:0:
404,166,207394,1,0,0:0:0:0:
380,168,207488,1,8,0:0:0:0:
356,168,207582,1,0,0:0:0:0:
332,168,207676,1,0,0:0:0:0:
332,168,207769,1,0,0:0:0:0:
308,168,207863,1,8,0:0:0:0:
284,168,207957,1,8,0:0:0:0:
300,184,208051,1,0,0:0:0:0:
380,168,208238,1,8,0:0:0:0:
380,168,208332,1,8,0:0:0:0:
332,168,208426,1,0,0:0:0:0:
332,168,208519,1,0,0:0:0:0:
332,168,208613,1,8,0:0:0:0:
332,168,208801,1,0,0:0:0:0:
332,168,208894,1,0,0:0:0:0:
300,184,208988,1,8,0:0:0:0:
300,184,209082,1,0,0:0:0:0:
300,184,209176,1,0,0:0:0:0:
300,184,209269,1,0,0:0:0:0:
300,184,209363,1,8,0:0:0:0:
395,169,209457,1,0,0:0:0:0:
332,168,209551,1,8,0:0:0:0:
308,168,209644,1,0,0:0:0:0:
300,184,209738,1,8,0:0:0:0:
332,168,209832,1,8,0:0:0:0:
348,178,209926,1,0,0:0:0:0:
371,172,210019,1,0,0:0:0:0:
395,169,210113,1,8,0:0:0:0:
371,172,210207,1,0,0:0:0:0:
371,172,210301,1,8,0:0:0:0:
371,172,210394,1,0,0:0:0:0:
371,172,210488,1,8,0:0:0:0:
371,172,210582,1,8,0:0:0:0:
324,181,210676,1,0,0:0:0:0:
324,181,210769,1,0,0:0:0:0:
395,169,210863,1,8,0:0:0:0:
395,169,210957,1,8,0:0:0:0:
378,150,211051,1,0,0:0:0:0:
424,160,211238,1,8,0:0:0:0:
440,160,211301,1,8,0:0:0:0:
456,164,211363,1,0,0:0:0:0:
452,180,211426,1,0,0:0:0:0:
424,160,211519,1,8,0:0:0:0:
378,150,211707,1,8,0:0:0:0:
440,160,211801,1,0,0:0:0:0:
372,180,211988,1,0,0:0:0:0:
372,180,212082,1,0,0:0:0:0:
378,150,212176,1,8,0:0:0:0:
424,160,212269,1,0,0:0:0:0:
395,169,212363,1,8,0:0:0:0:
395,169,212457,1,8,0:0:0:0:
372,160,212551,1,0,0:0:0:0:
444,152,212738,1,8,0:0:0:0:
460,172,212832,1,0,0:0:0:0:
460,172,212926,1,0,0:0:0:0:
460,172,213019,1,0,0:0:0:0:
480,160,213113,1,8,0:0:0:0:
400,160,213301,1,0,0:0:0:0:
400,160,213394,1,0,0:0:0:0:
376,152,213488,1,8,0:0:0:0:
444,152,213676,1,0,0:0:0:0:
460,172,213769,1,0,0:0:0:0:
376,152,213863,1,8,0:0:0:0:
400,145,213957,1,8,0:0:0:0:
396,168,214051,1,0,0:0:0:0:
400,160,214238,1,8,0:0:0:0:
392,136,214332,1,0,0:0:0:0:
384,112,214426,1,0,0:0:0:0:
384,112,214519,1,0,0:0:0:0:
360,112,214613,1,8,0:0:0:0:
336,112,214801,1,0,0:0:0:0:
396,168,214894,1,0,0:0:0:0:
336,112,214988,1,8,0:0:0:0:
379,134,215176,1,0,0:0:0:0:
400,145,215269,1,0,0:0:0:0:
424,146,215363,1,8,0:0:0:0:
424,146,215457,1,8,0:0:0:0:
379,134,215551,1,0,0:0:0:0:
336,112,215738,1,8,0:0:0:0:
400,145,215926,1,0,0:0:0:0:
400,145,216019,1,0,0:0:0:0:
336,112,216113,1,8,0:0:0:0:
312,112,216207,1,0,0:0:0:0:
312,112,216301,1,0,0:0:0:0:
312,112,216394,1,0,0:0:0:0:
336,120,216488,1,8,0:0:0:0:
336,120,216582,1,8,0:0:0:0:
380,160,216676,1,0,0:0:0:0:
428,160,216863,1,8,0:0:0:0:
428,160,216957,1,8,0:0:0:0:
380,160,217051,1,0,0:0:0:0:
380,164,217144,1,0,0:0:0:0:
380,164,217238,1,8,0:0:0:0:
428,172,217426,1,0,0:0:0:0:
428,160,217519,1,0,0:0:0:0:
372,156,217613,1,8,0:0:0:0:
324,148,217801,1,8,0:0:0:0:
404,164,217894,1,0,0:0:0:0:
380,164,217988,1,8,0:0:0:0:
428,172,218176,1,8,0:0:0:0:
380,164,218269,1,0,0:0:0:0:
356,168,218363,1,8,0:0:0:0:
356,168,218457,1,8,0:0:0:0:
380,164,218551,1,0,0:0:0:0:
428,172,218738,1,8,0:0:0:0:
380,164,218832,1,0,0:0:0:0:
380,164,218926,1,0,0:0:0:0:
380,164,219019,1,0,0:0:0:0:
404,166,219113,1,8,0:0:0:0:
404,166,219301,1,0,0:0:0:0:
404,166,219394,1,0,0:0:0:0:
380,168,219488,1,8,0:0:0:0:
356,168,219582,1,0,0:0:0:0:
332,168,219676,1,0,0:0:0:0:
332,168,219769,1,0,0:0:0:0:
308,168,219863,1,8,0:0:0:0:
284,168,219957,1,8,0:0:0:0:
300,184,220051,1,0,0:0:0:0:
380,168,220238,1,8,0:0:0:0:
380,168,220332,1,8,0:0:0:0:
332,168,220426,1,0,0:0:0:0:
332,168,220519,1,0,0:0:0:0:
332,168,220613,1,8,0:0:0:0:
380,168,220801,1,0,0:0:0:0:
380,168,220894,1,0,0:0:0:0:
356,172,220988,1,8,0:0:0:0:
380,168,221082,1,0,0:0:0:0:
380,168,221176,1,0,0:0:0:0:
380,168,221269,1,0,0:0:0:0:
332,168,221363,1,8,0:0:0:0:
394,190,221457,1,0,0:0:0:0:
404,164,221551,1,8,0:0:0:0:
394,190,221738,1,8,0:0:0:0:
332,168,221832,1,8,0:0:0:0:
380,168,221926,1,0,0:0:0:0:
380,168,222019,1,0,0:0:0:0:
346,187,222113,1,8,0:0:0:0:
394,192,222301,1,0,0:0:0:0:
394,192,222394,1,0,0:0:0:0:
370,186,222488,1,8,0:0:0:0:
394,192,222582,1,0,0:0:0:0:
394,192,222676,1,8,0:0:0:0:
394,192,222769,1,8,0:0:0:0:
380,168,222863,1,8,0:0:0:0:
356,168,222957,1,0,0:0:0:0:
331,168,223051,1,8,0:0:0:0:
356,168,223144,1,0,0:0:0:0:
380,168,223238,1,0,0:0:0:0:
404,176,223332,1,8,0:0:0:0:
404,176,223426,1,0,0:0:0:0:
404,176,223519,1,0,0:0:0:0:
428,184,223613,1,8,0:0:0:0:
404,180,223707,1,0,0:0:0:0:
424,196,223801,1,0,0:0:0:0:
404,176,223894,1,0,0:0:0:0:
356,168,223988,1,8,0:0:0:0:
380,168,224082,1,8,0:0:0:0:
404,176,224176,1,0,0:0:0:0:
404,176,224269,1,0,0:0:0:0:
404,176,224363,1,8,0:0:0:0:
428,176,224457,1,8,0:0:0:0:
404,180,224551,1,0,0:0:0:0:
428,176,224801,1,0,0:0:0:0:
428,176,224863,1,0,0:0:0:0:
404,176,224926,1,8,0:0:0:0:
412,200,225019,1,8,0:0:0:0:
385,158,225207,1,8,0:0:0:0:
412,176,225301,1,0,0:0:0:0:
428,176,225394,1,8,0:0:0:0:
428,176,225582,1,8,0:0:0:0:
404,176,225676,1,0,0:0:0:0:
404,176,225769,5,0,0:0:0:0:
428,176,225863,1,8,0:0:0:0:
452,172,225957,1,8,0:0:0:0:
452,172,226051,1,0,0:0:0:0:
59,155,227564,5,12,0:0:0:0:
300,200,228501,1,0,0:0:0:0:
300,152,228689,1,0,0:0:0:0:
336,168,228876,1,8,0:0:0:0:
384,168,229064,1,0,0:0:0:0:
384,168,229814,1,8,0:0:0:0:
288,160,230189,1,0,0:0:0:0:
384,168,230564,1,0,0:0:0:0:
472,192,231501,1,0,0:0:0:0:
428,196,231689,1,8,0:0:0:0:
380,188,231876,1,0,0:0:0:0:
336,168,232064,1,8,0:0:0:0:
504,268,232814,1,8,0:0:0:0:
316,156,233376,1,8,0:0:0:0:
316,156,233470,1,8,0:0:0:0:
388,172,233564,1,8,0:0:0:0:
440,216,234689,1,8,0:0:0:0:
392,208,234876,1,8,0:0:0:0:
384,172,235064,1,8,0:0:0:0:
384,172,235439,1,0,0:0:0:0:
480,168,235814,1,0,0:0:0:0:
384,192,236189,1,8,0:0:0:0:
480,172,236564,1,8,0:0:0:0:
332,168,237126,5,0,0:0:0:0:
472,210,237689,1,8,0:0:0:0:
375,191,238064,1,0,0:0:0:0:
410,186,238626,1,0,0:0:0:0:
410,186,238720,1,0,0:0:0:0:
394,165,238811,5,8,0:0:0:0:
466,155,239092,1,0,0:0:0:0:
466,155,239373,1,0,0:0:0:0:
446,198,239556,1,12,0:0:0:0:
348,168,240306,1,8,0:0:0:0:
444,200,241056,1,0,0:0:0:0:
444,200,241431,1,0,0:0:0:0:
383,123,241806,1,8,0:0:0:0:
413,161,241993,1,8,0:0:0:0:
379,196,242181,1,0,0:0:0:0:
444,200,242368,1,0,0:0:0:0:
400,184,242556,1,8,0:0:0:0:
400,184,243306,1,8,0:0:0:0:
268,248,243868,1,8,0:0:0:0:
284,240,243931,1,8,0:0:0:0:
300,232,243993,1,8,0:0:0:0:
316,228,244056,1,0,0:0:0:0:
400,184,244243,1,0,0:0:0:0:
316,228,244431,1,8,0:0:0:0:
396,172,244806,1,4,0:0:0:0:
396,172,244993,1,12,0:0:0:0:
281,265,245556,1,0,0:0:0:0:
504,270,246118,1,0,0:0:0:0:
485,253,246212,1,0,0:0:0:0:
396,172,246306,1,8,0:0:0:0:
396,172,246681,1,12,0:0:0:0:
396,172,247056,1,4,0:0:0:0:
434,202,247243,1,0,0:0:0:0:
421,154,247431,1,8,0:0:0:0:
468,163,247618,1,0,0:0:0:0:
420,174,247806,1,8,0:0:0:0:
396,179,247899,1,8,0:0:0:0:
420,177,247993,1,0,0:0:0:0:
420,177,248087,1,0,0:0:0:0:
395,180,248181,1,8,0:0:0:0:
420,174,248368,1,0,0:0:0:0:
299,200,248556,1,0,0:0:0:0:
375,196,248649,1,0,0:0:0:0:
420,174,248743,1,8,0:0:0:0:
468,180,248931,1,8,0:0:0:0:
395,180,249024,1,8,0:0:0:0:
420,174,249118,1,0,0:0:0:0:
395,180,249212,1,8,0:0:0:0:
396,176,249306,1,8,0:0:0:0:
420,174,249399,1,8,0:0:0:0:
468,180,249493,1,0,0:0:0:0:
364,160,249556,1,8,0:0:0:0:
420,174,249618,1,8,0:0:0:0:
347,164,249681,1,0,0:0:0:0:
324,172,249774,1,0,0:0:0:0:
395,180,249868,1,8,0:0:0:0:
395,180,249962,1,8,0:0:0:0:
419,181,250056,1,0,0:0:0:0:
419,181,250149,1,0,0:0:0:0:
414,197,250337,1,8,0:0:0:0:
405,173,250431,1,8,0:0:0:0:
395,175,250618,1,0,0:0:0:0:
395,175,250712,1,0,0:0:0:0:
419,181,250993,1,0,0:0:0:0:
419,181,251087,1,0,0:0:0:0:
405,173,251181,1,8,0:0:0:0:
332,168,251274,1,0,0:0:0:0:
332,168,251368,1,8,0:0:0:0:
380,156,251556,1,4,0:0:0:0:
405,173,251743,1,8,0:0:0:0:
448,148,251931,1,0,0:0:0:0:
468,136,252024,1,0,0:0:0:0:
452,156,252118,1,8,0:0:0:0:
380,172,252306,1,8,0:0:0:0:
405,173,252399,1,0,0:0:0:0:
405,173,252493,1,8,0:0:0:0:
405,173,252587,1,0,0:0:0:0:
431,142,252681,1,0,0:0:0:0:
410,129,252774,1,0,0:0:0:0:
432,176,252868,1,8,0:0:0:0:
452,156,252962,1,8,0:0:0:0:
427,152,253056,1,0,0:0:0:0:
408,172,253243,1,8,0:0:0:0:
428,172,253431,1,0,0:0:0:0:
452,156,253524,1,0,0:0:0:0:
427,151,253618,1,8,0:0:0:0:
456,189,253806,1,8,0:0:0:0:
452,156,253899,1,0,0:0:0:0:
452,156,253993,1,8,0:0:0:0:
452,156,254087,1,8,0:0:0:0:
452,156,254181,1,0,0:0:0:0:
452,156,254274,1,0,0:0:0:0:
428,156,254368,1,8,0:0:0:0:
406,168,254462,1,0,0:0:0:0:
380,152,254556,1,8,0:0:0:0:
456,189,254743,1,8,0:0:0:0:
380,152,254931,1,0,0:0:0:0:
380,152,255024,1,0,0:0:0:0:
380,152,255118,1,8,0:0:0:0:
456,189,255306,1,8,0:0:0:0:
428,156,255399,1,0,0:0:0:0:
476,163,255493,1,8,0:0:0:0:
456,189,255587,1,8,0:0:0:0:
428,161,255681,1,0,0:0:0:0:
380,152,255774,1,0,0:0:0:0:
380,152,255868,1,8,0:0:0:0:
452,156,256056,1,8,0:0:0:0:
452,156,256149,1,8,0:0:0:0:
427,164,256243,1,0,0:0:0:0:
356,159,256337,1,0,0:0:0:0:
428,161,256431,1,8,0:0:0:0:
427,164,256524,1,8,0:0:0:0:
427,164,256618,1,8,0:0:0:0:
403,158,256712,1,0,0:0:0:0:
452,156,256806,1,8,0:0:0:0:
452,156,256899,1,8,0:0:0:0:
427,164,256993,1,0,0:0:0:0:
356,159,257087,1,0,0:0:0:0:
329,158,257181,1,8,0:0:0:0:
406,183,257274,1,0,0:0:0:0:
354,159,257368,1,8,0:0:0:0:
329,158,257462,1,8,0:0:0:0:
356,159,257556,1,0,0:0:0:0:
356,159,257743,1,8,0:0:0:0:
384,199,257931,1,0,0:0:0:0:
406,183,258024,1,0,0:0:0:0:
384,176,258118,1,8,0:0:0:0:
404,190,258212,1,0,0:0:0:0:
406,183,258306,1,8,0:0:0:0:
432,224,258493,1,0,0:0:0:0:
476,168,258587,1,8,0:0:0:0:
476,168,258681,1,8,0:0:0:0:
420,160,258774,1,0,0:0:0:0:
406,183,258868,1,8,0:0:0:0:
404,190,259056,1,8,0:0:0:0:
476,168,259149,1,8,0:0:0:0:
476,168,259243,1,8,0:0:0:0:
428,172,259337,1,0,0:0:0:0:
452,180,259431,1,8,0:0:0:0:
356,159,259524,1,0,0:0:0:0:
404,164,259618,1,8,0:0:0:0:
476,168,259712,1,8,0:0:0:0:
476,168,259806,1,0,0:0:0:0:
452,180,259899,1,0,0:0:0:0:
428,172,259993,1,8,0:0:0:0:
404,164,260087,1,0,0:0:0:0:
428,172,260181,1,8,0:0:0:0:
428,172,260274,1,8,0:0:0:0:
404,172,260368,1,0,0:0:0:0:
380,172,260462,1,0,0:0:0:0:
356,176,260556,1,8,0:0:0:0:
404,168,260743,1,8,0:0:0:0:
402,216,260931,1,0,0:0:0:0:
404,164,261024,1,0,0:0:0:0:
404,164,261118,1,8,0:0:0:0:
428,172,261212,1,0,0:0:0:0:
332,160,261306,1,8,0:0:0:0:
380,172,261493,1,8,0:0:0:0:
404,168,261587,1,8,0:0:0:0:
332,160,261681,1,0,0:0:0:0:
332,160,261774,1,0,0:0:0:0:
309,150,261868,1,8,0:0:0:0:
379,161,262056,1,8,0:0:0:0:
400,172,262149,1,0,0:0:0:0:
428,172,262243,1,8,0:0:0:0:
428,172,262337,1,8,0:0:0:0:
476,168,262431,1,0,0:0:0:0:
428,172,262524,1,0,0:0:0:0:
404,168,262618,1,8,0:0:0:0:
380,168,262712,1,0,0:0:0:0:
356,164,262806,1,8,0:0:0:0:
348,188,262899,1,0,0:0:0:0:
379,161,262993,1,8,0:0:0:0:
379,161,263087,1,8,0:0:0:0:
356,160,263181,1,0,0:0:0:0:
332,160,263274,1,0,0:0:0:0:
380,168,263368,1,8,0:0:0:0:
356,164,263556,1,8,0:0:0:0:
372,184,263649,1,0,0:0:0:0:
380,168,263743,1,8,0:0:0:0:
404,168,263837,1,0,0:0:0:0:
404,168,263931,1,0,0:0:0:0:
404,168,264024,1,0,0:0:0:0:
379,161,264118,1,8,0:0:0:0:
380,136,264212,1,0,0:0:0:0:
332,160,264306,1,8,0:0:0:0:
404,168,264399,1,0,0:0:0:0:
404,168,264493,1,0,0:0:0:0:
404,168,264587,1,8,0:0:0:0:
332,160,264681,1,0,0:0:0:0:
332,160,264774,1,0,0:0:0:0:
404,168,264868,1,8,0:0:0:0:
428,170,264962,1,0,0:0:0:0:
403,166,265056,1,8,0:0:0:0:
379,161,265149,1,0,0:0:0:0:
404,168,265243,1,8,0:0:0:0:
332,160,265337,1,0,0:0:0:0:
332,160,265431,1,0,0:0:0:0:
332,160,265524,1,0,0:0:0:0:
379,161,265618,1,8,0:0:0:0:
354,162,265712,1,0,0:0:0:0:
332,160,265806,1,0,0:0:0:0:
332,160,265899,1,0,0:0:0:0:
308,160,265993,1,8,0:0:0:0:
379,161,266087,1,0,0:0:0:0:
379,161,266181,1,8,0:0:0:0:
379,161,266274,1,0,0:0:0:0:
356,160,266368,1,8,0:0:0:0:
379,161,266462,1,8,0:0:0:0:
354,162,266556,1,8,0:0:0:0:
378,160,266649,1,0,0:0:0:0:
356,160,266743,1,8,0:0:0:0:
376,176,266837,1,0,0:0:0:0:
380,162,266931,1,0,0:0:0:0:
380,162,267024,1,0,0:0:0:0:
379,161,267118,1,8,0:0:0:0:
379,161,267212,1,0,0:0:0:0:
379,161,267306,1,0,0:0:0:0:
379,161,267399,1,0,0:0:0:0:
379,161,267493,1,8,0:0:0:0:
378,160,267587,1,8,0:0:0:0:
404,160,267681,1,8,0:0:0:0:
402,154,267774,1,0,0:0:0:0:
380,162,267868,1,8,0:0:0:0:
395,181,267962,1,0,0:0:0:0:
370,178,268056,1,8,0:0:0:0:
346,173,268149,1,0,0:0:0:0:
321,174,268243,1,8,0:0:0:0:
379,161,268337,1,8,0:0:0:0:
370,174,268431,1,0,0:0:0:0:
394,174,268524,1,0,0:0:0:0:
378,160,268618,1,8,0:0:0:0:
402,154,268712,1,0,0:0:0:0:
404,180,268806,1,8,0:0:0:0:
380,162,268899,1,8,0:0:0:0:
370,174,268993,1,8,0:0:0:0:
394,174,269087,1,0,0:0:0:0:
396,172,269181,1,8,0:0:0:0:
378,160,269274,1,0,0:0:0:0:
394,174,269368,1,8,0:0:0:0:
420,176,269462,1,8,0:0:0:0:
394,174,269556,1,8,0:0:0:0:
440,188,269649,1,0,0:0:0:0:
464,184,269743,1,8,0:0:0:0:
404,180,269837,1,0,0:0:0:0:
420,176,269931,1,0,0:0:0:0:
420,176,270024,1,0,0:0:0:0:
440,188,270118,1,8,0:0:0:0:
440,188,270212,1,8,0:0:0:0:
442,166,270306,1,0,0:0:0:0:
440,188,270399,1,0,0:0:0:0:
420,176,270493,1,8,0:0:0:0:
384,176,270587,1,0,0:0:0:0:
432,184,270681,1,8,0:0:0:0:
416,200,270774,1,0,0:0:0:0:
384,176,270868,1,0,0:0:0:0:
466,202,270962,1,0,0:0:0:0:
449,220,271056,1,8,0:0:0:0:
419,185,271149,1,0,0:0:0:0:
427,162,271243,1,8,0:0:0:0:
364,176,271337,1,8,0:0:0:0:
404,152,271431,1,0,0:0:0:0:
442,166,271524,1,0,0:0:0:0:
404,180,271618,1,8,0:0:0:0:
420,176,271712,1,0,0:0:0:0:
420,176,271806,1,0,0:0:0:0:
420,176,271899,1,0,0:0:0:0:
396,181,271993,1,8,0:0:0:0:
442,166,272087,1,0,0:0:0:0:
427,162,272181,1,8,0:0:0:0:
427,162,272274,1,8,0:0:0:0:
420,176,272368,1,8,0:0:0:0:
442,166,272462,1,0,0:0:0:0:
417,169,272556,1,8,0:0:0:0:
396,181,272649,1,0,0:0:0:0:
420,176,272743,1,8,0:0:0:0:
420,176,272837,1,8,0:0:0:0:
397,167,272931,1,0,0:0:0:0:
374,158,273024,1,0,0:0:0:0:
349,160,273118,1,8,0:0:0:0:
396,181,273212,1,0,0:0:0:0:
396,181,273306,1,8,0:0:0:0:
349,160,273399,1,0,0:0:0:0:
442,166,273493,1,8,0:0:0:0:
442,166,273587,1,8,0:0:0:0:
349,160,273681,1,0,0:0:0:0:
349,160,273774,1,0,0:0:0:0:
373,160,273868,1,8,0:0:0:0:
397,164,273962,1,0,0:0:0:0:
374,158,274056,1,8,0:0:0:0:
442,166,274149,1,0,0:0:0:0:
349,160,274243,1,8,0:0:0:0:
442,166,274337,1,0,0:0:0:0:
442,166,274431,1,0,0:0:0:0:
373,160,274524,1,8,0:0:0:0:
397,164,274618,1,0,0:0:0:0:
397,164,274712,1,0,0:0:0:0:
442,166,274806,1,8,0:0:0:0:
349,160,274899,1,8,0:0:0:0:
374,158,274993,1,0,0:0:0:0:
442,166,275087,1,8,0:0:0:0:
349,160,275181,1,8,0:0:0:0:
468,164,275274,1,0,0:0:0:0:
442,166,275368,1,8,0:0:0:0:
397,164,275556,1,4,0:0:0:0:
252,168,276118,1,4,0:0:0:0:
336,120,276493,1,0,0:0:0:0:
320,128,276556,1,0,0:0:0:0:
308,136,276618,1,0,0:0:0:0:
308,152,276681,1,8,0:0:0:0:
328,168,276774,1,8,0:0:0:0:
352,168,276868,1,0,0:0:0:0:
352,168,276962,1,0,0:0:0:0:
376,180,277056,1,8,0:0:0:0:
400,172,277149,1,0,0:0:0:0:
400,172,277243,1,0,0:0:0:0:
400,172,277337,1,0,0:0:0:0:
376,180,277431,1,8,0:0:0:0:
376,180,277524,1,8,0:0:0:0:
400,176,277618,1,0,0:0:0:0:
400,176,277712,1,0,0:0:0:0:
424,172,277806,1,8,0:0:0:0:
448,168,277899,1,8,0:0:0:0:
376,180,277993,1,0,0:0:0:0:
308,136,278087,1,0,0:0:0:0:
332,152,278181,1,8,0:0:0:0:
352,165,278274,1,0,0:0:0:0:
352,180,278368,1,0,0:0:0:0:
396,156,278556,1,12,0:0:0:0:
500,260,279118,1,12,0:0:0:0:
436,188,279493,1,0,0:0:0:0:
436,188,279556,1,0,0:0:0:0:
436,188,279618,1,0,0:0:0:0:
436,188,279681,1,8,0:0:0:0:
428,164,279774,1,8,0:0:0:0:
404,172,279868,1,0,0:0:0:0:
404,172,279962,1,0,0:0:0:0:
380,180,280056,1,8,0:0:0:0:
356,176,280149,1,8,0:0:0:0:
428,164,280243,1,0,0:0:0:0:
404,172,280337,1,8,0:0:0:0:
380,164,280431,1,8,0:0:0:0:
355,166,280524,1,0,0:0:0:0:
404,172,280618,1,8,0:0:0:0:
428,164,280806,1,0,0:0:0:0:
441,203,280899,1,0,0:0:0:0:
380,180,280993,1,8,0:0:0:0:
404,172,281056,1,0,0:0:0:0:
404,172,281118,1,0,0:0:0:0:
428,164,281181,1,8,0:0:0:0:
428,164,281274,1,0,0:0:0:0:
404,172,281368,1,8,0:0:0:0:
404,172,281462,1,8,0:0:0:0:
404,172,281556,1,0,0:0:0:0:
441,203,281743,1,8,0:0:0:0:
455,183,281837,1,0,0:0:0:0:
455,183,282024,1,0,0:0:0:0:
404,172,282118,1,8,0:0:0:0:
428,164,282306,1,0,0:0:0:0:
455,183,282399,1,0,0:0:0:0:
430,186,282493,1,8,0:0:0:0:
448,168,282587,1,0,0:0:0:0:
380,184,282681,1,0,0:0:0:0:
380,184,282774,1,0,0:0:0:0:
380,184,282868,1,8,0:0:0:0:
356,180,282962,1,8,0:0:0:0:
430,186,283056,1,0,0:0:0:0:
428,164,283149,1,0,0:0:0:0:
428,164,283243,1,8,0:0:0:0:
380,160,283431,1,0,0:0:0:0:
404,172,283524,1,0,0:0:0:0:
388,156,283618,1,8,0:0:0:0:
388,156,283712,1,8,0:0:0:0:
388,156,283806,1,0,0:0:0:0:
388,156,283899,1,0,0:0:0:0:
404,172,283993,1,8,0:0:0:0:
430,186,284087,1,0,0:0:0:0:
404,172,284181,1,8,0:0:0:0:
428,164,284274,1,8,0:0:0:0:
404,164,284368,1,8,0:0:0:0:
404,172,284462,1,0,0:0:0:0:
424,160,284556,1,8,0:0:0:0:
430,186,284743,1,0,0:0:0:0:
428,164,284837,1,8,0:0:0:0:
404,164,284931,1,0,0:0:0:0:
380,164,285024,1,0,0:0:0:0:
368,184,285118,1,8,0:0:0:0:
428,164,285306,1,0,0:0:0:0:
436,212,285399,1,8,0:0:0:0:
424,160,285493,1,0,0:0:0:0:
424,160,285587,1,0,0:0:0:0:
440,180,285681,1,8,0:0:0:0:
428,164,285868,1,8,0:0:0:0:
440,180,285962,1,8,0:0:0:0:
420,168,286056,1,0,0:0:0:0:
428,164,286149,1,8,0:0:0:0:
400,156,286243,1,0,0:0:0:0:
448,156,286431,1,0,0:0:0:0:
424,160,286524,1,8,0:0:0:0:
424,160,286618,1,0,0:0:0:0:
420,168,286712,1,0,0:0:0:0:
440,180,286806,1,8,0:0:0:0:
416,172,286899,1,8,0:0:0:0:
400,208,286993,1,0,0:0:0:0:
400,208,287087,1,0,0:0:0:0:
376,208,287181,1,8,0:0:0:0:
332,184,287368,1,0,0:0:0:0:
332,184,287462,1,0,0:0:0:0:
356,176,287556,1,8,0:0:0:0:
356,176,287618,1,8,0:0:0:0:
372,172,287681,1,0,0:0:0:0:
356,176,287743,1,8,0:0:0:0:
387,169,287806,1,0,0:0:0:0:
356,176,287868,1,0,0:0:0:0:
356,176,287931,1,8,0:0:0:0:
340,168,287993,1,8,0:0:0:0:
356,176,288056,1,0,0:0:0:0:
356,176,288118,1,8,0:0:0:0:
372,148,288243,1,0,0:0:0:0:
356,176,288306,1,8,0:0:0:0:
372,184,288368,1,8,0:0:0:0:
332,184,288431,1,0,0:0:0:0:
372,172,288493,1,8,0:0:0:0:
388,172,288556,1,0,0:0:0:0:
387,169,288618,1,0,0:0:0:0:
370,166,288681,1,8,0:0:0:0:
412,164,288743,1,8,0:0:0:0:
387,169,288806,1,0,0:0:0:0:
387,169,288868,1,8,0:0:0:0:
387,169,288931,1,0,0:0:0:0:
387,169,288993,1,0,0:0:0:0:
356,176,289056,1,8,0:0:0:0:
380,184,289149,1,0,0:0:0:0:
387,169,289243,1,8,0:0:0:0:
387,169,289337,1,8,0:0:0:0:
387,169,289431,1,0,0:0:0:0:
412,164,289524,1,0,0:0:0:0:
388,164,289618,1,8,0:0:0:0:
370,166,289712,1,8,0:0:0:0:
288,160,289806,1,8,0:0:0:0:
412,164,289899,1,0,0:0:0:0:
387,169,289993,1,8,0:0:0:0:
380,184,290087,1,8,0:0:0:0:
380,184,290181,1,0,0:0:0:0:
387,169,290274,1,0,0:0:0:0:
336,164,290368,1,8,0:0:0:0:
288,160,290556,1,4,0:0:0:0:
340,176,292056,1,12,0:0:0:0:
340,176,292243,1,12,0:0:0:0:
400,164,293431,1,8,0:0:0:0:
400,164,293493,1,8,0:0:0:0:
416,160,293556,1,0,0:0:0:0:
416,160,294306,1,12,0:0:0:0:
367,151,295056,1,4,0:0:0:0:
416,160,295243,1,8,0:0:0:0:
416,160,295337,1,8,0:0:0:0:
416,160,295431,1,0,0:0:0:0:
367,151,295618,1,0,0:0:0:0:
416,160,295712,1,0,0:0:0:0:
416,160,295806,1,8,0:0:0:0:
416,160,295993,1,0,0:0:0:0:
416,160,296087,1,0,0:0:0:0:
416,160,296181,1,8,0:0:0:0:
440,164,296274,1,0,0:0:0:0:
416,160,296368,1,8,0:0:0:0:
392,160,296462,1,8,0:0:0:0:
416,160,296556,1,0,0:0:0:0:
416,160,296931,1,0,0:0:0:0:
416,160,297306,1,0,0:0:0:0:
416,160,297681,1,0,0:0:0:0:
416,160,297868,1,8,0:0:0:0:
464,172,298056,1,0,0:0:0:0:
464,172,298431,1,0,0:0:0:0:
464,172,298806,1,0,0:0:0:0:
448,268,299181,1,0,0:0:0:0:
431,204,299431,1,0,0:0:0:0:
426,188,299493,1,0,0:0:0:0:
409,186,299556,1,8,0:0:0:0:
431,204,299931,1,0,0:0:0:0:
382,205,300118,1,8,0:0:0:0:
426,188,300306,1,0,0:0:0:0:
426,188,300493,1,8,0:0:0:0:
426,188,300681,1,0,0:0:0:0:
377,193,300868,1,8,0:0:0:0:
423,176,301056,1,0,0:0:0:0:
423,176,301149,1,0,0:0:0:0:
426,188,301243,1,8,0:0:0:0:
426,188,301431,1,8,0:0:0:0:
488,168,301681,1,0,0:0:0:0:
472,173,301743,1,0,0:0:0:0:
472,173,301806,1,8,0:0:0:0:
489,155,301899,1,8,0:0:0:0:
426,188,301993,1,0,0:0:0:0:
426,188,302087,1,0,0:0:0:0:
401,186,302181,1,8,0:0:0:0:
377,190,302274,1,0,0:0:0:0:
401,186,302368,1,8,0:0:0:0:
415,139,302556,1,4,0:0:0:0:
377,190,302837,1,12,0:0:0:0:
377,190,303118,1,12,0:0:0:0:
328,180,303306,1,4,0:0:0:0:
328,180,303681,1,8,0:0:0:0:
328,180,303868,1,8,0:0:0:0:
356,139,304056,1,0,0:0:0:0:
356,139,304149,1,0,0:0:0:0:
332,147,304243,1,8,0:0:0:0:
356,156,304337,1,0,0:0:0:0:
332,164,304431,1,0,0:0:0:0:
284,160,304524,1,0,0:0:0:0:
260,165,304618,1,8,0:0:0:0:
260,168,304806,1,0,0:0:0:0:
284,168,304899,1,0,0:0:0:0:
356,139,304993,1,8,0:0:0:0:
380,148,305087,1,0,0:0:0:0:
404,200,305181,1,0,0:0:0:0:
344,160,305274,1,0,0:0:0:0:
364,172,305368,1,8,0:0:0:0:
389,175,305462,1,8,0:0:0:0:
416,184,305556,1,0,0:0:0:0:
364,168,305649,1,0,0:0:0:0:
416,184,305743,1,8,0:0:0:0:
412,160,305837,1,0,0:0:0:0:
388,176,305931,1,0,0:0:0:0:
364,172,306024,1,0,0:0:0:0:
340,172,306118,1,8,0:0:0:0:
364,172,306306,1,0,0:0:0:0:
364,172,306399,1,0,0:0:0:0:
340,172,306493,1,8,0:0:0:0:
340,172,306587,1,0,0:0:0:0:
364,168,306681,1,8,0:0:0:0:
412,160,306774,1,8,0:0:0:0:
412,160,306868,1,8,0:0:0:0:
416,184,306962,1,0,0:0:0:0:
420,208,307056,1,8,0:0:0:0:
416,184,307149,1,0,0:0:0:0:
416,184,307243,1,8,0:0:0:0:
340,172,307337,1,0,0:0:0:0:
340,172,307431,1,0,0:0:0:0:
340,172,307524,1,0,0:0:0:0:
364,172,307618,1,8,0:0:0:0:
364,168,307712,1,0,0:0:0:0:
392,184,307806,1,0,0:0:0:0:
412,160,307899,1,0,0:0:0:0:
392,184,307993,1,8,0:0:0:0:
392,184,308087,1,8,0:0:0:0:
340,172,308181,1,0,0:0:0:0:
316,168,308274,1,0,0:0:0:0:
412,160,308368,1,8,0:0:0:0:
416,180,308556,1,0,0:0:0:0:
440,176,308649,1,0,0:0:0:0:
464,172,308743,1,8,0:0:0:0:
436,164,308837,1,8,0:0:0:0:
412,160,308931,1,0,0:0:0:0:
392,184,309024,1,0,0:0:0:0:
392,184,309118,1,8,0:0:0:0:
436,164,309306,1,8,0:0:0:0:
412,160,309399,1,0,0:0:0:0:
412,160,309493,1,8,0:0:0:0:
388,156,309587,1,8,0:0:0:0:
412,160,309681,1,8,0:0:0:0:
436,164,309774,1,0,0:0:0:0:
364,148,309868,1,8,0:0:0:0:
412,160,309962,1,8,0:0:0:0:
412,160,310056,1,0,0:0:0:0:
412,160,310149,1,0,0:0:0:0:
436,160,310243,1,8,0:0:0:0:
412,160,310337,1,0,0:0:0:0:
412,160,310431,1,0,0:0:0:0:
412,160,310524,1,0,0:0:0:0:
436,160,310618,1,8,0:0:0:0:
412,160,310806,1,0,0:0:0:0:
436,168,310899,1,0,0:0:0:0:
412,160,310993,1,8,0:0:0:0:
388,156,311087,1,0,0:0:0:0:
364,156,311181,1,0,0:0:0:0:
340,152,311274,1,0,0:0:0:0:
364,156,311368,1,8,0:0:0:0:
364,156,311462,1,8,0:0:0:0:
376,176,311556,1,0,0:0:0:0:
364,156,311649,1,0,0:0:0:0:
412,160,311743,1,8,0:0:0:0:
388,156,311837,1,0,0:0:0:0:
388,156,311931,1,0,0:0:0:0:
388,156,312024,1,0,0:0:0:0:
436,160,312118,1,8,0:0:0:0:
460,168,312306,1,0,0:0:0:0:
460,168,312399,1,0,0:0:0:0:
364,156,312493,1,8,0:0:0:0:
388,156,312587,1,8,0:0:0:0:
412,148,312681,1,0,0:0:0:0:
436,144,312774,1,0,0:0:0:0:
436,160,312868,1,8,0:0:0:0:
364,156,312962,1,0,0:0:0:0:
436,160,313056,1,8,0:0:0:0:
436,144,313149,1,8,0:0:0:0:
436,144,313243,1,0,0:0:0:0:
436,160,313337,1,8,0:0:0:0:
388,156,313431,1,0,0:0:0:0:
388,156,313524,1,0,0:0:0:0:
412,151,313618,1,8,0:0:0:0:
436,144,313806,1,8,0:0:0:0:
458,152,313899,1,0,0:0:0:0:
458,152,313993,1,8,0:0:0:0:
458,152,314087,1,8,0:0:0:0:
436,144,314181,1,0,0:0:0:0:
436,144,314274,1,0,0:0:0:0:
458,152,314368,1,8,0:0:0:0:
388,156,314556,1,0,0:0:0:0:
434,169,314649,1,0,0:0:0:0:
434,169,314743,1,8,0:0:0:0:
434,169,314837,1,0,0:0:0:0:
481,183,314931,1,8,0:0:0:0:
434,169,315024,1,0,0:0:0:0:
481,183,315118,1,8,0:0:0:0:
481,183,315212,1,8,0:0:0:0:
434,169,315306,1,0,0:0:0:0:
481,183,315399,1,8,0:0:0:0:
481,183,315493,1,8,0:0:0:0:
481,183,315587,1,0,0:0:0:0:
456,183,315681,1,8,0:0:0:0:
451,206,315774,1,0,0:0:0:0:
428,200,315868,1,8,0:0:0:0:
434,169,315962,1,8,0:0:0:0:
356,139,316056,1,0,0:0:0:0:
404,196,316149,1,0,0:0:0:0:
332,147,316243,1,8,0:0:0:0:
356,156,316337,1,0,0:0:0:0:
332,164,316431,1,0,0:0:0:0:
284,160,316524,1,0,0:0:0:0:
260,165,316618,1,8,0:0:0:0:
352,164,316806,1,8,0:0:0:0:
284,168,316899,1,0,0:0:0:0:
356,139,316993,1,8,0:0:0:0:
380,148,317087,1,0,0:0:0:0:
352,164,317181,1,8,0:0:0:0:
352,164,317274,1,8,0:0:0:0:
356,156,317368,1,0,0:0:0:0:
356,152,317462,1,0,0:0:0:0:
352,164,317556,1,8,0:0:0:0:
404,200,317649,1,0,0:0:0:0:
416,184,317743,1,8,0:0:0:0:
412,160,317837,1,0,0:0:0:0:
388,176,317931,1,0,0:0:0:0:
364,172,318024,1,0,0:0:0:0:
340,172,318118,1,8,0:0:0:0:
364,172,318306,1,0,0:0:0:0:
364,172,318399,1,0,0:0:0:0:
340,172,318493,1,8,0:0:0:0:
340,172,318587,1,0,0:0:0:0:
364,168,318681,1,8,0:0:0:0:
412,160,318774,1,8,0:0:0:0:
412,160,318868,1,8,0:0:0:0:
416,184,318962,1,0,0:0:0:0:
420,208,319056,1,8,0:0:0:0:
416,184,319306,1,8,0:0:0:0:
416,184,319368,1,0,0:0:0:0:
340,172,319431,1,0,0:0:0:0:
364,168,319618,1,12,0:0:0:0:
412,160,319993,1,4,0:0:0:0:
412,160,320368,1,12,0:0:0:0:
416,180,320556,1,0,0:0:0:0:
440,176,320649,1,0,0:0:0:0:
464,172,320743,1,8,0:0:0:0:
436,164,320837,1,8,0:0:0:0:
412,160,320931,1,0,0:0:0:0:
392,184,321024,1,0,0:0:0:0:
392,184,321118,1,8,0:0:0:0:
440,176,321212,1,0,0:0:0:0:
436,164,321306,1,8,0:0:0:0:
412,160,321399,1,0,0:0:0:0:
412,160,321493,1,8,0:0:0:0:
388,156,321587,1,8,0:0:0:0:
412,160,321681,1,8,0:0:0:0:
436,164,321774,1,0,0:0:0:0:
364,148,321868,1,8,0:0:0:0:
412,160,321962,1,8,0:0:0:0:
412,160,322056,1,0,0:0:0:0:
412,160,322149,1,0,0:0:0:0:
436,160,322243,1,8,0:0:0:0:
412,160,322337,1,0,0:0:0:0:
412,160,322431,1,0,0:0:0:0:
412,160,322524,1,0,0:0:0:0:
436,160,322618,1,8,0:0:0:0:
412,160,322806,1,0,0:0:0:0:
436,168,322899,1,0,0:0:0:0:
412,160,322993,1,8,0:0:0:0:
388,156,323087,1,0,0:0:0:0:
364,156,323181,1,0,0:0:0:0:
340,152,323274,1,0,0:0:0:0:
364,156,323368,1,8,0:0:0:0:
364,156,323462,1,8,0:0:0:0:
376,176,323556,1,0,0:0:0:0:
364,156,323649,1,0,0:0:0:0:
412,160,323743,1,8,0:0:0:0:
388,156,323837,1,0,0:0:0:0:
388,156,323931,1,0,0:0:0:0:
388,156,324024,1,0,0:0:0:0:
436,160,324118,1,8,0:0:0:0:
436,209,324306,1,0,0:0:0:0:
412,160,324399,1,0,0:0:0:0:
364,156,324493,1,8,0:0:0:0:
436,209,324587,1,0,0:0:0:0:
412,160,324681,1,0,0:0:0:0:
412,160,324774,1,0,0:0:0:0:
436,160,324868,1,8,0:0:0:0:
436,160,324962,1,0,0:0:0:0:
436,160,325056,1,8,0:0:0:0:
436,144,325149,1,8,0:0:0:0:
436,144,325243,1,0,0:0:0:0:
436,160,325337,1,8,0:0:0:0:
388,156,325431,1,0,0:0:0:0:
388,156,325524,1,0,0:0:0:0:
412,151,325618,1,8,0:0:0:0:
436,144,325806,1,8,0:0:0:0:
458,152,325899,1,0,0:0:0:0:
458,152,325993,1,8,0:0:0:0:
458,152,326087,1,8,0:0:0:0:
436,144,326181,1,0,0:0:0:0:
436,144,326274,1,0,0:0:0:0:
458,152,326368,1,8,0:0:0:0:
458,152,326462,1,8,0:0:0:0:
388,156,326556,1,0,0:0:0:0:
412,151,326649,1,0,0:0:0:0:
429,170,326743,1,0,0:0:0:0:
412,151,326837,1,8,0:0:0:0:
458,152,326931,1,0,0:0:0:0:
458,152,327024,1,0,0:0:0:0:
480,160,327118,1,8,0:0:0:0:
460,176,327212,1,0,0:0:0:0:
458,152,327306,1,8,0:0:0:0:
458,152,327399,1,0,0:0:0:0:
412,151,327493,1,8,0:0:0:0:
412,151,327587,1,8,0:0:0:0:
458,152,327681,1,0,0:0:0:0:
458,152,327774,1,0,0:0:0:0:
458,152,327868,1,8,0:0:0:0:
460,176,328056,1,4,0:0:0:0:
458,152,328618,1,0,0:0:0:0:
458,152,328712,1,0,0:0:0:0:
432,156,328806,1,8,0:0:0:0:
432,156,329087,1,0,0:0:0:0:
432,156,329368,1,0,0:0:0:0:
392,128,329556,1,4,0:0:0:0:
488,240,330118,1,0,0:0:0:0:
472,220,330212,1,0,0:0:0:0:
480,196,330306,1,8,0:0:0:0:
400,136,331056,1,8,0:0:0:0:
360,112,331243,1,0,0:0:0:0:
380,124,331337,1,0,0:0:0:0:
400,136,331431,1,0,0:0:0:0:
400,136,331524,1,0,0:0:0:0:
384,156,331618,1,8,0:0:0:0:
340,176,331806,1,0,0:0:0:0:
340,176,331899,1,0,0:0:0:0:
340,176,331993,1,0,0:0:0:0:
340,176,332087,1,0,0:0:0:0:
364,176,332181,1,8,0:0:0:0:
412,192,332368,1,0,0:0:0:0:
460,188,332556,1,8,0:0:0:0:
448,176,332618,1,0,0:0:0:0:
448,176,332681,1,0,0:0:0:0:
432,172,332743,1,8,0:0:0:0:
460,188,332806,1,0,0:0:0:0:
460,188,332868,1,0,0:0:0:0:
412,192,332931,1,8,0:0:0:0:
428,168,333024,1,0,0:0:0:0:
460,188,333118,1,8,0:0:0:0:
460,188,333181,1,8,0:0:0:0:
460,188,333243,1,8,0:0:0:0:
460,188,333306,1,0,0:0:0:0:
448,176,333368,1,0,0:0:0:0:
432,180,333431,1,0,0:0:0:0:
460,188,333493,1,8,0:0:0:0:
444,188,333556,1,0,0:0:0:0:
428,188,333618,1,0,0:0:0:0:
448,176,333681,1,8,0:0:0:0:
412,192,333868,1,0,0:0:0:0:
428,168,334056,1,8,0:0:0:0:
404,164,334149,1,0,0:0:0:0:
380,160,334243,1,0,0:0:0:0:
380,160,334337,1,0,0:0:0:0:
356,168,334431,1,8,0:0:0:0:
444,188,334524,1,0,0:0:0:0:
428,188,334618,1,0,0:0:0:0:
448,176,334712,1,0,0:0:0:0:
412,192,334806,1,0,0:0:0:0:
412,192,334899,1,0,0:0:0:0:
404,164,334993,1,0,0:0:0:0:
404,164,335087,1,0,0:0:0:0:
404,164,335181,1,8,0:0:0:0:
444,188,335274,1,0,0:0:0:0:
444,188,335368,1,0,0:0:0:0:
444,188,335462,1,0,0:0:0:0:
404,164,335556,1,0,0:0:0:0:
404,164,335649,1,0,0:0:0:0:
404,164,335743,1,0,0:0:0:0:
404,164,335837,1,0,0:0:0:0:
404,164,335931,1,8,0:0:0:0:
380,168,336024,1,0,0:0:0:0:
380,168,336118,1,0,0:0:0:0:
380,168,336212,1,0,0:0:0:0:
356,168,336306,1,8,0:0:0:0:
356,168,336399,1,8,0:0:0:0:
332,164,336493,1,0,0:0:0:0:
308,156,336587,1,0,0:0:0:0:
332,156,336681,1,8,0:0:0:0:
352,169,336774,1,0,0:0:0:0:
404,164,336868,1,0,0:0:0:0:
404,164,336962,1,0,0:0:0:0:
388,144,337056,1,8,0:0:0:0:
404,164,337149,1,0,0:0:0:0:
404,164,337243,1,0,0:0:0:0:
404,164,337337,1,0,0:0:0:0:
404,164,337431,1,8,0:0:0:0:
388,144,337524,1,0,0:0:0:0:
388,144,337618,1,0,0:0:0:0:
388,144,337712,1,0,0:0:0:0:
388,144,337806,1,0,0:0:0:0:
388,144,337899,1,0,0:0:0:0:
404,164,337993,1,0,0:0:0:0:
388,144,338087,1,0,0:0:0:0:
364,136,338181,1,8,0:0:0:0:
387,141,338274,1,0,0:0:0:0:
410,147,338368,1,0,0:0:0:0:
433,152,338462,1,0,0:0:0:0:
457,156,338556,1,8,0:0:0:0:
433,152,338649,1,0,0:0:0:0:
504,165,338743,1,8,0:0:0:0:
388,144,338837,1,0,0:0:0:0:
388,144,338931,1,8,0:0:0:0:
388,144,339024,1,0,0:0:0:0:
388,144,339118,1,8,0:0:0:0:
504,165,339212,1,8,0:0:0:0:
504,165,339306,1,8,0:0:0:0:
433,152,339399,1,0,0:0:0:0:
433,152,339493,1,8,0:0:0:0:
421,173,339587,1,0,0:0:0:0:
433,152,339681,1,8,0:0:0:0:
372,180,339774,1,8,0:0:0:0:
433,152,339868,1,8,0:0:0:0:
410,143,339962,1,0,0:0:0:0:
388,144,340056,1,8,0:0:0:0:
391,168,340149,1,0,0:0:0:0:
394,192,340243,1,0,0:0:0:0:
394,192,340337,1,0,0:0:0:0:
372,180,340431,1,8,0:0:0:0:
455,161,340524,1,0,0:0:0:0:
455,161,340618,1,0,0:0:0:0:
455,161,340712,1,0,0:0:0:0:
455,161,340806,1,0,0:0:0:0:
455,161,340899,1,0,0:0:0:0:
455,161,340993,1,0,0:0:0:0:
455,161,341087,1,0,0:0:0:0:
455,161,341181,1,8,0:0:0:0:
431,156,341274,1,0,0:0:0:0:
406,151,341368,1,0,0:0:0:0:
406,151,341462,1,0,0:0:0:0:
406,151,341556,1,0,0:0:0:0:
455,161,341649,1,0,0:0:0:0:
455,161,341743,1,0,0:0:0:0:
455,161,341837,1,0,0:0:0:0:
406,151,341931,1,8,0:0:0:0:
382,156,342024,1,0,0:0:0:0:
358,161,342118,1,0,0:0:0:0:
358,161,342212,1,0,0:0:0:0:
358,161,342306,1,8,0:0:0:0:
382,156,342399,1,8,0:0:0:0:
358,161,342493,1,0,0:0:0:0:
358,161,342587,1,0,0:0:0:0:
455,161,342681,1,8,0:0:0:0:
406,151,342774,1,8,0:0:0:0:
406,151,342868,1,8,0:0:0:0:
406,151,342962,1,0,0:0:0:0:
455,161,343056,1,8,0:0:0:0:
432,169,343149,1,0,0:0:0:0:
432,169,343243,1,0,0:0:0:0:
432,169,343337,1,0,0:0:0:0:
432,169,343431,1,8,0:0:0:0:
455,161,343524,1,0,0:0:0:0:
455,161,343618,1,0,0:0:0:0:
455,161,343712,1,0,0:0:0:0:
455,161,343806,1,0,0:0:0:0:
455,161,343899,1,0,0:0:0:0:
455,161,343993,1,0,0:0:0:0:
455,161,344087,1,0,0:0:0:0:
432,169,344181,1,8,0:0:0:0:
455,161,344274,1,0,0:0:0:0:
455,161,344368,1,0,0:0:0:0:
455,161,344462,1,0,0:0:0:0:
455,161,344556,1,8,0:0:0:0:
432,169,344649,1,8,0:0:0:0:
407,173,344743,1,0,0:0:0:0:
407,173,344837,1,0,0:0:0:0:
382,162,344931,1,8,0:0:0:0:
455,161,345118,1,8,0:0:0:0:
407,173,345212,1,8,0:0:0:0:
455,161,345306,1,0,0:0:0:0:
455,161,345399,1,0,0:0:0:0:
455,161,345493,1,8,0:0:0:0:
407,173,345587,1,0,0:0:0:0:
407,173,345681,1,8,0:0:0:0:
407,173,345774,1,8,0:0:0:0:
407,173,345868,1,0,0:0:0:0:
407,173,345962,1,0,0:0:0:0:
455,161,346056,1,8,0:0:0:0:
432,169,346149,1,0,0:0:0:0:
407,169,346243,1,8,0:0:0:0:
407,173,346337,1,0,0:0:0:0:
455,161,346431,1,0,0:0:0:0:
430,160,346524,1,0,0:0:0:0:
428,184,346618,1,8,0:0:0:0:
420,208,346712,1,0,0:0:0:0:
407,173,346806,1,8,0:0:0:0:
407,173,346899,1,8,0:0:0:0:
455,161,346993,1,8,0:0:0:0:
428,184,347087,1,8,0:0:0:0:
400,180,347181,1,0,0:0:0:0:
407,169,347274,1,0,0:0:0:0:
430,160,347368,1,8,0:0:0:0:
404,156,347462,1,0,0:0:0:0:
376,152,347556,1,8,0:0:0:0:
408,144,347649,1,0,0:0:0:0:
375,154,347743,1,8,0:0:0:0:
348,152,347837,1,8,0:0:0:0:
408,144,347931,1,0,0:0:0:0:
408,144,348024,1,0,0:0:0:0:
407,169,348118,1,8,0:0:0:0:
432,176,348212,1,0,0:0:0:0:
332,161,348306,1,8,0:0:0:0:
316,180,348399,1,8,0:0:0:0:
352,148,348493,1,8,0:0:0:0:
407,169,348587,1,0,0:0:0:0:
455,161,348681,1,8,0:0:0:0:
455,161,348774,1,0,0:0:0:0:
407,169,348868,1,8,0:0:0:0:
382,157,348962,1,8,0:0:0:0:
407,169,349056,1,8,0:0:0:0:
332,161,349149,1,0,0:0:0:0:
455,161,349243,1,8,0:0:0:0:
332,161,349337,1,0,0:0:0:0:
455,161,349431,1,0,0:0:0:0:
455,161,349524,1,0,0:0:0:0:
407,169,349618,1,8,0:0:0:0:
432,172,349712,1,0,0:0:0:0:
456,176,349806,1,0,0:0:0:0:
456,176,349899,1,0,0:0:0:0:
407,169,349993,1,8,0:0:0:0:
432,176,350087,1,0,0:0:0:0:
432,176,350181,1,0,0:0:0:0:
432,176,350274,1,0,0:0:0:0:
456,176,350368,1,8,0:0:0:0:
456,176,350462,1,0,0:0:0:0:
455,161,350556,1,8,0:0:0:0:
432,172,350649,1,0,0:0:0:0:
432,172,350743,1,8,0:0:0:0:
456,176,350837,1,0,0:0:0:0:
383,163,350931,1,8,0:0:0:0:
432,176,351024,1,0,0:0:0:0:
383,163,351118,1,8,0:0:0:0:
432,176,351212,1,8,0:0:0:0:
432,176,351306,1,8,0:0:0:0:
432,172,351399,1,0,0:0:0:0:
383,163,351493,1,8,0:0:0:0:
432,176,351587,1,0,0:0:0:0:
432,172,351681,1,8,0:0:0:0:
407,172,351774,1,0,0:0:0:0:
432,176,351868,1,8,0:0:0:0:
432,176,351962,1,8,0:0:0:0:
383,163,352056,1,8,0:0:0:0:
406,158,352149,1,0,0:0:0:0:
383,163,352243,1,8,0:0:0:0:
407,172,352337,1,0,0:0:0:0:
407,172,352431,1,0,0:0:0:0:
407,172,352524,1,0,0:0:0:0:
383,163,352618,1,8,0:0:0:0:
432,172,352712,1,0,0:0:0:0:
407,172,352806,1,8,0:0:0:0:
406,158,352899,1,8,0:0:0:0:
406,158,352993,1,8,0:0:0:0:
380,160,353087,1,8,0:0:0:0:
408,140,353181,1,0,0:0:0:0:
432,172,353274,1,0,0:0:0:0:
456,166,353368,1,8,0:0:0:0:
456,166,353462,1,0,0:0:0:0:
407,172,353556,1,8,0:0:0:0:
456,169,353649,1,0,0:0:0:0:
456,166,353743,1,8,0:0:0:0:
428,160,353837,1,0,0:0:0:0:
406,158,353931,1,0,0:0:0:0:
380,164,354024,1,8,0:0:0:0:
351,150,354118,1,0,0:0:0:0:
383,163,354212,1,0,0:0:0:0:
432,172,354306,1,8,0:0:0:0:
456,166,354368,1,8,0:0:0:0:
432,172,354431,1,8,0:0:0:0:
456,169,354493,1,0,0:0:0:0:
461,144,354587,1,0,0:0:0:0:
456,169,354681,1,8,0:0:0:0:
392,177,355056,1,4,0:0:0:0:
392,177,355243,1,8,0:0:0:0:
392,177,355337,1,8,0:0:0:0:
392,177,355431,1,0,0:0:0:0:
392,177,355524,1,0,0:0:0:0:
392,177,355618,1,8,0:0:0:0:
351,150,355806,1,8,0:0:0:0:
351,150,355899,1,8,0:0:0:0:
331,165,355993,1,0,0:0:0:0:
331,165,356087,1,0,0:0:0:0:
331,165,356181,1,8,0:0:0:0:
365,200,356368,1,0,0:0:0:0:
413,193,356556,1,8,0:0:0:0:
392,177,356649,1,0,0:0:0:0:
365,200,356743,1,8,0:0:0:0:
413,193,356931,1,0,0:0:0:0:
414,168,357024,1,0,0:0:0:0:
365,200,357118,1,8,0:0:0:0:
413,193,357212,1,0,0:0:0:0:
365,200,357306,1,8,0:0:0:0:
411,214,357493,1,0,0:0:0:0:
435,214,357587,1,0,0:0:0:0:
365,200,357681,1,8,0:0:0:0:
404,170,357868,1,0,0:0:0:0:
452,178,358056,1,8,0:0:0:0:
365,200,358149,1,0,0:0:0:0:
341,193,358243,1,8,0:0:0:0:
317,186,358337,1,8,0:0:0:0:
452,178,358431,1,0,0:0:0:0:
452,178,358524,1,0,0:0:0:0:
452,178,358618,1,8,0:0:0:0:
452,178,358712,1,8,0:0:0:0:
365,200,358806,1,0,0:0:0:0:
365,200,358899,1,0,0:0:0:0:
452,178,358993,1,8,0:0:0:0:
452,178,359087,1,0,0:0:0:0:
475,185,359181,1,8,0:0:0:0:
450,181,359274,1,0,0:0:0:0:
425,182,359368,1,8,0:0:0:0:
401,176,359462,1,8,0:0:0:0:
475,185,359556,1,0,0:0:0:0:
475,185,359649,1,0,0:0:0:0:
365,200,359743,1,8,0:0:0:0:
386,187,359837,1,0,0:0:0:0:
328,164,359931,1,8,0:0:0:0:
425,182,360024,1,8,0:0:0:0:
425,182,360118,1,0,0:0:0:0:
439,159,360212,1,0,0:0:0:0:
412,163,360306,1,8,0:0:0:0:
459,147,360399,1,0,0:0:0:0:
401,176,360493,1,0,0:0:0:0:
425,182,360587,1,0,0:0:0:0:
386,187,360681,1,8,0:0:0:0:
425,182,360774,1,0,0:0:0:0:
425,182,360868,1,8,0:0:0:0:
328,164,361056,5,12,0:0:0:0:
360,200,361243,1,12,0:0:0:0:
