osu file format v14

[General]
AudioFilename: audio.mp3
AudioLeadIn: 0
PreviewTime: 304328
Countdown: 0
SampleSet: Soft
StackLeniency: 0.3
Mode: 0
LetterboxInBreaks: 0
WidescreenStoryboard: 0

[Editor]
Bookmarks: 50828,54203,55328,60203,73703,74640,99953,110828,115703,118703,123203,124703,228203,250703,334703,340703,346703,352703,355703
DistanceSpacing: 1.5
BeatDivisor: 4
GridSize: 8
TimelineZoom: 2.000001

[Metadata]
Title:Ijime, Dame, Zettai
TitleUnicode:イジメ、ダメ、ゼッタイ
Artist:BABYMETAL
ArtistUnicode:BABYMETAL
Creator:MythoZ
Version:Self-Esteem
Source:
Tags:sumetal yuimetal moametal anti-bullying no more bullying
BeatmapID:1432059
BeatmapSetID:677117

[Difficulty]
HPDrainRate:5.5
CircleSize:4.2
OverallDifficulty:6
ApproachRate:9
SliderMultiplier:2.2
SliderTickRate:1

[Events]
//Background and Video events
0,0,"inseparable_by_kawacy-dbgf6qi.jpg",0,0
//Break Periods
//Storyboard Layer 0 (Background)
//Storyboard Layer 1 (Fail)
//Storyboard Layer 2 (Pass)
//Storyboard Layer 3 (Foreground)
//Storyboard Sound Samples

[TimingPoints]
1793,448.598130841121,4,2,0,40,1,0
1793,-250,4,2,0,40,0,0
2465,-250,4,2,0,5,0,0
2690,-250,4,2,0,40,0,0
3363,-250,4,2,0,5,0,0
3588,-200,4,2,0,40,0,0
17494,576.923076923077,4,2,0,40,1,0
18070,674.157303370787,4,2,0,40,1,0
18070,-142.857142857143,4,2,0,40,0,0
18744,659.34065934066,4,2,0,40,1,0
19403,451.127819548872,4,2,0,40,1,0
19854,444.77390659748,4,2,0,40,1,0
19854,-200,4,2,0,40,0,0
25191,436.363636363636,4,2,0,40,1,0
25191,-142.857142857143,4,2,0,40,0,0
25627,444.444444444444,4,2,0,40,1,0
25849,-142.857142857143,4,2,0,40,0,0
26515,400,4,2,0,40,1,0
26715,491.803278688525,4,2,0,40,1,0
26960,451.127819548872,4,2,0,40,1,0
26960,-125,4,2,0,40,0,0
27862,382.165605095541,4,2,0,40,1,0
28053,476.190476190476,4,2,0,40,1,0
28291,461.538461538462,4,2,0,40,1,0
28752,437.956204379562,4,2,0,40,1,0
28752,-200,4,2,0,40,0,0
29627,491.803278688525,4,2,0,40,1,0
30363,645.161290322581,4,2,0,40,1,0
30685,475.247524752475,4,2,0,40,1,0
30685,-500,4,2,0,40,0,0
32348,545.454545454546,4,2,0,40,1,0
32620,635.424940428912,4,2,0,40,1,0
37703,375,4,2,0,40,1,0
37703,-100,4,2,0,40,0,0
37703,-100,4,2,0,40,0,0
39015,-100,4,2,0,40,0,0
39390,-100,4,2,0,40,0,0
40703,-100,4,2,0,40,0,0
42203,-133.333333333333,4,2,0,40,0,0
42953,-100,4,2,0,40,0,0
47828,-100,4,2,0,40,0,0
49703,-100,4,2,0,40,0,1
61703,-76.9230769230769,4,2,0,40,0,0
70703,-100,4,2,0,40,0,0
73703,-100,4,2,0,40,0,0
76703,-83.3333333333333,4,2,0,40,0,1784
103703,-100,4,2,0,40,0,1784
106703,-90.9090909090909,4,2,0,40,0,1784
114203,-90.9090909090909,4,2,0,40,0,1785
126203,-100,4,2,0,40,0,1785
162203,-90.9090909090909,4,2,0,40,0,1784

[Colours]
Combo1 : 192,192,192
Combo2 : 255,0,0

[HitObjects]
221,63,1793,6,0,P|291:59|354:92,1,132
305,280,2690,6,0,P|235:284|172:251,1,132
35,45,3588,5,0,0:0:0:0:
29,154,3812,1,0,0:0:0:0:
131,194,4036,1,0,0:0:0:0:
201,108,4260,2,0,P|272:113|323:103,1,110
370,198,4933,5,0,0:0:0:0:
337,303,5158,1,0,0:0:0:0:
35,343,5382,5,0,0:0:0:0:
29,234,5606,1,0,0:0:0:0:
131,194,5830,1,0,0:0:0:0:
201,280,6054,2,0,P|255:274|309:281,1,110
309,281,6616,5,0,0:0:0:0:
309,281,6728,1,0,0:0:0:0:
421,92,7176,6,0,L|488:78,2,55
364,186,7849,2,0,P|303:191|243:156,1,110
204,75,8522,1,0,0:0:0:0:
186,251,8971,5,0,0:0:0:0:
256,337,9195,1,0,0:0:0:0:
358,297,9420,1,0,0:0:0:0:
352,187,9644,1,0,0:0:0:0:
101,76,10092,5,0,0:0:0:0:
87,184,10316,1,0,0:0:0:0:
101,76,10541,1,0,0:0:0:0:
200,29,10765,6,0,P|266:38|317:67,1,110
191,212,11438,6,0,P|124:202|73:173,1,110
304,214,12335,5,0,0:0:0:0:
304,214,12447,1,0,0:0:0:0:
304,214,12559,6,0,P|286:281|250:332,1,110
86,183,13232,6,0,P|104:116|140:65,1,110
384,114,14130,5,0,0:0:0:0:
384,114,14242,1,0,0:0:0:0:
384,114,14354,2,0,B|388:243,1,110
264,315,15027,2,0,B|260:186,1,110
195,116,15700,5,0,0:0:0:0:
91,150,15924,1,0,0:0:0:0:
91,260,16148,2,0,L|101:384,1,110
284,217,16821,6,0,L|332:211,2,27.5
63,42,17494,5,0,0:0:0:0:
0,132,17782,1,0,0:0:0:0:
104,211,18070,2,0,B|156:233|156:233|265:213,1,153.999995300293
502,33,19403,5,0,0:0:0:0:
512,141,19628,1,0,0:0:0:0:
411,91,19854,2,0,P|331:85|252:132,1,165
0,73,21188,5,0,0:0:0:0:
0,73,21633,2,0,L|8:204,1,110
120,302,22300,2,0,L|126:192,1,110
135,82,22967,1,0,0:0:0:0:
469,57,23412,5,0,0:0:0:0:
492,165,23634,1,0,0:0:0:0:
397,220,23856,1,0,0:0:0:0:
315,146,24079,1,0,0:0:0:0:
64,78,24524,5,0,0:0:0:0:
64,78,24746,2,0,L|66:134,1,55
84,265,25191,6,0,B|132:293|132:293|231:269,1,153.999995300293
299,63,25849,2,0,B|251:35|251:35|152:59,1,153.999995300293
221,264,26715,5,0,0:0:0:0:
221,264,26837,1,0,0:0:0:0:
221,264,26960,2,0,P|315:268|382:219,1,176
328,25,27636,2,0,P|234:21|167:70,1,176
68,285,28521,5,0,0:0:0:0:
68,285,28637,1,0,0:0:0:0:
68,285,28752,2,0,B|80:105,1,165
205,89,29627,1,0,0:0:0:0:
310,123,29872,1,0,0:0:0:0:
217,183,30118,1,0,0:0:0:0:
289,224,30363,1,0,0:0:0:0:
202,323,30685,6,0,P|112:324|64:278,1,154
67,283,32484,5,0,0:0:0:0:
67,283,32620,5,0,0:0:0:0:
256,192,35161,12,0,37385,0:0:0:0:
143,96,37703,5,4,0:0:0:0:
143,96,39015,5,0,0:0:0:0:
143,96,39109,1,0,0:0:0:0:
143,96,39203,1,0,0:0:0:0:
377,154,39390,1,0,0:0:0:0:
377,154,40703,5,0,0:0:0:0:
179,298,42015,5,0,0:0:0:0:
179,298,42109,1,0,0:0:0:0:
179,298,42203,2,8,P|105:303|45:263,2,123.750004720688
259,79,42953,5,0,0:0:0:0:
280,61,43046,1,0,0:0:0:0:
305,51,43140,1,0,0:0:0:0:
333,49,43234,1,0,0:0:0:0:
359,55,43328,1,0,0:0:0:0:
383,68,43421,1,0,0:0:0:0:
402,88,43515,1,0,0:0:0:0:
415,112,43609,1,0,0:0:0:0:
420,139,43703,1,0,0:0:0:0:
420,139,44078,5,4,0:0:0:0:
416,164,44828,1,4,0:0:0:0:
365,331,45015,1,0,0:0:0:0:
365,331,45109,1,0,0:0:0:0:
365,331,45203,6,0,L|236:335,1,110
255,334,45578,1,4,0:0:0:0:
241,319,46328,1,4,0:0:0:0:
35,131,46703,6,0,L|164:127,1,110
144,127,47078,1,4,0:0:0:0:
512,77,47828,6,0,P|460:34|404:32,1,110
401,60,48109,1,0,0:0:0:0:
372,83,48203,2,0,P|312:110|255:102,1,110
233,102,48484,2,0,P|175:122|142:161,1,110
120,315,48765,2,0,L|266:321,1,110
264,315,49046,1,0,0:0:0:0:
289,304,49140,1,0,0:0:0:0:
308,284,49234,1,0,0:0:0:0:
319,259,49328,1,4,0:0:0:0:
205,146,49703,5,4,0:0:0:0:
215,103,49796,1,0,0:0:0:0:
204,61,49890,1,0,0:0:0:0:
175,32,49984,1,0,0:0:0:0:
135,12,50078,1,4,0:0:0:0:
92,17,50171,1,0,0:0:0:0:
55,40,50265,1,0,0:0:0:0:
31,77,50359,1,0,0:0:0:0:
24,120,50453,5,4,0:0:0:0:
36,162,50547,1,0,0:0:0:0:
65,195,50640,1,0,0:0:0:0:
96,223,50734,1,0,0:0:0:0:
135,237,50828,1,4,0:0:0:0:
176,239,50922,1,0,0:0:0:0:
216,231,51016,1,0,0:0:0:0:
249,206,51109,1,0,0:0:0:0:
287,190,51203,5,4,0:0:0:0:
328,184,51297,1,0,0:0:0:0:
369,187,51391,1,0,0:0:0:0:
412,192,51484,1,0,0:0:0:0:
446,219,51578,1,4,0:0:0:0:
463,259,51672,1,0,0:0:0:0:
458,302,51766,1,0,0:0:0:0:
432,337,51859,1,0,0:0:0:0:
392,354,51953,5,4,0:0:0:0:
348,349,52047,1,0,0:0:0:0:
313,324,52141,1,0,0:0:0:0:
296,284,52234,1,0,0:0:0:0:
300,241,52328,1,4,0:0:0:0:
318,205,52421,1,0,0:0:0:0:
322,160,52515,1,0,0:0:0:0:
301,122,52609,1,0,0:0:0:0:
264,95,52703,5,4,0:0:0:0:
219,95,52796,1,0,0:0:0:0:
181,119,52890,1,0,0:0:0:0:
167,158,52984,1,0,0:0:0:0:
176,199,53078,1,4,0:0:0:0:
181,241,53171,1,0,0:0:0:0:
160,280,53265,1,0,0:0:0:0:
121,299,53359,1,0,0:0:0:0:
79,292,53453,5,4,0:0:0:0:
48,261,53546,1,0,0:0:0:0:
43,219,53640,1,0,0:0:0:0:
64,180,53734,1,0,0:0:0:0:
102,160,53828,1,4,0:0:0:0:
149,170,53921,1,0,0:0:0:0:
179,199,54014,1,0,0:0:0:0:
215,218,54108,1,0,0:0:0:0:
255,228,54202,5,4,0:0:0:0:
309,232,54296,1,0,0:0:0:0:
347,205,54390,1,0,0:0:0:0:
386,161,54484,1,0,0:0:0:0:
387,107,54578,1,4,0:0:0:0:
361,59,54671,1,0,0:0:0:0:
315,31,54765,1,0,0:0:0:0:
260,30,54859,1,0,0:0:0:0:
213,56,54953,1,4,0:0:0:0:
186,104,55046,1,0,0:0:0:0:
187,158,55140,1,0,0:0:0:0:
215,204,55234,1,0,0:0:0:0:
246,225,55328,5,4,0:0:0:0:
283,234,55422,1,0,0:0:0:0:
319,227,55516,1,0,0:0:0:0:
349,204,55610,1,0,0:0:0:0:
388,203,55703,6,0,L|508:210,1,110,4|0,0:0|0:0,0:0:0:0:
396,335,55984,2,0,L|276:342,1,110
177,264,56265,2,0,B|194:216|194:216|179:105,1,110
94,51,56546,2,0,B|77:99|77:99|92:210,1,110
186,157,56828,2,0,L|296:145,1,110
436,69,57109,5,0,0:0:0:0:
436,69,57203,2,2,B|424:206,1,110,4|0,0:0|0:0,0:0:0:0:
285,254,57484,2,0,B|297:117,1,110
178,48,57765,2,0,B|191:86|191:86|183:174,1,110
65,248,58046,2,0,B|76:137,1,110
178,48,58328,2,0,B|230:28|230:28|317:43,1,110
426,178,58609,5,0,0:0:0:0:
426,178,58703,2,0,L|425:302,1,110,4|0,0:0|0:0,0:0:0:0:
285,254,58984,2,0,B|288:183|288:183|269:134,1,110
158,225,59265,2,0,L|155:342,1,110
38,248,59546,2,0,B|35:177|35:177|54:128,1,110
178,48,59828,2,0,L|307:48,1,110
361,173,60203,5,8,0:0:0:0:
388,203,60296,1,0,0:0:0:0:
398,242,60390,1,0,0:0:0:0:
387,282,60484,1,8,0:0:0:0:
358,311,60578,1,0,0:0:0:0:
318,321,60671,1,0,0:0:0:0:
279,314,60765,1,8,0:0:0:0:
249,287,60859,1,0,0:0:0:0:
235,248,60953,5,2,0:0:0:0:
221,209,61046,1,2,0:0:0:0:
191,182,61140,1,2,0:0:0:0:
151,174,61234,1,2,0:0:0:0:
112,185,61327,1,2,0:0:0:0:
83,214,61421,1,2,0:0:0:0:
72,254,61515,1,2,0:0:0:0:
82,293,61609,1,2,0:0:0:0:
108,322,61703,6,0,B|175:366|233:303|233:303|273:344|273:344|314:305|388:326,1,285.99998690796
373,209,62171,1,0,0:0:0:0:
373,209,62265,2,0,B|454:230|432:170|513:199,1,142.99999345398
368,59,62546,1,0,0:0:0:0:
368,59,62640,2,0,L|276:63,1,71.4999967269899
158,131,62828,2,0,L|250:135,1,71.4999967269899
373,209,63015,2,0,L|281:213,1,71.4999967269899
127,271,63203,6,0,B|100:312|118:350|169:380|209:328|209:328|265:371|278:295|348:347,1,285.99998690796
458,290,63671,1,0,0:0:0:0:
458,290,63765,2,0,P|392:274|379:192,1,142.99999345398
204,105,64046,1,0,0:0:0:0:
206,109,64140,2,0,P|253:118|301:112,1,71.4999967269899
413,38,64328,2,0,P|365:28|318:35,1,71.4999967269899
372,208,64515,2,0,P|381:160|375:113,1,71.4999967269899
160,30,64703,6,0,P|117:102|150:186,1,142.99999345398
