osu file format v14

[General]
AudioFilename: audio.mp3
AudioLeadIn: 0
PreviewTime: 52860
Countdown: 0
SampleSet: Normal
StackLeniency: 0.7
Mode: 0
LetterboxInBreaks: 0
WidescreenStoryboard: 0

[Editor]
Bookmarks: 175042
DistanceSpacing: 1
BeatDivisor: 4
GridSize: 4
TimelineZoom: 3.099999

[Metadata]
Title:Gimme chocolate!!
TitleUnicode:ギミチョコ!!
Artist:BABYMETAL
ArtistUnicode:BABYMETAL
Creator:alacat
Version:NORMAL!!
Source:
Tags:Give me idol metal SU-METAL YUIMETAL MOAMETAL suzuka nakamoto yui mizuno moa kikuchi
BeatmapID:974873
BeatmapSetID:452230

[Difficulty]
HPDrainRate:3
CircleSize:3
OverallDifficulty:4
ApproachRate:5
SliderMultiplier:0.999999999999999
SliderTickRate:1

[Events]
//Background and Video events
0,0,"BG.jpg",0,0
Video,-70,"video.avi"
//Break Periods
2,70514,77842
2,114151,121478
2,175242,182569
2,210151,217478
//Storyboard Layer 0 (Background)
//Storyboard Layer 1 (Fail)
//Storyboard Layer 2 (Pass)
//Storyboard Layer 3 (Foreground)
//Storyboard Sound Samples

[TimingPoints]
9224,272.727272727273,4,1,1,70,1,0
52860,-100,4,1,1,70,0,1
69769,-100,4,1,1,50,0,1
70314,-100,4,1,1,70,0,0
96496,-100,4,1,1,70,0,1
113405,-100,4,1,1,70,0,1
113951,-100,4,1,1,70,0,0
191269,-100,4,1,1,70,0,0
192496,-100,4,1,1,70,0,1
209951,-100,4,1,1,70,0,0

[Colours]
Combo1 : 210,210,210
Combo2 : 207,160,160
Combo3 : 165,165,165
Combo4 : 255,6,6

[HitObjects]
56,340,9224,6,0,L|156:328,1,99.9999999999999,4|8,0:0|0:0,0:0:0:0:
216,248,9769,2,0,P|292:248|364:284,1,150,0|4,0:0|0:0,0:0:0:0:
476,184,10587,2,0,L|452:80,1,99.9999999999999,8|0,0:0|0:0,0:0:0:0:
316,28,11269,6,0,P|248:48|168:48,1,150,4|8,0:0|0:0,0:0:0:0:
92,112,11951,2,0,L|76:268,1,150,0|4,0:0|0:0,0:0:0:0:
200,344,12769,2,0,L|300:336,1,99.9999999999999,8|0,0:0|0:0,0:0:0:0:
368,264,13314,1,8,0:0:0:0:
452,320,13587,6,0,B|468:272|468:272|436:124,1,200,4|0,0:0|0:0,0:0:0:0:
316,36,14542,2,0,L|164:52,1,150,4|8,0:0|0:0,0:0:0:0:
104,128,15224,1,0,0:0:0:0:
144,272,15633,6,0,P|209:307|283:316,1,150,4|8,0:0|0:0,0:0:0:0:
368,260,16314,2,0,L|388:108,1,150,0|4,0:0|0:0,0:0:0:0:
256,40,17133,2,0,L|152:52,1,99.9999999999999,8|0,0:0|0:0,0:0:0:0:
72,108,17678,1,8,0:0:0:0:
44,204,17951,6,0,L|56:304,1,99.9999999999999,4|8,0:0|0:0,0:0:0:0:
152,332,18496,2,0,P|228:332|300:368,1,150,0|4,0:0|0:0,0:0:0:0:
428,292,19314,2,0,L|448:192,1,99.9999999999999,8|0,0:0|0:0,0:0:0:0:
420,48,19996,6,0,P|352:28|272:28,1,150,4|8,0:0|0:0,0:0:0:0:
200,96,20678,2,0,L|48:84,1,150,0|4,0:0|0:0,0:0:0:0:
24,232,21496,2,0,L|124:224,1,99.9999999999999,8|0,0:0|0:0,0:0:0:0:
200,288,22042,1,8,0:0:0:0:
292,244,22314,6,0,B|308:196|308:196|276:48,1,200,4|0,0:0|0:0,0:0:0:0:
420,92,23269,2,0,L|456:240,1,150,4|8,0:0|0:0,0:0:0:0:
412,328,23951,1,0,0:0:0:0:
268,284,24360,6,0,P|193:292|128:328,1,150,4|8,0:0|0:0,0:0:0:0:
52,264,25042,2,0,L|72:112,1,150,0|4,0:0|0:0,0:0:0:0:
196,32,25860,2,0,L|208:136,1,99.9999999999999,8|0,0:0|0:0,0:0:0:0:
276,204,26405,1,8,0:0:0:0:
344,132,26678,6,0,P|395:123|444:128,1,99.9999999999999,4|8,0:0|0:0,0:0:0:0:
500,208,27224,2,0,P|500:284|464:356,1,150,0|4,0:0|0:0,0:0:0:0:
324,312,28042,2,0,L|224:328,1,99.9999999999999,8|0,0:0|0:0,0:0:0:0:
84,280,28724,6,0,P|64:212|64:132,1,150,4|8,0:0|0:0,0:0:0:0:
136,64,29405,2,0,L|292:80,1,150,0|4,0:0|0:0,0:0:0:0:
364,208,30224,2,0,L|264:216,1,99.9999999999999,8|0,0:0|0:0,0:0:0:0:
208,300,30769,1,8,0:0:0:0:
116,264,31042,6,0,P|76:172|132:92,1,200,4|0,0:0|0:0,0:0:0:0:
272,60,31996,2,0,L|424:76,1,150,4|8,0:0|0:0,0:0:0:0:
480,156,32678,1,0,0:0:0:0:
356,244,33087,6,0,P|282:229|209:242,1,150,4|8,0:0|0:0,0:0:0:0:
112,272,33769,2,0,L|132:120,1,150,0|4,0:0|0:0,0:0:0:0:
256,40,34587,2,0,P|308:36|360:52,1,99.9999999999999,8|0,0:0|0:0,0:0:0:0:
420,124,35133,1,8,0:0:0:0:
456,216,35405,6,0,B|432:316|432:316|388:340|336:328,1,200,4|0,0:0|0:0,0:0:0:0:
280,244,36224,1,8,0:0:0:0:
188,276,36496,2,0,L|200:376,2,99.9999999999999,0|8|0,0:0|0:0|0:0,0:0:0:0:
208,176,37314,1,8,0:0:0:0:
132,108,37587,6,0,P|40:132|4:228,2,200,4|0|0,0:0|0:0|0:0,0:0:0:0:
192,28,38951,1,8,0:0:0:0:
280,76,39224,2,0,L|380:64,1,99.9999999999999,0|8,0:0|0:0,0:0:0:0:
468,112,39769,6,0,P|496:208|472:304,1,200,4|0,0:0|0:0,0:0:0:0:
392,360,40587,1,8,0:0:0:0:
300,324,40860,2,0,L|200:340,1,99.9999999999999,0|8,0:0|0:0,0:0:0:0:
132,268,41405,2,0,L|32:252,1,99.9999999999999,0|8,0:0|0:0,0:0:0:0:
16,152,41951,6,0,P|64:64|164:40,1,200,4|0,0:0|0:0,0:0:0:0:
248,76,42769,1,8,0:0:0:0:
276,172,43042,2,0,L|264:272,1,99.9999999999999,0|8,0:0|0:0,0:0:0:0:
352,316,43587,2,0,L|364:216,1,99.9999999999999,8|8,0:0|0:0,0:0:0:0:
432,144,44133,5,4,0:0:0:0:
352,84,44405,1,8,0:0:0:0:
260,120,44678,2,0,P|188:140|104:132,2,150,0|0|8,0:0|0:0|0:0,0:0:0:0:
340,180,45769,2,0,L|352:280,1,99.9999999999999,0|8,0:0|0:0,0:0:0:0:
284,356,46314,5,4,0:0:0:0:
196,308,46587,1,8,0:0:0:0:
104,348,46860,2,0,P|52:324|20:240,2,150,0|0|8,0:0|0:0|0:0,0:0:0:0:
196,308,47951,2,0,L|204:208,1,99.9999999999999,0|8,0:0|0:0,0:0:0:0:
288,152,48496,6,0,P|392:160|464:224,1,200,4|0,0:0|0:0,0:0:0:0:
488,316,49314,1,8,0:0:0:0:
404,372,49587,2,0,P|300:364|228:300,1,200,0|0,0:0|0:0,0:0:0:0:
204,208,50405,1,8,0:0:0:0:
116,160,50678,6,0,L|16:168,2,99.9999999999999,4|8|0,0:0|0:0|0:0,0:0:0:0:
140,64,51496,1,8,0:0:0:0:
236,32,51769,2,0,L|336:40,1,99.9999999999999,0|8,0:0|0:0,0:0:0:0:
404,116,52314,2,0,L|460:112,1,50,0|0,0:0|0:0,0:0:0:0:
324,188,52860,6,0,L|220:180,1,99.9999999999999,4|8,0:0|0:0,0:0:0:0:
164,100,53405,1,0,0:0:0:0:
48,196,53814,2,0,L|76:344,1,150,4|8,0:0|0:0,0:0:0:0:
172,320,54496,2,0,B|272:328|272:328|320:348,1,150,0|4,0:0|0:0,0:0:0:0:
448,272,55314,5,8,0:0:0:0:
448,272,55587,2,0,L|424:124,2,150,0|4|8,0:0|0:0|0:0,0:0:0:0:
352,240,56678,2,0,P|296:248|252:264,1,99.9999999999999,0|8,0:0|0:0,0:0:0:0:
200,344,57224,6,0,L|100:340,1,99.9999999999999,4|8,0:0|0:0,0:0:0:0:
44,260,57769,1,0,0:0:0:0:
116,128,58178,2,0,L|264:160,1,150,4|8,0:0|0:0,0:0:0:0:
348,104,58860,2,0,B|367:149|367:149|375:249,1,150,0|4,0:0|0:0,0:0:0:0:
232,292,59678,5,8,0:0:0:0:
232,292,59951,2,0,L|84:256,2,150,0|4|8,0:0|0:0|0:0,0:0:0:0:
292,372,61042,1,0,0:0:0:0:
384,332,61314,1,8,0:0:0:0:
432,244,61587,6,0,L|416:144,1,99.9999999999999,4|8,0:0|0:0,0:0:0:0:
328,100,62133,2,0,P|256:120|176:104,2,150,0|4|8,0:0|0:0|0:0,0:0:0:0:
392,24,63224,2,0,L|384:180,1,150,0|4,0:0|0:0,0:0:0:0:
276,276,64042,5,8,0:0:0:0:
276,276,64314,2,0,L|120:292,2,150,0|4|8,0:0|0:0|0:0,0:0:0:0:
332,192,65405,2,0,P|328:140|308:96,1,99.9999999999999,0|8,0:0|0:0,0:0:0:0:
220,52,65951,6,0,L|120:60,1,99.9999999999999,4|8,0:0|0:0,0:0:0:0:
44,124,66496,2,0,P|24:196|40:276,2,150,0|4|8,0:0|0:0|0:0,0:0:0:0:
140,156,67587,2,0,L|296:164,1,150,0|4,0:0|0:0,0:0:0:0:
412,76,68405,5,8,0:0:0:0:
412,76,68678,2,0,L|428:232,2,150,0|4|8,0:0|0:0|0:0,0:0:0:0:
328,24,69769,2,0,P|276:28|232:48,1,99.9999999999999,8|0,0:0|0:0,0:0:0:0:
188,136,70314,5,4,0:0:0:0:
272,48,79042,6,0,B|221:36|177:60|177:60|153:160,1,200,4|0,0:0|0:0,0:0:0:0:
200,252,79860,1,8,0:0:0:0:
284,196,80133,2,0,P|332:180|384:184,2,99.9999999999999,0|8|0,0:0|0:0|0:0,0:0:0:0:
200,252,80951,1,8,0:0:0:0:
288,296,81224,6,0,L|488:272,2,200,4|0|0,0:0|0:0|0:0,0:0:0:0:
204,352,82587,1,8,0:0:0:0:
116,308,82860,2,0,L|104:208,1,99.9999999999999,0|8,0:0|0:0,0:0:0:0:
52,124,83405,6,0,P|129:60|227:45,1,200,4|0,0:0|0:0,0:0:0:0:
316,92,84224,1,8,0:0:0:0:
360,180,84496,2,0,L|344:280,1,99.9999999999999,0|8,0:0|0:0,0:0:0:0:
248,300,85042,2,0,L|263:201,1,99.9999999999999,0|8,0:0|0:0,0:0:0:0:
196,128,85587,6,0,P|102:155|56:241,1,200,4|0,0:0|0:0,0:0:0:0:
76,340,86405,1,8,0:0:0:0:
172,316,86678,2,0,L|272:328,1,99.9999999999999,0|8,0:0|0:0,0:0:0:0:
364,284,87224,2,0,L|464:296,1,99.9999999999999,8|8,0:0|0:0,0:0:0:0:
508,204,87769,5,4,0:0:0:0:
448,124,88042,1,8,0:0:0:0:
372,188,88314,2,0,B|276:208|276:208|216:200,2,150,0|0|8,0:0|0:0|0:0,0:0:0:0:
448,124,89405,2,0,L|436:24,1,99.9999999999999,0|8,0:0|0:0,0:0:0:0:
336,20,89951,5,4,0:0:0:0:
272,96,90224,1,8,0:0:0:0:
180,56,90496,2,0,P|128:80|96:164,2,150,0|0|8,0:0|0:0|0:0,0:0:0:0:
272,96,91587,2,0,L|264:196,1,99.9999999999999,0|8,0:0|0:0,0:0:0:0:
228,288,92133,6,0,P|303:225|401:219,1,200,4|0,0:0|0:0,0:0:0:0:
488,272,92951,1,8,0:0:0:0:
492,172,93224,2,0,P|416:109|318:103,1,200,0|0,0:0|0:0,0:0:0:0:
236,160,94042,1,8,0:0:0:0:
164,92,94314,6,0,L|64:84,2,99.9999999999999,4|8|0,0:0|0:0|0:0,0:0:0:0:
236,160,95133,1,8,0:0:0:0:
284,248,95405,2,0,L|276:348,1,99.9999999999999,0|8,0:0|0:0,0:0:0:0:
180,324,95951,2,0,L|124:328,1,50,0|0,0:0|0:0,0:0:0:0:
48,200,96496,6,0,L|152:208,1,99.9999999999999,4|8,0:0|0:0,0:0:0:0:
236,160,97042,1,0,0:0:0:0:
328,280,97451,2,0,L|480:272,1,150,4|8,0:0|0:0,0:0:0:0:
508,176,98133,2,0,B|408:180|408:180|360:164,1,150,0|4,0:0|0:0,0:0:0:0:
220,108,98951,5,8,0:0:0:0:
220,108,99224,2,0,L|72:132,2,150,0|4|8,0:0|0:0|0:0,0:0:0:0:
296,40,100314,2,0,P|320:88|318:136,1,99.9999999999999,0|8,0:0|0:0,0:0:0:0:
244,200,100860,6,0,L|256:300,1,99.9999999999999,4|8,0:0|0:0,0:0:0:0:
324,372,101405,1,0,0:0:0:0:
176,348,101814,2,0,L|28:316,1,150,4|8,0:0|0:0,0:0:0:0:
52,220,102496,2,0,B|60:176|60:176|28:76,1,150,0|4,0:0|0:0,0:0:0:0:
172,36,103314,5,8,0:0:0:0:
172,36,103587,2,0,L|324:52,2,150,0|4|8,0:0|0:0|0:0,0:0:0:0:
100,104,104678,1,0,0:0:0:0:
144,192,104951,1,8,0:0:0:0:
244,176,105224,6,0,L|260:276,1,99.9999999999999,4|8,0:0|0:0,0:0:0:0:
324,352,105769,2,0,P|396:372|476:356,2,150,0|4|8,0:0|0:0|0:0,0:0:0:0:
260,276,106860,2,0,L|288:124,1,150,0|4,0:0|0:0,0:0:0:0:
164,44,107678,5,8,0:0:0:0:
164,44,107951,2,0,P|88:40|8:60,2,150,0|4|8,0:0|0:0|0:0,0:0:0:0:
188,140,109042,2,0,L|172:240,1,99.9999999999999,0|8,0:0|0:0,0:0:0:0:
244,312,109587,6,0,L|344:304,1,99.9999999999999,4|8,0:0|0:0,0:0:0:0:
420,240,110133,2,0,P|440:168|424:88,2,150,0|4|8,0:0|0:0|0:0,0:0:0:0:
324,208,111224,2,0,L|168:200,1,150,0|4,0:0|0:0,0:0:0:0:
44,276,112042,5,8,0:0:0:0:
44,276,112314,2,0,L|28:120,2,150,0|4|8,0:0|0:0|0:0,0:0:0:0:
128,328,113405,2,0,P|176:312|228:312,1,99.9999999999999,0|0,0:0|0:0,0:0:0:0:
316,356,113951,5,0,0:0:0:0:
256,88,122678,6,0,L|156:100,1,99.9999999999999,4|8,0:0|0:0,0:0:0:0:
64,64,123224,2,0,P|32:131|32:205,1,150,0|4,0:0|0:0,0:0:0:0:
156,288,124042,2,0,L|256:300,1,99.9999999999999,8|0,0:0|0:0,0:0:0:0:
384,376,124724,6,0,P|404:308|404:228,1,150,4|8,0:0|0:0,0:0:0:0:
344,152,125405,2,0,L|192:140,1,150,0|4,0:0|0:0,0:0:0:0:
72,52,126224,2,0,L|172:44,1,99.9999999999999,8|0,0:0|0:0,0:0:0:0:
272,40,126769,1,8,0:0:0:0:
368,64,127042,6,0,B|384:112|384:112|352:260,1,200,4|0,0:0|0:0,0:0:0:0:
228,344,127996,2,0,P|153:343|88:307,1,150,4|8,0:0|0:0,0:0:0:0:
44,216,128678,1,0,0:0:0:0:
128,92,129087,6,0,L|280:116,1,150,4|8,0:0|0:0,0:0:0:0:
352,48,129769,2,0,P|424:48|484:100,1,150,0|4,0:0|0:0,0:0:0:0:
496,244,130587,2,0,L|484:348,1,99.9999999999999,8|0,0:0|0:0,0:0:0:0:
388,368,131133,1,8,0:0:0:0:
324,288,131405,6,0,P|273:279|224:284,1,99.9999999999999,4|8,0:0|0:0,0:0:0:0:
160,360,131951,2,0,P|84:360|12:324,1,150,0|4,0:0|0:0,0:0:0:0:
56,184,132769,2,0,L|40:84,1,99.9999999999999,8|0,0:0|0:0,0:0:0:0:
184,124,133451,6,0,L|208:272,1,150,4|8,0:0|0:0,0:0:0:0:
276,348,134133,2,0,P|348:360|420:332,1,150,0|4,0:0|0:0,0:0:0:0:
468,192,134951,2,0,L|368:200,1,99.9999999999999,8|0,0:0|0:0,0:0:0:0:
276,160,135496,1,8,0:0:0:0:
248,64,135769,6,0,P|156:24|64:52,1,200,4|0,0:0|0:0,0:0:0:0:
44,200,136724,2,0,L|196:216,1,150,4|8,0:0|0:0,0:0:0:0:
276,160,137405,1,0,0:0:0:0:
380,268,137814,6,0,P|304:273|238:306,1,150,4|8,0:0|0:0,0:0:0:0:
164,372,138496,2,0,L|12:352,1,150,0|4,0:0|0:0,0:0:0:0:
80,216,139314,2,0,L|180:232,1,99.9999999999999,8|0,0:0|0:0,0:0:0:0:
256,168,139860,1,8,0:0:0:0:
352,200,140133,6,0,P|364:276|336:348,2,150,6|2|10,0:0|0:0|0:0,0:0:0:0:
448,176,141224,2,0,B|424:132|436:76|436:76|400:44|344:52,1,200,2|0,0:0|0:0,0:0:0:0:
256,100,142042,1,10,0:0:0:0:
166,51,142314,6,0,B|112:44|76:76|76:76|88:132|64:176,1,200,6|0,0:0|0:0,0:0:0:0:
4,256,143133,1,10,0:0:0:0:
68,332,143405,2,0,B|220:316|220:316|264:336,1,200,2|0,0:0|0:0,0:0:0:0:
456,284,144496,6,0,P|368:276|300:192,1,200,6|2,0:0|0:0,0:0:0:0:
324,96,145314,1,8,0:0:0:0:
412,48,145587,2,0,L|212:68,1,200,2|2,0:0|0:0,0:0:0:0:
120,28,146405,1,8,0:0:0:0:
56,104,146678,6,0,B|24:204|92:204|64:304,2,200,6|2|2,0:0|0:0|0:0,0:0:0:0:
120,28,148042,1,10,0:0:0:0:
212,68,148314,2,0,P|224:120|216:168,1,99.9999999999999,2|10,0:0|0:0,0:0:0:0:
160,248,148860,5,6,0:0:0:0:
236,316,149133,2,0,B|288:300|336:316|336:316|360:268|412:244,1,200,10|10,0:0|0:0,0:0:0:0:
504,236,149951,2,0,L|304:192,1,200,2|2,0:0|0:0,0:0:0:0:
256,108,150769,1,8,0:0:0:0:
172,160,151042,6,0,L|184:260,1,99.9999999999999,6|10,0:0|0:0,0:0:0:0:
96,308,151587,2,0,L|84:208,1,99.9999999999999,2|10,0:0|0:0,0:0:0:0:
8,144,152133,2,0,B|28:44|28:44|72:20|124:32,1,200,2|0,0:0|0:0,0:0:0:0:
288,144,153224,6,0,B|388:132|388:132|436:144,2,150,6|2|10,0:0|0:0|0:0,0:0:0:0:
220,220,154314,2,0,B|120:208|120:208|72:220,2,150,2|2|10,0:0|0:0|0:0,0:0:0:0:
272,308,155405,6,0,B|324:312|324:312|372:300,1,99.9999999999999,6|10,0:0|0:0,0:0:0:0:
436,224,155951,2,0,L|424:120,1,99.9999999999999,2|10,0:0|0:0,0:0:0:0:
348,60,156496,1,2,0:0:0:0:
272,128,156769,1,8,0:0:0:0:
184,76,157042,2,0,L|192:24,1,50,8|8,0:0|0:0,0:0:0:0:
48,72,157587,6,0,L|80:276,1,200,4|0,0:0|0:0,0:0:0:0:
152,336,158405,1,8,0:0:0:0:
248,304,158678,2,0,P|300:308|344:328,1,99.9999999999999,0|8,0:0|0:0,0:0:0:0:
412,256,159224,2,0,P|389:208|384:160,1,99.9999999999999,0|8,0:0|0:0,0:0:0:0:
316,88,159769,6,0,L|116:112,2,200,4|0|0,0:0|0:0|0:0,0:0:0:0:
384,16,161133,1,8,0:0:0:0:
480,48,161405,2,0,B|496:100|496:100|492:148,1,99.9999999999999,0|8,0:0|0:0,0:0:0:0:
432,224,161951,6,0,P|333:203|240:236,1,200,4|0,0:0|0:0,0:0:0:0:
200,324,162769,1,8,0:0:0:0:
136,248,163042,2,0,L|151:149,1,99.9999999999999,0|8,0:0|0:0,0:0:0:0:
52,160,163587,2,0,L|67:61,1,99.9999999999999,0|8,0:0|0:0,0:0:0:0:
164,28,164133,6,0,P|264:56|360:48,1,200,4|0,0:0|0:0,0:0:0:0:
452,16,164951,1,8,0:0:0:0:
508,100,165224,2,0,L|496:200,1,99.9999999999999,0|8,0:0|0:0,0:0:0:0:
408,152,165769,2,0,L|396:252,1,99.9999999999999,8|8,0:0|0:0,0:0:0:0:
324,324,166314,5,4,0:0:0:0:
232,284,166587,1,8,0:0:0:0:
256,188,166860,2,0,B|272:92|272:92|248:44,2,150,0|0|8,0:0|0:0|0:0,0:0:0:0:
232,284,167951,2,0,L|132:264,1,99.9999999999999,0|8,0:0|0:0,0:0:0:0:
44,312,168496,5,4,0:0:0:0:
40,212,168769,1,8,0:0:0:0:
132,168,169042,2,0,P|156:96|144:24,2,150,0|0|8,0:0|0:0|0:0,0:0:0:0:
40,212,170133,2,0,L|44:312,1,99.9999999999999,0|8,0:0|0:0,0:0:0:0:
132,364,170678,6,0,P|207:301|305:295,1,200,4|0,0:0|0:0,0:0:0:0:
388,352,171496,1,8,0:0:0:0:
480,316,171769,2,0,L|456:116,1,200,0|0,0:0|0:0,0:0:0:0:
388,44,172587,1,8,0:0:0:0:
292,72,172860,6,0,P|241:60|192:64,2,99.9999999999999,4|8|0,0:0|0:0|0:0,0:0:0:0:
364,140,173678,1,8,0:0:0:0:
400,232,173951,2,0,L|392:332,1,99.9999999999999,0|8,0:0|0:0,0:0:0:0:
296,300,174496,2,0,L|240:304,1,50,0|0,0:0|0:0,0:0:0:0:
144,192,175042,5,4,0:0:0:0:
192,360,183769,6,0,P|100:352|36:272,1,200,4|0,0:0|0:0,0:0:0:0:
96,192,184587,1,8,0:0:0:0:
36,111,184860,2,0,P|95:33|191:23,1,200,0|0,0:0|0:0,0:0:0:0:
256,100,185678,1,8,0:0:0:0:
212,192,185951,6,0,B|228:292|228:292|312:348,1,200
408,364,186769,1,8,0:0:0:0:
452,276,187042,2,0,B|436:176|436:176|352:120,1,200,0|0,0:0|0:0,0:0:0:0:
256,100,187860,2,0,L|204:112,1,50,8|0,0:0|0:0,0:0:0:0:
180,152,188133,6,0,L|80:144,1,99.9999999999999,4|8,0:0|0:0,0:0:0:0:
108,240,188678,2,0,L|208:248,1,99.9999999999999,0|8,0:0|0:0,0:0:0:0:
304,216,189224,2,0,B|308:264|308:264|292:316,2,99.9999999999999,0|8|0,0:0|0:0|0:0,0:0:0:0:
224,156,190042,1,8,0:0:0:0:
260,64,190314,6,0,L|360:72,1,99.9999999999999,0|8,0:0|0:0,0:0:0:0:
448,24,190860,1,0,0:0:0:0:
504,108,191133,2,0,L|512:164,1,50,8|4,0:0|0:0,0:0:0:0:
104,348,192496,6,0,L|208:340,1,99.9999999999999,4|8,0:0|0:0,0:0:0:0:
256,256,193042,1,0,0:0:0:0:
184,124,193451,2,0,L|32:132,1,150,4|8,0:0|0:0,0:0:0:0:
8,228,194133,2,0,L|157:220,1,150,0|4,0:0|0:0,0:0:0:0:
292,152,194951,5,8,0:0:0:0:
292,152,195224,2,0,B|304:76|304:76|268:12,2,150,0|4|8,0:0|0:0|0:0,0:0:0:0:
216,216,196314,2,0,P|192:264|194:312,1,99.9999999999999,0|8,0:0|0:0,0:0:0:0:
272,372,196860,6,0,L|372:360,1,99.9999999999999,4|8,0:0|0:0,0:0:0:0:
448,292,197405,1,0,0:0:0:0:
308,240,197814,2,0,P|304:164|340:100,1,150,4|8,0:0|0:0,0:0:0:0:
420,40,198496,2,0,L|264:48,1,150,0|4,0:0|0:0,0:0:0:0:
160,148,199314,5,8,0:0:0:0:
160,148,199587,2,0,L|8:132,2,150,0|4|8,0:0|0:0|0:0,0:0:0:0:
232,216,200678,1,0,0:0:0:0:
136,244,200951,1,8,0:0:0:0:
208,312,201224,6,0,L|308:296,1,99.9999999999999,4|8,0:0|0:0,0:0:0:0:
376,224,201769,2,0,P|388:150|368:79,2,150,0|4|8,0:0|0:0|0:0,0:0:0:0:
280,200,202860,2,0,L|128:228,1,150,0|4,0:0|0:0,0:0:0:0:
264,304,203678,5,8,0:0:0:0:
264,304,203951,2,0,P|340:300|420:320,2,150,0|4|8,0:0|0:0|0:0,0:0:0:0:
188,368,205042,2,0,L|88:352,1,99.9999999999999,0|8,0:0|0:0,0:0:0:0:
24,276,205587,6,0,B|8:232|8:232|16:176,1,99.9999999999999,4|8,0:0|0:0,0:0:0:0:
116,168,206133,2,0,P|188:188|268:172,2,150,0|4|8,0:0|0:0|0:0,0:0:0:0:
56,88,207224,2,0,B|100:40|100:40|184:28,1,150,0|4,0:0|0:0,0:0:0:0:
316,100,208042,5,8,0:0:0:0:
316,100,208314,2,0,L|332:256,2,150,0|4|8,0:0|0:0|0:0,0:0:0:0:
372,16,209405,2,0,P|421:16|469:32,1,99.9999999999999,0|8,0:0|0:0,0:0:0:0:
512,124,209951,5,4,0:0:0:0:
256,92,218678,6,0,L|156:92,2,99.9999999999999,4|8|0,0:0|0:0|0:0,0:0:0:0:
328,24,219496,1,8,0:0:0:0:
420,60,219769,2,0,B|436:108|436:108|432:160,1,99.9999999999999,0|8,0:0|0:0,0:0:0:0:
356,220,220314,2,0,B|340:268|340:268|344:320,1,99.9999999999999,0|8,0:0|0:0,0:0:0:0:
256,368,220860,5,4,0:0:0:0:
188,296,221133,1,8,0:0:0:0:
100,344,221405,2,0,B|48:340|48:340|4:316,1,99.9999999999999,0|8,0:0|0:0,0:0:0:0:
32,220,221951,2,0,L|16:120,1,99.9999999999999,0|8,0:0|0:0,0:0:0:0:
92,56,222496,2,0,L|186:92,1,99.9999999999999,0|8,0:0|0:0,0:0:0:0:
280,60,223042,5,4,0:0:0:0:
344,136,223314,1,8,0:0:0:0:
288,220,223587,2,0,L|304:320,2,99.9999999999999,0|8|0,0:0|0:0|0:0,0:0:0:0:
192,188,224405,1,8,0:0:0:0:
116,256,224678,2,0,B|108:308|108:308|124:356,1,99.9999999999999,0|8,0:0|0:0,0:0:0:0:
216,320,225224,5,4,0:0:0:0:
308,356,225496,1,8,0:0:0:0:
380,288,225769,2,0,L|368:188,1,99.9999999999999,0|8,0:0|0:0,0:0:0:0:
420,104,226314,5,0,0:0:0:0:
364,20,226587,1,8,0:0:0:0:
268,52,226860,2,0,B|168:56|168:56|128:92,1,150,0|8,0:0|0:0,0:0:0:0:
