osu file format v14

[General]
AudioFilename: audio.mp3
AudioLeadIn: 0
PreviewTime: 52860
Countdown: 0
SampleSet: Normal
StackLeniency: 0.7
Mode: 0
LetterboxInBreaks: 0
WidescreenStoryboard: 0

[Editor]
DistanceSpacing: 1
BeatDivisor: 4
GridSize: 4
TimelineZoom: 3.099999

[Metadata]
Title:Gimme chocolate!!
TitleUnicode:ギミチョコ!!
Artist:BABYMETAL
ArtistUnicode:BABYMETAL
Creator:alacat
Version:EASY!!
Source:
Tags:Give me idol metal SU-METAL YUIMETAL MOAMETAL suzuka nakamoto yui mizuno moa kikuchi
BeatmapID:974872
BeatmapSetID:452230

[Difficulty]
HPDrainRate:2
CircleSize:2.5
OverallDifficulty:2
ApproachRate:3
SliderMultiplier:0.799999999999999
SliderTickRate:1

[Events]
//Background and Video events
0,0,"BG.jpg",0,0
Video,-70,"video.avi"
//Break Periods
2,70514,77602
2,114151,121238
2,175042,182329
2,210151,217238
//Storyboard Layer 0 (Background)
//Storyboard Layer 1 (Fail)
//Storyboard Layer 2 (Pass)
//Storyboard Layer 3 (Foreground)
//Storyboard Sound Samples

[TimingPoints]
9224,272.727272727273,4,1,1,70,1,0
52860,-100,4,1,1,70,0,1
69769,-100,4,1,1,50,0,1
70314,-100,4,1,1,70,0,0
96496,-100,4,1,1,70,0,1
113405,-100,4,1,1,70,0,1
113951,-100,4,1,1,70,0,0
191269,-100,4,1,1,70,0,0
192496,-100,4,1,1,70,0,1
209951,-100,4,1,1,70,0,0

[Colours]
Combo1 : 210,210,210
Combo2 : 207,160,160
Combo3 : 165,165,165
Combo4 : 255,6,6

[HitObjects]
12,208,9224,6,0,P|80:172|164:176,1,160,4|0,0:0|0:0,0:0:0:0:
256,248,10178,2,0,L|456:220,1,200,4|0,0:0|0:0,0:0:0:0:
500,108,11269,2,0,P|425:47|322:37,1,200,4|0,0:0|0:0,0:0:0:0:
256,136,12360,2,0,L|284:340,1,200,4|0,0:0|0:0,0:0:0:0:
144,256,13587,6,0,L|124:96,1,160,4|0,0:0|0:0,0:0:0:0:
224,32,14542,2,0,P|316:64|424:64,1,200,4|0,0:0|0:0,0:0:0:0:
484,168,15633,2,0,L|464:368,1,200,4|0,0:0|0:0,0:0:0:0:
368,296,16724,2,0,P|268:304|188:364,1,200,4|0,0:0|0:0,0:0:0:0:
44,296,17951,6,0,P|117:264|166:202,1,160,4|0,0:0|0:0,0:0:0:0:
256,124,18905,2,0,L|456:140,1,200,4|0,0:0|0:0,0:0:0:0:
504,248,19996,2,0,L|304:232,1,200,4|0,0:0|0:0,0:0:0:0:
216,312,21087,2,0,P|108:312|60:240,1,200,4|0,0:0|0:0,0:0:0:0:
180,140,22314,6,0,L|344:124,1,160,4|0,0:0|0:0,0:0:0:0:
256,36,23269,2,0,L|56:52,1,200,4|0,0:0|0:0,0:0:0:0:
4,160,24360,2,0,P|-8:260|36:348,1,200,4|0,0:0|0:0,0:0:0:0:
152,320,25451,2,0,P|256:320|344:368,1,200,4|0,0:0|0:0,0:0:0:0:
380,208,26678,6,0,L|220:220,1,160,4|0,0:0|0:0,0:0:0:0:
108,172,27633,2,0,P|88:84|164:20,1,200,4|0,0:0|0:0,0:0:0:0:
276,64,28724,2,0,B|408:40|408:40|472:52,1,200,4|0,0:0|0:0,0:0:0:0:
512,164,29814,2,0,L|492:368,1,200,4|0,0:0|0:0,0:0:0:0:
340,316,31042,6,0,B|260:304|260:304|184:324,1,160,4|0,0:0|0:0,0:0:0:0:
124,220,31996,2,0,L|156:20,1,200,4|0,0:0|0:0,0:0:0:0:
40,52,33087,2,0,L|8:249,1,200,4|0,0:0|0:0,0:0:0:0:
100,328,34178,2,0,P|196:300|296:300,1,200,4|0,0:0|0:0,0:0:0:0:
440,372,35405,5,4,0:0:0:0:
512,228,35951,1,0,0:0:0:0:
368,160,36496,2,0,P|288:152|212:176,1,160,0|0,0:0|0:0,0:0:0:0:
132,312,37587,1,4,0:0:0:0:
0,224,38133,1,0,0:0:0:0:
60,76,38678,2,0,P|140:56|216:60,1,160,0|0,0:0|0:0,0:0:0:0:
288,204,39769,6,0,L|272:368,2,160,4|0|0,0:0|0:0|0:0,0:0:0:0:
376,72,41405,1,0,0:0:0:0:
216,60,41951,2,0,P|136:84|88:148,1,160,4|0,0:0|0:0,0:0:0:0:
164,284,43042,2,0,P|244:260|292:196,1,160,0|8,0:0|0:0,0:0:0:0:
412,96,44133,6,0,L|436:256,2,160,4|0|0,0:0|0:0|0:0,0:0:0:0:
256,52,45769,2,0,L|172:64,1,79.9999999999999,0|8,0:0|0:0,0:0:0:0:
100,36,46314,2,0,P|44:104|32:176,2,160,4|0|0,0:0|0:0|0:0,0:0:0:0:
220,140,47951,2,0,L|304:152,1,79.9999999999999,0|8,0:0|0:0,0:0:0:0:
364,108,48496,5,4,0:0:0:0:
488,208,49042,1,0,0:0:0:0:
392,336,49587,2,0,L|232:360,1,160,0|0,0:0|0:0,0:0:0:0:
136,236,50678,2,0,P|52:244|0:296,2,160,4|0|0,0:0|0:0|0:0,0:0:0:0:
288,288,52314,1,0,0:0:0:0:
416,192,52860,6,0,L|392:32,1,160,4|0,0:0|0:0,0:0:0:0:
292,96,53814,2,0,P|192:96|112:36,1,200,4|0,0:0|0:0,0:0:0:0:
44,136,54905,2,0,L|68:336,1,200,4|0,0:0|0:0,0:0:0:0:
180,288,55996,2,0,P|280:288|368:336,1,200,4|0,0:0|0:0,0:0:0:0:
452,200,57224,6,0,L|292:176,1,160,4|0,0:0|0:0,0:0:0:0:
188,232,58178,2,0,P|88:208|60:120,1,200,4|0,0:0|0:0,0:0:0:0:
148,40,59269,2,0,L|348:24,1,200,4|0,0:0|0:0,0:0:0:0:
452,88,60360,2,0,P|484:168|464:280,1,200,4|0,0:0|0:0,0:0:0:0:
332,364,61587,6,0,L|168:340,1,160,4|0,0:0|0:0,0:0:0:0:
96,248,62542,2,0,B|64:148|136:148|88:48,1,200,4|0,0:0|0:0,0:0:0:0:
208,28,63633,2,0,L|408:48,1,200,4|0,0:0|0:0,0:0:0:0:
496,128,64724,2,0,P|500:228|436:304,1,200,4|0,0:0|0:0,0:0:0:0:
288,248,65951,6,0,L|128:272,1,160,4|0,0:0|0:0,0:0:0:0:
52,180,66905,2,0,P|60:80|144:60,1,200,4|0,0:0|0:0,0:0:0:0:
240,132,67996,2,0,L|440:100,1,200,4|0,0:0|0:0,0:0:0:0:
512,196,69087,2,0,L|314:227,1,200,4|8,0:0|0:0,0:0:0:0:
224,360,70314,5,4,0:0:0:0:
204,116,79042,5,4,0:0:0:0:
56,52,79587,1,0,0:0:0:0:
8,204,80133,2,0,L|160:256,1,160,0|0,0:0|0:0,0:0:0:0:
296,176,81224,1,4,0:0:0:0:
380,312,81769,1,0,0:0:0:0:
504,208,82314,2,0,P|500:128|456:60,1,160,0|0,0:0|0:0,0:0:0:0:
300,80,83405,6,0,L|136:64,2,160,4|0|0,0:0|0:0|0:0,0:0:0:0:
392,212,85042,1,0,0:0:0:0:
248,280,85587,2,0,P|168:256|88:264,1,160,4|0,0:0|0:0,0:0:0:0:
28,116,86678,2,0,P|108:140|188:132,1,160,0|8,0:0|0:0,0:0:0:0:
320,52,87769,6,0,L|480:76,2,160,4|0|0,0:0|0:0|0:0,0:0:0:0:
252,196,89405,2,0,L|264:280,1,79.9999999999999,0|8,0:0|0:0,0:0:0:0:
320,332,89951,2,0,P|396:324|476:356,2,160,4|0|0,0:0|0:0|0:0,0:0:0:0:
164,368,91587,2,0,L|80:356,1,79.9999999999999,0|8,0:0|0:0,0:0:0:0:
36,292,92133,5,4,0:0:0:0:
84,140,92678,1,0,0:0:0:0:
192,260,93224,2,0,P|272:268|344:236,1,160,0|0,0:0|0:0,0:0:0:0:
452,116,94314,2,0,L|488:276,2,160,4|0|0,0:0|0:0|0:0,0:0:0:0:
324,20,95951,1,0,0:0:0:0:
236,156,96496,6,0,P|152:160|76:132,1,160,4|0,0:0|0:0,0:0:0:0:
4,228,97451,2,0,P|100:244|172:312,1,200,4|0,0:0|0:0,0:0:0:0:
280,368,98542,2,0,L|480:344,1,200,4|0,0:0|0:0,0:0:0:0:
480,224,99633,2,0,L|281:247,1,200,4|0,0:0|0:0,0:0:0:0:
132,192,100860,6,0,P|120:112|152:40,1,160,4|0,0:0|0:0,0:0:0:0:
268,56,101814,2,0,P|368:52|456:104,1,200,4|0,0:0|0:0,0:0:0:0:
500,212,102905,2,0,L|300:228,1,200,4|0,0:0|0:0,0:0:0:0:
256,340,103996,2,0,P|176:308|64:328,1,200,4|0,0:0|0:0,0:0:0:0:
12,176,105224,6,0,P|92:180|169:152,1,160,4|0,0:0|0:0,0:0:0:0:
284,124,106178,2,0,P|380:120|460:184,1,200,4|0,0:0|0:0,0:0:0:0:
424,296,107269,2,0,P|328:300|248:236,1,200,4|0,0:0|0:0,0:0:0:0:
166,154,108360,2,0,L|146:358,1,200,4|0,0:0|0:0,0:0:0:0:
24,248,109587,6,0,L|40:88,1,160,4|0,0:0|0:0,0:0:0:0:
148,40,110542,2,0,B|248:8|248:80|348:32,1,200,4|0,0:0|0:0,0:0:0:0:
428,120,111633,2,0,L|396:320,1,200,4|0,0:0|0:0,0:0:0:0:
284,272,112724,2,0,P|188:304|88:296,1,200,4|0,0:0|0:0,0:0:0:0:
12,160,113951,5,0,0:0:0:0:
468,88,122678,6,0,P|394:119|345:181,1,160,4|0,0:0|0:0,0:0:0:0:
256,260,123633,2,0,L|56:244,1,200,4|0,0:0|0:0,0:0:0:0:
8,136,124724,2,0,L|208:152,1,200,4|0,0:0|0:0,0:0:0:0:
296,72,125814,2,0,P|404:72|452:144,1,200,4|0,0:0|0:0,0:0:0:0:
332,244,127042,6,0,L|168:260,1,160,4|0,0:0|0:0,0:0:0:0:
256,348,127996,2,0,L|456:332,1,200,4|0,0:0|0:0,0:0:0:0:
508,224,129087,2,0,P|520:124|476:36,1,200,4|0,0:0|0:0,0:0:0:0:
360,64,130178,2,0,P|256:64|168:16,1,200,4|0,0:0|0:0,0:0:0:0:
52,124,131405,6,0,L|64:284,1,160,4|0,0:0|0:0,0:0:0:0:
164,352,132360,2,0,P|252:332|356:368,1,200,4|0,0:0|0:0,0:0:0:0:
444,288,133451,2,0,P|355:270|275:195,1,200,4|0,0:0|0:0,0:0:0:0:
240,84,134542,2,0,L|36:104,1,200,4|0,0:0|0:0,0:0:0:0:
8,260,135769,6,0,L|168:244,1,160,4|0,0:0|0:0,0:0:0:0:
256,328,136724,2,0,P|356:328|428:264,1,200,4|0,0:0|0:0,0:0:0:0:
396,148,137814,2,0,L|198:116,1,200,4|0,0:0|0:0,0:0:0:0:
112,32,138905,2,0,B|80:136|80:136|84:228,1,200,4|0,0:0|0:0,0:0:0:0:
212,320,140133,6,0,B|292:308|292:308|376:324,2,160,6|0|2,0:0|0:0|0:0,0:0:0:0:
56,352,141769,1,0,0:0:0:0:
4,200,142314,2,0,L|32:40,1,160,6|0,0:0|0:0,0:0:0:0:
192,24,143405,2,0,L|164:181,1,160,2|0,0:0|0:0,0:0:0:0:
252,316,144496,5,6,0:0:0:0:
412,292,145042,1,2,0:0:0:0:
323,161,145587,2,0,L|163:181,1,160,2|2,0:0|0:0,0:0:0:0:
40,80,146678,2,0,L|198:60,2,160,6|2|2,0:0|0:0|0:0,0:0:0:0:
4,236,148314,1,2,0:0:0:0:
120,344,148860,6,0,B|228:364|228:364|284:356,1,160,6|0,0:0|0:0,0:0:0:0:
404,256,149951,2,0,B|296:236|296:236|240:244,1,160,2|2,0:0|0:0,0:0:0:0:
88,264,151042,2,0,L|120:104,2,160,6|2|2,0:0|0:0|0:0,0:0:0:0:
216,364,152678,1,0,0:0:0:0:
272,216,153224,6,0,P|356:216|428:240,1,160,6|0,0:0|0:0,0:0:0:0:
504,100,154314,2,0,L|344:120,1,160,2|0,0:0|0:0,0:0:0:0:
196,64,155405,2,0,P|116:80|56:136,2,160,6|2|2,0:0|0:0|0:0,0:0:0:0:
288,196,157042,1,8,0:0:0:0:
220,340,157587,6,0,B|140:348|140:348|64:320,1,160,4|0,0:0|0:0,0:0:0:0:
24,164,158678,2,0,B|104:156|104:156|184:184,1,160
300,292,159769,1,4,0:0:0:0:
436,208,160314,1,0,0:0:0:0:
380,60,160860,2,0,B|300:64|300:64|232:108,1,160
180,256,161951,6,0,L|16:272,2,160,4|0|0,0:0|0:0|0:0,0:0:0:0:
292,372,163587,1,0,0:0:0:0:
440,316,164133,2,0,P|464:236|456:156,1,160,4|0,0:0|0:0,0:0:0:0:
340,56,165224,2,0,P|316:136|324:216,1,160,0|8,0:0|0:0,0:0:0:0:
240,348,166314,6,0,L|80:324,2,160,4|0|0,0:0|0:0|0:0,0:0:0:0:
220,188,167951,2,0,L|208:104,1,79.9999999999999,0|8,0:0|0:0,0:0:0:0:
164,44,168496,2,0,P|88:36|8:68,2,160,4|0|0,0:0|0:0|0:0,0:0:0:0:
324,24,170133,2,0,L|408:36,1,79.9999999999999,0|8,0:0|0:0,0:0:0:0:
452,96,170678,5,4,0:0:0:0:
492,252,171224,1,0,0:0:0:0:
344,188,171769,2,0,P|264:180|192:212,1,160,0|0,0:0|0:0,0:0:0:0:
256,192,172860,12,8,174496,0:0:0:0:
316,308,183769,6,0,P|396:320|460:276,2,160,4|0|0,0:0|0:0|0:0,0:0:0:0:
256,160,185405,1,0,0:0:0:0:
196,308,185951,2,0,P|116:320|52:276,2,160
328,220,187587,1,0,0:0:0:0:
256,76,188133,5,4,0:0:0:0:
124,168,188678,2,0,L|140:332,1,160,0|0,0:0|0:0,0:0:0:0:
292,376,189769,1,0,0:0:0:0:
444,324,190314,1,0,0:0:0:0:
488,172,190860,2,0,L|368:184,1,120,0|4,0:0|0:0,0:0:0:0:
32,60,192496,6,0,L|192:36,1,160,4|0,0:0|0:0,0:0:0:0:
300,84,193451,2,0,P|400:84|480:144,1,200,4|0,0:0|0:0,0:0:0:0:
440,256,194542,2,0,P|340:256|260:196,1,200,4|0,0:0|0:0,0:0:0:0:
200,96,195633,2,0,P|100:96|12:144,1,200,4|0,0:0|0:0,0:0:0:0:
64,296,196860,6,0,L|224:320,1,160,4|0,0:0|0:0,0:0:0:0:
332,364,197814,2,0,P|432:340|460:252,1,200,4|0,0:0|0:0,0:0:0:0:
396,156,198905,2,0,L|196:172,1,200,4|0,0:0|0:0,0:0:0:0:
116,264,199996,2,0,P|68:184|108:92,1,200,4|0,0:0|0:0,0:0:0:0:
256,32,201224,6,0,L|420:56,1,160,4|0,0:0|0:0,0:0:0:0:
496,144,202178,2,0,B|528:244|456:244|504:344,1,200,4|0,0:0|0:0,0:0:0:0:
388,300,203269,2,0,P|300:281|196:312,1,200,4|0,0:0|0:0,0:0:0:0:
92,368,204360,2,0,L|68:168,1,200,4|0,0:0|0:0,0:0:0:0:
180,52,205587,6,0,P|256:28|340:28,1,160,4|0,0:0|0:0,0:0:0:0:
428,104,206542,2,0,P|420:204|336:224,1,200,4|0,0:0|0:0,0:0:0:0:
232,160,207633,2,0,L|32:192,1,200,4|0,0:0|0:0,0:0:0:0:
16,312,208724,2,0,L|214:281,1,200,4|0,0:0|0:0,0:0:0:0:
356,352,209951,5,4,0:0:0:0:
256,336,218678,6,0,L|96:356,1,160,4|8,0:0|0:0,0:0:0:0:
8,224,219769,2,0,L|168:244,1,160,0|8,0:0|0:0,0:0:0:0:
320,192,220860,1,4,0:0:0:0:
196,88,221405,1,8,0:0:0:0:
348,40,221951,2,0,B|432:56|432:56|492:104,1,160,0|8,0:0|0:0,0:0:0:0:
468,260,223042,6,0,L|308:276,1,160,4|8,0:0|0:0,0:0:0:0:
176,368,224133,2,0,L|16:352,1,160,0|8,0:0|0:0,0:0:0:0:
60,196,225224,1,4,0:0:0:0:
216,164,225769,1,8,0:0:0:0:
284,308,226314,2,0,P|396:308|456:168,1,280,0|8,0:0|0:0,0:0:0:0:
