osu file format v14

[General]
AudioFilename: audio.mp3
AudioLeadIn: 0
PreviewTime: 100952
Countdown: 0
SampleSet: Soft
StackLeniency: 0.7
Mode: 0
LetterboxInBreaks: 0
WidescreenStoryboard: 1

[Editor]
Bookmarks: 13369,46702,68036,78702,89369,144036
DistanceSpacing: 1.3
BeatDivisor: 4
GridSize: 4
TimelineZoom: 1.2

[Metadata]
Title:Divine Attack - Shingeki - (Cut Ver.)
TitleUnicode:Divine Attack - 神撃 - (Cut Ver.)
Artist:BABYMETAL
ArtistUnicode:BABYMETAL
Creator:Log Off Now
Version:Hard
Source:
Tags:japanese god metal the other one akitoshi corinn -laura- blitzifyyy
BeatmapID:3982983
BeatmapSetID:1907043

[Difficulty]
HPDrainRate:4.5
CircleSize:3.6
OverallDifficulty:7
ApproachRate:8
SliderMultiplier:1.6
SliderTickRate:1

[Events]
//Background and Video events
0,0,"divine-attack.jpg",0,0
//Break Periods
//Storyboard Layer 0 (Background)
//Storyboard Layer 1 (Fail)
//Storyboard Layer 2 (Pass)
//Storyboard Layer 3 (Foreground)
//Storyboard Layer 4 (Overlay)
//Storyboard Sound Samples

[TimingPoints]
2703,333.333333333333,4,2,1,75,1,0
2703,-100,4,2,1,75,0,0
13369,-111.111111111111,4,2,2,60,0,0
34702,-100,4,2,1,70,0,0
45369,-125,4,2,1,70,0,0
46369,-100,4,2,1,75,0,0
46702,-90.9090909090909,4,2,1,90,0,1
67702,-100,4,2,1,90,0,0
68036,-100,4,2,1,80,0,0
88702,-100,4,2,1,80,0,0
89369,-100,4,2,1,80,0,0
100036,-125,4,2,1,80,0,0
101036,-90.9090909090909,4,2,1,80,0,0
101369,-90.9090909090909,4,2,1,80,0,1
144036,-100,4,2,1,80,0,0

[Colours]
Combo1 : 199,186,175
Combo2 : 234,223,151
Combo3 : 230,149,100
Combo4 : 249,104,104

[HitObjects]
323,296,2702,6,0,P|273:281|149:253,1,160,4|0,1:2|0:0,0:0:0:0:
87,308,3202,2,0,P|131:261|84:167,1,160,4|0,1:2|0:0,0:0:0:0:
46,100,3702,2,0,B|100:82|100:82|145:102|145:102|199:87,1,160,4|0,1:2|0:0,0:0:0:0:
262,17,4202,2,0,B|306:57|306:57|269:159,1,160,4|0,1:2|0:0,0:0:0:0:
198,213,4702,5,8,1:2:0:0:
198,213,4869,1,0,1:0:0:0:
262,284,5036,2,0,P|306:269|347:257,1,80,8|0,1:2|1:0,0:0:0:0:
419,310,5369,6,0,P|380:267|410:157,1,160,4|0,1:2|0:0,0:0:0:0:
461,104,5869,2,0,L|282:151,1,160,4|0,1:2|0:0,0:0:0:0:
231,83,6369,2,0,B|199:124|199:124|250:249,1,160,4|0,1:2|0:0,0:0:0:0:
322,273,6869,2,0,B|288:306|284:342|284:342|253:316|191:312,1,160,4|0,1:2|0:0,0:0:0:0:
147,241,7369,6,0,L|129:198,3,40,8|8|0|0,0:0|0:0|1:0|1:0,0:0:0:0:
114,278,7702,2,0,L|96:321,3,40,8|8|4|4,0:3|0:3|0:3|0:3,0:0:0:0:
86,353,8036,6,0,P|41:351|30:240,1,160,4|0,1:2|0:0,0:0:0:0:
86,190,8536,2,0,P|62:130|24:36,1,160,4|0,1:2|0:0,0:0:0:0:
116,7,9036,2,0,B|207:23|148:66|261:85,1,160,4|0,1:2|0:0,0:0:0:0:
332,31,9536,2,0,P|278:71|316:154,1,160,4|0,1:2|0:0,0:0:0:0:
375,213,10036,5,8,1:2:0:0:
375,213,10202,1,0,1:0:0:0:
449,152,10369,2,0,P|464:100|478:44,1,80,8|0,1:2|1:0,0:0:0:0:
402,6,10702,6,0,P|382:76|357:161,1,160,4|0,1:2|0:0,0:0:0:0:
389,250,11202,2,0,P|365:208|253:209,1,160,4|0,1:2|0:0,0:0:0:0:
197,272,11702,2,0,B|174:296|163:346|163:346|121:311|64:303,1,160,4|0,1:2|0:0,0:0:0:0:
33,235,12202,2,0,P|79:175|169:188,1,160,4|0,1:2|1:0,0:0:0:0:
206,261,12702,6,0,L|189:306,3,40,8|8|0|0,0:0|0:0|1:0|1:0,0:0:0:0:
214,341,13036,2,0,L|246:362,3,40,8|8|4|4,0:3|0:3|0:3|0:3,0:0:0:0:
295,369,13369,6,0,P|344:346|354:319,1,71.9999978027344,2|0,0:0|3:0,0:0:0:0:
319,249,13702,1,8,0:0:0:0:
319,249,13869,1,2,0:0:0:0:
379,184,14036,2,0,P|436:177|474:260,1,143.999995605469,2|0,0:0|3:0,0:0:0:0:
444,330,14536,1,2,0:0:0:0:
350,332,14702,6,0,P|295:351|194:381,1,143.999995605469,2|8,1:2|0:0,0:0:0:0:
141,315,15202,1,2,0:0:0:0:
205,246,15369,2,0,P|234:195|179:108,1,143.999995605469,2|0,0:0|3:0,0:0:0:0:
114,150,15869,1,2,0:0:0:0:
37,96,16036,6,0,P|10:50|20:15,1,71.9999978027344,2|0,1:2|3:0,0:0:0:0:
105,39,16369,2,0,P|76:122|51:203,1,143.999995605469,10|0,0:0|3:0,0:0:0:0:
35,265,16869,2,0,P|69:301|114:297,1,71.9999978027344,8|0,0:0|3:0,0:0:0:0:
175,267,17202,1,0,3:0:0:0:
238,352,17369,5,2,1:2:0:0:
238,352,17452,1,0,3:0:0:0:
238,352,17536,1,0,3:0:0:0:
320,307,17702,2,0,P|337:249|369:150,1,143.999995605469,8|2,0:0|0:0,0:0:0:0:
317,87,18202,1,8,0:0:0:0:
394,34,18369,2,0,P|388:14|382:-2,2,35.9999989013672,2|0|0,3:2|3:0|3:0,0:0:0:0:
468,91,18702,6,0,P|488:135|469:185,1,71.9999978027344,0|2,1:0|0:0,0:0:0:0:
441,241,19036,1,8,0:0:0:0:
359,196,19202,1,2,0:0:0:0:
286,255,19369,2,0,B|234:272|234:272|213:316|213:316|151:340,1,143.999995605469,2|0,0:0|3:0,0:0:0:0:
91,289,19869,1,2,3:2:0:0:
145,212,20036,6,0,P|174:157|121:70,1,143.999995605469,2|8,1:2|0:0,0:0:0:0:
56,101,20536,1,2,0:0:0:0:
56,101,20702,2,0,P|35:144|46:186,1,71.9999978027344,2|8,0:0|0:0,0:0:0:0:
61,257,21036,2,0,L|43:300,2,35.9999989013672,0|0|2,3:0|3:0|3:2,0:0:0:0:
150,227,21369,6,0,P|191:213|249:230,1,71.9999978027344,2|0,1:2|3:0,0:0:0:0:
253,302,21702,2,0,P|275:243|324:144,1,143.999995605469,10|0,0:0|3:0,0:0:0:0:
262,88,22202,2,0,P|335:62|359:52,1,71.9999978027344,8|0,0:0|3:0,0:0:0:0:
401,2,22536,1,0,3:0:0:0:
483,64,22702,5,0,1:0:0:0:
483,64,22786,1,0,0:0:0:0:
483,64,22869,1,0,3:0:0:0:
417,131,23036,1,8,0:0:0:0:
503,166,23202,2,0,P|426:194|359:222,1,143.999995605469,0|8,3:0|0:0,0:0:0:0:
290,270,23702,2,0,P|263:259|234:249,2,35.9999989013672,2|0|2,0:0|0:0|0:0,0:0:0:0:
338,356,24036,5,2,1:2:0:0:
338,356,24202,1,2,0:0:0:0:
417,305,24369,2,0,P|461:255|436:158,1,143.999995605469,10|0,0:0|0:0,0:0:0:0:
378,127,24869,1,10,0:0:0:0:
306,187,25036,1,2,0:0:0:0:
306,187,25202,1,2,0:0:0:0:
224,140,25369,6,0,P|205:75|194:44,1,71.9999978027344,2|2,1:2|0:0,0:0:0:0:
121,25,25702,2,0,P|66:25|53:116,1,143.999995605469,10|0,0:0|3:0,0:0:0:0:
82,184,26202,1,10,0:2:0:0:
163,133,26369,1,2,0:0:0:0:
163,133,26452,1,0,0:0:0:0:
163,133,26536,1,2,0:0:0:0:
221,205,26702,6,0,P|202:270|193:297,1,71.9999978027344,2|0,1:2|3:0,0:0:0:0:
262,345,27036,2,0,P|217:369|179:369,1,71.9999978027344,10|0,0:0|3:0,0:0:0:0:
111,331,27369,2,0,P|65:301|34:300,1,71.9999978027344,2|8,0:0|0:0,0:0:0:0:
10,213,27702,2,0,P|35:160|125:160,1,143.999995605469,2|2,0:0|1:2,0:0:0:0:
172,225,28202,5,2,0:0:0:0:
248,170,28369,2,0,B|299:187|299:187|318:222|318:222|378:240,1,143.999995605469,10|0,0:0|3:0,0:0:0:0:
448,191,28869,1,10,0:0:0:0:
417,112,29036,1,2,0:0:0:0:
417,112,29119,1,0,0:0:0:0:
417,112,29202,1,2,0:0:0:0:
331,151,29369,6,0,L|347:196,2,35.9999989013672,2|0|2,1:2|0:0|0:0,0:0:0:0:
291,65,29702,2,0,P|238:17|145:39,1,143.999995605469,10|0,0:0|3:0,0:0:0:0:
103,88,30202,1,10,0:0:0:0:
156,164,30369,2,0,P|178:211|164:250,1,71.9999978027344,2|2,0:0|0:0,0:0:0:0:
117,304,30702,5,2,1:2:0:0:
117,304,30869,1,2,0:0:0:0:
180,372,31036,2,0,P|218:353|344:312,1,143.999995605469,10|0,0:0|3:0,0:0:0:0:
376,249,31536,1,10,0:0:0:0:
324,177,31702,1,2,0:0:0:0:
324,177,31869,1,2,0:0:0:0:
247,231,32036,6,0,P|205:248|163:260,1,71.9999978027344,2|0,1:2|3:0,0:0:0:0:
90,226,32369,2,0,P|55:184|55:156,1,71.9999978027344,10|0,0:0|3:0,0:0:0:0:
113,97,32702,2,0,P|155:114|194:128,1,71.9999978027344,2|8,0:0|0:0,0:0:0:0:
244,192,33036,2,0,P|281:179|370:154,1,107.999996704102,2|0,0:0|0:0,0:0:0:0:
393,150,33369,6,0,P|437:193|419:291,1,143.999995605469,2|8,1:2|0:0,0:0:0:0:
401,363,33869,1,2,0:0:0:0:
401,363,33952,1,2,0:0:0:0:
401,363,34036,1,2,0:0:0:0:
317,295,34202,2,0,B|304:250|304:250|314:224|314:224|296:200|296:200|285:162,1,143.999995605469,8|2,0:0|3:2,0:0:0:0:
344,76,34702,6,0,B|288:51|288:51|244:76|192:90,1,160,4|8,1:2|0:0,0:0:0:0:
119,32,35202,2,0,P|164:104|103:177,1,160,4|0,1:2|0:0,0:0:0:0:
59,225,35702,2,0,L|13:212,3,40,8|8|8|8,0:0|0:0|0:0|0:0,0:0:0:0:
74,259,36036,6,0,L|232:306,1,160,4|8,1:2|0:0,0:0:0:0:
291,376,36536,2,0,P|336:364|371:355,1,80,4|0,1:2|0:0,0:0:0:0:
417,276,36869,1,8,0:0:0:0:
417,276,36952,1,8,0:0:0:0:
417,276,37036,2,0,L|466:294,3,40,8|8|4|4,0:3|0:3|0:3|0:3,0:0:0:0:
501,301,37369,6,0,P|483:232|457:118,1,160,4|8,1:2|0:0,0:0:0:0:
493,54,37869,2,0,P|459:111|348:97,1,160,4|0,1:2|0:0,0:0:0:0:
302,50,38369,6,0,L|252:66,3,40,8|8|8|8,0:0|0:0|0:0|0:0,0:0:0:0:
228,95,38702,2,0,L|178:79,3,40,0|0|0|0,1:0|1:0|1:0|1:0,0:0:0:0:
171,49,39036,5,8,0:0:0:0:
171,49,39119,1,8,0:0:0:0:
171,49,39202,1,8,0:0:0:0:
101,115,39369,6,0,L|58:102,2,40,8|8|8,0:3|0:3|0:3,0:0:0:0:
170,195,39702,5,4,0:3:0:0:
170,195,39785,1,4,0:3:0:0:
170,195,39868,1,4,0:3:0:0:
107,268,40036,6,0,P|154:286|257:324,1,160,4|8,1:2|0:0,0:0:0:0:
324,256,40536,2,0,P|304:289|398:357,1,160,4|0,1:2|0:0,0:0:0:0:
448,306,41036,2,0,L|430:259,3,40,8|8|8|8,0:0|0:0|0:0|0:0,0:0:0:0:
453,225,41369,6,0,L|398:66,1,160,4|8,1:2|0:0,0:0:0:0:
305,60,41869,2,0,L|336:149,1,80,4|0,1:2|0:0,0:0:0:0:
280,217,42202,1,8,0:0:0:0:
280,217,42286,1,8,0:0:0:0:
280,217,42369,2,0,L|295:261,3,40,8|8|4|4,0:3|0:3|0:3|0:3,0:0:0:0:
305,301,42702,6,0,P|264:361|172:364,1,160,4|8,1:2|0:0,0:0:0:0:
95,326,43202,2,0,P|113:286|140:158,1,160,4|0,1:2|0:0,0:0:0:0:
209,108,43702,6,0,L|193:58,3,40,8|8|8|8,0:0|0:0|0:0|0:0,0:0:0:0:
226,32,44035,2,0,L|267:10,3,40,0|0|0|0,1:0|1:0|1:0|1:0,0:0:0:0:
307,50,44369,5,8,0:0:0:0:
307,50,44452,1,8,0:0:0:0:
307,50,44535,1,8,0:0:0:0:
402,37,44702,6,0,L|415:-6,2,40,8|8|8,0:3|0:3|0:3,0:0:0:0:
461,125,45035,5,4,0:3:0:0:
461,125,45118,1,4,0:3:0:0:
461,125,45201,1,4,0:3:0:0:
357,193,45369,6,0,B|294:139|294:139|241:145,2,128,0|0|0,1:0|1:0|1:0,0:0:0:0:
448,272,46202,1,0,1:0:0:0:
448,272,46286,1,0,1:0:0:0:
448,272,46369,1,4,0:3:0:0:
268,382,46702,6,0,B|231:343|231:343|241:313|270:216,2,176.000005371094,6|8|2,1:2|0:0|0:3,0:0:0:0:
352,316,47536,1,0,1:0:0:0:
438,375,47702,2,0,P|456:330|448:278,1,88.000002685547,8|2,0:0|0:3,0:0:0:0:
376,216,48036,6,0,P|351:176|355:129,1,88.000002685547,0|2,1:2|0:3,0:0:0:0:
427,61,48369,2,0,P|324:93|227:118,1,176.000005371094,8|2,0:0|0:3,0:0:0:0:
167,56,48869,1,0,1:0:0:0:
95,133,49036,2,0,P|124:194|135:225,1,88.000002685547,10|0,0:0|0:0,0:0:0:0:
86,309,49369,6,0,P|117:257|231:272,1,176.000005371094,6|8,1:2|0:0,0:0:0:0:
281,350,49869,1,2,0:3:0:0:
281,350,50036,2,0,P|336:362|387:378,1,88.000002685547,2|0,0:3|1:0,0:0:0:0:
451,307,50369,2,0,B|465:261|486:202|486:202|447:176|424:149,1,176.000005371094,8|0,0:0|1:0,0:0:0:0:
369,84,50869,1,2,0:3:0:0:
369,84,51036,2,0,P|339:124|342:194,1,88.000002685547,8|2,0:0|0:3,0:0:0:0:
379,256,51369,6,0,P|343:214|227:237,1,176.000005371094,2|8,0:0|0:0,0:0:0:0:
182,322,51869,1,2,0:0:0:0:
105,248,52036,2,0,P|83:182|43:70,1,176.000005371094,6|8,1:2|0:0,0:0:0:0:
131,17,52536,1,2,0:3:0:0:
131,17,52702,2,0,P|145:58|159:100,1,88.000002685547,2|0,0:3|1:0,0:0:0:0:
235,175,53036,2,0,P|249:133|263:91,1,88.000002685547,8|2,0:0|0:3,0:0:0:0:
346,25,53369,5,2,1:2:0:0:
429,89,53536,1,2,0:2:0:0:
354,163,53702,1,8,0:2:0:0:
427,238,53869,2,0,P|469:224|511:210,2,88.000002685547,2|2|2,0:2|0:0|1:2,0:0:0:0:
376,330,54369,1,10,0:0:0:0:
283,277,54536,6,0,P|255:203|215:98,1,176.000005371094,2|2,0:0|0:0,0:0:0:0:
140,42,55036,1,8,0:0:0:0:
140,42,55202,2,0,P|85:77|114:200,1,176.000005371094,2|2,0:0|1:2,0:0:0:0:
163,253,55702,1,8,0:0:0:0:
247,188,55869,1,2,0:0:0:0:
247,188,56036,1,2,1:2:0:0:
320,263,56202,5,8,0:0:0:0:
320,263,56286,1,8,0:0:0:0:
320,263,56369,2,0,L|302:317,2,44.0000013427735,8|8|0,0:0|0:0|1:0,0:0:0:0:
404,326,56702,2,0,L|386:380,2,44.0000013427735,8|8|0,0:0|0:0|1:0,0:0:0:0:
494,269,57036,1,8,0:0:0:0:
494,269,57119,1,8,0:0:0:0:
494,269,57202,1,8,0:0:0:0:
414,199,57369,6,0,P|392:143|475:50,1,176.000005371094,6|8,1:2|0:0,0:0:0:0:
357,8,57869,1,2,0:3:0:0:
357,8,58036,2,0,P|297:34|260:46,1,88.000002685547,2|0,0:3|1:0,0:0:0:0:
175,7,58369,2,0,P|227:43|205:152,1,176.000005371094,8|0,0:0|1:0,0:0:0:0:
132,210,58869,5,2,0:3:0:0:
132,210,59036,2,0,B|98:152|75:133|75:133|108:105|155:86,1,176.000005371094,8|2,0:0|0:3,0:0:0:0:
207,7,59536,1,0,1:0:0:0:
286,76,59702,2,0,P|267:139|255:169,1,88.000002685547,10|0,0:0|0:0,0:0:0:0:
208,253,60036,6,0,P|265:203|370:229,1,176.000005371094,6|8,1:2|0:0,0:0:0:0:
428,304,60536,1,2,0:3:0:0:
428,304,60702,2,0,P|461:259|470:221,1,88.000002685547,2|0,0:3|1:0,0:0:0:0:
414,137,61036,2,0,B|367:97|367:97|332:121|246:154,1,176.000005371094,8|0,0:0|1:0,0:0:0:0:
171,108,61536,1,2,0:3:0:0:
171,108,61702,2,0,P|160:165|194:218,1,88.000002685547,8|2,0:0|0:3,0:0:0:0:
238,272,62036,6,0,P|167:246|65:214,1,176.000005371094,2|8,0:0|0:0,0:0:0:0:
26,313,62536,1,2,0:0:0:0:
26,313,62702,2,0,P|47:364|173:331,1,176.000005371094,6|8,1:2|0:0,0:0:0:0:
210,274,63202,1,2,0:3:0:0:
210,274,63369,2,0,P|191:221|182:181,1,88.000002685547,2|0,0:3|1:0,0:0:0:0:
100,124,63702,2,0,P|150:85|198:90,1,88.000002685547,8|2,0:0|0:3,0:0:0:0:
266,133,64036,5,2,1:2:0:0:
352,71,64203,1,2,0:0:0:0:
425,145,64369,1,8,0:0:0:0:
376,238,64536,2,0,P|390:280|404:322,2,88.000002685547,2|2|2,0:0|0:0|1:2,0:0:0:0:
293,171,65036,1,10,0:0:0:0:
220,246,65202,5,2,1:2:0:0:
220,246,65286,1,0,1:2:0:0:
220,246,65369,2,0,P|168:266|123:288,1,88.000002685547,10|2,0:0|1:2,0:0:0:0:
65,202,65703,1,0,1:2:0:0:
106,105,65869,2,0,B|138:78|165:77|165:77|205:109|273:115,1,176.000005371094,10|2,0:0|1:2,0:0:0:0:
359,62,66369,1,8,0:0:0:0:
359,62,66536,1,0,1:0:0:0:
440,128,66702,5,10,0:0:0:0:
374,212,66869,1,8,0:3:0:0:
374,212,66952,1,8,0:3:0:0:
374,212,67036,1,4,0:3:0:0:
288,150,67202,1,6,1:2:0:0:
212,224,67369,2,0,L|227:273,3,44.0000013427735,0|0|2|0,3:2|3:0|1:2|1:0,0:0:0:0:
242,310,67702,1,8,0:0:0:0:
98,182,68036,6,0,P|56:168|3:151,2,80,6|2|10,1:2|0:0|0:0,0:0:0:0:
182,132,68536,1,2,0:3:0:0:
182,132,68702,1,2,0:3:0:0:
241,207,68869,1,0,1:0:0:0:
177,279,69036,6,0,P|163:321|146:374,2,80,8|2|0,0:0|0:0|1:0,0:0:0:0:
221,193,69536,2,0,P|207:151|190:98,2,80,2|8|2,0:0|0:0|0:0,0:0:0:0:
276,271,70036,2,0,P|329:287|360:297,1,80,2|0,0:0|1:2,0:0:0:0:
402,311,70286,1,0,1:2:0:0:
402,311,70369,2,0,P|430:277|422:231,1,80,10|0,0:0|0:0,0:0:0:0:
373,163,70702,6,0,P|331:177|278:194,2,80,2|2|10,1:2|0:0|0:0,0:0:0:0:
430,86,71202,1,2,0:3:0:0:
430,86,71368,1,2,0:3:0:0:
339,54,71535,1,0,1:0:0:0:
254,100,71702,6,0,P|240:58|223:5,2,80,8|2|0,0:0|0:0|1:0,0:0:0:0:
203,181,72202,2,0,P|189:223|172:276,2,80,2|8|2,0:0|0:0|0:0,0:0:0:0:
123,126,72702,2,0,P|116:105|107:78,2,40,0|0|0,1:0|1:0|1:0,0:0:0:0:
74,212,73036,1,8,1:2:0:0:
74,212,73119,1,0,1:0:0:0:
74,212,73202,1,0,1:0:0:0:
136,285,73369,6,0,P|122:327|105:380,2,80,6|2|10,1:2|0:0|0:0,0:0:0:0:
218,233,73869,1,2,0:3:0:0:
218,233,74035,1,2,0:3:0:0:
272,312,74202,1,0,1:0:0:0:
353,261,74369,6,0,P|395:275|448:292,2,80,8|2|0,0:0|0:0|1:0,0:0:0:0:
293,185,74869,2,0,P|251:199|198:216,2,80,2|8|2,0:0|0:0|0:0,0:0:0:0:
360,116,75369,2,0,P|413:132|444:142,1,80,2|2,0:0|1:2,0:0:0:0:
483,152,75619,1,0,1:0:0:0:
483,152,75702,2,0,P|497:193|474:234,1,80,10|0,0:0|0:0,0:0:0:0:
427,302,76035,6,0,P|441:344|458:397,2,80,2|2|10,1:2|0:0|0:0,0:0:0:0:
357,243,76535,1,2,0:3:0:0:
357,243,76701,1,2,0:3:0:0:
397,155,76868,1,0,1:0:0:0:
321,94,77036,6,0,L|272:110,3,40,10|2|2|2,0:0|0:0|0:0|0:0,0:0:0:0:
249,140,77369,2,0,L|200:124,3,40,2|2|10|10,1:2|1:2|0:0|0:0,0:0:0:0:
173,97,77702,2,0,L|124:113,3,40,8|8|4|4,0:3|0:3|0:3|0:3,0:0:0:0:
96,139,78036,2,0,B|23:119|9:115|9:115|-8:80,2,120,10|10|10,1:2|1:2|1:2,0:0:0:0:
162,208,78702,6,0,P|182:252|168:292,1,80,2|0,1:2|1:0,0:0:0:0:
129,366,79036,1,8,1:2:0:0:
55,304,79202,2,0,B|32:245|12:199|12:199|31:184|55:162,1,160,2|0,1:2|1:0,0:0:0:0:
106,93,79702,1,10,1:2:0:0:
106,93,79786,1,0,1:0:0:0:
106,93,79869,1,0,1:0:0:0:
158,173,80036,5,0,1:0:0:0:
245,134,80202,2,0,B|289:149|333:177|333:177|369:169|386:117,1,160,2|0,1:2|1:0,0:0:0:0:
359,42,80702,2,0,L|314:58,3,40,2|0|0|0,1:2|1:0|1:0|1:0,0:0:0:0:
273,51,81036,2,0,L|228:35,3,40,10|0|0|0,1:2|1:0|1:0|1:0,0:0:0:0:
188,25,81369,6,0,P|149:59|172:167,1,160,2|8,1:2|1:2,0:0:0:0:
222,232,81869,1,2,1:2:0:0:
222,232,82036,1,0,1:0:0:0:
298,175,82202,1,0,1:0:0:0:
372,235,82369,2,0,P|361:278|352:320,1,80,10|0,1:2|1:0,0:0:0:0:
278,372,82702,1,0,1:0:0:0:
206,307,82869,6,0,B|200:259|184:238|184:238|192:221|213:196|213:196|186:118|53:167|53:167|107:214|107:214|97:174,1,400,2|8,1:2|1:2,0:0:0:0:
77,111,83869,5,0,1:0:0:0:
77,111,83952,1,0,1:0:0:0:
77,111,84036,2,0,P|57:60|41:10,2,80,6|0|8,1:2|1:0|1:2,0:0:0:0:
173,116,84536,2,0,P|193:65|209:15,2,80,2|0|0,1:2|1:0|1:0,0:0:0:0:
122,197,85036,5,10,1:2:0:0:
122,197,85202,1,0,1:0:0:0:
185,268,85369,1,0,1:0:0:0:
266,217,85536,2,0,B|369:244|292:280|415:305,1,160,2|0,1:2|1:0,0:0:0:0:
477,250,86036,2,0,P|497:196|482:160,1,80,2|0,1:2|1:0,0:0:0:0:
425,114,86369,1,10,1:2:0:0:
425,114,86536,1,0,1:0:0:0:
351,174,86702,6,0,L|363:220,2,40,10|10|2,0:0|0:0|1:2,0:0:0:0:
283,105,87036,5,10,0:0:0:0:
283,105,87119,1,10,0:0:0:0:
283,105,87202,2,0,L|295:59,2,40,10|10|2,0:0|0:0|1:2,0:0:0:0:
222,181,87536,5,10,0:0:0:0:
222,181,87619,1,10,0:0:0:0:
222,181,87702,2,0,L|234:227,2,40,10|10|2,0:0|0:0|1:2,0:0:0:0:
144,122,88036,6,0,B|173:34|173:34|141:44,2,120,10|10|10,1:2|1:2|1:2,0:0:0:0:
65,177,88702,2,0,P|111:152|131:279,1,240,4|0,1:2|0:0,0:0:0:0:
71,347,89369,6,0,B|103:337|127:322|127:322|171:347|223:361,1,160,4|8,1:2|0:0,0:0:0:0:
305,319,89869,2,0,P|344:261|309:177,1,160,4|0,1:2|0:0,0:0:0:0:
229,138,90369,2,0,L|182:153,3,40,8|8|8|8,0:0|0:0|0:0|0:0,0:0:0:0:
163,190,90703,6,0,B|45:162|45:162|16:132,1,160,4|8,1:2|0:0,0:0:0:0:
5,38,91203,2,0,P|41:14|85:17,1,80,4|0,1:2|0:0,0:0:0:0:
152,89,91536,1,8,0:0:0:0:
152,89,91619,1,8,0:0:0:0:
152,89,91703,2,0,L|134:138,3,40,8|8|4|4,0:3|0:3|0:3|0:3,0:0:0:0:
106,163,92036,6,0,P|125:241|144:318,1,160,4|8,1:2|0:0,0:0:0:0:
231,359,92536,2,0,P|281:315|248:208,1,160,6|0,1:2|0:0,0:0:0:0:
202,162,93036,6,0,L|187:110,3,40,8|8|8|8,0:0|0:0|0:0|0:0,0:0:0:0:
159,87,93369,2,0,L|174:35,3,40,0|0|0|0,1:0|1:0|1:0|1:0,0:0:0:0:
209,18,93703,5,8,0:0:0:0:
209,18,93786,1,8,0:0:0:0:
209,18,93869,1,8,0:0:0:0:
280,82,94036,6,0,L|291:120,2,40,8|8|8,0:3|0:3|0:3,0:0:0:0:
363,29,94369,5,4,0:3:0:0:
363,29,94452,1,4,0:3:0:0:
363,29,94535,1,4,0:3:0:0:
436,92,94703,6,0,P|387:138|401:243,1,160,4|8,1:2|0:0,0:0:0:0:
476,266,95203,2,0,B|439:266|395:246|395:246|377:287|338:308,1,160,4|0,1:2|0:0,0:0:0:0:
269,360,95703,2,0,L|231:345,3,40,8|8|8|8,0:0|0:0|0:0|0:0,0:0:0:0:
185,329,96036,6,0,P|152:244|189:186,1,160,4|8,1:2|0:0,0:0:0:0:
264,136,96536,2,0,P|280:94|260:50,1,80,4|0,1:2|0:0,0:0:0:0:
195,20,96869,1,8,0:0:0:0:
195,20,96953,1,8,0:0:0:0:
195,20,97036,2,0,L|151:35,3,40,8|8|4|4,0:3|0:3|0:3|0:3,0:0:0:0:
113,53,97369,6,0,P|87:95|137:203,1,160,4|8,1:2|0:0,0:0:0:0:
195,252,97869,2,0,P|235:234|363:207,1,160,4|0,1:2|0:0,0:0:0:0:
426,263,98369,6,0,L|410:313,3,40,8|8|8|8,0:0|0:0|0:0|0:0,0:0:0:0:
395,345,98702,2,0,L|354:363,3,40,0|0|0|0,1:0|1:0|1:0|1:0,0:0:0:0:
322,346,99036,5,8,0:0:0:0:
322,346,99119,1,8,0:0:0:0:
322,346,99202,1,8,0:0:0:0:
250,282,99369,6,0,L|263:239,2,40,8|8|8,0:3|0:3|0:3,0:0:0:0:
182,349,99702,5,4,0:3:0:0:
182,349,99785,1,4,0:3:0:0:
182,349,99868,1,4,0:3:0:0:
117,276,100036,6,0,B|92:195|92:195|127:142,2,128,0|0|0,1:0|1:0|1:0,0:0:0:0:
213,247,100869,1,0,1:0:0:0:
213,247,100953,1,0,1:0:0:0:
213,247,101036,1,4,0:3:0:0:
312,332,101369,6,0,B|510:380,2,176.000005371094,6|8|2,1:2|0:0|0:3,0:0:0:0:
252,244,102203,1,0,1:0:0:0:
329,173,102369,2,0,P|347:128|328:79,1,88.000002685547,8|2,0:0|0:3,0:0:0:0:
254,24,102703,2,0,P|210:23|174:47,1,88.000002685547,0|2,1:2|0:3,0:0:0:0:
80,97,103036,2,0,B|105:113|127:174|127:174|184:127|239:134,1,176.000005371094,8|2,0:0|0:3,0:0:0:0:
280,205,103536,1,0,1:0:0:0:
230,298,103703,2,0,P|184:286|126:271,1,88.000002685547,10|0,0:0|0:0,0:0:0:0:
73,353,104036,6,0,P|110:283|69:175,1,176.000005371094,6|8,1:2|0:0,0:0:0:0:
147,106,104536,1,2,0:3:0:0:
211,189,104703,2,0,P|266:201|317:217,1,88.000002685547,2|0,0:3|1:0,0:0:0:0:
369,133,105036,2,0,B|380:147|419:173|419:173|398:232|384:278,1,176.000005371094,8|0,0:0|1:0,0:0:0:0:
318,362,105536,1,2,0:3:0:0:
318,362,105702,2,0,P|275:353|241:326,1,88.000002685547,8|2,0:0|0:3,0:0:0:0:
168,248,106036,6,0,P|192:189|216:68,1,176.000005371094,2|8,0:0|0:0,0:0:0:0:
296,12,106536,1,2,0:0:0:0:
358,96,106702,2,0,P|351:150|242:163,1,176.000005371094,4|8,1:2|0:0,0:0:0:0:
189,84,107203,1,2,0:3:0:0:
189,84,107369,2,0,P|139:64|89:90,1,88.000002685547,2|0,0:3|1:0,0:0:0:0:
45,158,107703,2,0,P|59:200|73:242,1,88.000002685547,8|2,0:0|0:3,0:0:0:0:
106,341,108036,5,2,1:2:0:0:
194,283,108203,1,2,0:2:0:0:
262,362,108369,1,8,0:2:0:0:
357,316,108536,2,0,P|399:330|441:344,2,88.000002685547,2|2|2,0:2|0:0|1:2,0:0:0:0:
305,223,109036,1,10,0:0:0:0:
398,173,109203,6,0,P|418:97|318:41,1,176.000005371094,2|2,0:0|0:0,0:0:0:0:
269,103,109702,1,8,0:0:0:0:
269,103,109869,2,0,P|212:88|175:81,1,88.000002685547,2|0,0:0|0:0,0:0:0:0:
109,6,110202,2,0,P|135:80|176:196,1,176.000005371094,2|2,1:2|0:0,0:0:0:0:
88,243,110703,1,2,1:2:0:0:
154,337,110869,5,8,0:0:0:0:
154,337,110953,1,8,0:0:0:0:
154,337,111036,2,0,L|136:391,2,44.0000013427735,8|8|0,0:0|0:0|1:0,0:0:0:0:
243,280,111369,2,0,L|225:226,2,44.0000013427735,8|8|0,0:0|0:0|1:0,0:0:0:0:
331,357,111703,1,8,0:0:0:0:
331,357,111786,1,8,0:0:0:0:
331,357,111869,1,8,0:0:0:0:
403,280,112036,6,0,B|387:215|387:215|351:184|351:184|334:111,1,176.000005371094,6|8,1:2|0:2,0:0:0:0:
380,27,112536,1,2,0:3:0:0:
380,27,112703,2,0,P|438:30|469:85,1,88.000002685547,2|0,0:3|1:0,0:0:0:0:
446,154,113036,2,0,P|380:185|282:237,1,176.000005371094,8|0,0:0|1:0,0:0:0:0:
244,329,113536,5,2,0:3:0:0:
244,329,113702,2,0,P|189:269|216:159,1,176.000005371094,8|2,0:0|0:3,0:0:0:0:
279,110,114203,1,0,1:0:0:0:
220,22,114369,2,0,P|157:41|125:51,1,88.000002685547,10|0,0:0|0:0,0:0:0:0:
102,148,114702,6,0,P|193:119|285:92,1,176.000005371094,6|8,1:2|0:0,0:0:0:0:
371,144,115203,1,2,0:3:0:0:
371,144,115369,2,0,P|390:195|370:237,1,88.000002685547,2|0,0:3|1:0,0:0:0:0:
289,281,115703,2,0,B|241:241|241:241|259:203|276:112,1,176.000005371094,8|0,0:0|1:0,0:0:0:0:
245,34,116203,1,2,0:3:0:0:
245,34,116369,2,0,P|189:19|135:57,1,88.000002685547,8|2,0:0|0:3,0:0:0:0:
82,99,116703,6,0,P|112:180|138:265,1,176.000005371094,2|8,0:0|0:0,0:0:0:0:
104,368,117203,1,2,0:0:0:0:
104,368,117369,2,0,P|125:317|251:350,1,176.000005371094,6|8,1:2|0:0,0:0:0:0:
320,375,117869,1,2,0:3:0:0:
320,375,118036,2,0,P|364:345|374:290,1,88.000002685547,2|0,0:3|1:0,0:0:0:0:
310,229,118369,2,0,P|358:208|401:211,1,88.000002685547,8|2,0:0|0:3,0:0:0:0:
474,277,118703,5,2,1:2:0:0:
507,176,118870,1,2,0:0:0:0:
454,85,119036,1,8,0:0:0:0:
392,171,119203,2,0,P|350:185|308:199,2,88.000002685547,2|2|2,0:0|0:0|1:2,0:0:0:0:
351,73,119703,1,10,0:0:0:0:
259,116,119869,5,2,1:2:0:0:
259,116,119953,1,0,1:2:0:0:
259,116,120036,2,0,P|207:136|158:157,1,88.000002685547,10|2,0:0|1:2,0:0:0:0:
119,238,120370,1,0,1:2:0:0:
35,173,120536,2,0,P|14:124|112:37,1,176.000005371094,10|2,0:0|1:2,0:0:0:0:
160,115,121036,1,8,0:0:0:0:
160,115,121203,1,0,1:0:0:0:
232,38,121369,5,10,0:0:0:0:
323,109,121536,1,8,0:3:0:0:
323,109,121619,1,8,0:3:0:0:
323,109,121702,1,4,0:3:0:0:
248,183,121869,1,6,1:2:0:0:
332,246,122036,2,0,L|317:295,3,44.0000013427735,0|0|2|0,3:2|3:0|1:2|1:0,0:0:0:0:
304,339,122369,1,8,0:0:0:0:
95,368,122702,6,0,P|38:332|77:216,2,176.000005371094,6|8|2,1:2|0:0|0:3,0:0:0:0:
177,300,123536,1,0,1:0:0:0:
270,348,123702,2,0,P|316:365|362:382,1,88.000002685547,8|2,0:0|0:3,0:0:0:0:
445,326,124036,2,0,P|457:283|435:236,1,88.000002685547,0|2,1:2|0:3,0:0:0:0:
385,154,124369,2,0,B|328:177|328:177|307:222|307:222|214:261,1,176.000005371094,8|2,0:0|0:3,0:0:0:0:
160,196,124869,1,0,1:0:0:0:
160,196,125036,2,0,P|139:144|166:96,1,88.000002685547,10|0,0:0|0:0,0:0:0:0:
225,43,125369,6,0,B|290:60|329:97|329:97|377:74|375:24,1,176.000005371094,6|8,1:2|0:0,0:0:0:0:
468,20,125869,1,2,0:3:0:0:
498,121,126036,2,0,P|484:177|470:227,1,88.000002685547,2|0,0:3|1:0,0:0:0:0:
437,305,126369,2,0,P|350:320|307:216,1,176.000005371094,8|0,0:0|1:0,0:0:0:0:
339,160,126869,1,2,0:3:0:0:
339,160,127035,2,0,P|305:137|258:124,1,88.000002685547,8|2,0:0|0:3,0:0:0:0:
186,47,127369,6,0,P|218:107|141:207,1,176.000005371094,2|8,0:0|0:0,0:0:0:0:
98,120,127869,1,2,0:0:0:0:
19,191,128036,2,0,B|34:250|51:331|51:331|76:346|95:362,1,176.000005371094,6|8,1:2|0:0,0:0:0:0:
186,340,128536,1,2,0:3:0:0:
186,340,128702,2,0,P|228:306|230:250,1,88.000002685547,2|0,0:3|1:0,0:0:0:0:
158,201,129036,2,0,P|144:159|130:117,1,88.000002685547,8|2,0:0|0:3,0:0:0:0:
195,34,129369,5,2,1:2:0:0:
270,108,129536,1,2,0:2:0:0:
345,35,129702,1,8,0:2:0:0:
437,85,129869,2,0,B|461:46|461:46|442:3,2,88.000002685547,2|2|2,0:2|0:0|1:2,0:0:0:0:
362,159,130369,1,10,0:0:0:0:
434,235,130536,6,0,P|374:198|286:265,1,176.000005371094,2|2,0:0|0:0,0:0:0:0:
262,350,131035,1,8,0:0:0:0:
262,350,131202,2,0,P|205:335|168:328,1,88.000002685547,2|0,0:0|0:0,0:0:0:0:
80,374,131535,2,0,P|143:320|120:210,1,176.000005371094,2|2,1:2|0:0,0:0:0:0:
65,155,132036,1,2,1:2:0:0:
140,82,132202,5,8,0:0:0:0:
140,82,132286,1,8,0:0:0:0:
140,82,132369,2,0,L|122:28,2,44.0000013427735,8|8|0,0:0|0:0|1:0,0:0:0:0:
220,151,132702,2,0,L|202:205,2,44.0000013427735,8|8|0,0:0|0:0|1:0,0:0:0:0:
301,81,133036,1,8,0:0:0:0:
301,81,133119,1,8,0:0:0:0:
301,81,133202,1,8,0:0:0:0:
369,161,133369,6,0,P|401:230|300:289,1,176.000005371094,6|8,1:2|0:0,0:0:0:0:
260,222,133869,1,2,0:3:0:0:
260,222,134036,2,0,P|226:234|169:260,1,88.000002685547,2|0,0:3|1:0,0:0:0:0:
96,321,134369,2,0,P|127:255|155:156,1,176.000005371094,8|0,0:0|1:0,0:0:0:0:
70,101,134869,5,2,0:3:0:0:
70,101,135035,2,0,P|143:55|237:97,1,176.000005371094,8|2,0:0|0:3,0:0:0:0:
288,165,135536,1,0,1:0:0:0:
368,95,135702,2,0,P|431:114|463:124,1,88.000002685547,10|0,0:0|0:0,0:0:0:0:
501,214,136036,6,0,B|459:232|439:285|439:285|390:280|352:238,1,176.000005371094,6|8,1:2|0:0,0:0:0:0:
295,181,136536,1,2,0:3:0:0:
295,181,136702,2,0,P|244:162|202:182,1,88.000002685547,2|0,0:3|1:0,0:0:0:0:
140,249,137036,2,0,P|162:192|193:69,1,176.000005371094,8|0,0:0|1:0,0:0:0:0:
119,2,137536,1,2,0:3:0:0:
27,53,137702,2,0,P|12:109|50:163,1,88.000002685547,8|2,0:0|0:3,0:0:0:0:
98,208,138036,6,0,P|179:178|264:151,1,176.000005371094,2|8,0:0|0:0,0:0:0:0:
332,70,138536,1,2,0:0:0:0:
406,144,138702,2,0,P|382:208|345:322,1,176.000005371094,6|8,1:2|0:0,0:0:0:0:
268,379,139202,1,2,0:3:0:0:
268,379,139369,2,0,P|216:365|188:317,1,88.000002685547,2|0,0:3|1:0,0:0:0:0:
146,246,139702,2,0,P|169:209|184:155,1,88.000002685547,8|2,0:0|0:3,0:0:0:0:
104,93,140036,5,2,1:2:0:0:
196,41,140203,1,2,0:0:0:0:
275,109,140369,1,8,0:0:0:0:
378,86,140536,2,0,P|392:44|406:2,2,88.000002685547,2|2|2,0:0|0:0|1:2,0:0:0:0:
440,171,141036,1,10,0:0:0:0:
374,254,141202,5,2,1:2:0:0:
374,254,141286,1,0,1:2:0:0:
374,254,141369,2,0,P|354:202|333:153,1,88.000002685547,10|2,0:0|1:2,0:0:0:0:
260,103,141703,1,0,1:2:0:0:
185,177,141869,2,0,P|174:217|159:270,2,88.000002685547,10|0|2,0:0|1:0|1:2,0:0:0:0:
121,98,142369,1,8,0:0:0:0:
121,98,142536,1,0,1:0:0:0:
38,163,142702,5,10,0:0:0:0:
112,252,142869,1,8,0:3:0:0:
112,252,142952,1,8,0:3:0:0:
112,252,143036,1,4,0:3:0:0:
195,188,143202,1,6,1:2:0:0:
267,264,143369,2,0,L|316:279,3,44.0000013427735,0|0|2|0,3:2|3:0|1:2|1:0,0:0:0:0:
351,245,143702,1,8,0:0:0:0:
255,77,144036,5,4,0:0:0:0:
