osu file format v14

[General]
AudioFilename: audio.mp3
AudioLeadIn: 0
PreviewTime: 100952
Countdown: 0
SampleSet: Soft
StackLeniency: 0.7
Mode: 0
LetterboxInBreaks: 0
WidescreenStoryboard: 1

[Editor]
DistanceSpacing: 0.5
BeatDivisor: 4
GridSize: 4
TimelineZoom: 1.2

[Metadata]
Title:Divine Attack - Shingeki - (Cut Ver.)
TitleUnicode:Divine Attack - 神撃 - (Cut Ver.)
Artist:BABYMETAL
ArtistUnicode:BABYMETAL
Creator:Log Off Now
Version:Blitzifyyy's Insane
Source:
Tags:japanese god metal the other one akitoshi corinn -laura- blitzifyyy
BeatmapID:4020368
BeatmapSetID:1907043

[Difficulty]
HPDrainRate:5
CircleSize:3.6
OverallDifficulty:8
ApproachRate:8.8
SliderMultiplier:1.6
SliderTickRate:1

[Events]
//Background and Video events
0,0,"divine-attack.jpg",0,0
//Break Periods
2,13569,22907
//Storyboard Layer 0 (Background)
//Storyboard Layer 1 (Fail)
//Storyboard Layer 2 (Pass)
//Storyboard Layer 3 (Foreground)
//Storyboard Layer 4 (Overlay)
//Storyboard Sound Samples

[TimingPoints]
2703,333.333333333333,4,2,1,75,1,0
2703,-83.3333333333333,4,2,1,75,0,0
13369,-111.111111111111,4,2,2,60,0,0
34202,-90.9090909090908,4,2,2,60,0,0
34702,-83.3333333333333,4,2,1,70,0,0
45369,-125,4,2,1,70,0,0
46369,-250.000000000001,4,2,1,75,0,0
46702,-71.4285714285715,4,2,1,90,0,1
67702,-71.4285714285715,4,2,1,90,0,0
68036,-83.3333333333333,4,2,1,80,0,0
78036,-125,4,2,1,80,0,0
78702,-83.3333333333333,4,2,1,80,0,0
88036,-125,4,2,1,80,0,0
88702,-100,4,2,1,80,0,0
89369,-83.3333333333333,4,2,1,80,0,0
100036,-125,4,2,1,80,0,0
101036,-250.000000000001,4,2,1,80,0,0
101369,-71.4285714285714,4,2,1,80,0,1
144036,-71.4285714285714,4,2,1,80,0,0

[Colours]
Combo1 : 199,186,175
Combo2 : 234,223,151
Combo3 : 230,149,100
Combo4 : 249,104,104

[HitObjects]
171,98,2702,6,0,P|240:60|258:128,1,160,4|0,1:2|0:0,0:0:0:0:
149,199,3202,2,0,B|193:161|254:190|224:209|293:240|333:201,1,191.999994140625,4|0,1:2|0:0,0:0:0:0:
431,133,3702,2,0,B|406:117|395:87|395:87|416:230,1,191.999994140625,4|0,1:2|0:0,0:0:0:0:
512,353,4202,2,0,B|458:333|434:296|434:296|426:337|371:376,1,191.999994140625,4|0,1:2|0:0,0:0:0:0:
192,238,4702,5,8,1:2:0:0:
344,284,4869,1,0,1:0:0:0:
278,165,5036,1,8,1:2:0:0:
254,339,5202,1,0,1:0:0:0:
342,94,5369,6,0,P|251:75|184:139,1,191.999994140625,4|0,1:2|0:0,0:0:0:0:
112,279,5869,2,0,B|142:243|194:239|194:239|142:243|104:207,1,191.999994140625,4|0,1:2|0:0,0:0:0:0:
14,351,6369,2,0,B|1:161|16:351|4:160,1,191.999994140625,4|0,1:2|0:0,0:0:0:0:
59,41,6869,2,0,B|101:-28|176:-3|176:-3|155:19|166:52,1,191.999994140625,4|0,1:2|0:0,0:0:0:0:
272,180,7369,5,8,0:0:0:0:
305,176,7452,1,8,0:0:0:0:
338,173,7535,1,0,1:0:0:0:
372,170,7618,1,0,1:0:0:0:
405,166,7702,2,0,L|458:163,3,47.9999985351563,8|8|4|4,0:3|0:3|0:3|0:3,0:0:0:0:
506,84,8036,6,0,P|494:195|493:279,1,191.999994140625,4|0,1:2|0:0,0:0:0:0:
359,363,8536,2,0,P|316:333|401:295,1,191.999994140625,4|0,1:2|0:0,0:0:0:0:
208,363,9036,2,0,B|200:229|200:229|211:263|229:278,1,191.999994140625,4|0,1:2|0:0,0:0:0:0:
380,184,9536,2,0,B|395:168|414:167|414:167|368:142|329:177|350:190|311:222|274:211,1,191.999994140625,4|0,1:2|0:0,0:0:0:0:
136,63,10036,5,8,1:2:0:0:
279,127,10202,1,0,1:0:0:0:
121,174,10369,1,8,1:2:0:0:
241,31,10536,1,0,1:0:0:0:
295,230,10702,6,0,B|239:233|213:194|213:194|212:244|152:278,1,191.999994140625,4|0,1:2|0:0,0:0:0:0:
46,371,11202,2,0,P|124:360|248:348,1,191.999994140625,4|0,1:2|0:0,0:0:0:0:
442,365,11702,2,0,P|398:379|411:278,1,191.999994140625,4|0,1:2|0:0,0:0:0:0:
506,188,12202,2,0,B|473:119|411:128|411:128|410:167|381:191,1,191.999994140625,4|0,1:2|1:0,0:0:0:0:
306,236,12619,1,0,1:0:0:0:
306,236,12702,6,0,P|285:233|255:229,3,47.9999985351563,8|8|0|0,0:0|0:0|1:0|1:0,0:0:0:0:
174,153,13036,1,8,0:3:0:0:
126,157,13119,1,8,0:3:0:0:
87,161,13202,1,4,0:3:0:0:
58,164,13286,1,4,0:3:0:0:
39,168,13369,5,2,0:0:0:0:
444,267,23536,6,0,P|479:254|517:247,2,71.9999978027344,8|2|2,0:0|0:0|0:0,0:0:0:0:
375,348,24036,2,0,P|340:335|302:328,1,71.9999978027344,2|2,1:2|0:0,0:0:0:0:
135,228,24369,2,0,B|285:212|136:234|286:216,1,143.999995605469,10|0,0:0|0:0,0:0:0:0:
482,142,24869,1,10,0:0:0:0:
444,267,25036,1,2,0:0:0:0:
444,267,25202,1,2,0:0:0:0:
351,76,25369,6,0,P|389:62|427:61,1,71.9999978027344,2|2,1:2|0:0,0:0:0:0:
278,187,25702,2,0,B|245:209|207:176|238:158|203:160|227:176|221:147|206:176|206:116|137:139,1,143.999995605469,10|0,0:0|3:0,0:0:0:0:
34,308,26202,2,0,P|53:344|57:380,2,71.9999978027344,10|2|2,0:2|0:0|0:0,0:0:0:0:
26,193,26702,6,0,P|67:191|127:232,1,107.999996704102,2|0,1:2|0:0,0:0:0:0:
186,278,27036,2,0,P|203:240|201:201,1,71.9999978027344,10|0,0:0|3:0,0:0:0:0:
100,79,27369,2,0,P|124:112|159:130,1,71.9999978027344,2|8,0:0|0:0,0:0:0:0:
315,104,27702,2,0,P|273:108|240:129,1,71.9999978027344,2|0,0:0|3:0,0:0:0:0:
122,225,28036,5,2,1:2:0:0:
122,225,28202,1,2,0:0:0:0:
194,300,28369,2,0,B|344:297|196:304|345:301,1,143.999995605469,10|0,0:0|3:0,0:0:0:0:
489,201,28869,1,10,0:0:0:0:
383,150,29036,1,2,0:0:0:0:
383,150,29202,1,2,0:0:0:0:
411,358,29369,6,0,P|424:313|420:271,1,71.9999978027344,2|2,1:2|0:0,0:0:0:0:
286,167,29702,2,0,B|256:144|205:168|233:180|193:206|133:179,1,143.999995605469,10|0,0:0|3:0,0:0:0:0:
78,7,30202,2,0,P|115:16|149:41,2,71.9999978027344,10|2|2,0:0|0:0|0:0,0:0:0:0:
0,104,30702,6,0,P|3:145|4:183,1,71.9999978027344,2|2,1:2|0:0,0:0:0:0:
0,334,31036,2,0,B|44:313|57:285|57:285|65:313|102:340,1,143.999995605469,10|0,0:0|3:0,0:0:0:0:
311,286,31536,1,10,0:0:0:0:
235,384,31702,1,2,0:0:0:0:
235,384,31869,1,2,0:0:0:0:
139,261,32036,6,0,L|144:143,1,107.999996704102,2|0,1:2|0:0,0:0:0:0:
170,77,32369,2,0,B|203:91|203:91|220:123,1,71.9999978027344,10|0,0:0|3:0,0:0:0:0:
360,44,32702,2,0,B|331:65|331:65|295:64,1,71.9999978027344,2|8,0:0|0:0,0:0:0:0:
293,225,33036,2,0,B|288:189|288:189|307:158,1,71.9999978027344,2|0,0:0|3:0,0:0:0:0:
488,28,33369,6,0,L|476:181,1,143.999995605469,2|8,1:2|0:0,0:0:0:0:
328,272,33869,1,2,0:0:0:0:
328,272,33952,1,2,0:0:0:0:
328,272,34036,2,0,P|295:232|328:136,1,143.999995605469,2|2,0:0|3:2,0:0:0:0:
444,63,34702,6,0,B|463:33|463:33|443:145,1,143.999995605469,4|0,1:2|0:0,0:0:0:0:
395,202,35036,1,8,0:0:0:0:
510,300,35202,2,0,B|480:277|426:305|446:315|406:338|360:311|360:311|377:318|394:314,1,191.999994140625,4|0,1:2|0:0,0:0:0:0:
261,384,35702,1,8,0:0:0:0:
259,360,35785,1,8,0:0:0:0:
257,336,35868,1,8,0:0:0:0:
255,312,35952,1,8,0:0:0:0:
253,286,36036,6,0,L|243:141,1,143.999995605469,4|0,1:2|0:0,0:0:0:0:
278,64,36369,1,8,0:0:0:0:
160,179,36536,2,0,P|104:188|98:79,1,191.999994140625,4|8,1:2|0:0,0:0:0:0:
243,142,37036,2,0,P|251:164|251:196,3,47.9999985351563,8|8|4|4,0:3|0:3|0:3|0:3,0:0:0:0:
216,278,37369,6,0,B|64:273|216:282|64:277,1,143.999995605469,4|0,1:2|0:0,0:0:0:0:
10,221,37702,1,8,0:0:0:0:
91,358,37869,2,0,B|284:364|91:354|284:359,1,191.999994140625,4|0,1:2|0:0,0:0:0:0:
419,315,38369,1,8,0:0:0:0:
435,297,38452,1,8,0:0:0:0:
444,275,38535,1,8,0:0:0:0:
445,250,38619,1,8,0:0:0:0:
440,226,38702,6,0,P|422:204|400:193,3,47.9999985351563,0|0|0|0,1:0|1:0|1:0|1:0,0:0:0:0:
352,123,39036,1,8,0:0:0:0:
352,123,39119,1,8,0:0:0:0:
352,123,39202,2,0,P|323:120|300:127,1,47.9999985351563,8|8,0:0|0:0,0:0:0:0:
227,199,39369,1,8,0:3:0:0:
205,209,39452,1,8,0:3:0:0:
182,213,39535,1,8,0:3:0:0:
158,210,39619,1,8,0:3:0:0:
134,200,39702,2,0,P|116:181|110:156,3,47.9999985351563,4|4|4|4,0:3|0:3|0:3|0:3,0:0:0:0:
63,68,40036,6,0,P|118:77|205:86,1,143.999995605469,4|0,1:2|0:0,0:0:0:0:
274,37,40369,1,8,0:0:0:0:
356,153,40536,2,0,B|401:239|401:239|354:333,1,191.999994140625,4|0,1:2|0:0,0:0:0:0:
172,384,41036,1,8,0:0:0:0:
171,360,41119,1,8,0:0:0:0:
169,336,41202,1,8,0:0:0:0:
168,312,41286,1,8,0:0:0:0:
167,288,41369,6,0,B|203:268|210:232|210:232|230:263|278:269,1,143.999995605469,4|0,1:2|0:0,0:0:0:0:
336,211,41702,1,8,0:0:0:0:
438,384,41869,2,0,P|437:293|440:185,1,191.999994140625,4|8,1:2|0:0,0:0:0:0:
366,8,42369,2,0,P|349:20|333:44,3,47.9999985351563,8|8|4|4,0:3|0:3|0:3|0:3,0:0:0:0:
328,125,42702,6,0,B|292:119|275:103|275:103|180:133,1,143.999995605469,4|0,1:2|0:0,0:0:0:0:
142,200,43036,1,8,0:0:0:0:
9,98,43202,2,0,P|-9:40|91:47,1,191.999994140625,4|0,1:2|0:0,0:0:0:0:
142,200,43702,1,8,0:0:0:0:
140,223,43785,1,8,0:0:0:0:
139,247,43868,1,8,0:0:0:0:
138,271,43952,1,8,0:0:0:0:
138,296,44036,6,0,L|135:347,3,47.9999985351563,0|0|0|0,1:0|1:0|1:0|1:0,0:0:0:0:
42,384,44369,1,8,0:0:0:0:
42,384,44452,1,8,0:0:0:0:
42,384,44536,2,0,L|44:336,1,47.9999985351563,8|8,0:0|0:0,0:0:0:0:
2,241,44702,1,8,0:3:0:0:
3,217,44785,1,8,0:3:0:0:
4,193,44868,1,8,0:3:0:0:
5,169,44952,1,8,0:3:0:0:
6,145,45036,2,0,L|9:94,3,47.9999985351563,4|4|4|4,0:3|0:3|0:3|0:3,0:0:0:0:
0,14,45369,5,0,1:0:0:0:
0,14,45702,5,0,1:0:0:0:
0,14,46036,5,0,1:0:0:0:
9,153,46202,5,0,1:0:0:0:
16,146,46286,1,0,1:0:0:0:
24,138,46369,6,0,L|60:100,1,48,4|0,0:3|0:0,0:0:0:0:
98,26,46702,6,0,P|137:66|141:127,1,111.999996582031,6|0,1:2|0:0,0:0:0:0:
0,295,47036,2,0,P|54:273|107:255,1,111.999996582031,8|2,0:0|0:3,0:0:0:0:
290,323,47369,1,2,0:3:0:0:
186,376,47536,1,0,1:0:0:0:
167,192,47702,2,0,B|205:164|269:193|238:207|293:231|335:198,1,167.999994873047,8|0,0:0|0:0,0:0:0:0:
403,164,48036,6,0,P|355:118|301:119,1,111.999996582031,0|2,1:2|0:3,0:0:0:0:
447,326,48369,2,0,B|454:97|450:327|457:97,1,223.999993164063,8|2,0:0|0:3,0:0:0:0:
241,3,48869,1,0,1:0:0:0:
343,101,49036,1,10,0:0:0:0:
252,152,49202,1,0,0:0:0:0:
401,10,49369,6,0,P|440:47|456:108,1,111.999996582031,6|0,1:2|0:0,0:0:0:0:
351,288,49702,2,0,P|407:261|456:247,1,111.999996582031,8|2,0:0|0:3,0:0:0:0:
241,384,50036,1,2,0:3:0:0:
142,314,50202,1,0,1:0:0:0:
252,152,50369,2,0,P|276:201|227:294,1,167.999994873047,8|0,0:0|0:0,0:0:0:0:
142,314,50702,6,0,P|136:247|130:200,1,111.999996582031,0|2,1:0|0:3,0:0:0:0:
223,71,51036,2,0,B|169:56|145:-2|145:-2|137:59|82:94,1,223.999993164063,8|2,0:0|0:0,0:0:0:0:
15,258,51536,1,0,1:0:0:0:
145,192,51702,1,8,0:0:0:0:
69,110,51869,1,2,0:0:0:0:
124,303,52036,6,0,P|180:286|238:274,1,111.999996582031,6|0,1:2|0:0,0:0:0:0:
434,384,52369,2,0,P|386:337|375:289,1,111.999996582031,8|2,0:0|0:3,0:0:0:0:
387,115,52702,1,2,0:3:0:0:
300,189,52869,1,0,1:0:0:0:
467,295,53036,2,0,P|470:242|476:124,1,167.999994873047,8|0,0:0|0:0,0:0:0:0:
458,38,53369,6,0,P|416:59|386:121,1,111.999996582031,2|2,1:2|0:2,0:0:0:0:
483,321,53702,2,0,P|426:304|369:294,1,111.999996582031,8|2,0:2|0:2,0:0:0:0:
156,375,54036,1,2,0:0:0:0:
238,268,54202,1,2,1:2:0:0:
238,268,54369,1,10,0:0:0:0:
97,178,54536,6,0,P|119:231|137:286,1,111.999996582031,2|4,0:0|1:2,0:0:0:0:
295,384,54869,2,0,P|312:330|334:279,1,111.999996582031,2|8,0:0|0:0,0:0:0:0:
83,174,55202,2,0,P|105:227|123:282,1,111.999996582031,2|0,0:0|0:0,0:0:0:0:
281,380,55535,2,0,P|298:326|320:275,1,111.999996582031,2|8,1:2|0:0,0:0:0:0:
185,127,55869,1,2,0:0:0:0:
221,227,56036,5,2,1:2:0:0:
245,42,56202,1,8,0:0:0:0:
210,24,56285,1,8,0:0:0:0:
171,21,56368,1,8,0:0:0:0:
133,31,56452,1,8,0:0:0:0:
102,55,56536,2,0,P|86:81|81:113,1,55.9999982910157,0|0,1:0|1:0,0:0:0:0:
18,191,56702,1,8,0:0:0:0:
18,191,56786,1,8,0:0:0:0:
18,191,56869,2,0,P|24:220|43:246,1,55.9999982910157,0|0,1:0|1:0,0:0:0:0:
76,328,57036,1,8,0:0:0:0:
115,326,57119,1,8,0:0:0:0:
154,324,57202,1,8,0:0:0:0:
193,322,57286,1,8,0:0:0:0:
232,320,57369,6,0,P|265:262|245:210,1,111.999996582031,6|0,1:2|0:0,0:0:0:0:
102,55,57702,2,0,P|159:65|227:74,1,111.999996582031,8|2,0:0|0:3,0:0:0:0:
433,121,58036,1,2,0:3:0:0:
336,189,58202,1,0,1:0:0:0:
512,325,58369,2,0,B|482:305|479:270|479:270|422:270|386:325,1,167.999994873047,8|0,0:0|0:0,0:0:0:0:
333,384,58702,6,0,P|269:376|218:370,1,111.999996582031,0|2,1:0|0:3,0:0:0:0:
54,214,59036,2,0,B|144:176|169:245|160:222|152:242|170:230|146:230|168:246|207:298|262:263,1,223.999993164063,8|2,0:0|0:3,0:0:0:0:
451,145,59536,1,0,1:0:0:0:
291,125,59702,1,10,0:0:0:0:
334,228,59869,1,0,0:0:0:0:
393,40,60036,6,0,P|334:30|280:22,1,111.999996582031,6|0,1:2|0:0,0:0:0:0:
104,159,60369,2,0,P|159:167|208:202,1,111.999996582031,8|2,0:0|0:3,0:0:0:0:
63,373,60702,1,2,0:3:0:0:
120,267,60869,1,0,1:0:0:0:
254,384,61036,2,0,B|421:376|254:380|421:372,1,167.999994873047,8|0,0:0|0:0,0:0:0:0:
502,328,61369,6,0,P|460:290|404:282,1,111.999996582031,0|2,1:0|0:3,0:0:0:0:
190,208,61702,2,0,B|349:190|349:190|311:195|277:179,1,223.999993164063,8|2,0:0|0:0,0:0:0:0:
474,42,62202,1,0,1:0:0:0:
427,203,62369,1,8,0:0:0:0:
328,113,62536,1,2,0:0:0:0:
510,143,62702,6,0,P|532:200|512:264,1,111.999996582031,6|0,1:2|0:0,0:0:0:0:
334,384,63036,2,0,P|321:322|314:266,1,111.999996582031,8|2,0:0|0:3,0:0:0:0:
446,79,63369,1,2,0:3:0:0:
427,203,63536,1,0,1:0:0:0:
284,83,63702,2,0,B|238:83|215:40|215:40|209:86|163:109,1,167.999994873047,8|0,0:0|0:0,0:0:0:0:
64,88,64036,6,0,P|99:143|119:189,1,111.999996582031,2|2,1:2|0:0,0:0:0:0:
0,376,64369,2,0,B|36:320|123:350|101:374|174:407|223:358,1,223.999993164063,8|2,0:0|0:0,0:0:0:0:
262,189,64869,1,2,1:2:0:0:
166,294,65036,1,10,0:0:0:0:
335,384,65202,1,2,1:2:0:0:
335,384,65286,1,0,1:2:0:0:
335,384,65369,6,0,P|340:317|346:268,1,111.999996582031,10|2,0:0|1:2,0:0:0:0:
450,158,65702,1,0,1:2:0:0:
309,22,65869,2,0,P|256:47|226:95,1,111.999996582031,10|0,0:0|1:0,0:0:0:0:
203,255,66202,1,2,1:2:0:0:
32,90,66369,2,0,P|91:78|146:69,1,111.999996582031,8|0,0:0|1:0,0:0:0:0:
312,189,66702,6,0,P|257:177|201:168,1,111.999996582031,10|8,0:0|0:3,0:0:0:0:
120,157,66952,1,8,0:3:0:0:
120,157,67036,2,0,P|119:184|129:215,1,55.9999982910157,4|4,0:3|0:3,0:0:0:0:
229,384,67202,1,6,1:2:0:0:
229,384,67536,1,2,1:2:0:0:
324,300,67702,2,0,P|272:265|219:258,1,111.999996582031,8|0,0:0|0:0,0:0:0:0:
68,372,68036,6,0,L|52:266,1,95.9999970703126,6|2,1:2|0:0,0:0:0:0:
101,54,68369,1,10,0:0:0:0:
125,176,68536,2,0,P|80:163|13:148,2,95.9999970703126,2|2|0,0:3|0:3|1:0,0:0:0:0:
189,284,69036,2,0,P|234:271|301:256,1,95.9999970703126,8|2,0:0|0:0,0:0:0:0:
420,141,69369,5,0,1:0:0:0:
360,46,69536,2,0,P|318:80|311:121,1,95.9999970703126,2|8,0:0|0:0,0:0:0:0:
420,344,69869,1,2,0:0:0:0:
490,254,70036,2,0,P|426:239|386:233,1,95.9999970703126,2|0,0:0|1:2,0:0:0:0:
312,282,70286,1,0,1:2:0:0:
312,282,70369,1,10,0:0:0:0:
420,141,70536,1,0,0:0:0:0:
268,73,70702,6,0,P|287:123|302:168,1,95.9999970703126,2|2,1:2|0:0,0:0:0:0:
216,344,71036,1,10,0:0:0:0:
131,269,71202,2,0,P|175:235|216:232,1,95.9999970703126,2|2,0:3|0:3,0:0:0:0:
398,333,71536,1,0,1:0:0:0:
461,258,71702,2,0,B|442:102|457:260|437:102,1,143.999995605469,8|0,0:0|0:0,0:0:0:0:
421,40,72036,5,0,1:0:0:0:
319,132,72202,2,0,L|220:126,1,95.9999970703126,2|8,0:0|0:0,0:0:0:0:
45,122,72536,1,2,0:0:0:0:
158,213,72702,1,0,1:0:0:0:
158,213,72786,1,0,1:0:0:0:
158,213,72869,1,0,1:0:0:0:
201,44,73036,2,0,P|174:57|155:74,2,47.9999985351563,8|0|0,1:2|1:0|1:0,0:0:0:0:
21,29,73369,6,0,P|39:76|45:130,1,95.9999970703126,6|2,1:2|0:0,0:0:0:0:
59,361,73702,1,10,0:0:0:0:
108,274,73869,2,0,P|60:264|14:253,2,95.9999970703126,2|2|0,0:3|0:3|1:0,0:0:0:0:
176,376,74369,2,0,P|223:366|269:355,1,95.9999970703126,8|2,0:0|0:0,0:0:0:0:
406,229,74702,5,0,1:0:0:0:
342,142,74869,2,0,P|304:175|300:224,1,95.9999970703126,2|8,0:0|0:0,0:0:0:0:
428,384,75202,1,2,0:0:0:0:
500,290,75369,2,0,L|497:181,1,95.9999970703126,2|2,0:0|1:2,0:0:0:0:
384,23,75702,1,10,0:0:0:0:
490,82,75869,1,0,0:0:0:0:
342,142,76036,6,0,P|294:132|248:125,1,95.9999970703126,2|2,1:2|0:0,0:0:0:0:
27,222,76369,1,10,0:0:0:0:
107,299,76536,2,0,P|137:253|136:206,1,95.9999970703126,2|2,0:3|0:3,0:0:0:0:
31,14,76869,1,0,1:0:0:0:
16,129,77036,2,0,P|72:108|125:92,1,95.9999970703126,10|2,0:0|0:0,0:0:0:0:
209,33,77369,6,0,P|240:39|257:53,1,47.9999985351563,2|2,1:2|1:2,0:0:0:0:
326,0,77536,1,10,0:0:0:0:
327,5,77619,1,10,0:0:0:0:
326,0,77702,2,0,P|343:26|345:48,3,47.9999985351563,8|8|4|4,0:3|0:3|0:3|0:3,0:0:0:0:
298,151,78036,6,0,B|199:145|298:153|199:147,2,96,10|10|10,1:2|1:2|1:2,0:0:0:0:
410,84,78702,5,2,1:2:0:0:
426,100,78785,1,0,1:0:0:0:
436,121,78868,1,0,1:0:0:0:
441,144,78951,1,0,1:0:0:0:
441,168,79036,2,0,P|435:195|416:216,3,47.9999985351563,8|0|2|0,1:2|1:0|1:2|1:0,0:0:0:0:
470,279,79369,2,0,P|446:293|418:295,3,47.9999985351563,0|0|0|0,1:0|1:0|1:0|1:0,0:0:0:0:
412,377,79702,2,0,P|384:371|363:352,3,47.9999985351563,10|0|0|0,1:2|1:0|1:0|1:0,0:0:0:0:
281,293,80036,5,0,1:0:0:0:
258,286,80119,1,0,1:0:0:0:
234,288,80202,1,2,1:2:0:0:
212,298,80285,1,0,1:0:0:0:
201,319,80369,2,0,L|201:372,3,47.9999985351563,8|0|0|0,1:2|1:0|1:0|1:0,0:0:0:0:
95,317,80702,1,2,1:2:0:0:
95,293,80785,1,0,1:0:0:0:
95,269,80868,1,0,1:0:0:0:
95,245,80951,1,0,1:0:0:0:
94,219,81036,2,0,L|94:171,3,47.9999985351563,10|0|0|0,1:2|1:0|1:0|1:0,0:0:0:0:
85,71,81369,5,2,1:2:0:0:
108,68,81452,1,0,1:0:0:0:
131,72,81535,1,0,1:0:0:0:
151,83,81618,1,0,1:0:0:0:
168,99,81702,2,0,P|185:119|195:153,3,47.9999985351563,8|0|2|0,1:2|1:0|1:2|1:0,0:0:0:0:
279,136,82036,2,0,P|276:162|259:193,3,47.9999985351563,0|0|0|0,1:0|1:0|1:0|1:0,0:0:0:0:
331,241,82369,2,0,P|310:258|276:268,3,47.9999985351563,10|0|0|0,1:2|1:0|1:0|1:0,0:0:0:0:
181,326,82702,5,0,1:0:0:0:
204,327,82785,1,0,1:0:0:0:
227,334,82868,1,2,1:2:0:0:
248,346,82951,1,2,1:2:0:0:
266,362,83036,2,0,P|290:376|329:382,3,47.9999985351563,10|2|2|2,1:2|1:2|1:2|1:2,0:0:0:0:
397,329,83369,1,2,1:2:0:0:
397,329,83452,1,2,1:2:0:0:
397,329,83536,2,0,L|394:272,1,47.9999985351563,2|2,1:2|1:2,0:0:0:0:
324,213,83702,1,8,1:2:0:0:
324,213,83785,1,0,1:0:0:0:
324,213,83869,2,0,L|327:156,1,47.9999985351563,0|0,1:0|1:0,0:0:0:0:
276,35,84036,5,6,1:2:0:0:
253,24,84119,1,0,1:0:0:0:
228,22,84202,1,0,1:0:0:0:
205,29,84285,1,0,1:0:0:0:
185,41,84369,2,0,P|172:61|168:84,3,47.9999985351563,8|0|2|0,1:2|1:0|1:2|1:0,0:0:0:0:
82,99,84702,2,0,P|87:122|101:141,3,47.9999985351563,0|0|0|0,1:0|1:0|1:0|1:0,0:0:0:0:
50,212,85036,2,0,P|70:224|93:228,3,47.9999985351563,10|0|0|0,1:2|1:0|1:0|1:0,0:0:0:0:
171,305,85369,5,0,1:0:0:0:
194,304,85452,1,0,1:0:0:0:
218,303,85535,1,2,1:2:0:0:
242,302,85618,1,0,1:0:0:0:
266,302,85702,2,0,L|328:300,3,47.9999985351563,8|0|0|0,1:2|1:0|1:0|1:0,0:0:0:0:
404,223,86036,1,2,1:2:0:0:
411,200,86119,1,0,1:0:0:0:
407,176,86202,1,0,1:0:0:0:
393,156,86285,1,0,1:0:0:0:
374,140,86369,2,0,P|348:134|327:138,3,47.9999985351563,10|0|0|0,1:2|1:0|1:0|1:0,0:0:0:0:
284,61,86702,5,10,0:0:0:0:
284,61,86786,1,10,0:0:0:0:
284,61,86869,2,0,P|261:75|249:92,1,47.9999985351563,2|0,1:2|1:0,0:0:0:0:
164,68,87036,2,0,P|158:94|162:115,1,47.9999985351563,10|10,0:0|0:0,0:0:0:0:
84,157,87202,2,0,P|98:179|115:191,3,47.9999985351563,10|10|2|0,0:0|0:0|1:2|1:0,0:0:0:0:
91,276,87536,1,10,0:0:0:0:
91,276,87620,1,10,0:0:0:0:
91,276,87703,2,0,P|117:282|137:278,1,47.9999985351563,10|10,0:0|0:0,0:0:0:0:
238,217,87869,1,2,1:2:0:0:
238,217,87952,1,0,1:0:0:0:
238,217,88036,6,0,L|229:121,2,96,10|10|10,1:2|1:2|1:2,0:0:0:0:
320,294,88702,6,0,B|258:288|237:217|237:217|233:291|170:314,1,240,4|0,1:2|0:0,0:0:0:0:
50,379,89369,6,0,L|39:231,1,143.999995605469,4|0,1:2|0:0,0:0:0:0:
9,154,89702,1,8,0:0:0:0:
140,242,89869,2,0,B|213:273|257:192|257:192|228:209|195:198,1,191.999994140625,4|0,1:2|0:0,0:0:0:0:
305,356,90369,1,8,0:0:0:0:
326,365,90452,1,8,0:0:0:0:
350,368,90535,1,8,0:0:0:0:
374,363,90618,1,8,0:0:0:0:
395,351,90702,6,0,B|389:197|398:352|393:198,1,143.999995605469,4|0,1:2|0:0,0:0:0:0:
419,127,91036,1,8,0:0:0:0:
287,220,91202,2,0,B|232:205|218:157|218:157|218:208|158:237,1,191.999994140625,4|8,1:2|0:0,0:0:0:0:
230,46,91702,2,0,P|257:53|276:64,3,47.9999985351563,8|8|4|4,0:3|0:3|0:3|0:3,0:0:0:0:
337,132,92036,6,0,P|402:137|455:75,1,143.999995605469,4|0,1:2|0:0,0:0:0:0:
369,43,92369,1,8,0:0:0:0:
244,150,92536,2,0,B|201:235|201:235|249:337,1,191.999994140625,6|0,1:2|0:0,0:0:0:0:
404,384,93036,1,8,0:0:0:0:
425,372,93119,1,8,0:0:0:0:
440,354,93202,1,8,0:0:0:0:
447,332,93285,1,8,0:0:0:0:
448,307,93369,6,0,P|437:288|407:270,3,47.9999985351563,0|0|0|0,1:0|1:0|1:0|1:0,0:0:0:0:
358,193,93702,1,8,0:0:0:0:
358,193,93786,1,8,0:0:0:0:
358,193,93869,2,0,P|336:187|302:195,1,47.9999985351563,8|8,0:0|0:0,0:0:0:0:
226,258,94036,1,8,0:3:0:0:
202,256,94119,1,8,0:3:0:0:
178,254,94202,1,8,0:3:0:0:
154,253,94285,1,8,0:3:0:0:
130,251,94369,2,0,L|72:246,3,47.9999985351563,4|4|4|4,0:3|0:3|0:3|0:3,0:0:0:0:
11,191,94702,6,0,B|-20:125|-20:125|14:62,1,143.999995605469,4|0,1:2|0:0,0:0:0:0:
77,2,95036,1,8,0:0:0:0:
191,94,95202,2,0,B|245:125|301:90|259:69|323:37|369:64,1,191.999994140625,4|0,1:2|0:0,0:0:0:0:
476,159,95702,1,8,0:0:0:0:
474,182,95785,1,8,0:0:0:0:
473,206,95868,1,8,0:0:0:0:
471,230,95951,1,8,0:0:0:0:
469,254,96036,6,0,B|462:364|462:364|459:336|448:323,1,143.999995605469,4|0,1:2|0:0,0:0:0:0:
379,371,96369,1,8,0:0:0:0:
230,297,96536,2,0,P|174:276|122:393,1,191.999994140625,4|8,1:2|0:0,0:0:0:0:
291,353,97036,2,0,P|309:324|312:301,3,47.9999985351563,8|8|4|4,0:3|0:3|0:3|0:3,0:0:0:0:
377,247,97369,6,0,L|374:100,1,143.999995605469,4|0,1:2|0:0,0:0:0:0:
402,24,97702,1,8,0:0:0:0:
272,126,97869,2,0,B|219:191|154:111|154:111|179:96|185:67,1,191.999994140625,4|0,1:2|0:0,0:0:0:0:
16,65,98369,1,8,0:0:0:0:
5,86,98452,1,8,0:0:0:0:
0,109,98535,1,8,0:0:0:0:
3,133,98618,1,8,0:0:0:0:
9,157,98702,6,0,P|22:181|41:198,3,47.9999985351563,0|0|0|0,1:0|1:0|1:0|1:0,0:0:0:0:
78,285,99036,1,8,0:0:0:0:
78,285,99119,1,8,0:0:0:0:
78,285,99202,2,0,P|104:292|129:291,1,47.9999985351563,8|8,0:0|0:0,0:0:0:0:
230,223,99369,1,8,0:3:0:0:
250,211,99452,1,8,0:3:0:0:
274,206,99535,1,8,0:3:0:0:
297,208,99618,1,8,0:3:0:0:
322,219,99702,2,0,P|342:244|348:275,3,47.9999985351563,4|4|4|4,0:3|0:3|0:3|0:3,0:0:0:0:
322,371,100036,5,0,1:0:0:0:
322,371,100369,5,0,1:0:0:0:
322,371,100702,5,0,1:0:0:0:
322,219,100869,5,0,1:0:0:0:
329,216,100952,1,0,1:0:0:0:
337,214,101036,6,0,P|367:206|393:205,1,48,4|0,0:3|0:0,0:0:0:0:
435,125,101369,6,0,P|474:169|479:229,1,111.999996582031,6|0,1:2|0:0,0:0:0:0:
322,371,101702,2,0,P|265:350|207:337,1,111.999996582031,8|2,0:0|0:3,0:0:0:0:
9,274,102036,1,2,0:3:0:0:
73,371,102202,1,0,1:0:0:0:
179,260,102369,2,0,B|166:90|182:260|169:90,1,167.999994873047,8|0,0:0|0:0,0:0:0:0:
159,0,102702,6,0,P|104:23|76:77,1,111.999996582031,0|2,1:2|0:3,0:0:0:0:
179,260,103036,2,0,B|238:229|299:283|254:299|317:350|377:319,1,223.999993164063,8|2,0:0|0:3,0:0:0:0:
500,138,103536,1,0,1:0:0:0:
398,236,103703,1,10,0:0:0:0:
489,287,103869,1,0,0:0:0:0:
382,113,104036,6,0,P|320:124|265:131,1,111.999996582031,6|0,1:2|0:0,0:0:0:0:
19,25,104369,2,0,P|72:30|112:87,1,111.999996582031,8|2,0:0|0:3,0:0:0:0:
126,273,104702,1,2,0:3:0:0:
25,225,104869,1,0,1:0:0:0:
174,134,105036,2,0,P|256:149|346:169,1,167.999994873047,8|0,0:0|0:0,0:0:0:0:
409,95,105369,6,0,P|437:146|430:209,1,111.999996582031,0|2,1:0|0:3,0:0:0:0:
233,366,105702,2,0,B|290:347|303:284|303:284|291:348|337:387,1,223.999993164063,8|2,0:0|0:0,0:0:0:0:
492,198,106202,1,0,1:0:0:0:
398,309,106368,1,8,0:0:0:0:
500,355,106535,1,2,0:0:0:0:
360,184,106702,6,0,P|296:197|236:211,1,111.999996582031,4|0,1:2|0:0,0:0:0:0:
42,383,107036,2,0,P|84:350|96:294,1,111.999996582031,8|2,0:0|0:3,0:0:0:0:
63,102,107369,1,2,0:3:0:0:
0,205,107536,1,0,1:0:0:0:
180,276,107702,2,0,B|241:303|281:258|242:261|288:211|342:239,1,167.999994873047,8|0,0:0|0:0,0:0:0:0:
431,239,108036,6,0,P|397:286|402:359,1,111.999996582031,2|2,1:2|0:2,0:0:0:0:
512,139,108369,2,0,B|288:133|512:142|289:137,1,223.999993164063,8|2,0:2|0:0,0:0:0:0:
37,95,108869,1,2,1:2:0:0:
139,41,109036,1,10,0:0:0:0:
116,211,109202,6,0,P|66:200|6:192,1,111.999996582031,2|4,0:0|1:2,0:0:0:0:
199,337,109536,2,0,P|249:326|309:318,1,111.999996582031,2|8,0:0|0:0,0:0:0:0:
110,196,109869,2,0,P|60:185|0:177,1,111.999996582031,2|0,0:0|0:0,0:0:0:0:
193,322,110203,2,0,P|243:311|303:303,1,111.999996582031,2|8,1:2|0:0,0:0:0:0:
512,275,110536,1,2,0:0:0:0:
448,384,110703,5,2,1:2:0:0:
351,238,110869,1,8,0:0:0:0:
331,218,110952,1,8,0:0:0:0:
321,191,111035,1,8,0:0:0:0:
324,163,111118,1,8,0:0:0:0:
341,140,111202,2,0,P|368:133|395:125,1,55.9999982910157,0|0,1:0|1:0,0:0:0:0:
512,40,111369,1,8,0:0:0:0:
512,40,111452,1,8,0:0:0:0:
512,40,111536,2,0,P|485:33|458:25,1,55.9999982910157,0|0,1:0|1:0,0:0:0:0:
353,0,111702,1,8,0:0:0:0:
325,2,111785,1,8,0:0:0:0:
297,5,111868,1,8,0:0:0:0:
269,7,111951,1,8,0:0:0:0:
240,10,112036,6,0,L|119:23,1,111.999996582031,6|0,1:2|0:0,0:0:0:0:
0,171,112369,2,0,P|60:177|97:219,1,111.999996582031,8|2,0:2|0:3,0:0:0:0:
151,384,112702,1,2,0:3:0:0:
40,349,112869,1,0,1:0:0:0:
179,233,113036,2,0,P|263:251|359:269,1,167.999994873047,8|0,0:0|0:0,0:0:0:0:
437,260,113369,6,0,P|417:208|367:178,1,111.999996582031,0|2,1:0|0:3,0:0:0:0:
194,336,113702,2,0,B|238:323|421:371|193:339|359:393|420:374,1,223.999993164063,8|2,0:0|0:3,0:0:0:0:
450,123,114202,1,0,1:0:0:0:
341,217,114369,1,10,0:0:0:0:
437,260,114535,1,0,0:0:0:0:
340,101,114702,6,0,P|283:110|239:154,1,111.999996582031,6|0,1:2|0:0,0:0:0:0:
114,330,115036,2,0,P|114:272|109:214,1,111.999996582031,8|2,0:0|0:3,0:0:0:0:
4,40,115369,1,2,0:3:0:0:
88,109,115536,1,0,1:0:0:0:
206,12,115702,2,0,B|243:-3|283:28|283:28|292:24|292:24|321:57|362:49,1,167.999994873047,8|0,0:0|0:0,0:0:0:0:
472,17,116036,6,0,P|443:57|447:126,1,111.999996582031,0|2,1:0|0:3,0:0:0:0:
512,320,116369,2,0,P|450:300|399:288,1,111.999996582031,8|2,0:0|0:3,0:0:0:0:
231,209,116702,1,2,0:0:0:0:
352,167,116869,1,0,1:0:0:0:
302,350,117036,2,0,B|126:337|301:355|124:342,1,167.999994873047,8|0,0:0|0:0,0:0:0:0:
54,377,117369,6,0,P|51:309|46:245,1,111.999996582031,6|0,1:2|0:0,0:0:0:0:
0,48,117702,2,0,P|46:86|97:95,1,111.999996582031,8|2,0:0|0:3,0:0:0:0:
306,59,118036,1,2,0:3:0:0:
193,0,118202,1,0,1:0:0:0:
147,160,118369,2,0,P|161:222|188:326,1,167.999994873047,8|0,0:0|0:0,0:0:0:0:
248,380,118702,6,0,P|307:378|342:333,1,111.999996582031,2|2,1:2|0:0,0:0:0:0:
420,145,119036,2,0,B|383:99|291:125|291:125|309:143|303:187|362:188,1,223.999993164063,8|2,0:0|0:0,0:0:0:0:
485,384,119536,1,2,1:2:0:0:
367,303,119703,1,10,0:0:0:0:
512,177,119869,1,2,1:2:0:0:
512,177,119953,1,0,1:2:0:0:
512,177,120036,6,0,P|502:238|497:298,1,111.999996582031,10|2,0:0|1:2,0:0:0:0:
362,384,120369,1,0,1:2:0:0:
264,228,120536,2,0,P|310:196|372:195,1,111.999996582031,10|0,0:0|1:0,0:0:0:0:
495,324,120869,1,2,1:2:0:0:
277,384,121036,2,0,L|150:376,1,111.999996582031,8|0,0:0|1:0,0:0:0:0:
0,262,121369,6,0,L|127:254,1,111.999996582031,10|8,0:0|0:3,0:0:0:0:
194,236,121619,1,8,0:3:0:0:
194,236,121702,2,0,P|198:266|180:305,1,55.9999982910157,4|4,0:3|0:3,0:0:0:0:
55,175,121869,2,0,P|32:129|54:73,1,111.999996582031,6|0,1:2|3:2,0:0:0:0:
84,3,122119,1,0,3:0:0:0:
84,3,122202,2,0,P|112:12|139:20,1,55.9999982910157,2|0,1:2|1:0,0:0:0:0:
231,127,122369,2,0,B|320:122|320:122|328:124|328:124|403:121,1,167.999994873047,8|0,0:0|0:0,0:0:0:0:
452,41,122702,6,0,P|491:81|495:142,1,111.999996582031,6|0,1:2|0:0,0:0:0:0:
397,337,123036,2,0,P|343:315|290:297,1,111.999996582031,8|2,0:0|0:3,0:0:0:0:
90,331,123369,1,2,0:3:0:0:
194,384,123536,1,0,1:0:0:0:
213,200,123702,2,0,B|175:172|111:201|142:215|87:239|45:206,1,167.999994873047,8|0,0:0|0:0,0:0:0:0:
91,136,124036,6,0,P|152:109|201:109,1,111.999996582031,0|2,1:2|0:3,0:0:0:0:
389,161,124369,2,0,B|382:390|386:160|379:390,1,223.999993164063,8|2,0:0|0:3,0:0:0:0:
143,282,124869,1,0,1:0:0:0:
241,384,125036,1,10,0:0:0:0:
292,293,125202,1,0,0:0:0:0:
113,378,125369,6,0,P|66:351|44:285,1,111.999996582031,6|0,1:2|0:0,0:0:0:0:
130,92,125702,2,0,P|185:107|239:119,1,111.999996582031,8|2,0:0|0:3,0:0:0:0:
457,260,126036,1,2,0:3:0:0:
358,190,126202,1,0,1:0:0:0:
468,28,126369,2,0,P|492:77|443:170,1,167.999994873047,8|0,0:0|0:0,0:0:0:0:
358,190,126702,6,0,P|302:183|246:178,1,111.999996582031,0|2,1:0|0:3,0:0:0:0:
48,308,127036,2,0,B|109:272|172:317|140:338|190:390|262:358,1,223.999993164063,8|2,0:0|0:0,0:0:0:0:
457,203,127536,1,0,1:0:0:0:
336,284,127702,1,8,0:0:0:0:
420,364,127869,1,2,0:0:0:0:
373,146,128036,6,0,P|317:163|259:175,1,111.999996582031,6|0,1:2|0:0,0:0:0:0:
97,347,128369,2,0,P|145:300|156:252,1,111.999996582031,8|2,0:0|0:3,0:0:0:0:
73,85,128702,1,2,0:3:0:0:
0,164,128869,1,0,1:0:0:0:
159,240,129036,2,0,P|212:237|330:231,1,167.999994873047,8|0,0:0|0:0,0:0:0:0:
355,142,129369,6,0,P|397:163|427:225,1,111.999996582031,2|2,1:2|0:2,0:0:0:0:
306,384,129702,2,0,P|252:367|197:357,1,111.999996582031,8|2,0:2|0:2,0:0:0:0:
326,231,130036,1,2,0:0:0:0:
418,320,130202,1,2,1:2:0:0:
418,320,130369,1,10,0:0:0:0:
355,142,130536,6,0,P|295:142|245:180,1,111.999996582031,2|4,0:0|1:2,0:0:0:0:
90,288,130869,2,0,P|150:288|207:303,1,111.999996582031,2|8,0:0|0:0,0:0:0:0:
364,131,131202,2,0,P|304:131|254:169,1,111.999996582031,2|0,0:0|0:0,0:0:0:0:
99,277,131535,2,0,P|159:277|215:294,1,111.999996582031,2|8,1:2|0:0,0:0:0:0:
410,317,131869,1,2,0:0:0:0:
291,384,132036,5,2,1:2:0:0:
267,230,132202,1,8,0:0:0:0:
268,202,132285,1,8,0:0:0:0:
269,174,132368,1,8,0:0:0:0:
271,146,132452,1,8,0:0:0:0:
273,117,132536,2,0,L|275:57,1,55.9999982910157,0|0,1:0|1:0,0:0:0:0:
393,0,132702,1,8,0:0:0:0:
393,0,132786,1,8,0:0:0:0:
393,0,132869,2,0,L|391:55,1,55.9999982910157,0|0,1:0|1:0,0:0:0:0:
463,146,133036,1,8,0:0:0:0:
461,185,133119,1,8,0:0:0:0:
459,224,133202,1,8,0:0:0:0:
457,263,133286,1,8,0:0:0:0:
455,302,133369,6,0,P|399:316|338:336,1,111.999996582031,6|0,1:2|0:0,0:0:0:0:
125,384,133702,2,0,P|176:352|179:289,1,111.999996582031,8|2,0:0|0:3,0:0:0:0:
0,141,134036,1,2,0:3:0:0:
60,233,134202,1,0,1:0:0:0:
174,96,134369,2,0,B|207:116|208:167|208:167|208:116|247:97,1,167.999994873047,8|0,0:0|0:0,0:0:0:0:
289,24,134702,6,0,P|319:49|332:121,1,111.999996582031,0|2,1:0|0:3,0:0:0:0:
156,268,135036,2,0,B|208:235|262:276|250:290|263:304|275:287|312:333|361:298,1,223.999993164063,8|2,0:0|0:3,0:0:0:0:
499,109,135536,1,0,1:0:0:0:
365,197,135702,1,10,0:0:0:0:
465,247,135869,1,0,0:0:0:0:
388,78,136036,6,0,P|329:88|275:96,1,111.999996582031,6|0,1:2|0:0,0:0:0:0:
48,0,136369,2,0,P|105:18|133:68,1,111.999996582031,8|2,0:0|0:3,0:0:0:0:
20,237,136702,1,2,0:3:0:0:
54,134,136869,1,0,1:0:0:0:
160,273,137036,2,0,B|327:265|160:269|327:261,1,167.999994873047,8|0,0:0|0:0,0:0:0:0:
339,172,137369,6,0,P|392:191|419:237,1,111.999996582031,0|2,1:0|0:3,0:0:0:0:
305,369,137702,2,0,B|145:378|145:378|182:377|213:359,1,223.999993164063,8|2,0:0|0:0,0:0:0:0:
26,199,138202,1,0,1:0:0:0:
157,293,138369,1,8,0:0:0:0:
35,384,138536,1,2,0:0:0:0:
146,176,138702,6,0,B|198:154|237:198|237:198|249:186|249:186|296:237|347:215,1,223.999993164063,6|8,1:2|0:0,0:0:0:0:
503,53,139202,6,0,B|332:59|504:56|333:64,1,167.999994873047,2|0,0:3|0:0,0:0:0:0:
256,106,139536,1,0,1:0:0:0:
477,202,139702,2,0,B|458:186|452:158|452:158|461:292,1,167.999994873047,8|0,0:0|0:0,0:0:0:0:
457,372,140036,6,0,P|411:344|347:332,1,111.999996582031,2|2,1:2|0:0,0:0:0:0:
149,333,140369,2,0,B|148:374|192:368|210:386|210:386|236:294|192:259,1,223.999993164063,8|2,0:0|0:0,0:0:0:0:
21,110,140869,1,2,1:2:0:0:
158,155,141036,1,10,0:0:0:0:
43,325,141202,1,2,1:2:0:0:
43,325,141286,1,0,1:2:0:0:
43,325,141369,6,0,P|38:258|32:209,1,111.999996582031,10|2,0:0|1:2,0:0:0:0:
109,82,141702,1,0,1:2:0:0:
253,212,141869,2,0,P|306:187|336:139,1,111.999996582031,10|0,0:0|1:0,0:0:0:0:
219,25,142202,1,2,1:2:0:0:
126,201,142369,2,0,P|132:256|136:312,1,111.999996582031,8|0,0:0|1:0,0:0:0:0:
335,384,142702,6,0,P|338:328|345:272,1,111.999996582031,10|8,0:0|0:3,0:0:0:0:
409,204,142952,1,8,0:3:0:0:
409,204,143036,2,0,P|411:173|404:143,1,55.9999982910157,4|4,0:3|0:3,0:0:0:0:
272,27,143202,2,0,P|215:41|193:159,1,167.999994873047,6|0,1:2|3:0,0:0:0:0:
241,208,143536,1,2,1:2:0:0:
241,208,143619,1,0,1:0:0:0:
241,208,143702,2,0,B|417:206|240:205|418:203,1,167.999994873047,8|0,0:0|0:0,0:0:0:0:
491,202,144036,5,4,0:0:0:0:
