osu file format v14

[General]
AudioFilename: audio.mp3
AudioLeadIn: 0
PreviewTime: 121994
Countdown: 0
SampleSet: Normal
StackLeniency: 0.3
Mode: 1
LetterboxInBreaks: 0
WidescreenStoryboard: 0

[Editor]
DistanceSpacing: 0.6
BeatDivisor: 4
GridSize: 4
TimelineZoom: 1.4

[Metadata]
Title:Akatsuki
TitleUnicode:紅月-アカツキ-
Artist:BABYMETAL
ArtistUnicode:BABYMETAL
Creator:iloveyou4ever
Version:Inner Oni
Source:
Tags:su-metal yuimetal moametal suzuka nakamoto yui mizuno moa kikuchi
BeatmapID:1133251
BeatmapSetID:534990

[Difficulty]
HPDrainRate:5
CircleSize:2
OverallDifficulty:6.5
ApproachRate:5
SliderMultiplier:1.4
SliderTickRate:1

[Events]
//Background and Video events
0,0,"Bg_sun.jpg",0,-30
//Break Periods
2,255959,265853
//Storyboard Layer 0 (Background)
//Storyboard Layer 1 (Fail)
//Storyboard Layer 2 (Pass)
//Storyboard Layer 3 (Foreground)
//Storyboard Sound Samples

[TimingPoints]
1643,352.941176470588,4,1,0,50,1,0
1643,-125,4,1,0,50,0,0
12848,-111.111111111111,4,1,0,70,0,0
17034,352.941176470588,4,1,0,70,1,0
17034,-111.111111111111,4,1,0,70,0,0
17891,352.941176470588,4,1,0,70,1,8
17891,-111.111111111111,4,1,0,70,0,8
18610,352.941176470588,4,1,0,70,1,0
18610,-111.111111111111,4,1,0,70,0,0
21432,352.941176470588,4,1,0,70,1,8
21464,352.941176470588,4,1,0,70,1,0
21464,-111.111111111111,4,1,0,70,0,0
21787,352.941176470588,4,1,0,70,1,8
21787,-111.111111111111,4,1,0,70,0,8
22819,352.941176470588,4,1,0,70,1,0
22819,-111.111111111111,4,1,0,70,0,0
31671,352.941176470588,4,1,0,70,1,8
31671,-111.111111111111,4,1,0,70,0,0
32376,352.941176470588,4,1,0,70,1,8
32376,-111.111111111111,4,1,0,70,0,8
32730,352.941176470588,4,1,0,70,1,0
32730,-111.111111111111,4,1,0,70,0,0
35524,352.941176470588,4,1,0,100,1,0
46288,-99.009900990099,4,1,0,100,0,8
46376,-98.0392156862745,4,1,0,100,0,8
46465,-97.0873786407767,4,1,0,100,0,8
46553,-96.1538461538461,4,1,0,100,0,8
46641,-95.2380952380952,4,1,0,100,0,8
46729,-94.3396226415094,4,1,0,100,0,8
46819,-93.4579439252336,4,1,0,100,0,8
57582,-94.3396226415094,4,1,0,100,0,8
57671,-95.2380952380952,4,1,0,100,0,8
57759,-96.1538461538461,4,1,0,100,0,8
57847,-97.0873786407767,4,1,0,100,0,8
57935,-98.0392156862745,4,1,0,100,0,8
58023,-99.009900990099,4,1,0,100,0,8
58112,-100,4,1,0,100,0,8
121994,-99.009900990099,4,1,0,100,0,8
122347,-98.0392156862745,4,1,0,100,0,8
122700,-97.0873786407767,4,1,0,100,0,8
123053,-95.2380952380952,4,1,0,100,0,9
144229,-95.2380952380952,4,1,0,100,0,8
145171,-100,4,1,0,100,0,8
156582,-99.009900990099,4,1,0,100,0,8
156671,-98.0392156862745,4,1,0,100,0,8
156759,-97.0873786407767,4,1,0,100,0,8
156847,-96.1538461538461,4,1,0,100,0,8
156935,-95.2380952380952,4,1,0,100,0,8
179171,-94.3396226415094,4,1,0,100,0,8
179259,-93.4579439252336,4,1,0,100,0,8
179347,-92.5925925925926,4,1,0,100,0,8
179435,-91.743119266055,4,1,0,100,0,8
179523,-90.9090909090909,4,1,0,100,0,9
201759,-91.743119266055,4,1,0,100,0,9
201847,-92.5925925925926,4,1,0,100,0,9
201935,-93.4579439252336,4,1,0,100,0,9
202023,-94.3396226415094,4,1,0,100,0,9
202112,-95.2380952380952,4,1,0,100,0,8
230435,-100,4,1,0,100,0,8
255759,-111.111111111111,4,1,0,100,0,8
267053,-100,4,1,0,100,0,8
278347,-95.2380952380952,4,1,0,100,0,9
299523,-95.2380952380952,4,1,0,100,0,8
300935,-100,4,1,0,100,0,8

[HitObjects]
363,159,1643,5,0,0:0:0:0:
363,159,2172,1,0,0:0:0:0:
360,176,2525,1,8,0:0:0:0:
428,172,3054,1,0,0:0:0:0:
424,148,3407,1,0,0:0:0:0:
356,152,3760,1,8,0:0:0:0:
360,152,4113,1,8,0:0:0:0:
384,152,4466,1,0,0:0:0:0:
408,156,4995,1,8,0:0:0:0:
416,168,5348,1,0,0:0:0:0:
424,160,5701,1,8,0:0:0:0:
408,152,6054,1,0,0:0:0:0:
408,152,6407,1,0,0:0:0:0:
392,148,6584,1,8,0:0:0:0:
424,152,6937,1,8,0:0:0:0:
424,160,7290,1,0,0:0:0:0:
424,160,7819,1,0,0:0:0:0:
400,144,8172,1,8,0:0:0:0:
388,104,8701,1,0,0:0:0:0:
388,128,9054,1,0,0:0:0:0:
444,120,9407,1,0,0:0:0:0:
460,120,9760,1,8,0:0:0:0:
440,148,10113,1,0,0:0:0:0:
376,132,10642,1,8,0:0:0:0:
344,144,11172,1,8,0:0:0:0:
424,184,11525,1,0,0:0:0:0:
476,228,11878,1,0,0:0:0:0:
456,192,12231,1,8,0:0:0:0:
376,172,12584,1,8,0:0:0:0:
404,164,12937,1,0,0:0:0:0:
404,164,13290,1,8,0:0:0:0:
368,152,13466,1,8,0:0:0:0:
408,172,14701,1,0,0:0:0:0:
480,148,15054,1,8,0:0:0:0:
384,128,15407,1,8,0:0:0:0:
384,128,15760,1,8,0:0:0:0:
360,140,16819,1,0,0:0:0:0:
460,216,17034,1,0,0:0:0:0:
460,216,17891,1,0,0:0:0:0:
376,172,18243,1,8,0:0:0:0:
376,172,18610,1,8,0:0:0:0:
446,198,18962,1,0,0:0:0:0:
446,198,19315,1,8,0:0:0:0:
382,156,19668,1,0,0:0:0:0:
428,176,20021,1,8,0:0:0:0:
428,176,20374,1,0,0:0:0:0:
379,169,20727,1,8,0:0:0:0:
452,184,21080,1,8,0:0:0:0:
452,184,21464,1,0,0:0:0:0:
488,168,21787,1,8,0:0:0:0:
488,168,21963,1,8,0:0:0:0:
412,112,23171,1,0,0:0:0:0:
380,180,23524,1,8,0:0:0:0:
380,180,23877,1,0,0:0:0:0:
380,180,24230,1,0,0:0:0:0:
360,120,24583,1,8,0:0:0:0:
360,120,24760,1,8,0:0:0:0:
290,88,25466,1,0,0:0:0:0:
290,88,25642,1,0,0:0:0:0:
318,94,25995,1,8,0:0:0:0:
383,151,26348,1,8,0:0:0:0:
383,151,26701,1,0,0:0:0:0:
128,208,27054,2,0,L|208:168,8,62.9999980773926
380,152,28818,1,0,0:0:0:0:
305,179,29171,1,8,0:0:0:0:
305,179,29524,1,8,0:0:0:0:
276,184,29877,2,0,L|340:128,8,62.9999980773926
360,168,31671,1,0,0:0:0:0:
328,180,31995,1,8,0:0:0:0:
360,168,32377,1,0,0:0:0:0:
334,188,32730,1,8,0:0:0:0:
408,180,33082,1,8,0:0:0:0:
480,196,33435,1,0,0:0:0:0:
332,120,33788,1,8,0:0:0:0:
396,160,34141,1,0,0:0:0:0:
416,136,34494,1,0,0:0:0:0:
448,160,34847,1,8,0:0:0:0:
448,160,35200,1,8,0:0:0:0:
270,199,35524,1,4,0:0:0:0:
401,197,35876,1,0,0:0:0:0:
402,169,36053,1,8,0:0:0:0:
396,212,36229,1,0,0:0:0:0:
389,173,36582,1,0,0:0:0:0:
392,168,36759,1,8,0:0:0:0:
392,164,36935,1,0,0:0:0:0:
424,160,37288,1,0,0:0:0:0:
368,160,37465,1,8,0:0:0:0:
332,136,37641,1,0,0:0:0:0:
452,184,37818,1,0,0:0:0:0:
412,176,37994,1,8,0:0:0:0:
392,168,38171,1,8,0:0:0:0:
352,164,38347,1,4,0:0:0:0:
428,160,38700,1,0,0:0:0:0:
432,156,38876,1,8,0:0:0:0:
404,168,39053,1,0,0:0:0:0:
432,172,39406,1,0,0:0:0:0:
436,180,39582,1,8,0:0:0:0:
416,184,39759,1,0,0:0:0:0:
416,196,40112,1,0,0:0:0:0:
372,160,40288,1,8,0:0:0:0:
364,160,40376,1,8,0:0:0:0:
400,180,40465,1,0,0:0:0:0:
408,184,40553,1,0,0:0:0:0:
428,204,40641,1,0,0:0:0:0:
440,176,40818,1,8,0:0:0:0:
356,160,41171,1,4,0:0:0:0:
408,152,41347,1,0,0:0:0:0:
408,152,41435,1,0,0:0:0:0:
408,152,41524,1,0,0:0:0:0:
428,168,41700,1,8,0:0:0:0:
420,168,41876,1,0,0:0:0:0:
440,184,42229,1,0,0:0:0:0:
288,184,42406,1,8,0:0:0:0:
438,192,42582,1,0,0:0:0:0:
373,203,42935,1,0,0:0:0:0:
352,168,43112,1,8,0:0:0:0:
352,168,43200,1,8,0:0:0:0:
394,179,43288,1,0,0:0:0:0:
453,203,43465,1,0,0:0:0:0:
445,177,43641,1,8,0:0:0:0:
363,155,43818,1,8,0:0:0:0:
403,168,43994,1,4,0:0:0:0:
404,180,44347,1,0,0:0:0:0:
428,212,44523,1,8,0:0:0:0:
403,168,44700,1,0,0:0:0:0:
403,168,45053,1,0,0:0:0:0:
424,204,45229,1,8,0:0:0:0:
462,177,45406,1,0,0:0:0:0:
462,177,45494,1,0,0:0:0:0:
427,177,45582,1,8,0:0:0:0:
427,177,45759,1,8,0:0:0:0:
441,163,45935,1,0,0:0:0:0:
452,187,45994,1,0,0:0:0:0:
452,187,46053,1,0,0:0:0:0:
464,164,46112,1,8,0:0:0:0:
458,159,46288,1,0,0:0:0:0:
458,159,46376,1,0,0:0:0:0:
430,166,46465,1,8,0:0:0:0:
414,159,46553,1,0,0:0:0:0:
426,164,46641,1,8,0:0:0:0:
426,164,46729,1,8,0:0:0:0:
444,156,46818,1,0,0:0:0:0:
401,156,46994,1,8,0:0:0:0:
431,161,47171,1,0,0:0:0:0:
431,161,47259,1,0,0:0:0:0:
445,138,47347,1,8,0:0:0:0:
447,153,47523,1,0,0:0:0:0:
479,143,47612,1,0,0:0:0:0:
430,149,47700,1,8,0:0:0:0:
430,149,47788,1,8,0:0:0:0:
455,160,47876,1,0,0:0:0:0:
458,158,48053,1,8,0:0:0:0:
505,153,48229,1,0,0:0:0:0:
451,194,48318,1,0,0:0:0:0:
432,151,48406,1,8,0:0:0:0:
324,107,48582,1,0,0:0:0:0:
442,151,48759,1,8,0:0:0:0:
466,168,48935,1,0,0:0:0:0:
466,168,49023,1,0,0:0:0:0:
386,160,49112,1,8,0:0:0:0:
386,160,49200,1,8,0:0:0:0:
401,151,49288,1,0,0:0:0:0:
401,151,49376,1,0,0:0:0:0:
479,170,49465,1,8,0:0:0:0:
428,130,49641,1,0,0:0:0:0:
406,159,49818,1,8,0:0:0:0:
455,154,49994,1,0,0:0:0:0:
467,158,50082,1,0,0:0:0:0:
404,160,50171,1,8,0:0:0:0:
414,154,50347,1,0,0:0:0:0:
398,161,50435,1,0,0:0:0:0:
402,152,50523,1,8,0:0:0:0:
325,149,50612,1,8,0:0:0:0:
402,153,50700,1,0,0:0:0:0:
426,158,50876,1,8,0:0:0:0:
388,166,51053,1,0,0:0:0:0:
388,166,51141,1,0,0:0:0:0:
359,154,51229,1,8,0:0:0:0:
414,145,51406,1,0,0:0:0:0:
434,141,51582,1,8,0:0:0:0:
408,164,51759,1,8,0:0:0:0:
462,143,51847,1,0,0:0:0:0:
428,156,51935,1,8,0:0:0:0:
408,132,52023,1,8,0:0:0:0:
464,136,52112,1,0,0:0:0:0:
448,156,52200,1,0,0:0:0:0:
428,136,52288,1,8,0:0:0:0:
440,148,52465,1,0,0:0:0:0:
376,168,52641,1,8,0:0:0:0:
407,150,52729,1,8,0:0:0:0:
412,143,52818,1,0,0:0:0:0:
415,144,52994,1,8,0:0:0:0:
415,151,53171,1,0,0:0:0:0:
410,139,53259,1,0,0:0:0:0:
382,143,53347,1,8,0:0:0:0:
382,143,53435,1,8,0:0:0:0:
371,154,53523,1,0,0:0:0:0:
393,140,53700,1,8,0:0:0:0:
408,155,53876,1,0,0:0:0:0:
392,140,53965,1,0,0:0:0:0:
387,141,54053,1,8,0:0:0:0:
399,146,54229,1,0,0:0:0:0:
420,153,54406,1,8,0:0:0:0:
420,153,54582,1,0,0:0:0:0:
420,153,54671,1,0,0:0:0:0:
417,151,54759,1,8,0:0:0:0:
416,151,54847,1,8,0:0:0:0:
414,145,54935,1,0,0:0:0:0:
414,145,55023,1,0,0:0:0:0:
394,153,55112,1,8,0:0:0:0:
432,153,55288,1,0,0:0:0:0:
413,154,55465,1,8,0:0:0:0:
444,148,55553,1,8,0:0:0:0:
383,140,55641,1,0,0:0:0:0:
379,143,55818,1,8,0:0:0:0:
403,134,55994,1,0,0:0:0:0:
379,156,56082,1,0,0:0:0:0:
421,147,56171,1,8,0:0:0:0:
416,145,56259,1,8,0:0:0:0:
452,154,56347,1,0,0:0:0:0:
449,154,56523,1,8,0:0:0:0:
416,148,56700,1,0,0:0:0:0:
416,148,56788,1,0,0:0:0:0:
365,156,56876,1,8,0:0:0:0:
326,162,56965,1,0,0:0:0:0:
393,123,57141,1,0,0:0:0:0:
401,156,57229,1,8,0:0:0:0:
408,197,57406,1,0,0:0:0:0:
395,177,57582,1,0,0:0:0:0:
395,177,57671,1,0,0:0:0:0:
365,156,57759,1,8,0:0:0:0:
365,156,57847,1,8,0:0:0:0:
365,156,57935,1,8,0:0:0:0:
365,156,58023,1,8,0:0:0:0:
401,156,58112,1,0,0:0:0:0:
320,160,58376,1,0,0:0:0:0:
390,150,58465,1,8,0:0:0:0:
352,154,58641,1,0,0:0:0:0:
428,144,58818,1,8,0:0:0:0:
428,144,58906,1,8,0:0:0:0:
426,155,58994,1,0,0:0:0:0:
301,151,59171,1,8,0:0:0:0:
408,148,59347,1,4,0:0:0:0:
445,164,59700,1,0,0:0:0:0:
445,164,59788,1,0,0:0:0:0:
439,149,59876,1,8,0:0:0:0:
438,149,59965,1,8,0:0:0:0:
460,156,60053,1,0,0:0:0:0:
400,152,60141,1,0,0:0:0:0:
438,127,60229,1,8,0:0:0:0:
453,145,60406,1,8,0:0:0:0:
453,145,60494,1,8,0:0:0:0:
445,164,60582,1,0,0:0:0:0:
432,196,60671,1,0,0:0:0:0:
400,152,60759,1,8,0:0:0:0:
424,164,60935,1,4,0:0:0:0:
434,153,61200,1,8,0:0:0:0:
434,153,61288,1,8,0:0:0:0:
412,136,61376,1,8,0:0:0:0:
430,149,61465,1,0,0:0:0:0:
344,128,61729,1,0,0:0:0:0:
424,184,61818,1,0,0:0:0:0:
450,179,61906,1,0,0:0:0:0:
424,184,61994,1,0,0:0:0:0:
416,144,62171,1,12,0:0:0:0:
435,171,62523,1,8,0:0:0:0:
435,171,62612,1,8,0:0:0:0:
423,153,62700,1,0,0:0:0:0:
411,143,62788,1,8,0:0:0:0:
410,152,62876,1,0,0:0:0:0:
416,144,62965,1,0,0:0:0:0:
427,159,63053,1,8,0:0:0:0:
412,136,63229,1,8,0:0:0:0:
404,160,63318,1,8,0:0:0:0:
360,164,63406,1,0,0:0:0:0:
384,143,63494,1,0,0:0:0:0:
421,148,63582,1,8,0:0:0:0:
352,128,63759,1,4,0:0:0:0:
440,177,63935,1,0,0:0:0:0:
440,177,64023,1,0,0:0:0:0:
367,149,64112,1,8,0:0:0:0:
367,149,64200,1,8,0:0:0:0:
389,160,64288,1,0,0:0:0:0:
492,144,64465,1,8,0:0:0:0:
401,170,64553,1,8,0:0:0:0:
444,169,64641,1,0,0:0:0:0:
408,144,64818,1,0,0:0:0:0:
452,144,64994,1,12,0:0:0:0:
340,88,65406,1,0,0:0:0:0:
340,88,65465,1,0,0:0:0:0:
442,137,65523,1,8,0:0:0:0:
408,144,65612,1,8,0:0:0:0:
443,146,65700,1,0,0:0:0:0:
428,134,65788,1,0,0:0:0:0:
410,151,65876,1,8,0:0:0:0:
428,164,65965,1,0,0:0:0:0:
444,176,66053,1,0,0:0:0:0:
442,159,66141,1,0,0:0:0:0:
469,160,66229,1,8,0:0:0:0:
469,160,66318,1,0,0:0:0:0:
443,146,66406,1,8,0:0:0:0:
443,146,66494,1,8,0:0:0:0:
443,146,66582,1,0,0:0:0:0:
112,192,67994,1,12,0:0:0:0:
397,211,69406,1,0,0:0:0:0:
440,232,69582,1,8,0:0:0:0:
440,232,69671,1,8,0:0:0:0:
385,132,69759,1,0,0:0:0:0:
423,171,69935,1,8,0:0:0:0:
432,182,70112,1,0,0:0:0:0:
393,132,70200,1,0,0:0:0:0:
363,149,70288,1,8,0:0:0:0:
423,171,70465,1,0,0:0:0:0:
385,132,70641,1,8,0:0:0:0:
444,160,70729,1,8,0:0:0:0:
410,159,70818,1,0,0:0:0:0:
432,182,70994,1,8,0:0:0:0:
423,171,71171,1,0,0:0:0:0:
432,182,71259,1,0,0:0:0:0:
444,160,71347,1,8,0:0:0:0:
424,160,71435,1,0,0:0:0:0:
444,160,71523,1,8,0:0:0:0:
444,160,71700,1,0,0:0:0:0:
448,180,71788,1,8,0:0:0:0:
468,158,71876,1,0,0:0:0:0:
444,160,71965,1,0,0:0:0:0:
444,160,72053,1,8,0:0:0:0:
428,120,72229,1,0,0:0:0:0:
434,140,72318,1,0,0:0:0:0:
448,152,72406,1,8,0:0:0:0:
468,158,72582,1,8,0:0:0:0:
489,168,72671,1,0,0:0:0:0:
427,383,72759,1,8,0:0:0:0:
444,160,72935,1,8,0:0:0:0:
468,158,73023,1,8,0:0:0:0:
468,158,73112,1,0,0:0:0:0:
448,152,73200,1,0,0:0:0:0:
404,164,73288,1,8,0:0:0:0:
448,152,73376,1,0,0:0:0:0:
448,152,73465,1,8,0:0:0:0:
404,164,73641,1,8,0:0:0:0:
484,148,73818,1,0,0:0:0:0:
464,152,73906,1,0,0:0:0:0:
472,156,73994,1,8,0:0:0:0:
404,164,74171,1,8,0:0:0:0:
496,172,74259,1,8,0:0:0:0:
404,164,74347,1,0,0:0:0:0:
404,164,74435,1,8,0:0:0:0:
484,148,74523,1,8,0:0:0:0:
364,156,74700,1,8,0:0:0:0:
452,152,74876,1,0,0:0:0:0:
496,172,75053,1,8,0:0:0:0:
465,159,75141,1,0,0:0:0:0:
458,162,75229,1,8,0:0:0:0:
404,164,75318,1,0,0:0:0:0:
404,164,75406,1,8,0:0:0:0:
404,164,75494,1,8,0:0:0:0:
436,132,75582,1,0,0:0:0:0:
472,156,75671,1,0,0:0:0:0:
443,158,75759,1,8,0:0:0:0:
453,164,75847,1,0,0:0:0:0:
404,164,75935,1,8,0:0:0:0:
443,158,76023,1,0,0:0:0:0:
404,164,76112,1,8,0:0:0:0:
443,158,76200,1,8,0:0:0:0:
436,132,76288,1,0,0:0:0:0:
436,132,76376,1,0,0:0:0:0:
459,153,76465,1,8,0:0:0:0:
471,164,76553,1,0,0:0:0:0:
488,148,76641,1,8,0:0:0:0:
443,158,76729,1,0,0:0:0:0:
453,164,76818,1,8,0:0:0:0:
443,158,76906,1,8,0:0:0:0:
443,158,76994,1,8,0:0:0:0:
404,164,77082,1,0,0:0:0:0:
382,165,77171,1,8,0:0:0:0:
460,176,77259,1,0,0:0:0:0:
443,158,77347,1,8,0:0:0:0:
368,152,77435,1,8,0:0:0:0:
380,168,77523,1,0,0:0:0:0:
388,152,77612,1,0,0:0:0:0:
460,152,77700,1,8,0:0:0:0:
448,152,77788,1,8,0:0:0:0:
444,160,77876,1,0,0:0:0:0:
448,156,78053,1,8,0:0:0:0:
399,166,78229,1,0,0:0:0:0:
399,166,78318,1,0,0:0:0:0:
336,147,78406,1,8,0:0:0:0:
386,150,78582,1,0,0:0:0:0:
395,146,78759,1,8,0:0:0:0:
347,153,78847,1,0,0:0:0:0:
356,152,79023,1,0,0:0:0:0:
410,151,79112,1,8,0:0:0:0:
404,131,79288,1,0,0:0:0:0:
386,150,79465,1,8,0:0:0:0:
436,154,79641,1,0,0:0:0:0:
431,154,79729,1,0,0:0:0:0:
428,158,79818,1,8,0:0:0:0:
393,141,79994,1,0,0:0:0:0:
393,141,80082,1,0,0:0:0:0:
414,162,80171,1,8,0:0:0:0:
411,162,80259,1,0,0:0:0:0:
440,181,80435,1,0,0:0:0:0:
410,162,80523,1,8,0:0:0:0:
423,149,80700,1,0,0:0:0:0:
407,162,80876,1,8,0:0:0:0:
436,164,81053,1,0,0:0:0:0:
436,164,81141,1,0,0:0:0:0:
388,144,81229,1,8,0:0:0:0:
408,152,81406,1,0,0:0:0:0:
452,160,81582,1,8,0:0:0:0:
364,160,81671,1,0,0:0:0:0:
364,160,81847,1,0,0:0:0:0:
376,172,81935,1,8,0:0:0:0:
448,172,82112,1,0,0:0:0:0:
384,172,82288,1,8,0:0:0:0:
436,172,82465,1,0,0:0:0:0:
436,172,82553,1,0,0:0:0:0:
376,184,82641,1,8,0:0:0:0:
376,160,82818,1,0,0:0:0:0:
376,160,82906,1,0,0:0:0:0:
486,169,82994,1,8,0:0:0:0:
440,163,83082,1,0,0:0:0:0:
436,172,83171,1,8,0:0:0:0:
436,172,83259,1,8,0:0:0:0:
376,184,83347,1,0,0:0:0:0:
416,200,83435,1,0,0:0:0:0:
376,184,83523,1,0,0:0:0:0:
440,160,83700,1,8,0:0:0:0:
476,160,83876,1,0,0:0:0:0:
476,160,83965,1,0,0:0:0:0:
464,168,84053,1,8,0:0:0:0:
400,152,84229,1,0,0:0:0:0:
420,152,84406,1,8,0:0:0:0:
464,160,84494,1,0,0:0:0:0:
464,160,84671,1,0,0:0:0:0:
396,164,84759,1,8,0:0:0:0:
460,160,84935,1,0,0:0:0:0:
420,164,85112,1,8,0:0:0:0:
440,168,85288,1,0,0:0:0:0:
440,168,85376,1,0,0:0:0:0:
448,164,85465,1,8,0:0:0:0:
444,160,85641,1,0,0:0:0:0:
444,160,85729,1,0,0:0:0:0:
472,168,85818,1,8,0:0:0:0:
480,172,85906,1,0,0:0:0:0:
480,172,86082,1,0,0:0:0:0:
440,180,86171,1,8,0:0:0:0:
448,176,86347,1,0,0:0:0:0:
440,168,86523,1,8,0:0:0:0:
440,180,86612,1,8,0:0:0:0:
440,176,86700,1,0,0:0:0:0:
448,220,86788,1,0,0:0:0:0:
392,176,86876,1,8,0:0:0:0:
420,136,87053,1,0,0:0:0:0:
362,141,87229,1,8,0:0:0:0:
288,124,87318,1,0,0:0:0:0:
288,124,87494,1,0,0:0:0:0:
403,147,87582,1,8,0:0:0:0:
330,169,87759,1,0,0:0:0:0:
399,146,87935,1,8,0:0:0:0:
393,163,88112,1,0,0:0:0:0:
393,163,88200,1,0,0:0:0:0:
458,186,88288,1,8,0:0:0:0:
458,186,88376,1,8,0:0:0:0:
473,169,88465,1,0,0:0:0:0:
417,208,88523,1,0,0:0:0:0:
417,208,88582,1,0,0:0:0:0:
399,171,88641,1,8,0:0:0:0:
430,141,88818,1,0,0:0:0:0:
416,163,88876,1,0,0:0:0:0:
388,149,88935,1,8,0:0:0:0:
474,162,88994,1,8,0:0:0:0:
436,159,89171,1,0,0:0:0:0:
427,160,89347,1,8,0:0:0:0:
432,151,89523,1,0,0:0:0:0:
431,151,89612,1,0,0:0:0:0:
396,150,89700,1,8,0:0:0:0:
397,149,89876,1,0,0:0:0:0:
389,153,90053,1,8,0:0:0:0:
419,152,90141,1,0,0:0:0:0:
419,152,90318,1,0,0:0:0:0:
432,157,90406,1,8,0:0:0:0:
393,164,90582,1,0,0:0:0:0:
370,175,90759,1,8,0:0:0:0:
383,166,90935,1,0,0:0:0:0:
443,153,91023,1,0,0:0:0:0:
369,168,91112,1,8,0:0:0:0:
466,165,91288,1,0,0:0:0:0:
462,152,91376,1,0,0:0:0:0:
445,158,91465,1,8,0:0:0:0:
432,155,91553,1,0,0:0:0:0:
443,153,91729,1,0,0:0:0:0:
389,153,91818,1,8,0:0:0:0:
389,153,91906,1,8,0:0:0:0:
397,161,91994,1,0,0:0:0:0:
457,152,92171,1,8,0:0:0:0:
452,153,92347,1,0,0:0:0:0:
443,152,92435,1,0,0:0:0:0:
441,142,92523,1,8,0:0:0:0:
437,142,92612,1,8,0:0:0:0:
425,145,92700,1,0,0:0:0:0:
463,156,92876,1,8,0:0:0:0:
450,151,92965,1,0,0:0:0:0:
445,151,93141,1,0,0:0:0:0:
405,152,93229,1,8,0:0:0:0:
436,166,93406,1,0,0:0:0:0:
450,144,93582,1,8,0:0:0:0:
442,154,93759,1,0,0:0:0:0:
435,154,93847,1,0,0:0:0:0:
468,152,93935,1,8,0:0:0:0:
481,165,94112,1,0,0:0:0:0:
451,130,94200,1,0,0:0:0:0:
439,155,94288,1,8,0:0:0:0:
463,156,94376,1,0,0:0:0:0:
436,166,94465,1,8,0:0:0:0:
467,151,94553,1,0,0:0:0:0:
453,145,94641,1,8,0:0:0:0:
432,140,94729,1,8,0:0:0:0:
485,152,94818,1,0,0:0:0:0:
481,165,94994,1,8,0:0:0:0:
479,139,95171,1,0,0:0:0:0:
439,155,95259,1,0,0:0:0:0:
445,148,95347,1,8,0:0:0:0:
442,150,95523,1,0,0:0:0:0:
395,139,95700,1,8,0:0:0:0:
404,138,95788,1,0,0:0:0:0:
402,136,95965,1,0,0:0:0:0:
427,141,96053,1,8,0:0:0:0:
462,151,96229,1,0,0:0:0:0:
440,141,96406,1,8,0:0:0:0:
414,136,96582,1,0,0:0:0:0:
410,136,96671,1,0,0:0:0:0:
481,141,96759,1,8,0:0:0:0:
479,140,96935,1,8,0:0:0:0:
446,136,97023,1,8,0:0:0:0:
482,147,97112,1,0,0:0:0:0:
400,160,97200,1,0,0:0:0:0:
420,164,97288,1,8,0:0:0:0:
420,164,97376,1,8,0:0:0:0:
477,162,97465,1,8,0:0:0:0:
386,154,97641,1,0,0:0:0:0:
433,143,97818,1,8,0:0:0:0:
433,143,97906,1,8,0:0:0:0:
432,141,97994,1,0,0:0:0:0:
433,143,98082,1,0,0:0:0:0:
364,128,98171,1,8,0:0:0:0:
433,143,98347,1,8,0:0:0:0:
446,136,98435,1,0,0:0:0:0:
424,140,98523,1,8,0:0:0:0:
404,144,98612,1,8,0:0:0:0:
416,144,98700,1,0,0:0:0:0:
428,160,98788,1,0,0:0:0:0:
384,132,98876,1,8,0:0:0:0:
388,156,98965,1,8,0:0:0:0:
416,156,99053,1,0,0:0:0:0:
464,168,99229,1,8,0:0:0:0:
432,160,99406,1,0,0:0:0:0:
476,172,99494,1,0,0:0:0:0:
480,176,99582,1,8,0:0:0:0:
420,152,99759,1,0,0:0:0:0:
399,143,99847,1,8,0:0:0:0:
391,139,100023,1,8,0:0:0:0:
373,173,100112,1,0,0:0:0:0:
392,176,100288,1,8,0:0:0:0:
416,172,100465,1,4,0:0:0:0:
404,168,100641,1,8,0:0:0:0:
404,168,100729,1,8,0:0:0:0:
420,172,100818,1,0,0:0:0:0:
420,172,100906,1,0,0:0:0:0:
420,172,100994,1,0,0:0:0:0:
400,152,101171,1,8,0:0:0:0:
412,160,101259,1,0,0:0:0:0:
428,160,101347,1,8,0:0:0:0:
424,160,101435,1,8,0:0:0:0:
416,160,101523,1,0,0:0:0:0:
412,160,101612,1,0,0:0:0:0:
424,160,101700,1,8,0:0:0:0:
432,168,101876,1,8,0:0:0:0:
432,168,101965,1,8,0:0:0:0:
440,160,102053,1,0,0:0:0:0:
440,160,102141,1,0,0:0:0:0:
464,156,102229,1,8,0:0:0:0:
452,156,102318,1,8,0:0:0:0:
468,172,102406,1,0,0:0:0:0:
468,172,102494,1,0,0:0:0:0:
476,140,102582,1,8,0:0:0:0:
476,140,102671,1,8,0:0:0:0:
476,140,102759,1,8,0:0:0:0:
432,200,102847,1,0,0:0:0:0:
456,160,102935,1,8,0:0:0:0:
432,164,103023,1,8,0:0:0:0:
440,160,103112,1,0,0:0:0:0:
444,156,103200,1,0,0:0:0:0:
440,152,103288,1,8,0:0:0:0:
444,160,103465,1,0,0:0:0:0:
444,160,103553,1,0,0:0:0:0:
388,160,103641,1,8,0:0:0:0:
388,160,103818,1,8,0:0:0:0:
440,160,103906,1,8,0:0:0:0:
428,152,103994,1,0,0:0:0:0:
464,168,104082,1,0,0:0:0:0:
456,152,104171,1,0,0:0:0:0:
456,152,104259,1,0,0:0:0:0:
452,144,104347,1,8,0:0:0:0:
428,152,104523,1,8,0:0:0:0:
448,160,104612,1,8,0:0:0:0:
432,196,104700,1,0,0:0:0:0:
420,160,104876,1,0,0:0:0:0:
396,148,105053,1,8,0:0:0:0:
420,160,105229,1,0,0:0:0:0:
396,152,105406,1,8,0:0:0:0:
396,152,105494,1,8,0:0:0:0:
368,152,105582,1,0,0:0:0:0:
420,160,105759,1,8,0:0:0:0:
420,160,105847,1,0,0:0:0:0:
448,160,105935,1,8,0:0:0:0:
448,160,106023,1,8,0:0:0:0:
368,152,106112,1,0,0:0:0:0:
400,168,106288,1,0,0:0:0:0:
400,168,106376,1,0,0:0:0:0:
368,160,106465,1,8,0:0:0:0:
471,156,106641,1,8,0:0:0:0:
396,148,106818,1,0,0:0:0:0:
396,152,106906,1,0,0:0:0:0:
384,144,106994,1,0,0:0:0:0:
384,144,107082,1,0,0:0:0:0:
388,136,107171,1,8,0:0:0:0:
404,176,107347,1,8,0:0:0:0:
368,180,107435,1,8,0:0:0:0:
344,152,107523,1,0,0:0:0:0:
412,151,107700,1,0,0:0:0:0:
396,151,107788,1,0,0:0:0:0:
382,152,107876,1,8,0:0:0:0:
396,160,108053,1,8,0:0:0:0:
400,160,108141,1,0,0:0:0:0:
421,151,108229,1,8,0:0:0:0:
488,162,108318,1,8,0:0:0:0:
399,151,108406,1,0,0:0:0:0:
400,160,108494,1,0,0:0:0:0:
406,156,108582,1,8,0:0:0:0:
425,149,108759,1,0,0:0:0:0:
375,150,108935,1,8,0:0:0:0:
410,151,109023,1,0,0:0:0:0:
410,151,109112,1,0,0:0:0:0:
410,151,109200,1,0,0:0:0:0:
393,154,109288,1,8,0:0:0:0:
390,146,109465,1,0,0:0:0:0:
388,146,109553,1,0,0:0:0:0:
416,152,109641,1,8,0:0:0:0:
419,153,109729,1,0,0:0:0:0:
418,153,109818,1,0,0:0:0:0:
418,153,109906,1,0,0:0:0:0:
395,157,109994,1,8,0:0:0:0:
406,154,110082,1,0,0:0:0:0:
420,164,110171,1,8,0:0:0:0:
412,164,110259,1,8,0:0:0:0:
436,175,110347,1,0,0:0:0:0:
456,184,110435,1,8,0:0:0:0:
388,146,110523,1,8,0:0:0:0:
408,136,110612,1,0,0:0:0:0:
435,143,110700,1,8,0:0:0:0:
436,184,110876,1,8,0:0:0:0:
416,184,110965,1,8,0:0:0:0:
436,175,111053,1,0,0:0:0:0:
460,149,111229,1,8,0:0:0:0:
457,150,111318,1,8,0:0:0:0:
443,157,111406,1,0,0:0:0:0:
461,160,111494,1,0,0:0:0:0:
436,149,111582,1,8,0:0:0:0:
404,165,111759,1,4,0:0:0:0:
364,156,111935,1,0,0:0:0:0:
401,145,112023,1,0,0:0:0:0:
394,149,112112,1,8,0:0:0:0:
394,149,112200,1,8,0:0:0:0:
417,142,112288,1,0,0:0:0:0:
434,153,112465,1,8,0:0:0:0:
460,153,112553,1,0,0:0:0:0:
475,158,112641,1,8,0:0:0:0:
460,153,112729,1,8,0:0:0:0:
472,151,112818,1,0,0:0:0:0:
472,151,112906,1,0,0:0:0:0:
461,153,112994,1,8,0:0:0:0:
485,166,113171,1,8,0:0:0:0:
485,166,113259,1,8,0:0:0:0:
481,175,113347,1,0,0:0:0:0:
481,175,113435,1,0,0:0:0:0:
453,170,113523,1,8,0:0:0:0:
453,170,113612,1,8,0:0:0:0:
458,162,113700,1,0,0:0:0:0:
456,162,113788,1,0,0:0:0:0:
402,156,113876,1,8,0:0:0:0:
402,156,113965,1,8,0:0:0:0:
402,156,114053,1,8,0:0:0:0:
402,156,114141,1,8,0:0:0:0:
354,144,114229,1,0,0:0:0:0:
354,144,114318,1,0,0:0:0:0:
403,162,114406,1,8,0:0:0:0:
403,162,114494,1,8,0:0:0:0:
418,169,114582,1,0,0:0:0:0:
402,156,114759,1,8,0:0:0:0:
447,153,114935,1,0,0:0:0:0:
447,153,115023,1,0,0:0:0:0:
436,155,115112,1,8,0:0:0:0:
422,159,115288,1,0,0:0:0:0:
422,160,115465,1,8,0:0:0:0:
436,140,115553,1,0,0:0:0:0:
436,140,115729,1,0,0:0:0:0:
410,143,115818,1,8,0:0:0:0:
376,136,115994,1,0,0:0:0:0:
420,147,116171,1,8,0:0:0:0:
444,149,116347,1,0,0:0:0:0:
444,149,116435,1,0,0:0:0:0:
419,144,116523,1,8,0:0:0:0:
420,160,116700,1,0,0:0:0:0:
436,155,116788,1,0,0:0:0:0:
386,133,116876,1,8,0:0:0:0:
402,152,116965,1,0,0:0:0:0:
388,152,117141,1,0,0:0:0:0:
386,164,117229,1,8,0:0:0:0:
426,158,117406,1,0,0:0:0:0:
356,160,117582,1,8,0:0:0:0:
412,156,117759,1,0,0:0:0:0:
410,156,117847,1,0,0:0:0:0:
422,158,117935,1,8,0:0:0:0:
426,158,118023,1,8,0:0:0:0:
420,171,118112,1,0,0:0:0:0:
347,123,118288,1,8,0:0:0:0:
427,140,118465,1,0,0:0:0:0:
427,140,118553,1,0,0:0:0:0:
399,136,118641,1,8,0:0:0:0:
397,136,118729,1,8,0:0:0:0:
376,140,118818,1,0,0:0:0:0:
376,140,118994,1,8,0:0:0:0:
464,172,119171,1,0,0:0:0:0:
469,150,119259,1,0,0:0:0:0:
392,160,119347,1,8,0:0:0:0:
403,158,119435,1,0,0:0:0:0:
397,154,119523,1,8,0:0:0:0:
389,143,119700,1,8,0:0:0:0:
367,163,119788,1,8,0:0:0:0:
435,147,119876,1,0,0:0:0:0:
436,163,119965,1,0,0:0:0:0:
406,163,120053,1,8,0:0:0:0:
364,156,120229,1,8,0:0:0:0:
412,144,120318,1,0,0:0:0:0:
412,144,120406,1,0,0:0:0:0:
412,144,120494,1,0,0:0:0:0:
469,150,120582,1,0,0:0:0:0:
469,164,120671,1,0,0:0:0:0:
429,155,120759,1,8,0:0:0:0:
457,143,120847,1,0,0:0:0:0:
457,143,120935,1,0,0:0:0:0:
460,142,121023,1,0,0:0:0:0:
469,150,121112,1,0,0:0:0:0:
438,151,121200,1,0,0:0:0:0:
446,155,121288,1,8,0:0:0:0:
481,156,121376,1,8,0:0:0:0:
403,152,121465,1,0,0:0:0:0:
402,152,121553,1,0,0:0:0:0:
419,153,121641,1,8,0:0:0:0:
432,148,121994,1,0,0:0:0:0:
366,157,122347,1,8,0:0:0:0:
368,140,122700,1,8,0:0:0:0:
366,157,123053,1,4,0:0:0:0:
400,152,123229,1,8,0:0:0:0:
372,156,123406,1,0,0:0:0:0:
372,156,123494,1,0,0:0:0:0:
320,136,123582,1,8,0:0:0:0:
384,144,123759,1,0,0:0:0:0:
384,152,123935,1,8,0:0:0:0:
368,148,124023,1,0,0:0:0:0:
364,148,124200,1,0,0:0:0:0:
280,140,124288,1,8,0:0:0:0:
428,144,124465,1,0,0:0:0:0:
400,152,124641,1,8,0:0:0:0:
396,148,124818,1,0,0:0:0:0:
396,148,124906,1,0,0:0:0:0:
364,144,124994,1,8,0:0:0:0:
400,132,125171,1,0,0:0:0:0:
400,132,125259,1,0,0:0:0:0:
428,112,125347,1,8,0:0:0:0:
312,84,125435,1,0,0:0:0:0:
324,96,125612,1,0,0:0:0:0:
344,120,125700,1,8,0:0:0:0:
424,136,125788,1,8,0:0:0:0:
372,120,125876,1,0,0:0:0:0:
420,156,126053,1,8,0:0:0:0:
428,156,126229,1,0,0:0:0:0:
420,156,126318,1,0,0:0:0:0:
456,140,126406,1,8,0:0:0:0:
400,140,126582,1,0,0:0:0:0:
400,140,126671,1,0,0:0:0:0:
388,160,126759,1,8,0:0:0:0:
400,144,126847,1,0,0:0:0:0:
388,144,126935,1,8,0:0:0:0:
392,128,127023,1,0,0:0:0:0:
428,156,127112,1,8,0:0:0:0:
368,108,127200,1,8,0:0:0:0:
428,152,127288,1,0,0:0:0:0:
416,160,127465,1,8,0:0:0:0:
408,172,127641,1,0,0:0:0:0:
408,172,127729,1,0,0:0:0:0:
372,160,127818,1,8,0:0:0:0:
416,116,127994,1,0,0:0:0:0:
364,172,128082,1,0,0:0:0:0:
400,180,128171,1,8,0:0:0:0:
404,168,128259,1,0,0:0:0:0:
340,160,128347,1,8,0:0:0:0:
432,216,128435,1,8,0:0:0:0:
368,176,128523,1,8,0:0:0:0:
388,176,128612,1,8,0:0:0:0:
408,172,128700,1,0,0:0:0:0:
460,172,128876,1,8,0:0:0:0:
400,144,129053,1,0,0:0:0:0:
400,144,129141,1,0,0:0:0:0:
376,152,129229,1,8,0:0:0:0:
384,160,129406,1,0,0:0:0:0:
358,151,129582,1,8,0:0:0:0:
408,155,129671,1,0,0:0:0:0:
405,160,129847,1,0,0:0:0:0:
405,164,129935,1,8,0:0:0:0:
392,148,130112,5,0,0:0:0:0:
364,156,130288,1,8,0:0:0:0:
380,160,130465,1,0,0:0:0:0:
426,160,130553,1,0,0:0:0:0:
356,148,130641,1,8,0:0:0:0:
400,188,130818,1,0,0:0:0:0:
440,144,130906,1,0,0:0:0:0:
344,156,130994,1,8,0:0:0:0:
356,152,131082,1,0,0:0:0:0:
468,152,131259,1,0,0:0:0:0:
428,150,131347,1,8,0:0:0:0:
428,150,131435,1,8,0:0:0:0:
453,168,131523,1,0,0:0:0:0:
445,147,131700,1,8,0:0:0:0:
471,154,131876,1,0,0:0:0:0:
465,154,131965,1,0,0:0:0:0:
434,160,132053,1,8,0:0:0:0:
433,149,132229,1,0,0:0:0:0:
422,157,132318,1,0,0:0:0:0:
420,159,132406,1,8,0:0:0:0:
401,158,132494,1,0,0:0:0:0:
433,158,132582,1,0,0:0:0:0:
427,158,132671,1,0,0:0:0:0:
432,151,132759,1,8,0:0:0:0:
479,168,132935,1,0,0:0:0:0:
453,168,133023,1,0,0:0:0:0:
440,160,133112,1,8,0:0:0:0:
467,172,133200,1,8,0:0:0:0:
411,142,133288,1,0,0:0:0:0:
411,142,133376,1,0,0:0:0:0:
471,154,133465,1,8,0:0:0:0:
386,133,133553,1,0,0:0:0:0:
471,154,133641,1,0,0:0:0:0:
364,132,133729,1,0,0:0:0:0:
433,149,133818,1,8,0:0:0:0:
458,163,133906,1,0,0:0:0:0:
395,158,133994,1,8,0:0:0:0:
396,157,134082,1,8,0:0:0:0:
450,149,134171,1,8,0:0:0:0:
386,133,134347,1,4,0:0:0:0:
401,174,134523,1,8,0:0:0:0:
395,157,134700,1,0,0:0:0:0:
395,157,134788,1,0,0:0:0:0:
429,166,134876,1,8,0:0:0:0:
418,140,135053,1,0,0:0:0:0:
422,153,135229,1,8,0:0:0:0:
408,164,135318,1,0,0:0:0:0:
399,164,135494,1,0,0:0:0:0:
447,171,135582,1,8,0:0:0:0:
338,143,135759,1,0,0:0:0:0:
418,140,135935,1,8,0:0:0:0:
427,153,136112,1,0,0:0:0:0:
427,153,136200,1,0,0:0:0:0:
458,153,136288,1,8,0:0:0:0:
442,142,136465,1,0,0:0:0:0:
442,142,136553,1,0,0:0:0:0:
403,156,136641,1,8,0:0:0:0:
422,158,136729,1,0,0:0:0:0:
422,158,136906,1,0,0:0:0:0:
425,162,136994,1,8,0:0:0:0:
288,160,137082,1,8,0:0:0:0:
456,188,137171,1,0,0:0:0:0:
401,145,137347,1,8,0:0:0:0:
419,156,137523,1,0,0:0:0:0:
432,196,137612,1,0,0:0:0:0:
414,161,137700,1,8,0:0:0:0:
403,156,137876,1,8,0:0:0:0:
416,152,137965,1,0,0:0:0:0:
364,136,138053,1,8,0:0:0:0:
408,164,138141,1,8,0:0:0:0:
384,160,138229,1,0,0:0:0:0:
428,152,138318,1,0,0:0:0:0:
400,152,138406,1,8,0:0:0:0:
444,160,138582,1,0,0:0:0:0:
422,158,138671,1,0,0:0:0:0:
392,144,138759,1,8,0:0:0:0:
476,112,138847,1,0,0:0:0:0:
440,232,138935,1,0,0:0:0:0:
408,192,139023,1,0,0:0:0:0:
500,168,139112,1,8,0:0:0:0:
414,176,139200,1,0,0:0:0:0:
452,198,139288,1,8,0:0:0:0:
452,198,139376,1,8,0:0:0:0:
470,196,139465,1,0,0:0:0:0:
440,168,139553,1,0,0:0:0:0:
428,160,139641,1,8,0:0:0:0:
428,160,139729,1,8,0:0:0:0:
416,160,139818,1,8,0:0:0:0:
480,168,139906,1,8,0:0:0:0:
456,164,139994,1,0,0:0:0:0:
372,152,140171,1,8,0:0:0:0:
448,168,140347,1,0,0:0:0:0:
496,172,140435,1,0,0:0:0:0:
392,176,140523,1,8,0:0:0:0:
436,168,140612,1,8,0:0:0:0:
384,172,140700,1,0,0:0:0:0:
444,176,140876,1,8,0:0:0:0:
432,172,141053,1,0,0:0:0:0:
496,172,141141,1,0,0:0:0:0:
412,172,141229,1,8,0:0:0:0:
444,176,141318,1,8,0:0:0:0:
384,172,141406,1,0,0:0:0:0:
400,184,141582,1,0,0:0:0:0:
444,147,141671,1,0,0:0:0:0:
464,156,141759,1,8,0:0:0:0:
408,192,141847,1,0,0:0:0:0:
450,154,141935,1,0,0:0:0:0:
472,168,142023,1,0,0:0:0:0:
416,152,142112,1,8,0:0:0:0:
416,184,142288,1,0,0:0:0:0:
352,56,142376,1,0,0:0:0:0:
437,161,142465,1,8,0:0:0:0:
416,164,142553,1,8,0:0:0:0:
428,148,142641,1,0,0:0:0:0:
444,156,142818,1,8,0:0:0:0:
420,176,142906,1,0,0:0:0:0:
456,160,142994,1,0,0:0:0:0:
456,160,143082,1,0,0:0:0:0:
460,168,143171,1,8,0:0:0:0:
367,196,143259,1,0,0:0:0:0:
372,168,143347,1,8,0:0:0:0:
402,148,143435,1,8,0:0:0:0:
420,176,143523,1,0,0:0:0:0:
428,168,143612,1,0,0:0:0:0:
432,172,143700,1,8,0:0:0:0:
436,168,143788,1,0,0:0:0:0:
460,172,143876,1,8,0:0:0:0:
448,172,143965,1,8,0:0:0:0:
432,172,144053,1,0,0:0:0:0:
456,156,144141,1,0,0:0:0:0:
468,168,144229,1,8,0:0:0:0:
389,194,145171,1,0,0:0:0:0:
389,194,145229,1,0,0:0:0:0:
396,148,145288,1,8,0:0:0:0:
375,143,145376,1,8,0:0:0:0:
424,172,145465,1,0,0:0:0:0:
424,172,145553,1,0,0:0:0:0:
428,139,145641,1,8,0:0:0:0:
424,172,145818,1,0,0:0:0:0:
408,186,145906,1,0,0:0:0:0:
436,156,145994,1,8,0:0:0:0:
452,160,146171,1,8,0:0:0:0:
484,184,146347,1,0,0:0:0:0:
465,175,146435,1,0,0:0:0:0:
412,153,146523,1,8,0:0:0:0:
404,153,146612,1,8,0:0:0:0:
429,143,146700,1,0,0:0:0:0:
440,168,146876,1,8,0:0:0:0:
433,159,147053,1,0,0:0:0:0:
419,164,147229,1,0,0:0:0:0:
419,164,147318,1,0,0:0:0:0:
411,169,147406,1,8,0:0:0:0:
408,149,147582,1,0,0:0:0:0:
408,149,147671,1,0,0:0:0:0:
400,147,147759,1,8,0:0:0:0:
459,176,147847,1,0,0:0:0:0:
364,152,147935,1,8,0:0:0:0:
364,152,148023,1,8,0:0:0:0:
448,152,148112,1,0,0:0:0:0:
457,154,148288,1,0,0:0:0:0:
409,142,148465,1,8,0:0:0:0:
388,128,148641,1,0,0:0:0:0:
384,128,148729,1,0,0:0:0:0:
392,152,148818,1,8,0:0:0:0:
384,156,148994,1,8,0:0:0:0:
412,148,149171,1,0,0:0:0:0:
424,152,149259,1,0,0:0:0:0:
384,152,149347,1,8,0:0:0:0:
384,152,149435,1,8,0:0:0:0:
408,156,149523,1,0,0:0:0:0:
472,172,149700,1,8,0:0:0:0:
448,152,149876,1,0,0:0:0:0:
448,152,150053,1,0,0:0:0:0:
448,152,150141,1,0,0:0:0:0:
416,152,150229,1,8,0:0:0:0:
416,152,150406,1,8,0:0:0:0:
428,167,150494,1,0,0:0:0:0:
436,152,150582,1,8,0:0:0:0:
416,152,150671,1,8,0:0:0:0:
408,172,150759,1,0,0:0:0:0:
408,172,150847,1,8,0:0:0:0:
428,167,150935,1,0,0:0:0:0:
424,148,151023,1,0,0:0:0:0:
408,168,151112,1,8,0:0:0:0:
472,172,151200,1,0,0:0:0:0:
481,178,151288,1,8,0:0:0:0:
468,228,151465,1,0,0:0:0:0:
468,228,151553,1,0,0:0:0:0:
481,178,151641,1,8,0:0:0:0:
481,178,151818,1,8,0:0:0:0:
486,174,151994,1,0,0:0:0:0:
486,174,152082,1,0,0:0:0:0:
471,160,152171,1,8,0:0:0:0:
471,160,152259,1,8,0:0:0:0:
504,164,152347,1,0,0:0:0:0:
436,156,152523,1,8,0:0:0:0:
480,148,152700,1,0,0:0:0:0:
452,160,152876,1,0,0:0:0:0:
452,160,152965,1,0,0:0:0:0:
464,148,153053,1,8,0:0:0:0:
424,184,153229,1,0,0:0:0:0:
408,172,153318,1,0,0:0:0:0:
444,192,153406,1,8,0:0:0:0:
452,208,153494,1,0,0:0:0:0:
389,184,153582,1,8,0:0:0:0:
448,152,153671,1,0,0:0:0:0:
416,140,153759,1,8,0:0:0:0:
416,140,153847,1,8,0:0:0:0:
464,144,153935,1,0,0:0:0:0:
348,136,154023,1,0,0:0:0:0:
428,144,154112,1,8,0:0:0:0:
348,136,154288,1,0,0:0:0:0:
348,136,154376,1,0,0:0:0:0:
384,140,154465,1,8,0:0:0:0:
384,140,154641,1,8,0:0:0:0:
420,152,154818,1,0,0:0:0:0:
420,152,154906,1,0,0:0:0:0:
408,140,154994,1,8,0:0:0:0:
408,140,155082,1,8,0:0:0:0:
420,152,155171,1,0,0:0:0:0:
420,128,155347,1,8,0:0:0:0:
416,140,155523,1,0,0:0:0:0:
416,140,155700,1,0,0:0:0:0:
416,140,155788,1,0,0:0:0:0:
404,136,155876,1,8,0:0:0:0:
396,128,156053,1,0,0:0:0:0:
396,124,156141,1,8,0:0:0:0:
436,144,156229,1,0,0:0:0:0:
432,144,156318,1,0,0:0:0:0:
384,136,156406,1,8,0:0:0:0:
372,136,156494,1,0,0:0:0:0:
452,140,156582,1,8,0:0:0:0:
448,136,156671,1,8,0:0:0:0:
400,148,156759,1,8,0:0:0:0:
400,148,156847,1,8,0:0:0:0:
404,168,156935,1,0,0:0:0:0:
384,152,157112,1,8,0:0:0:0:
400,160,157288,1,0,0:0:0:0:
434,172,157376,1,0,0:0:0:0:
386,158,157465,1,8,0:0:0:0:
404,168,157641,1,8,0:0:0:0:
400,148,157729,1,0,0:0:0:0:
404,168,157818,1,8,0:0:0:0:
451,179,157906,1,8,0:0:0:0:
434,172,157994,1,0,0:0:0:0:
344,140,158082,1,0,0:0:0:0:
368,116,158171,1,8,0:0:0:0:
392,144,158347,1,0,0:0:0:0:
451,179,158523,1,8,0:0:0:0:
416,208,158612,1,0,0:0:0:0:
420,200,158700,1,0,0:0:0:0:
438,158,158788,1,0,0:0:0:0:
392,156,158876,1,8,0:0:0:0:
432,160,159053,1,8,0:0:0:0:
440,156,159141,1,0,0:0:0:0:
411,162,159229,1,8,0:0:0:0:
411,162,159318,1,8,0:0:0:0:
424,156,159406,1,0,0:0:0:0:
424,156,159494,1,0,0:0:0:0:
428,167,159582,1,8,0:0:0:0:
426,161,159671,1,8,0:0:0:0:
415,166,159759,1,0,0:0:0:0:
372,134,159935,1,8,0:0:0:0:
325,84,160023,1,0,0:0:0:0:
372,134,160200,1,0,0:0:0:0:
360,141,160288,1,8,0:0:0:0:
400,137,160376,1,0,0:0:0:0:
397,149,160465,1,8,0:0:0:0:
432,160,160553,1,0,0:0:0:0:
392,156,160641,1,8,0:0:0:0:
391,154,160729,1,8,0:0:0:0:
453,172,160818,1,0,0:0:0:0:
391,154,160906,1,8,0:0:0:0:
436,162,160994,1,0,0:0:0:0:
375,159,161082,1,0,0:0:0:0:
413,168,161171,1,8,0:0:0:0:
410,144,161259,1,0,0:0:0:0:
478,182,161347,1,8,0:0:0:0:
462,154,161435,1,8,0:0:0:0:
409,172,161523,1,0,0:0:0:0:
425,154,161612,1,0,0:0:0:0:
462,171,161700,1,8,0:0:0:0:
425,158,161788,1,8,0:0:0:0:
471,164,161876,1,0,0:0:0:0:
440,160,162053,1,0,0:0:0:0:
440,160,162141,1,0,0:0:0:0:
472,156,162229,1,8,0:0:0:0:
453,145,162318,1,0,0:0:0:0:
432,161,162406,1,8,0:0:0:0:
432,161,162494,1,8,0:0:0:0:
464,145,162582,1,0,0:0:0:0:
409,148,162759,1,8,0:0:0:0:
387,157,162847,1,0,0:0:0:0:
387,157,163023,1,0,0:0:0:0:
451,155,163112,1,8,0:0:0:0:
451,155,163200,1,8,0:0:0:0:
387,157,163288,1,0,0:0:0:0:
471,168,163465,1,8,0:0:0:0:
471,168,163553,1,8,0:0:0:0:
419,154,163641,1,0,0:0:0:0:
419,154,163729,1,0,0:0:0:0:
375,162,163818,1,8,0:0:0:0:
474,139,163994,1,0,0:0:0:0:
425,138,164171,1,8,0:0:0:0:
387,157,164259,1,0,0:0:0:0:
375,153,164435,1,0,0:0:0:0:
403,154,164523,1,8,0:0:0:0:
416,220,164700,1,8,0:0:0:0:
464,192,164788,1,0,0:0:0:0:
412,176,164876,1,8,0:0:0:0:
416,220,164965,1,8,0:0:0:0:
432,153,165053,1,0,0:0:0:0:
432,153,165141,1,0,0:0:0:0:
479,166,165229,1,8,0:0:0:0:
448,169,165318,1,0,0:0:0:0:
473,165,165406,1,8,0:0:0:0:
400,168,165582,1,8,0:0:0:0:
449,160,165671,1,0,0:0:0:0:
449,160,165847,1,0,0:0:0:0:
436,162,165935,1,8,0:0:0:0:
441,143,166112,1,0,0:0:0:0:
400,168,166200,1,8,0:0:0:0:
408,156,166288,1,8,0:0:0:0:
400,168,166376,1,0,0:0:0:0:
441,168,166465,1,0,0:0:0:0:
402,171,166553,1,0,0:0:0:0:
400,158,166641,1,8,0:0:0:0:
377,153,166729,1,0,0:0:0:0:
393,153,166818,1,8,0:0:0:0:
419,140,166906,1,8,0:0:0:0:
430,146,166994,1,0,0:0:0:0:
412,137,167082,1,8,0:0:0:0:
425,158,167171,1,0,0:0:0:0:
424,158,167259,1,0,0:0:0:0:
400,158,167347,1,8,0:0:0:0:
406,157,167435,1,0,0:0:0:0:
389,162,167523,1,8,0:0:0:0:
402,171,167612,1,8,0:0:0:0:
427,140,167700,1,0,0:0:0:0:
377,153,167788,1,0,0:0:0:0:
368,152,167876,1,8,0:0:0:0:
419,140,167965,1,0,0:0:0:0:
425,158,168053,1,0,0:0:0:0:
420,164,168141,1,0,0:0:0:0:
400,158,168229,1,8,0:0:0:0:
444,172,168406,1,0,0:0:0:0:
389,179,168494,1,0,0:0:0:0:
392,140,168582,1,8,0:0:0:0:
392,140,168671,1,8,0:0:0:0:
424,152,168759,1,0,0:0:0:0:
392,140,168935,1,0,0:0:0:0:
372,128,169023,1,0,0:0:0:0:
389,179,169112,1,8,0:0:0:0:
392,140,169200,1,0,0:0:0:0:
420,164,169288,1,8,0:0:0:0:
420,164,169376,1,8,0:0:0:0:
389,179,169465,1,0,0:0:0:0:
392,140,169553,1,0,0:0:0:0:
424,152,169641,1,8,0:0:0:0:
405,149,169818,1,0,0:0:0:0:
408,160,169906,1,8,0:0:0:0:
380,147,169994,1,0,0:0:0:0:
380,147,170082,1,0,0:0:0:0:
420,164,170171,1,8,0:0:0:0:
453,152,170259,1,0,0:0:0:0:
397,153,170347,1,8,0:0:0:0:
392,168,170523,1,8,0:0:0:0:
373,156,170612,1,8,0:0:0:0:
453,152,170700,1,0,0:0:0:0:
408,158,170788,1,0,0:0:0:0:
408,160,170876,1,8,0:0:0:0:
420,164,170965,1,0,0:0:0:0:
432,168,171053,1,8,0:0:0:0:
453,152,171229,1,0,0:0:0:0:
380,168,171318,1,0,0:0:0:0:
453,152,171406,1,8,0:0:0:0:
409,152,171582,1,0,0:0:0:0:
396,176,171671,1,0,0:0:0:0:
424,160,171759,1,8,0:0:0:0:
376,152,171847,1,0,0:0:0:0:
404,168,171935,1,8,0:0:0:0:
404,168,172023,1,8,0:0:0:0:
432,148,172112,1,0,0:0:0:0:
432,148,172200,1,0,0:0:0:0:
400,152,172288,1,8,0:0:0:0:
372,160,172376,1,0,0:0:0:0:
392,152,172465,1,8,0:0:0:0:
436,160,172641,1,0,0:0:0:0:
352,136,172729,1,0,0:0:0:0:
468,160,172818,1,8,0:0:0:0:
432,160,172906,1,0,0:0:0:0:
408,152,172994,1,8,0:0:0:0:
416,172,173082,1,0,0:0:0:0:
424,160,173171,1,8,0:0:0:0:
408,148,173259,1,8,0:0:0:0:
456,168,173347,1,0,0:0:0:0:
420,160,173435,1,0,0:0:0:0:
432,164,173523,1,8,0:0:0:0:
432,164,173612,1,8,0:0:0:0:
472,156,173700,1,8,0:0:0:0:
392,152,173788,1,0,0:0:0:0:
392,152,173876,1,8,0:0:0:0:
416,152,174053,1,0,0:0:0:0:
440,156,174141,1,8,0:0:0:0:
420,152,174318,1,0,0:0:0:0:
384,144,174406,1,8,0:0:0:0:
408,128,174494,1,0,0:0:0:0:
400,128,174582,1,0,0:0:0:0:
344,140,174671,1,8,0:0:0:0:
420,144,174847,1,0,0:0:0:0:
412,160,174935,1,8,0:0:0:0:
408,136,175023,1,0,0:0:0:0:
400,140,175112,1,8,0:0:0:0:
432,152,175288,1,8,0:0:0:0:
356,136,175465,1,0,0:0:0:0:
312,124,175553,1,8,0:0:0:0:
348,128,175729,1,0,0:0:0:0:
256,124,175818,1,8,0:0:0:0:
376,136,175906,1,0,0:0:0:0:
376,136,175994,1,0,0:0:0:0:
408,144,176082,1,8,0:0:0:0:
416,156,176259,1,0,0:0:0:0:
396,148,176347,1,8,0:0:0:0:
327,169,176435,1,0,0:0:0:0:
432,172,176523,1,8,0:0:0:0:
436,160,176612,1,8,0:0:0:0:
432,172,176700,1,8,0:0:0:0:
380,176,176876,1,8,0:0:0:0:
408,144,176965,1,0,0:0:0:0:
432,160,177053,1,8,0:0:0:0:
428,172,177141,1,8,0:0:0:0:
432,196,177229,1,0,0:0:0:0:
440,184,177318,1,0,0:0:0:0:
428,184,177406,1,8,0:0:0:0:
416,148,177494,1,0,0:0:0:0:
388,160,177582,1,8,0:0:0:0:
440,160,177671,1,0,0:0:0:0:
408,164,177759,1,8,0:0:0:0:
380,176,177847,1,8,0:0:0:0:
304,124,177935,1,8,0:0:0:0:
408,152,178023,1,0,0:0:0:0:
444,152,178112,1,8,0:0:0:0:
424,144,178200,1,0,0:0:0:0:
324,128,178288,1,8,0:0:0:0:
432,144,178376,1,8,0:0:0:0:
460,148,178465,1,0,0:0:0:0:
460,148,178553,1,0,0:0:0:0:
440,148,178641,1,8,0:0:0:0:
408,144,178729,1,0,0:0:0:0:
488,152,178818,1,8,0:0:0:0:
436,148,178906,1,8,0:0:0:0:
464,176,178994,1,0,0:0:0:0:
448,160,179082,1,0,0:0:0:0:
472,160,179171,1,8,0:0:0:0:
436,168,179259,1,0,0:0:0:0:
484,156,179347,1,8,0:0:0:0:
480,156,179435,1,8,0:0:0:0:
488,156,179523,1,0,0:0:0:0:
396,156,179700,1,8,0:0:0:0:
424,160,179876,1,0,0:0:0:0:
424,160,179965,1,0,0:0:0:0:
404,164,180053,1,8,0:0:0:0:
456,156,180229,1,0,0:0:0:0:
440,148,180406,1,8,0:0:0:0:
419,138,180494,1,0,0:0:0:0:
376,119,180671,1,0,0:0:0:0:
424,160,180759,1,8,0:0:0:0:
480,156,180935,1,0,0:0:0:0:
460,160,181112,1,8,0:0:0:0:
408,152,181288,1,0,0:0:0:0:
472,172,181376,1,0,0:0:0:0:
416,168,181465,1,8,0:0:0:0:
420,136,181641,1,0,0:0:0:0:
420,136,181729,1,0,0:0:0:0:
416,168,181818,1,8,0:0:0:0:
464,168,181906,1,0,0:0:0:0:
420,108,182082,1,0,0:0:0:0:
464,176,182171,1,8,0:0:0:0:
468,144,182347,1,0,0:0:0:0:
389,148,182523,1,8,0:0:0:0:
368,147,182700,1,0,0:0:0:0:
400,168,182788,1,0,0:0:0:0:
392,140,182876,1,8,0:0:0:0:
368,147,182965,1,8,0:0:0:0:
400,168,183053,1,0,0:0:0:0:
458,145,183229,1,8,0:0:0:0:
440,148,183318,1,0,0:0:0:0:
444,144,183494,1,0,0:0:0:0:
428,152,183582,1,8,0:0:0:0:
480,144,183759,1,0,0:0:0:0:
404,140,183935,1,8,0:0:0:0:
392,160,184112,1,0,0:0:0:0:
392,160,184200,1,0,0:0:0:0:
416,144,184288,1,8,0:0:0:0:
432,160,184465,1,0,0:0:0:0:
444,160,184553,1,0,0:0:0:0:
392,184,184641,1,8,0:0:0:0:
400,228,184729,1,0,0:0:0:0:
344,168,184818,1,8,0:0:0:0:
415,177,184906,1,8,0:0:0:0:
432,220,184994,1,8,0:0:0:0:
360,148,185082,1,8,0:0:0:0:
392,152,185171,1,0,0:0:0:0:
398,178,185347,1,8,0:0:0:0:
456,168,185523,1,0,0:0:0:0:
456,168,185612,1,0,0:0:0:0:
412,156,185700,1,8,0:0:0:0:
360,144,185876,1,0,0:0:0:0:
432,164,185965,1,0,0:0:0:0:
372,152,186053,1,8,0:0:0:0:
408,160,186141,1,0,0:0:0:0:
416,216,186229,1,0,0:0:0:0:
448,160,186318,1,0,0:0:0:0:
372,152,186406,1,8,0:0:0:0:
364,152,186494,1,8,0:0:0:0:
360,144,186582,1,0,0:0:0:0:
376,148,186759,1,8,0:0:0:0:
344,140,186847,1,0,0:0:0:0:
340,140,187023,1,0,0:0:0:0:
392,152,187112,1,8,0:0:0:0:
392,156,187288,1,0,0:0:0:0:
352,152,187376,1,0,0:0:0:0:
376,152,187465,1,8,0:0:0:0:
320,184,187553,1,0,0:0:0:0:
348,168,187641,1,8,0:0:0:0:
348,168,187729,1,8,0:0:0:0:
394,171,187818,1,8,0:0:0:0:
416,172,187906,1,0,0:0:0:0:
440,160,187994,1,8,0:0:0:0:
396,148,188171,1,0,0:0:0:0:
394,171,188259,1,8,0:0:0:0:
416,172,188347,1,0,0:0:0:0:
416,144,188435,1,0,0:0:0:0:
440,152,188523,1,8,0:0:0:0:
428,196,188700,1,0,0:0:0:0:
396,160,188788,1,0,0:0:0:0:
432,152,188876,1,8,0:0:0:0:
400,168,188965,1,8,0:0:0:0:
444,212,189053,1,0,0:0:0:0:
392,164,189141,1,0,0:0:0:0:
394,171,189229,1,8,0:0:0:0:
456,164,189318,1,0,0:0:0:0:
420,156,189406,1,8,0:0:0:0:
403,198,189582,1,8,0:0:0:0:
464,152,189671,1,8,0:0:0:0:
416,168,189759,1,0,0:0:0:0:
416,168,189847,1,0,0:0:0:0:
412,160,189935,1,8,0:0:0:0:
440,152,190112,1,8,0:0:0:0:
436,172,190200,1,0,0:0:0:0:
436,172,190288,1,0,0:0:0:0:
452,164,190376,1,0,0:0:0:0:
408,148,190465,1,8,0:0:0:0:
432,152,190553,1,8,0:0:0:0:
412,160,190641,1,0,0:0:0:0:
413,154,190729,1,0,0:0:0:0:
328,157,190818,1,8,0:0:0:0:
488,169,190994,1,0,0:0:0:0:
408,148,191171,1,8,0:0:0:0:
328,157,191259,1,0,0:0:0:0:
428,140,191347,1,8,0:0:0:0:
488,169,191435,1,8,0:0:0:0:
448,156,191523,1,0,0:0:0:0:
452,156,191700,1,8,0:0:0:0:
396,144,191788,1,0,0:0:0:0:
396,144,191965,1,0,0:0:0:0:
324,144,192053,1,8,0:0:0:0:
356,152,192229,1,0,0:0:0:0:
392,168,192406,1,8,0:0:0:0:
381,186,192494,1,8,0:0:0:0:
68,168,192582,1,0,0:0:0:0:
384,152,192671,1,0,0:0:0:0:
356,140,192759,1,8,0:0:0:0:
400,128,192935,1,0,0:0:0:0:
384,164,193023,1,8,0:0:0:0:
384,164,193112,1,8,0:0:0:0:
336,164,193200,1,0,0:0:0:0:
396,152,193376,1,0,0:0:0:0:
300,148,193465,1,8,0:0:0:0:
368,144,193641,1,0,0:0:0:0:
408,152,193818,1,8,0:0:0:0:
344,140,193994,1,0,0:0:0:0:
380,140,194082,1,0,0:0:0:0:
356,136,194171,1,8,0:0:0:0:
392,148,194259,1,0,0:0:0:0:
316,140,194347,1,8,0:0:0:0:
392,160,194523,1,8,0:0:0:0:
368,144,194612,1,0,0:0:0:0:
436,184,194788,1,0,0:0:0:0:
396,160,194876,1,8,0:0:0:0:
364,136,195053,1,8,0:0:0:0:
408,152,195229,1,0,0:0:0:0:
460,168,195318,1,8,0:0:0:0:
452,168,195406,1,0,0:0:0:0:
400,136,195494,1,0,0:0:0:0:
456,140,195582,1,8,0:0:0:0:
456,163,195671,1,0,0:0:0:0:
396,160,195759,1,8,0:0:0:0:
456,144,195935,1,8,0:0:0:0:
456,144,196023,1,8,0:0:0:0:
512,148,196112,1,0,0:0:0:0:
512,148,196200,1,0,0:0:0:0:
444,132,196288,1,8,0:0:0:0:
421,142,196465,1,8,0:0:0:0:
418,158,196553,1,0,0:0:0:0:
464,160,196641,1,8,0:0:0:0:
384,152,196729,1,8,0:0:0:0:
360,144,196818,1,0,0:0:0:0:
360,144,196906,1,0,0:0:0:0:
400,136,196994,1,8,0:0:0:0:
404,136,197171,1,0,0:0:0:0:
404,136,197259,1,0,0:0:0:0:
416,152,197347,1,8,0:0:0:0:
393,150,197435,1,0,0:0:0:0:
440,136,197523,1,0,0:0:0:0:
440,136,197612,1,0,0:0:0:0:
412,136,197700,1,8,0:0:0:0:
364,136,197876,1,8,0:0:0:0:
446,161,197965,1,8,0:0:0:0:
430,176,198053,1,0,0:0:0:0:
412,188,198141,1,8,0:0:0:0:
352,176,198229,1,0,0:0:0:0:
424,140,198318,1,0,0:0:0:0:
380,136,198406,1,8,0:0:0:0:
412,188,198582,1,8,0:0:0:0:
435,185,198671,1,0,0:0:0:0:
457,182,198759,1,8,0:0:0:0:
476,160,198847,1,0,0:0:0:0:
475,195,198935,1,8,0:0:0:0:
480,156,199023,1,8,0:0:0:0:
476,148,199112,1,0,0:0:0:0:
472,208,199288,1,8,0:0:0:0:
448,168,199376,1,0,0:0:0:0:
452,188,199465,1,0,0:0:0:0:
400,160,199553,1,0,0:0:0:0:
420,180,199641,1,8,0:0:0:0:
424,164,199818,1,8,0:0:0:0:
416,140,199906,1,0,0:0:0:0:
360,140,199994,1,8,0:0:0:0:
360,140,200082,1,8,0:0:0:0:
430,176,200171,1,0,0:0:0:0:
360,140,200259,1,0,0:0:0:0:
376,172,200347,1,8,0:0:0:0:
360,140,200523,1,8,0:0:0:0:
360,140,200612,1,0,0:0:0:0:
324,128,200700,1,8,0:0:0:0:
416,140,200788,1,8,0:0:0:0:
360,152,200876,1,8,0:0:0:0:
416,140,200965,1,0,0:0:0:0:
380,152,201053,1,8,0:0:0:0:
440,192,201141,1,0,0:0:0:0:
400,168,201229,1,0,0:0:0:0:
400,168,201318,1,0,0:0:0:0:
420,160,201406,1,8,0:0:0:0:
392,148,201494,1,0,0:0:0:0:
372,152,201582,1,8,0:0:0:0:
380,148,201671,1,8,0:0:0:0:
400,152,201759,1,0,0:0:0:0:
400,152,201847,1,0,0:0:0:0:
376,140,201935,1,8,0:0:0:0:
380,152,202023,1,8,0:0:0:0:
356,152,202112,1,0,0:0:0:0:
440,192,202288,1,0,0:0:0:0:
440,192,202376,1,0,0:0:0:0:
420,160,202465,1,8,0:0:0:0:
440,192,202641,1,0,0:0:0:0:
488,188,202729,1,0,0:0:0:0:
416,176,202818,1,0,0:0:0:0:
416,176,202906,1,0,0:0:0:0:
336,162,202994,1,0,0:0:0:0:
395,162,203082,1,0,0:0:0:0:
436,148,203171,1,8,0:0:0:0:
430,163,203347,1,0,0:0:0:0:
440,192,203435,1,0,0:0:0:0:
400,152,203523,1,0,0:0:0:0:
488,188,203612,1,0,0:0:0:0:
440,172,203700,1,0,0:0:0:0:
460,184,203788,1,0,0:0:0:0:
395,162,203876,1,8,0:0:0:0:
381,130,204053,1,0,0:0:0:0:
448,164,204141,1,0,0:0:0:0:
444,152,204229,1,0,0:0:0:0:
388,140,204318,1,0,0:0:0:0:
421,164,204406,1,0,0:0:0:0:
460,184,204494,1,0,0:0:0:0:
440,160,204582,1,8,0:0:0:0:
480,172,204671,1,0,0:0:0:0:
480,172,204759,1,0,0:0:0:0:
480,172,204847,1,0,0:0:0:0:
328,152,204935,1,8,0:0:0:0:
430,163,205112,1,0,0:0:0:0:
436,167,205200,1,0,0:0:0:0:
440,136,205288,1,8,0:0:0:0:
408,148,205465,1,0,0:0:0:0:
408,148,205553,1,0,0:0:0:0:
428,208,205641,1,0,0:0:0:0:
408,148,205729,1,0,0:0:0:0:
408,148,205818,1,0,0:0:0:0:
428,136,205906,1,0,0:0:0:0:
423,130,205994,1,8,0:0:0:0:
420,136,206082,1,8,0:0:0:0:
430,163,206171,1,0,0:0:0:0:
430,163,206259,1,0,0:0:0:0:
432,176,206347,1,8,0:0:0:0:
428,207,206523,1,0,0:0:0:0:
430,163,206612,1,0,0:0:0:0:
423,145,206700,1,8,0:0:0:0:
432,128,206788,1,0,0:0:0:0:
430,163,206876,1,0,0:0:0:0:
419,145,206965,1,0,0:0:0:0:
416,160,207053,1,8,0:0:0:0:
416,191,207141,1,8,0:0:0:0:
416,191,207229,1,8,0:0:0:0:
432,188,207318,1,0,0:0:0:0:
367,133,207406,1,8,0:0:0:0:
408,148,207494,1,8,0:0:0:0:
412,136,207582,1,8,0:0:0:0:
408,148,207671,1,8,0:0:0:0:
396,168,207759,1,0,0:0:0:0:
486,131,207935,1,0,0:0:0:0:
486,131,208023,1,0,0:0:0:0:
509,143,208112,1,8,0:0:0:0:
282,142,208288,1,0,0:0:0:0:
282,142,208376,1,0,0:0:0:0:
396,152,208465,1,0,0:0:0:0:
380,153,208553,1,0,0:0:0:0:
396,163,208641,1,0,0:0:0:0:
430,142,208729,1,0,0:0:0:0:
453,141,208818,1,8,0:0:0:0:
392,168,208906,1,0,0:0:0:0:
420,176,208994,1,0,0:0:0:0:
404,124,209082,1,0,0:0:0:0:
236,160,209171,1,8,0:0:0:0:
386,149,209347,1,0,0:0:0:0:
404,160,209435,1,0,0:0:0:0:
378,147,209523,1,8,0:0:0:0:
449,132,209700,1,0,0:0:0:0:
449,132,209788,1,0,0:0:0:0:
423,153,209876,1,8,0:0:0:0:
423,153,209965,1,8,0:0:0:0:
419,145,210053,1,0,0:0:0:0:
395,156,210141,1,0,0:0:0:0:
429,143,210229,1,8,0:0:0:0:
444,160,210406,1,8,0:0:0:0:
396,176,210494,1,8,0:0:0:0:
400,152,210582,1,0,0:0:0:0:
360,172,210759,1,8,0:0:0:0:
384,162,210847,1,8,0:0:0:0:
384,162,210935,1,8,0:0:0:0:
384,162,211023,1,8,0:0:0:0:
431,162,211112,1,0,0:0:0:0:
378,166,211288,1,8,0:0:0:0:
372,166,211376,1,8,0:0:0:0:
392,167,211465,1,0,0:0:0:0:
404,160,211553,1,8,0:0:0:0:
356,156,211641,1,0,0:0:0:0:
419,145,211818,1,12,0:0:0:0:
420,180,212171,1,8,0:0:0:0:
420,180,212347,1,0,0:0:0:0:
384,156,212582,1,0,0:0:0:0:
384,156,212641,1,0,0:0:0:0:
429,154,212700,1,8,0:0:0:0:
419,145,212788,1,0,0:0:0:0:
417,152,212876,1,0,0:0:0:0:
391,164,212965,1,0,0:0:0:0:
391,148,213053,1,8,0:0:0:0:
399,148,213141,1,8,0:0:0:0:
406,151,213229,1,8,0:0:0:0:
384,156,213318,1,0,0:0:0:0:
356,156,213406,1,8,0:0:0:0:
408,125,213582,1,0,0:0:0:0:
404,128,213671,1,0,0:0:0:0:
370,138,213759,1,8,0:0:0:0:
436,165,213847,1,8,0:0:0:0:
399,137,213935,1,0,0:0:0:0:
407,134,214112,1,8,0:0:0:0:
424,162,214200,1,0,0:0:0:0:
370,138,214288,1,0,0:0:0:0:
370,138,214376,1,0,0:0:0:0:
406,139,214465,1,8,0:0:0:0:
418,154,214553,1,8,0:0:0:0:
392,135,214641,1,0,0:0:0:0:
370,150,214818,1,8,0:0:0:0:
363,154,214994,1,0,0:0:0:0:
422,176,215082,1,0,0:0:0:0:
391,158,215171,1,8,0:0:0:0:
404,128,215259,1,8,0:0:0:0:
408,125,215347,1,0,0:0:0:0:
407,135,215523,1,8,0:0:0:0:
407,135,215612,1,8,0:0:0:0:
427,140,215700,1,0,0:0:0:0:
427,140,215788,1,0,0:0:0:0:
414,141,215876,1,8,0:0:0:0:
400,184,215965,1,0,0:0:0:0:
340,164,216053,1,8,0:0:0:0:
384,146,216229,1,0,0:0:0:0:
394,153,216406,1,8,0:0:0:0:
370,147,216582,1,0,0:0:0:0:
370,147,216671,1,0,0:0:0:0:
352,165,216759,1,8,0:0:0:0:
410,127,216935,1,0,0:0:0:0:
380,148,217112,1,8,0:0:0:0:
420,141,217288,1,0,0:0:0:0:
415,140,217376,1,0,0:0:0:0:
417,143,217465,1,8,0:0:0:0:
375,116,217641,1,8,0:0:0:0:
482,163,217729,1,8,0:0:0:0:
493,187,217818,1,0,0:0:0:0:
493,187,217906,1,0,0:0:0:0:
378,157,217994,1,8,0:0:0:0:
419,162,218082,1,0,0:0:0:0:
419,161,218171,1,0,0:0:0:0:
482,163,218259,1,0,0:0:0:0:
440,179,218347,1,8,0:0:0:0:
440,179,218435,1,8,0:0:0:0:
440,179,218523,1,0,0:0:0:0:
414,152,218700,1,8,0:0:0:0:
492,160,218788,1,8,0:0:0:0:
464,164,218876,1,0,0:0:0:0:
456,160,218965,1,0,0:0:0:0:
444,144,219053,1,8,0:0:0:0:
460,172,219141,1,0,0:0:0:0:
464,164,219229,1,0,0:0:0:0:
464,164,219318,1,0,0:0:0:0:
432,156,219406,1,8,0:0:0:0:
464,164,219494,1,0,0:0:0:0:
464,164,219582,1,0,0:0:0:0:
464,164,219671,1,0,0:0:0:0:
416,164,219759,1,8,0:0:0:0:
464,164,219847,1,0,0:0:0:0:
464,164,219935,1,0,0:0:0:0:
490,160,220023,1,0,0:0:0:0:
422,156,220112,1,8,0:0:0:0:
473,158,220200,1,0,0:0:0:0:
466,160,220288,1,0,0:0:0:0:
466,160,220376,1,0,0:0:0:0:
442,156,220465,1,8,0:0:0:0:
441,156,220553,1,8,0:0:0:0:
445,154,220641,1,0,0:0:0:0:
441,154,220729,1,0,0:0:0:0:
413,145,220818,1,8,0:0:0:0:
413,145,220906,1,8,0:0:0:0:
442,154,220994,1,0,0:0:0:0:
442,154,221082,1,0,0:0:0:0:
444,148,221171,1,8,0:0:0:0:
427,147,221259,1,8,0:0:0:0:
422,141,221347,1,0,0:0:0:0:
416,141,221435,1,0,0:0:0:0:
424,154,221523,1,8,0:0:0:0:
416,160,221612,1,0,0:0:0:0:
400,156,221700,1,8,0:0:0:0:
490,159,221788,1,0,0:0:0:0:
472,188,221876,1,0,0:0:0:0:
452,198,221965,1,0,0:0:0:0:
420,152,222053,1,8,0:0:0:0:
434,155,222141,1,8,0:0:0:0:
416,156,222229,1,0,0:0:0:0:
408,180,222318,1,0,0:0:0:0:
386,169,222406,1,8,0:0:0:0:
488,174,222494,1,0,0:0:0:0:
398,162,222582,1,8,0:0:0:0:
425,175,222671,1,8,0:0:0:0:
379,156,222759,1,0,0:0:0:0:
471,170,222847,1,8,0:0:0:0:
416,171,222935,1,8,0:0:0:0:
449,160,223023,1,0,0:0:0:0:
449,160,223112,1,8,0:0:0:0:
449,160,223200,1,8,0:0:0:0:
386,147,223288,1,8,0:0:0:0:
426,165,223523,1,0,0:0:0:0:
426,165,223582,1,0,0:0:0:0:
460,155,223641,1,8,0:0:0:0:
448,152,224700,1,12,0:0:0:0:
352,156,224876,1,0,0:0:0:0:
352,156,224965,1,0,0:0:0:0:
352,156,225053,1,0,0:0:0:0:
448,176,225229,1,12,0:0:0:0:
352,156,225406,1,0,0:0:0:0:
352,156,225494,1,0,0:0:0:0:
352,156,225582,1,0,0:0:0:0:
448,176,225759,1,12,0:0:0:0:
352,156,225935,1,0,0:0:0:0:
352,156,226023,1,0,0:0:0:0:
352,156,226112,1,0,0:0:0:0:
448,176,226288,1,12,0:0:0:0:
440,176,226465,1,0,0:0:0:0:
440,176,226553,1,0,0:0:0:0:
436,158,226641,1,0,0:0:0:0:
372,156,226818,1,12,0:0:0:0:
428,236,226994,1,0,0:0:0:0:
428,236,227082,1,0,0:0:0:0:
440,176,227171,1,8,0:0:0:0:
440,176,227259,1,8,0:0:0:0:
440,176,227347,1,8,0:0:0:0:
440,176,227435,1,8,0:0:0:0:
407,167,227523,1,0,0:0:0:0:
376,200,227876,1,0,0:0:0:0:
440,176,228053,1,0,0:0:0:0:
384,149,228229,1,0,0:0:0:0:
440,176,228406,1,0,0:0:0:0:
384,149,228582,1,0,0:0:0:0:
440,176,228759,1,0,0:0:0:0:
417,150,228935,1,8,0:0:0:0:
417,150,229112,1,0,0:0:0:0:
417,150,229200,1,0,0:0:0:0:
463,160,229288,1,8,0:0:0:0:
417,160,229376,1,8,0:0:0:0:
408,154,229465,1,0,0:0:0:0:
402,145,229641,1,8,0:0:0:0:
376,124,229729,1,8,0:0:0:0:
447,161,229818,1,0,0:0:0:0:
400,159,229906,1,0,0:0:0:0:
443,156,229994,1,8,0:0:0:0:
399,154,230082,1,0,0:0:0:0:
460,150,230171,1,8,0:0:0:0:
456,135,230347,1,4,0:0:0:0:
406,166,231053,1,8,0:0:0:0:
400,176,231582,1,8,0:0:0:0:
386,165,231759,1,0,0:0:0:0:
457,179,232112,1,0,0:0:0:0:
433,203,232465,1,8,0:0:0:0:
455,190,232994,1,8,0:0:0:0:
348,169,233171,1,4,0:0:0:0:
348,169,233876,1,8,0:0:0:0:
369,182,234406,1,8,0:0:0:0:
369,182,234494,1,8,0:0:0:0:
438,148,234582,1,0,0:0:0:0:
412,160,234759,1,8,0:0:0:0:
403,166,234935,1,0,0:0:0:0:
403,166,235112,1,0,0:0:0:0:
412,160,235288,1,8,0:0:0:0:
335,162,235465,1,0,0:0:0:0:
412,128,235818,1,8,0:0:0:0:
335,162,235906,1,8,0:0:0:0:
356,164,235994,1,0,0:0:0:0:
368,144,236700,1,8,0:0:0:0:
405,188,237229,1,8,0:0:0:0:
437,171,237406,1,0,0:0:0:0:
406,169,237759,1,0,0:0:0:0:
383,173,238112,1,8,0:0:0:0:
432,158,238288,1,0,0:0:0:0:
412,168,238641,1,0,0:0:0:0:
409,154,238818,1,8,0:0:0:0:
378,151,238994,1,0,0:0:0:0:
420,156,239171,1,12,0:0:0:0:
356,149,239347,1,8,0:0:0:0:
312,175,239523,1,0,0:0:0:0:
420,156,239700,1,12,0:0:0:0:
388,158,239876,1,8,0:0:0:0:
378,151,240053,1,0,0:0:0:0:
383,173,240229,1,8,0:0:0:0:
366,154,240406,1,0,0:0:0:0:
366,154,240494,1,0,0:0:0:0:
384,143,240582,1,8,0:0:0:0:
378,151,240759,1,8,0:0:0:0:
321,166,240935,1,0,0:0:0:0:
321,166,241023,1,0,0:0:0:0:
321,166,241112,1,0,0:0:0:0:
386,167,241288,1,8,0:0:0:0:
410,161,241465,1,8,0:0:0:0:
321,166,241641,1,4,0:0:0:0:
369,135,241994,1,8,0:0:0:0:
402,171,242347,1,0,0:0:0:0:
402,171,242523,1,0,0:0:0:0:
393,180,242700,1,8,0:0:0:0:
416,162,243053,1,0,0:0:0:0:
416,162,243229,1,0,0:0:0:0:
375,145,243406,1,8,0:0:0:0:
354,158,243582,1,0,0:0:0:0:
436,106,243935,1,0,0:0:0:0:
406,163,244112,1,8,0:0:0:0:
485,169,244465,1,4,0:0:0:0:
412,168,244818,1,8,0:0:0:0:
485,169,245082,1,0,0:0:0:0:
485,169,245171,1,0,0:0:0:0:
485,169,245347,1,0,0:0:0:0:
466,164,245523,1,8,0:0:0:0:
466,164,245700,1,8,0:0:0:0:
424,175,245876,1,0,0:0:0:0:
423,199,246229,1,8,0:0:0:0:
452,155,246406,1,0,0:0:0:0:
423,147,246759,1,0,0:0:0:0:
423,147,246847,1,0,0:0:0:0:
452,155,246935,1,8,0:0:0:0:
452,155,247023,1,8,0:0:0:0:
467,147,247112,1,0,0:0:0:0:
424,148,247288,1,12,0:0:0:0:
326,189,247641,1,8,0:0:0:0:
338,148,247818,1,0,0:0:0:0:
423,147,247994,1,8,0:0:0:0:
382,137,248171,1,0,0:0:0:0:
423,147,248347,1,8,0:0:0:0:
438,149,248523,1,0,0:0:0:0:
438,149,248612,1,0,0:0:0:0:
443,147,248700,1,8,0:0:0:0:
359,155,249053,1,8,0:0:0:0:
449,145,249229,1,0,0:0:0:0:
449,145,249318,1,0,0:0:0:0:
422,157,249406,1,8,0:0:0:0:
372,158,249494,1,0,0:0:0:0:
402,167,249582,1,8,0:0:0:0:
402,167,249671,1,8,0:0:0:0:
384,162,249759,1,0,0:0:0:0:
384,162,249847,1,0,0:0:0:0:
429,154,249935,1,8,0:0:0:0:
378,141,250023,1,0,0:0:0:0:
384,145,250112,1,8,0:0:0:0:
453,151,250288,1,0,0:0:0:0:
453,151,250376,1,0,0:0:0:0:
427,170,250465,1,8,0:0:0:0:
453,151,250553,1,0,0:0:0:0:
436,134,250641,1,8,0:0:0:0:
408,149,250729,1,0,0:0:0:0:
408,149,250818,1,0,0:0:0:0:
360,152,250906,1,0,0:0:0:0:
410,138,250994,1,8,0:0:0:0:
391,141,251082,1,0,0:0:0:0:
419,152,251171,1,8,0:0:0:0:
429,135,251259,1,8,0:0:0:0:
356,139,251347,1,0,0:0:0:0:
356,139,251435,1,0,0:0:0:0:
433,154,251523,1,8,0:0:0:0:
436,145,251700,1,0,0:0:0:0:
476,174,251788,1,0,0:0:0:0:
428,143,251876,1,8,0:0:0:0:
476,174,251965,1,0,0:0:0:0:
408,149,252053,1,0,0:0:0:0:
375,168,252141,1,8,0:0:0:0:
453,151,252229,1,0,0:0:0:0:
380,147,252318,1,0,0:0:0:0:
418,153,252406,1,8,0:0:0:0:
433,154,252494,1,8,0:0:0:0:
472,144,252582,1,0,0:0:0:0:
434,152,252671,1,0,0:0:0:0:
438,154,252759,1,8,0:0:0:0:
476,174,252847,1,8,0:0:0:0:
476,174,252935,1,0,0:0:0:0:
375,168,253112,1,8,0:0:0:0:
375,168,253200,1,8,0:0:0:0:
375,168,253288,1,0,0:0:0:0:
375,168,253376,1,0,0:0:0:0:
375,168,253465,1,8,0:0:0:0:
340,192,253641,1,0,0:0:0:0:
408,156,253729,1,0,0:0:0:0:
375,168,253818,1,8,0:0:0:0:
401,189,253876,1,0,0:0:0:0:
401,189,253935,1,0,0:0:0:0:
446,134,253994,1,8,0:0:0:0:
360,160,254082,1,8,0:0:0:0:
408,156,254171,1,0,0:0:0:0:
376,164,254347,1,12,0:0:0:0:
250,174,255759,1,0,0:0:0:0:
433,171,267053,5,0,0:0:0:0:
426,181,267759,1,8,0:0:0:0:
402,154,268465,1,0,0:0:0:0:
402,154,268818,1,0,0:0:0:0:
375,159,269171,1,8,0:0:0:0:
339,146,269876,1,0,0:0:0:0:
425,170,270582,1,8,0:0:0:0:
425,170,271288,1,0,0:0:0:0:
412,164,271641,1,0,0:0:0:0:
412,164,271818,1,0,0:0:0:0:
412,164,271906,1,0,0:0:0:0:
318,153,271994,1,8,0:0:0:0:
440,160,272171,1,0,0:0:0:0:
476,172,272700,1,12,0:0:0:0:
440,160,272965,1,0,0:0:0:0:
440,160,273053,1,0,0:0:0:0:
440,160,273229,1,12,0:0:0:0:
440,160,273494,1,0,0:0:0:0:
440,160,273582,1,0,0:0:0:0:
400,152,273759,1,12,0:0:0:0:
430,155,273935,1,0,0:0:0:0:
378,153,274112,1,8,0:0:0:0:
468,156,274200,1,0,0:0:0:0:
400,152,274376,1,8,0:0:0:0:
395,160,274465,1,0,0:0:0:0:
442,167,274641,1,8,0:0:0:0:
428,216,274729,1,0,0:0:0:0:
440,203,274906,1,8,0:0:0:0:
420,184,274994,1,0,0:0:0:0:
440,203,275171,1,8,0:0:0:0:
452,168,275259,1,8,0:0:0:0:
468,168,275347,1,0,0:0:0:0:
419,171,275435,1,0,0:0:0:0:
424,164,275523,1,8,0:0:0:0:
412,160,275582,1,0,0:0:0:0:
400,156,275641,1,0,0:0:0:0:
419,171,275700,1,8,0:0:0:0:
452,168,275788,1,0,0:0:0:0:
452,168,275876,1,8,0:0:0:0:
452,168,275965,1,0,0:0:0:0:
419,171,276053,1,8,0:0:0:0:
344,156,276112,1,8,0:0:0:0:
424,144,276171,1,8,0:0:0:0:
376,158,276229,1,0,0:0:0:0:
364,176,276318,1,0,0:0:0:0:
451,181,276406,1,8,0:0:0:0:
424,164,276494,1,0,0:0:0:0:
419,171,276582,1,8,0:0:0:0:
437,145,276671,1,8,0:0:0:0:
400,172,276759,1,0,0:0:0:0:
423,171,276847,1,0,0:0:0:0:
378,161,276935,1,8,0:0:0:0:
392,200,277112,1,0,0:0:0:0:
400,220,277200,1,0,0:0:0:0:
400,220,277288,1,0,0:0:0:0:
400,220,277376,1,0,0:0:0:0:
400,220,277465,1,0,0:0:0:0:
400,220,277553,1,0,0:0:0:0:
400,172,277641,1,8,0:0:0:0:
400,172,277729,1,8,0:0:0:0:
423,171,277818,1,8,0:0:0:0:
400,172,277906,1,8,0:0:0:0:
440,140,277994,1,0,0:0:0:0:
432,140,278082,1,0,0:0:0:0:
428,148,278171,1,8,0:0:0:0:
380,136,278347,1,4,0:0:0:0:
400,140,278523,1,8,0:0:0:0:
396,144,278700,1,0,0:0:0:0:
396,144,278788,1,0,0:0:0:0:
416,140,278876,1,8,0:0:0:0:
408,140,279053,1,0,0:0:0:0:
284,140,279229,1,8,0:0:0:0:
448,156,279318,1,0,0:0:0:0:
448,156,279494,1,0,0:0:0:0:
480,188,279582,1,8,0:0:0:0:
436,140,279759,1,0,0:0:0:0:
404,148,279935,1,8,0:0:0:0:
472,164,280112,1,0,0:0:0:0:
468,164,280200,1,0,0:0:0:0:
448,156,280288,1,8,0:0:0:0:
424,156,280465,1,0,0:0:0:0:
424,156,280553,1,0,0:0:0:0:
392,156,280641,1,8,0:0:0:0:
416,160,280729,1,0,0:0:0:0:
416,160,280906,1,0,0:0:0:0:
440,168,280994,1,8,0:0:0:0:
444,156,281082,1,8,0:0:0:0:
400,152,281171,1,0,0:0:0:0:
400,168,281347,1,8,0:0:0:0:
400,104,281435,1,0,0:0:0:0:
456,160,281523,1,0,0:0:0:0:
456,160,281612,1,0,0:0:0:0:
428,148,281700,1,8,0:0:0:0:
432,160,281876,1,0,0:0:0:0:
432,160,281965,1,0,0:0:0:0:
472,168,282053,1,8,0:0:0:0:
432,160,282141,1,0,0:0:0:0:
404,148,282229,1,8,0:0:0:0:
400,148,282318,1,0,0:0:0:0:
444,152,282406,1,8,0:0:0:0:
404,188,282494,1,8,0:0:0:0:
440,168,282582,1,0,0:0:0:0:
424,160,282759,1,8,0:0:0:0:
376,180,282847,1,0,0:0:0:0:
428,152,282935,1,0,0:0:0:0:
428,152,283023,1,0,0:0:0:0:
428,176,283112,1,8,0:0:0:0:
428,176,283200,1,8,0:0:0:0:
400,136,283288,1,0,0:0:0:0:
400,136,283376,1,0,0:0:0:0:
448,156,283465,1,8,0:0:0:0:
428,168,283553,1,0,0:0:0:0:
420,168,283641,1,8,0:0:0:0:
424,160,283729,1,8,0:0:0:0:
444,152,283818,1,8,0:0:0:0:
444,176,283906,1,8,0:0:0:0:
448,160,283994,1,0,0:0:0:0:
376,180,284171,1,8,0:0:0:0:
460,160,284347,1,0,0:0:0:0:
434,155,284435,1,0,0:0:0:0:
473,164,284523,1,8,0:0:0:0:
486,161,284700,1,0,0:0:0:0:
468,160,284876,1,8,0:0:0:0:
424,152,284965,1,0,0:0:0:0:
448,160,285141,1,0,0:0:0:0:
396,168,285229,1,8,0:0:0:0:
458,168,285406,1,0,0:0:0:0:
458,147,285582,1,8,0:0:0:0:
454,142,285759,1,0,0:0:0:0:
454,142,285847,1,0,0:0:0:0:
481,140,285935,1,8,0:0:0:0:
485,148,286112,1,0,0:0:0:0:
485,148,286200,1,0,0:0:0:0:
446,152,286288,1,8,0:0:0:0:
478,162,286376,1,0,0:0:0:0:
468,165,286553,1,0,0:0:0:0:
399,154,286641,1,8,0:0:0:0:
399,154,286729,1,8,0:0:0:0:
457,162,286818,1,0,0:0:0:0:
453,158,286994,1,8,0:0:0:0:
328,160,287082,1,8,0:0:0:0:
491,164,287171,1,0,0:0:0:0:
478,162,287259,1,0,0:0:0:0:
419,145,287347,1,8,0:0:0:0:
408,138,287523,1,0,0:0:0:0:
476,168,287612,1,8,0:0:0:0:
392,176,287700,1,0,0:0:0:0:
424,156,287788,1,0,0:0:0:0:
456,184,287876,1,8,0:0:0:0:
428,168,287965,1,0,0:0:0:0:
322,112,288053,1,8,0:0:0:0:
335,153,288229,1,8,0:0:0:0:
411,150,288318,1,0,0:0:0:0:
457,162,288406,1,0,0:0:0:0:
491,164,288494,1,8,0:0:0:0:
444,153,288582,1,0,0:0:0:0:
444,153,288671,1,0,0:0:0:0:
422,158,288759,1,8,0:0:0:0:
416,188,288847,1,0,0:0:0:0:
404,172,288935,1,8,0:0:0:0:
401,168,289023,1,0,0:0:0:0:
433,164,289112,1,8,0:0:0:0:
431,164,289200,1,8,0:0:0:0:
491,164,289288,1,0,0:0:0:0:
491,164,289376,1,0,0:0:0:0:
372,164,289465,1,8,0:0:0:0:
392,136,289641,1,4,0:0:0:0:
467,148,289818,1,8,0:0:0:0:
443,153,289994,1,0,0:0:0:0:
443,153,290082,1,0,0:0:0:0:
410,149,290171,1,8,0:0:0:0:
434,152,290347,1,0,0:0:0:0:
391,146,290523,1,8,0:0:0:0:
420,143,290612,1,0,0:0:0:0:
420,143,290788,1,0,0:0:0:0:
410,149,290876,1,8,0:0:0:0:
381,157,291053,1,0,0:0:0:0:
402,141,291229,1,8,0:0:0:0:
415,154,291406,1,0,0:0:0:0:
414,154,291494,1,0,0:0:0:0:
438,162,291582,1,8,0:0:0:0:
418,152,291759,1,0,0:0:0:0:
413,173,291847,1,0,0:0:0:0:
421,156,291935,1,8,0:0:0:0:
443,157,292023,1,0,0:0:0:0:
425,157,292200,1,0,0:0:0:0:
381,162,292288,1,8,0:0:0:0:
415,154,292376,1,8,0:0:0:0:
428,168,292465,1,0,0:0:0:0:
441,154,292641,1,8,0:0:0:0:
448,140,292729,1,0,0:0:0:0:
421,146,292818,1,0,0:0:0:0:
420,146,292906,1,0,0:0:0:0:
435,156,292994,1,8,0:0:0:0:
438,162,293171,1,8,0:0:0:0:
396,156,293259,1,0,0:0:0:0:
441,154,293347,1,8,0:0:0:0:
443,157,293435,1,8,0:0:0:0:
418,152,293523,1,0,0:0:0:0:
418,152,293612,1,0,0:0:0:0:
396,149,293700,1,8,0:0:0:0:
447,155,293788,1,0,0:0:0:0:
436,163,293876,1,8,0:0:0:0:
459,163,294053,1,0,0:0:0:0:
459,163,294141,1,0,0:0:0:0:
441,154,294229,1,8,0:0:0:0:
459,163,294406,1,0,0:0:0:0:
459,163,294494,1,0,0:0:0:0:
386,154,294582,1,8,0:0:0:0:
396,156,294671,1,0,0:0:0:0:
424,165,294759,1,0,0:0:0:0:
441,154,294847,1,0,0:0:0:0:
386,154,294935,1,8,0:0:0:0:
396,156,295023,1,8,0:0:0:0:
407,156,295112,1,0,0:0:0:0:
407,156,295288,1,8,0:0:0:0:
433,153,295376,1,0,0:0:0:0:
432,153,295465,1,0,0:0:0:0:
432,153,295553,1,0,0:0:0:0:
362,164,295641,1,8,0:0:0:0:
425,153,295729,1,0,0:0:0:0:
425,153,295818,1,0,0:0:0:0:
425,153,295906,1,0,0:0:0:0:
334,162,295994,1,8,0:0:0:0:
379,163,296082,1,0,0:0:0:0:
386,154,296171,1,0,0:0:0:0:
379,163,296259,1,0,0:0:0:0:
337,158,296347,1,8,0:0:0:0:
460,164,296435,1,0,0:0:0:0:
460,164,296523,1,0,0:0:0:0:
460,164,296612,1,0,0:0:0:0:
451,159,296700,1,8,0:0:0:0:
428,156,296788,1,8,0:0:0:0:
415,165,296876,1,0,0:0:0:0:
415,165,296965,1,0,0:0:0:0:
431,162,297053,1,8,0:0:0:0:
408,156,297141,1,8,0:0:0:0:
425,153,297229,1,0,0:0:0:0:
425,153,297318,1,0,0:0:0:0:
460,164,297406,1,8,0:0:0:0:
460,164,297494,1,8,0:0:0:0:
460,164,297582,1,8,0:0:0:0:
460,164,297671,1,8,0:0:0:0:
468,144,297759,1,0,0:0:0:0:
468,144,297847,1,0,0:0:0:0:
428,156,297935,1,0,0:0:0:0:
430,170,298023,1,0,0:0:0:0:
453,179,298112,1,8,0:0:0:0:
423,151,298288,1,0,0:0:0:0:
442,168,298376,1,0,0:0:0:0:
434,166,298465,1,8,0:0:0:0:
398,169,298553,1,0,0:0:0:0:
434,166,298641,1,8,0:0:0:0:
478,167,298818,1,8,0:0:0:0:
428,156,298876,1,0,0:0:0:0:
428,156,298935,1,0,0:0:0:0:
434,169,298994,1,8,0:0:0:0:
398,169,299082,1,0,0:0:0:0:
432,184,299171,1,8,0:0:0:0:
388,168,299259,1,8,0:0:0:0:
424,184,299347,1,0,0:0:0:0:
416,176,299406,1,0,0:0:0:0:
440,180,299465,1,0,0:0:0:0:
451,177,299523,1,8,0:0:0:0:
393,164,300935,1,4,0:0:0:0:
402,175,301112,1,8,0:0:0:0:
393,164,301288,1,0,0:0:0:0:
389,164,301376,1,0,0:0:0:0:
429,168,301465,1,8,0:0:0:0:
386,166,301641,1,0,0:0:0:0:
372,161,301818,1,8,0:0:0:0:
404,163,301906,1,0,0:0:0:0:
394,164,302082,1,0,0:0:0:0:
399,170,302171,1,8,0:0:0:0:
383,162,302347,1,0,0:0:0:0:
316,176,302523,1,8,0:0:0:0:
339,164,302700,1,0,0:0:0:0:
339,164,302788,1,0,0:0:0:0:
410,166,302876,1,8,0:0:0:0:
357,147,303053,1,0,0:0:0:0:
357,147,303141,1,0,0:0:0:0:
382,153,303229,1,8,0:0:0:0:
376,167,303406,1,0,0:0:0:0:
376,167,303494,1,0,0:0:0:0:
349,174,303582,1,8,0:0:0:0:
347,174,303671,1,8,0:0:0:0:
382,179,303759,1,0,0:0:0:0:
420,175,303935,1,8,0:0:0:0:
400,168,304112,1,0,0:0:0:0:
420,168,304200,1,0,0:0:0:0:
392,176,304288,1,8,0:0:0:0:
392,160,304465,1,0,0:0:0:0:
432,164,304641,1,8,0:0:0:0:
460,168,304729,1,0,0:0:0:0:
460,168,304906,1,0,0:0:0:0:
412,168,304994,1,8,0:0:0:0:
388,112,305171,1,0,0:0:0:0:
424,144,305347,1,8,0:0:0:0:
440,144,305523,1,0,0:0:0:0:
440,144,305612,1,0,0:0:0:0:
432,152,305700,1,8,0:0:0:0:
396,152,305876,1,8,0:0:0:0:
446,156,305965,1,8,0:0:0:0:
448,156,306053,1,0,0:0:0:0:
448,156,306141,1,0,0:0:0:0:
377,139,306229,1,8,0:0:0:0:
384,164,306406,1,8,0:0:0:0:
424,144,306582,1,0,0:0:0:0:
456,188,306671,1,0,0:0:0:0:
464,172,306759,1,8,0:0:0:0:
444,176,306935,1,0,0:0:0:0:
416,128,307023,1,0,0:0:0:0:
448,156,307112,1,8,0:0:0:0:
416,152,307288,1,0,0:0:0:0:
440,160,307376,1,0,0:0:0:0:
396,148,307465,1,8,0:0:0:0:
400,188,307553,1,0,0:0:0:0:
437,176,307641,1,0,0:0:0:0:
437,176,307729,1,0,0:0:0:0:
392,152,307818,1,8,0:0:0:0:
452,160,307994,1,0,0:0:0:0:
448,172,308082,1,0,0:0:0:0:
424,160,308171,1,8,0:0:0:0:
424,196,308259,1,0,0:0:0:0:
384,172,308347,1,8,0:0:0:0:
404,160,308435,1,8,0:0:0:0:
392,196,308523,1,0,0:0:0:0:
424,164,308612,1,0,0:0:0:0:
420,168,308700,1,8,0:0:0:0:
388,160,308788,1,0,0:0:0:0:
352,116,308876,1,0,0:0:0:0:
392,136,308965,1,0,0:0:0:0:
392,160,309053,1,8,0:0:0:0:
420,192,309141,1,0,0:0:0:0:
424,156,309229,1,8,0:0:0:0:
420,192,309318,1,8,0:0:0:0:
404,160,309406,1,0,0:0:0:0:
368,136,309582,1,8,0:0:0:0:
392,136,309759,1,0,0:0:0:0:
392,136,309847,1,0,0:0:0:0:
432,148,309935,1,8,0:0:0:0:
432,152,310112,1,0,0:0:0:0:
432,152,310200,1,0,0:0:0:0:
420,152,310288,1,8,0:0:0:0:
384,124,310376,1,8,0:0:0:0:
452,176,310465,1,0,0:0:0:0:
448,164,310641,1,8,0:0:0:0:
408,144,310818,1,0,0:0:0:0:
432,148,310906,1,0,0:0:0:0:
488,152,310994,1,8,0:0:0:0:
416,160,311171,1,0,0:0:0:0:
400,152,311347,1,8,0:0:0:0:
304,144,311523,1,0,0:0:0:0:
504,164,311612,1,0,0:0:0:0:
400,156,311700,1,8,0:0:0:0:
400,156,311788,1,8,0:0:0:0:
432,160,311876,1,0,0:0:0:0:
432,160,311965,1,0,0:0:0:0:
440,164,312053,1,8,0:0:0:0:
360,156,312229,1,0,0:0:0:0:
352,152,312406,1,8,0:0:0:0:
420,148,312582,1,0,0:0:0:0:
408,148,312671,1,0,0:0:0:0:
384,144,312759,1,8,0:0:0:0:
464,160,312935,1,0,0:0:0:0:
452,156,313023,1,0,0:0:0:0:
452,156,313112,1,8,0:0:0:0:
440,148,313200,1,8,0:0:0:0:
464,152,313288,1,0,0:0:0:0:
428,152,313465,1,8,0:0:0:0:
508,160,313641,1,0,0:0:0:0:
344,164,313818,1,8,0:0:0:0:
376,168,313994,1,0,0:0:0:0:
372,168,314082,1,0,0:0:0:0:
352,160,314171,1,8,0:0:0:0:
360,128,314347,1,8,0:0:0:0:
428,152,314435,1,0,0:0:0:0:
440,160,314523,1,8,0:0:0:0:
400,144,314612,1,8,0:0:0:0:
444,152,314700,1,0,0:0:0:0:
440,152,314788,1,0,0:0:0:0:
360,128,314876,1,8,0:0:0:0:
384,148,315053,1,0,0:0:0:0:
388,140,315229,1,8,0:0:0:0:
384,140,315318,1,8,0:0:0:0:
384,108,315406,1,0,0:0:0:0:
400,144,315582,1,8,0:0:0:0:
432,144,315759,1,0,0:0:0:0:
452,160,315847,1,0,0:0:0:0:
416,152,315935,1,8,0:0:0:0:
416,152,316023,1,8,0:0:0:0:
364,128,316112,1,0,0:0:0:0:
408,140,316288,1,8,0:0:0:0:
408,144,316465,1,0,0:0:0:0:
372,100,316641,1,8,0:0:0:0:
372,100,316729,1,8,0:0:0:0:
416,160,316818,1,0,0:0:0:0:
456,160,316994,1,8,0:0:0:0:
412,152,317171,1,0,0:0:0:0:
412,152,317259,1,0,0:0:0:0:
380,168,317347,1,8,0:0:0:0:
368,164,317435,1,8,0:0:0:0:
360,164,317523,1,0,0:0:0:0:
360,164,317612,1,0,0:0:0:0:
440,168,317700,1,8,0:0:0:0:
408,160,317876,1,8,0:0:0:0:
412,160,317965,1,0,0:0:0:0:
412,160,318053,1,0,0:0:0:0:
388,152,318141,1,8,0:0:0:0:
424,160,318229,1,0,0:0:0:0:
412,160,318318,1,0,0:0:0:0:
436,156,318406,1,8,0:0:0:0:
380,144,318494,1,0,0:0:0:0:
416,144,318582,1,8,0:0:0:0:
448,148,318671,1,0,0:0:0:0:
444,144,318759,1,0,0:0:0:0:
432,144,318847,1,8,0:0:0:0:
464,144,318935,1,0,0:0:0:0:
464,148,319023,1,0,0:0:0:0:
476,140,319112,1,8,0:0:0:0:
444,152,319200,1,0,0:0:0:0:
420,144,319288,1,8,0:0:0:0:
432,144,319376,1,8,0:0:0:0:
428,156,319465,1,0,0:0:0:0:
448,176,319641,1,0,0:0:0:0:
448,176,319729,1,0,0:0:0:0:
412,160,319818,1,8,0:0:0:0:
408,156,319906,1,0,0:0:0:0:
372,160,319994,1,8,0:0:0:0:
440,140,320171,1,8,0:0:0:0:
400,120,320347,1,4,0:0:0:0:
