osu file format v14

[General]
AudioFilename: audio.mp3
AudioLeadIn: 0
PreviewTime: 122684
Countdown: 0
SampleSet: Soft
StackLeniency: 0.4
Mode: 2
LetterboxInBreaks: 0
WidescreenStoryboard: 1

[Editor]
DistanceSpacing: 1
BeatDivisor: 6
GridSize: 32
TimelineZoom: 3.400004

[Metadata]
Title:Akatsuki
TitleUnicode:紅月 -アカツキ-
Artist:BABYMETAL
ArtistUnicode:BABYMETAL
Creator:Secre
Version:Bloody Crimson
Source:
Tags:chickenbible nevertary su-metal moametal yuimetal kawaii japanese metal j-metal jmetal jrock j-rock rock
BeatmapID:4017979
BeatmapSetID:1942425

[Difficulty]
HPDrainRate:5
CircleSize:4.4
OverallDifficulty:9.6
ApproachRate:9.6
SliderMultiplier:2.15
SliderTickRate:2

[Events]
//Background and Video events
0,0,"mumei after sub 5 minute stage 1.jpg",0,0
//Break Periods
2,256745,266271
//Storyboard Layer 0 (Background)
//Storyboard Layer 1 (Fail)
//Storyboard Layer 2 (Pass)
//Storyboard Layer 3 (Foreground)
//Storyboard Layer 4 (Overlay)
//Storyboard Sound Samples

[TimingPoints]
2428,352.941176470588,4,2,2,50,1,0
2428,-117.647058823529,4,2,2,50,0,0
34192,-100,4,2,2,50,0,0
34545,-100,4,2,2,50,0,0
34898,-100,4,2,2,50,0,0
36310,-100,4,2,2,60,0,0
36663,-100,4,2,2,60,0,0
38427,-100,4,2,2,60,0,0
39133,-100,4,2,2,55,0,0
41604,-100,4,2,2,55,0,0
41780,-100,4,2,2,55,0,0
41957,-100,4,2,2,55,0,0
46192,-100,4,2,2,70,0,0
46545,-100,4,2,2,70,0,0
46722,-100,4,2,2,70,0,0
47075,-100,4,2,2,60,0,0
47604,-100,4,2,1,60,0,0
52545,-66.6666666666667,4,2,1,60,0,0
53251,-100,4,2,1,60,0,0
57486,-74.0740740740741,4,2,1,60,0,0
58898,-100,4,2,1,60,0,0
61986,-100,4,2,1,65,0,0
64016,-100,4,2,1,65,0,0
64545,-100,4,2,1,65,0,0
65339,-100,4,2,1,65,0,0
65780,-40,4,2,1,65,0,0
66222,-100,4,2,1,65,0,0
66310,-100,4,2,1,65,0,0
67369,-100,4,2,1,60,0,0
68780,-100,4,2,1,60,0,0
70192,-100,4,2,1,60,0,0
70898,-100,4,2,1,60,0,0
71604,-100,4,2,1,60,0,0
72310,-100,4,2,1,60,0,0
73369,-100,4,2,1,30,0,0
73545,-100,4,2,1,33,0,0
73722,-100,4,2,1,35,0,0
73898,-100,4,2,1,37,0,0
74075,-100,4,2,1,40,0,0
74251,-100,4,2,1,43,0,0
74427,-100,4,2,1,45,0,0
74604,-100,4,2,1,47,0,0
74780,-100,4,2,1,50,0,0
74957,-100,4,2,1,55,0,0
75133,-100,4,2,1,60,0,0
75310,-100,4,2,1,65,0,0
75486,-100,4,2,1,70,0,0
75663,-100,4,2,1,75,0,0
75839,-100,4,2,1,60,0,0
78663,-100,4,2,2,65,0,0
83604,-100,4,2,2,55,0,0
84310,-100,4,2,2,65,0,0
94898,-100,4,2,2,55,0,0
95604,-100,4,2,2,65,0,0
100898,-100,4,2,2,55,0,0
105486,-100,4,2,2,55,0,0
106192,-100,4,2,2,55,0,0
115369,-100,4,2,2,65,0,0
121016,-100,4,2,2,60,0,0
123839,-86.9565217391304,4,2,1,80,0,1
126663,-86.9565217391304,4,2,1,60,0,1
129486,-86.9565217391304,4,2,1,80,0,1
133016,-86.9565217391304,4,2,1,60,0,1
135133,-86.9565217391304,4,2,1,80,0,1
137957,-86.9565217391304,4,2,1,60,0,1
140604,-86.9565217391304,4,2,1,80,0,1
143604,-86.9565217391304,4,2,1,60,0,1
145016,-100,4,2,1,70,0,0
146427,-100,4,2,1,60,0,0
151369,-74.0740740740741,4,2,1,60,0,0
152075,-100,4,2,1,60,0,0
157722,-66.6666666666667,4,2,2,65,0,0
158251,-100,4,2,2,55,0,0
159839,-100,4,2,2,65,0,0
161251,-100,4,2,2,55,0,0
162663,-100,4,2,2,55,0,0
163016,-100,4,2,2,55,0,0
163369,-100,4,2,2,65,0,0
163898,-100,4,2,2,55,0,0
165486,-100,4,2,2,65,0,0
166898,-100,4,2,2,55,0,0
169016,-100,4,2,2,70,0,0
169722,-100,4,2,2,70,0,0
170427,-100,4,2,2,70,0,0
171133,-100,4,2,2,70,0,0
171839,-100,4,2,2,70,0,0
172545,-100,4,2,2,55,0,0
174663,-100,4,2,2,70,0,0
175369,-100,4,2,2,70,0,0
177133,-100,4,2,2,70,0,0
177486,-100,4,2,2,55,0,0
180310,-100,4,2,1,80,0,1
181016,-100,4,2,1,80,0,1
181722,-100,4,2,1,80,0,1
182427,-100,4,2,1,80,0,1
183133,-100,4,2,1,80,0,1
183839,-100,4,2,1,80,0,1
184545,-100,4,2,1,80,0,1
185251,-100,4,2,1,60,0,1
185957,-100,4,2,1,80,0,1
186663,-100,4,2,1,60,0,1
187369,-100,4,2,1,80,0,1
188075,-100,4,2,1,60,0,1
188780,-100,4,2,1,80,0,1
189486,-100,4,2,1,60,0,1
190192,-100,4,2,1,80,0,1
190898,-100,4,2,1,60,0,1
191604,-100,4,2,1,80,0,1
192133,-100,4,2,1,80,0,1
192310,-100,4,2,1,80,0,1
193722,-76.9230769230769,4,2,1,80,0,1
194427,-100,4,2,1,80,0,1
195133,-100,4,2,1,80,0,1
195310,-100,4,2,1,80,0,1
195839,-100,4,2,1,80,0,1
196545,-100,4,2,1,60,0,1
197251,-100,4,2,1,80,0,1
197957,-100,4,2,1,60,0,1
198663,-100,4,2,1,80,0,1
199369,-100,4,2,1,60,0,1
202898,-100,4,2,1,60,0,0
214192,-100,4,2,2,65,0,0
218427,-100,4,2,2,55,0,0
219839,-100,4,2,1,60,0,0
224427,-100,4,2,1,70,0,0
225486,-100,4,2,1,60,0,0
228310,-100,4,2,1,65,0,0
228663,-100,4,2,1,35,0,0
228839,-100,4,2,1,45,0,0
229016,-100,4,2,1,55,0,0
229192,-100,4,2,1,65,0,0
229369,-100,4,2,1,75,0,0
229545,-100,4,2,1,85,0,0
229722,-100,4,2,1,95,0,0
229898,-100,4,2,1,60,0,0
231133,-100,4,2,2,55,0,0
232898,-100,4,2,2,55,0,0
238545,-100,4,2,2,55,0,0
242427,-100,4,2,2,60,0,0
242780,-100,4,2,2,60,0,0
245604,-100,4,2,2,60,0,0
246663,-100,4,2,2,60,0,0
247016,-100,4,2,2,60,0,0
248075,-100,4,2,1,65,0,0
250369,-100,4,2,1,55,0,0
250898,-100,4,2,1,55,0,0
252310,-76.9230769230769,4,2,1,55,0,0
252663,-100,4,2,1,55,0,0
253722,-100,4,2,1,60,0,0
256545,-100,4,2,2,50,0,0
267486,-100,4,2,2,50,0,0
267839,-100,4,2,2,55,0,0
269604,-100,4,2,2,55,0,0
269957,-100,4,2,2,55,0,0
270310,-100,4,2,2,55,0,0
272427,-100,4,2,2,55,0,0
273486,-100,4,2,2,60,0,0
276310,-100,4,2,2,70,0,0
276839,-100,4,2,2,70,0,0
277369,-100,4,2,2,70,0,0
277898,-100,4,2,2,55,0,0
279133,-86.9565217391304,4,2,1,80,0,1
281957,-86.9565217391304,4,2,1,60,0,1
284780,-86.9565217391304,4,2,1,80,0,1
288310,-86.9565217391304,4,2,1,60,0,1
290427,-86.9565217391304,4,2,1,80,0,1
293251,-86.9565217391304,4,2,1,60,0,1
300310,-100,4,2,1,80,0,0
303839,-100,4,2,1,60,0,0
304545,-100,4,2,1,80,0,0
306663,-100,4,2,1,60,0,0
313016,-100,4,2,1,60,0,0
315133,-76.9230769230769,4,2,1,60,0,0
315839,-100,4,2,1,60,0,0
320604,-100,4,2,1,80,0,0
321133,-100,4,2,1,80,0,0
321663,-100,4,2,1,5,0,0

[Colours]
Combo1 : 223,190,123
Combo2 : 228,101,104
Combo3 : 153,17,28

[HitObjects]
349,166,12663,6,0,L|166:164,2,182.75000348568,2|2|2,0:0|0:0|0:0,0:0:0:0:
80,277,13722,6,0,P|66:211|155:157,1,182.75000348568,2|0,0:0|0:0,0:0:0:0:
307,144,14251,2,0,P|376:153|405:275,1,182.75000348568,2|0,0:0|0:0,0:0:0:0:
267,238,14780,2,0,L|381:225,1,91.3750017428398
111,138,15133,5,0,0:0:0:0:
111,138,15486,2,0,L|304:132,2,182.75000348568,2|2|2,0:0|0:0|0:0,0:0:0:0:
385,78,16545,6,0,P|395:148|289:197,1,182.75000348568,2|0,0:0|0:0,0:0:0:0:
177,121,17075,2,0,L|398:102,1,182.75000348568
220,201,17604,2,0,L|106:203,1,91.3750017428398,2|0,0:0|0:0,0:0:0:0:
383,115,17957,6,0,L|386:309,1,182.75000348568,2|0,0:0|0:0,0:0:0:0:
139,111,18663,1,2,0:0:0:0:
383,115,19016,1,2,0:0:0:0:
68,232,19369,6,0,P|22:194|94:97,1,182.75000348568,2|0,0:0|0:0,0:0:0:0:
168,24,19898,1,0,0:0:0:0:
310,69,20075,2,0,L|98:77,1,182.75000348568,2|0,0:0|0:0,0:0:0:0:
412,109,20780,6,0,P|464:142|398:228,1,182.75000348568,2|0,0:0|0:0,0:0:0:0:
148,139,21486,1,2,0:0:0:0:
413,75,21839,1,0,0:0:0:0:
89,177,22192,6,0,P|97:114|221:72,1,182.75000348568,2|0,0:0|0:0,0:0:0:0:
331,110,22722,2,0,L|333:225,1,91.3750017428398,2|0,0:0|0:0,0:0:0:0:
196,224,23075,2,0,L|305:216,2,91.3750017428398
44,143,23604,6,0,L|260:117,1,182.75000348568,0|2,0:0|0:0,0:0:0:0:
96,186,24133,1,0,0:0:0:0:
244,139,24310,2,0,L|256:17,1,91.3750017428398,2|0,0:0|0:0,0:0:0:0:
414,102,24663,2,0,L|428:-6,1,91.3750017428398,2|0,0:0|0:0,0:0:0:0:
183,192,25016,6,0,L|384:152,1,182.75000348568,2|0,0:0|0:0,0:0:0:0:
216,86,25545,2,0,P|151:89|109:207,1,182.75000348568,2|0,0:0|0:0,0:0:0:0:
228,187,26075,1,0,0:0:0:0:
93,152,26251,1,0,0:0:0:0:
329,117,26427,6,0,P|400:124|436:241,1,182.75000348568,2|0,0:0|0:0,0:0:0:0:
196,243,27133,2,0,L|402:230,1,182.75000348568,2|0,0:0|0:0,0:0:0:0:
42,209,27839,6,0,P|19:139|131:98,1,182.75000348568,2|0,0:0|0:0,0:0:0:0:
211,103,28369,1,0,0:0:0:0:
69,177,28545,2,0,L|192:161,1,91.3750017428398
316,107,28898,2,0,L|220:92,1,91.3750017428398
457,108,29251,6,0,L|469:213,2,91.3750017428398,0|0|2,0:0|0:0|0:0,0:0:0:0:
325,101,29780,1,0,0:0:0:0:
480,72,29957,2,0,L|489:188,1,91.3750017428398
224,195,30310,2,0,L|127:200,1,91.3750017428398,2|0,0:0|0:0,0:0:0:0:
394,251,30663,6,0,P|457:217|385:152,1,182.75000348568,2|0,0:0|0:0,0:0:0:0:
166,152,31369,1,0,0:0:0:0:
305,99,31545,2,0,L|315:-4,1,91.3750017428398
461,27,31898,1,0,0:0:0:0:
200,63,32075,5,0,0:0:0:0:
200,63,32427,2,0,L|392:54,2,182.75000348568,2|0|2,0:0|0:0|0:0,0:0:0:0:
463,64,33486,6,0,L|474:283,1,182.75000348568,2|2,0:0|0:0,0:0:0:0:
391,263,34016,1,0,0:0:0:0:
207,157,34192,2,0,L|169:111,1,53.75,2|0,0:0|0:0,0:0:0:0:
256,78,34369,2,0,L|318:58,1,53.75
159,43,34545,2,0,L|99:28,1,53.75,2|0,0:0|0:0,0:0:0:0:
271,106,34722,2,0,L|342:97,1,53.75
118,179,34898,6,0,P|59:187|46:322,1,215,2|0,0:0|0:0,0:0:0:0:
292,263,35604,2,0,L|64:326,1,215
184,199,36133,1,0,0:0:0:0:
481,152,36310,6,0,L|337:142,1,107.5,6|0,1:2|0:0,1:2:0:0:
236,107,36663,1,2,1:2:0:0:
389,90,36839,1,2,0:0:0:0:
392,143,36927,1,0,0:0:0:0:
395,197,37015,1,0,0:0:0:0:
236,107,37192,1,0,0:0:0:0:
389,90,37369,1,0,0:0:0:0:
131,192,37545,1,0,0:0:0:0:
281,160,37722,5,0,0:0:0:0:
113,130,37898,1,0,0:0:0:0:
113,76,37986,1,0,0:0:0:0:
113,22,38074,1,0,0:0:0:0:
370,67,38251,1,0,0:0:0:0:
76,117,38427,1,8,0:0:0:0:
242,105,38604,2,0,L|135:95,1,107.5,4|4,1:2|1:2,0:0:0:0:
398,190,38957,1,4,1:2:0:0:
58,234,39133,5,6,1:2:0:0:
206,205,39310,1,0,0:0:0:0:
209,151,39398,1,0,0:0:0:0:
212,97,39486,1,0,1:0:0:0:
377,91,39663,1,2,0:0:0:0:
116,133,39839,1,2,1:2:0:0:
267,123,40016,1,0,0:0:0:0:
269,69,40104,1,0,0:0:0:0:
272,16,40192,1,0,1:0:0:0:
432,120,40369,1,2,0:0:0:0:
185,206,40545,5,2,1:2:0:0:
335,145,40722,1,0,0:0:0:0:
337,91,40810,1,0,0:0:0:0:
340,38,40898,1,0,1:0:0:0:
496,42,41075,2,0,L|428:36,1,53.75,2|0,1:2|0:0,0:0:0:0:
201,128,41251,1,10,0:0:0:0:
274,85,41339,1,0,1:0:0:0:
201,128,41427,1,4,1:2:0:0:
439,118,41604,2,0,L|374:112,1,53.75,4|0,1:2|0:0,0:0:0:0:
159,61,41780,2,0,L|89:53,1,53.75,4|0,0:0|0:0,0:0:0:0:
312,178,41957,5,6,1:2:0:0:
166,114,42133,1,0,0:0:0:0:
219,109,42221,1,0,0:0:0:0:
273,105,42309,1,0,1:0:0:0:
111,172,42486,1,2,0:0:0:0:
407,162,42663,1,2,1:2:0:0:
249,131,42839,1,0,0:0:0:0:
246,77,42927,1,0,0:0:0:0:
243,23,43015,1,0,1:0:0:0:
87,62,43192,2,0,L|146:54,1,53.75,2|0,0:0|0:0,0:0:0:0:
356,61,43369,5,2,1:2:0:0:
200,156,43545,1,0,0:0:0:0:
146,152,43633,1,0,0:0:0:0:
92,148,43721,1,0,1:0:0:0:
251,84,43898,2,0,L|179:78,1,53.75,2|0,0:0|0:0,0:0:0:0:
14,65,44075,1,10,0:0:0:0:
159,48,44251,1,4,1:2:0:0:
450,40,44427,1,4,1:2:0:0:
271,38,44604,1,4,1:2:0:0:
504,117,44780,5,6,1:2:0:0:
345,97,44957,1,0,0:0:0:0:
398,92,45045,1,0,0:0:0:0:
452,88,45133,1,0,1:0:0:0:
270,55,45310,1,2,0:0:0:0:
504,117,45486,1,2,1:2:0:0:
337,177,45663,1,0,0:0:0:0:
334,123,45751,1,0,0:0:0:0:
332,69,45839,1,0,1:0:0:0:
159,70,46016,2,0,L|238:63,1,53.75,2|0,0:0|0:0,0:0:0:0:
424,62,46192,5,2,1:2:0:0:
361,55,46280,1,0,1:0:0:0:
145,152,46369,1,12,0:0:0:0:
436,151,46545,1,12,0:0:0:0:
471,74,46722,1,2,1:2:0:0:
435,70,46780,1,0,1:0:0:0:
399,67,46839,1,0,1:0:0:0:
205,129,46898,6,0,L|144:122,1,53.75,14|0,0:0|0:0,0:0:0:0:
237,61,47075,2,0,L|167:54,1,53.75,8|8,0:0|0:0,0:0:0:0:
382,18,47251,2,0,L|461:12,1,53.75,8|8,0:0|0:0,0:0:0:0:
269,145,47427,2,0,L|343:136,1,53.75,8|8,0:0|0:0,0:0:0:0:
91,166,47604,5,6,1:2:0:0:
221,109,47780,2,0,L|151:98,1,53.75,8|0,0:0|1:0,0:0:0:0:
90,70,47957,2,0,L|163:47,1,53.75,0|0,1:0|1:0,0:0:0:0:
335,44,48133,2,0,L|403:27,1,53.75,10|0,0:0|1:0,0:0:0:0:
244,129,48310,6,0,L|223:70,1,53.75,2|0,1:2|1:0,0:0:0:0:
304,63,48486,2,0,L|323:5,1,53.75,8|0,0:0|1:0,0:0:0:0:
221,38,48663,2,0,L|155:56,1,53.75,0|0,1:0|1:0,0:0:0:0:
351,123,48839,2,0,L|434:119,1,53.75,10|0,0:0|1:0,0:0:0:0:
206,174,49016,6,0,L|128:170,1,53.75,2|0,1:2|1:0,0:0:0:0:
234,131,49192,2,0,L|240:75,1,53.75,8|0,0:0|1:0,0:0:0:0:
342,72,49369,2,0,L|355:16,1,53.75,0|0,1:0|1:0,0:0:0:0:
162,57,49545,2,0,L|96:68,1,53.75,10|0,0:0|1:0,0:0:0:0:
294,105,49722,6,0,L|364:95,1,53.75,2|0,1:2|1:0,0:0:0:0:
260,49,49898,2,0,L|253:-11,1,53.75,8|0,0:0|1:0,0:0:0:0:
106,56,50075,2,0,L|38:56,1,53.75,2|0,1:2|1:0,0:0:0:0:
146,96,50251,2,0,L|158:174,1,53.75,10|0,0:0|1:0,0:0:0:0:
377,211,50427,5,6,1:2:0:0:
238,126,50604,2,0,L|149:111,1,53.75,8|0,0:0|1:0,0:0:0:0:
285,98,50780,2,0,L|292:36,1,53.75,0|0,1:0|1:0,0:0:0:0:
79,165,50957,2,0,L|164:147,1,53.75,10|0,0:0|1:0,0:0:0:0:
346,132,51133,6,0,L|273:120,1,53.75,2|0,1:2|1:0,0:0:0:0:
197,89,51310,2,0,L|254:63,1,53.75,8|0,0:0|1:0,0:0:0:0:
149,68,51486,2,0,L|143:12,1,53.75,0|0,1:0|1:0,0:0:0:0:
340,56,51663,2,0,L|413:48,1,53.75,10|0,0:0|1:0,0:0:0:0:
203,130,51839,6,0,L|121:126,1,53.75,2|0,1:2|1:0,0:0:0:0:
244,107,52016,2,0,L|256:45,1,53.75,8|0,0:0|1:0,0:0:0:0:
156,56,52192,2,0,L|143:-4,1,53.75,0|0,1:0|1:0,0:0:0:0:
356,80,52369,2,0,L|420:66,1,53.75,10|0,0:0|1:0,0:0:0:0:
196,218,52545,6,0,L|356:167,1,161.2500061512,2|8,1:2|0:0,0:0:0:0:
189,143,52810,2,0,L|263:111,2,80.6250030755998,2|0|0,1:2|1:0|1:0,0:0:0:0:
28,86,53075,2,0,L|113:47,1,80.6250030755998,10|0,0:0|1:0,0:0:0:0:
326,124,53251,5,6,1:2:0:0:
219,69,53427,2,0,L|286:47,1,53.75,8|0,0:0|1:0,0:0:0:0:
174,31,53604,2,0,L|171:-32,1,53.75,0|0,1:0|1:0,0:0:0:0:
333,90,53780,2,0,L|420:88,1,53.75,10|0,0:0|1:0,0:0:0:0:
190,187,53957,6,0,L|114:178,1,53.75,2|0,1:2|1:0,0:0:0:0:
229,132,54133,2,0,L|311:123,1,53.75,8|0,0:0|1:0,0:0:0:0:
182,102,54310,2,0,L|176:32,1,53.75,0|0,1:0|1:0,0:0:0:0:
352,72,54486,2,0,L|411:64,1,53.75,10|0,0:0|1:0,0:0:0:0:
224,217,54663,6,0,L|212:140,1,53.75,2|0,1:2|1:0,0:0:0:0:
117,149,54839,2,0,L|194:136,1,53.75,8|0,0:0|1:0,0:0:0:0:
270,117,55016,2,0,L|281:55,1,53.75,0|0,1:0|1:0,0:0:0:0:
105,83,55192,2,0,L|42:81,1,53.75,10|0,0:0|1:0,0:0:0:0:
265,161,55369,6,0,L|346:147,1,53.75,2|0,1:2|1:0,0:0:0:0:
224,100,55545,2,0,L|291:86,1,53.75,8|0,0:0|1:0,0:0:0:0:
470,87,55722,2,0,L|389:81,1,53.75,2|0,1:2|1:0,0:0:0:0:
231,122,55898,2,0,L|319:116,1,53.75,10|0,0:0|1:0,0:0:0:0:
114,198,56075,5,6,1:2:0:0:
257,139,56251,2,0,L|182:126,1,53.75,8|0,0:0|1:0,0:0:0:0:
302,109,56427,2,0,L|316:30,1,53.75,0|0,1:0|1:0,0:0:0:0:
481,119,56604,2,0,L|394:110,1,53.75,10|0,0:0|1:0,0:0:0:0:
230,198,56780,6,0,L|316:188,1,53.75,2|0,1:2|1:0,0:0:0:0:
198,154,56957,2,0,L|188:88,1,53.75,8|0,0:0|1:0,0:0:0:0:
288,103,57133,2,0,L|301:42,1,53.75,0|0,1:0|1:0,0:0:0:0:
132,55,57310,2,0,L|49:46,1,53.75,10|0,0:0|1:0,0:0:0:0:
270,80,57486,6,0,P|357:93|391:188,1,145.125000553608,2|8,1:2|0:0,0:0:0:0:
216,177,57751,1,2,1:2:0:0:
296,144,57839,2,0,L|308:64,1,72.562500276804,0|8,1:0|0:0,0:0:0:0:
123,99,58016,5,6,1:2:0:0:
204,39,58104,1,0,1:0:0:0:
289,44,58192,1,0,1:0:0:0:
369,112,58280,1,0,1:0:0:0:
209,102,58369,2,0,L|161:27,1,72.562500276804,10|8,0:0|0:0,0:0:0:0:
392,59,58545,2,0,L|300:49,3,72.562500276804,10|8|8|8,0:0|0:0|0:0|0:0,0:0:0:0:
100,185,58898,6,0,P|66:247|151:328,1,161.25,6|8,1:2|0:0,0:0:0:0:
321,291,59251,1,8,0:0:0:0:
161,177,59427,2,0,L|287:164,1,107.5,6|0,1:2|1:0,0:0:0:0:
171,110,59692,2,0,L|97:107,2,53.75,8|4|0,3:0|3:0|0:0,0:0:0:0:
385,116,59957,1,6,1:2:0:0:
213,225,60133,6,0,P|361:216|428:278,1,215,6|0,1:2|1:0,0:0:0:0:
354,283,60575,1,0,1:0:0:0:
166,167,60663,2,0,L|105:164,2,53.75,8|8|8,0:0|0:0|0:0,0:0:0:0:
324,106,61016,5,8,0:0:0:0:
270,98,61104,1,0,1:0:0:0:
217,90,61192,1,8,0:0:0:0:
270,98,61280,1,8,0:0:0:0:
387,172,61369,2,0,L|328:171,2,53.75,8|4|2,3:0|3:0|3:0,0:0:0:0:
83,187,61722,6,0,P|72:248|161:298,1,161.25,6|8,1:2|0:0,0:0:0:0:
62,233,62075,2,0,L|129:227,1,53.75,8|8,0:0|0:0,0:0:0:0:
321,163,62251,6,0,P|335:248|264:274,1,161.25,6|8,1:2|3:0,0:0:0:0:
202,212,62604,2,0,L|262:194,1,53.75,4|2,3:0|3:0,0:0:0:0:
351,144,62780,2,0,L|275:127,1,53.75,6|0,1:2|0:0,0:0:0:0:
93,110,62957,6,0,P|39:133|114:236,1,215,6|8,1:2|0:0,0:0:0:0:
172,227,63398,1,8,0:0:0:0:
333,182,63486,2,0,L|351:120,1,53.75,8|4,3:0|3:0,0:0:0:0:
252,107,63663,2,0,L|236:42,1,53.75,2|0,3:0|1:0,0:0:0:0:
459,62,63839,5,12,0:0:0:0:
314,106,64016,2,0,L|409:93,1,53.75,8|8,0:0|0:0,0:0:0:0:
204,55,64192,2,0,L|146:46,1,53.75,4|2,3:0|3:0,0:0:0:0:
244,132,64369,2,0,L|167:121,1,53.75,4|0,1:2|0:0,0:0:0:0:
444,161,64545,6,0,P|469:245|437:269,1,107.5,6|8,1:2|0:0,0:0:0:0:
390,254,64810,1,8,0:0:0:0:
199,217,64898,1,8,0:0:0:0:
270,178,64986,1,8,0:0:0:0:
199,217,65075,1,6,1:2:0:0:
376,127,65251,6,0,L|301:117,1,53.75,8|8,3:0|3:0,0:0:0:0:
233,77,65427,2,0,L|301:67,1,53.75,4|2,3:0|3:0,0:0:0:0:
474,63,65604,1,6,1:2:0:0:
74,223,65780,2,0,B|363:223|363:223|382:109|382:109|281:2,1,537.5,6|0,1:2|1:0,0:0:0:0:
220,166,66222,1,0,0:0:0:0:
50,105,66310,2,0,L|111:84,1,53.75,14|8,0:0|0:0,0:0:0:0:
186,58,66486,2,0,L|199:0,1,53.75,0|8,1:0|0:0,0:0:0:0:
18,171,66663,6,0,L|85:151,1,53.75,2|8,1:2|0:0,0:0:0:0:
177,119,66839,2,0,L|259:101,1,53.75,0|8,1:0|0:0,0:0:0:0:
47,96,67016,2,0,L|115:84,1,53.75,8|4,3:0|3:0,0:0:0:0:
12,32,67192,2,0,L|76:19,1,53.75,2|0,3:0|1:0,0:0:0:0:
280,97,67369,6,0,P|290:156|139:206,1,215,6|0,1:2|0:0,0:0:0:0:
336,199,67898,1,0,0:0:0:0:
336,199,68251,2,0,L|217:191,2,107.5
63,230,68780,6,0,P|21:173|128:70,1,215,6|0,1:2|0:0,0:0:0:0:
256,52,69310,1,0,0:0:0:0:
256,52,69663,2,0,L|131:61,2,107.5
504,42,70192,5,6,1:2:0:0:
346,80,70369,1,0,0:0:0:0:
399,71,70457,1,0,0:0:0:0:
452,63,70545,1,0,1:0:0:0:
287,145,70722,2,0,L|283:70,1,53.75,2|0,0:0|0:0,0:0:0:0:
116,93,70898,1,6,1:2:0:0:
272,146,71075,1,0,0:0:0:0:
275,92,71163,1,0,0:0:0:0:
278,38,71251,1,0,1:0:0:0:
438,36,71427,1,2,0:0:0:0:
166,166,71604,5,6,1:2:0:0:
332,81,71780,2,0,L|261:72,1,53.75
175,52,71957,2,0,L|249:44,1,53.75,0|0,1:0|1:0,0:0:0:0:
332,81,72133,1,2,0:0:0:0:
50,189,72310,1,6,1:2:0:0:
212,139,72486,2,0,L|218:2,1,107.5,0|0,0:0|1:0,0:0:0:0:
381,101,72839,1,2,0:0:0:0:
111,104,73016,5,6,1:2:0:0:
273,59,73192,2,0,L|195:48,1,53.75
316,122,73369,2,0,L|379:121,1,53.75,8|0,1:2|0:0,0:0:0:0:
182,118,73545,2,0,L|52:114,1,107.5,8|8,0:0|1:2,0:0:0:0:
250,146,73898,2,0,L|247:264,1,107.5,8|8,0:0|1:2,0:0:0:0:
62,217,74251,1,8,0:0:0:0:
337,150,74427,5,10,1:2:0:0:
169,133,74604,1,8,0:0:0:0:
337,150,74780,1,8,1:2:0:0:
66,89,74957,2,0,L|64:228,1,107.5,8|8,0:0|1:2,0:0:0:0:
351,216,75310,1,8,0:0:0:0:
188,145,75486,1,8,1:2:0:0:
467,99,75663,1,8,0:0:0:0:
127,88,75839,6,0,L|220:78,1,53.75,14|0,0:0|1:0,0:0:0:0:
285,66,76016,2,0,L|306:7,1,53.75,8|0,0:0|1:0,0:0:0:0:
197,60,76192,2,0,L|184:-1,1,53.75,8|0,0:0|1:0,0:0:0:0:
452,135,76369,1,0,1:0:0:0:
383,121,76457,1,0,1:0:0:0:
173,230,76545,5,14,0:0:0:0:
237,213,76633,1,0,1:0:0:0:
392,134,76722,1,8,0:0:0:0:
461,120,76810,1,0,1:0:0:0:
260,117,76898,1,8,0:0:0:0:
199,113,76986,1,0,1:0:0:0:
260,117,77075,1,0,1:0:0:0:
199,113,77163,1,0,1:0:0:0:
30,71,77251,5,14,0:0:0:0:
93,62,77339,1,0,1:0:0:0:
278,38,77427,1,12,0:0:0:0:
344,26,77515,1,0,1:0:0:0:
132,165,77604,1,14,0:0:0:0:
197,151,77692,1,0,1:0:0:0:
372,92,77780,1,12,0:0:0:0:
435,75,77868,1,0,1:0:0:0:
229,114,77957,5,10,0:0:0:0:
292,98,78045,1,8,0:0:0:0:
363,115,78133,1,8,3:0:0:0:
361,177,78221,1,8,3:0:0:0:
268,183,78310,2,0,L|264:265,1,53.75,4|4,3:0|3:0,0:0:0:0:
364,268,78486,2,0,L|443:250,1,53.75,2|2,3:0|3:0,0:0:0:0:
175,173,78663,6,0,L|38:178,1,107.5,4|8,1:2|0:0,0:0:0:0:
236,228,79016,1,2,1:2:0:0:
237,174,79104,1,0,1:0:0:0:
239,120,79192,1,8,0:0:0:0:
484,101,79369,1,2,1:2:0:0:
336,68,79545,1,8,0:0:0:0:
389,62,79633,1,0,1:0:0:0:
442,56,79721,1,2,0:0:0:0:
184,134,79898,1,10,0:0:0:0:
332,132,80075,6,0,L|338:17,1,107.5,0|8,1:0|0:0,0:0:0:0:
101,50,80427,2,0,L|25:47,2,53.75,2|0|8,1:2|1:0|0:0,0:0:0:0:
263,132,80780,1,2,1:2:0:0:
209,129,80868,1,0,1:0:0:0:
155,127,80956,1,8,0:0:0:0:
209,129,81045,1,0,1:0:0:0:
395,49,81133,1,2,1:2:0:0:
448,45,81221,1,0,1:0:0:0:
502,42,81309,1,8,0:0:0:0:
183,207,81486,5,2,1:2:0:0:
344,183,81663,2,0,L|344:42,1,107.5,8|0,0:0|1:0,0:0:0:0:
269,59,81927,1,0,1:0:0:0:
450,66,82016,2,0,L|453:207,1,107.5,10|0,0:0|1:0,0:0:0:0:
275,168,82369,2,0,L|340:168,1,53.75,8|0,0:0|1:0,0:0:0:0:
137,109,82545,2,0,L|75:108,2,53.75,2|0|8,0:0|1:0|0:0,0:0:0:0:
430,133,82898,5,2,1:2:0:0:
278,119,83075,2,0,L|277:268,1,107.5,8|0,0:0|1:0,0:0:0:0:
358,239,83339,1,0,1:0:0:0:
173,144,83427,2,0,L|111:141,1,53.75,8|0,0:0|0:0,0:0:0:0:
306,79,83604,6,0,L|403:63,3,53.75,2|0|8|0,1:2|1:0|0:0|1:0,0:0:0:0:
193,73,83957,2,0,L|138:60,3,53.75,2|0|8|0,1:2|1:0|0:0|1:0,0:0:0:0:
336,103,84310,6,0,L|462:97,1,107.5,4|8,1:2|0:0,0:0:0:0:
269,167,84663,1,2,1:2:0:0:
322,166,84751,1,0,1:0:0:0:
376,165,84839,1,8,0:0:0:0:
138,232,85016,5,2,1:2:0:0:
281,115,85192,2,0,L|188:105,1,53.75,8|0,0:0|1:0,0:0:0:0:
130,74,85369,2,0,L|212:62,1,53.75,2|0,0:0|0:0,0:0:0:0:
381,63,85545,1,10,0:0:0:0:
218,94,85722,6,0,L|221:223,1,107.5,0|8,1:0|0:0,0:0:0:0:
477,178,86075,2,0,L|396:174,2,53.75,2|0|8,1:2|1:0|0:0,0:0:0:0:
320,116,86427,6,0,L|390:105,1,53.75,2|0,1:2|1:0,0:0:0:0:
472,90,86604,2,0,L|403:70,1,53.75,8|0,0:0|1:0,0:0:0:0:
222,110,86780,1,2,1:2:0:0:
262,62,86868,1,0,1:0:0:0:
326,49,86956,1,8,0:0:0:0:
377,64,87044,1,0,1:0:0:0:
190,195,87133,5,6,1:2:0:0:
30,137,87310,1,8,0:0:0:0:
26,83,87398,1,0,0:0:0:0:
23,29,87486,1,0,1:0:0:0:
295,82,87663,1,10,0:0:0:0:
460,89,87839,5,0,1:0:0:0:
463,142,87927,1,0,0:0:0:0:
466,196,88015,1,8,0:0:0:0:
162,184,88192,1,2,0:0:0:0:
320,174,88369,1,10,0:0:0:0:
29,133,88545,5,0,1:0:0:0:
166,76,88722,1,8,0:0:0:0:
112,71,88810,1,0,0:0:0:0:
58,67,88898,1,0,1:0:0:0:
330,59,89075,1,10,0:0:0:0:
180,116,89251,5,0,1:0:0:0:
215,116,89309,1,0,1:0:0:0:
251,116,89368,1,0,1:0:0:0:
401,119,89427,1,14,0:0:0:0:
430,57,89604,1,0,1:0:0:0:
394,57,89662,1,0,1:0:0:0:
358,57,89721,1,0,1:0:0:0:
209,60,89780,1,14,0:0:0:0:
370,120,89957,5,4,1:2:0:0:
216,182,90133,2,0,L|297:173,1,53.75,8|0,0:0|0:0,0:0:0:0:
453,112,90310,1,2,1:2:0:0:
296,88,90486,2,0,L|286:27,1,53.75,8|0,0:0|0:0,0:0:0:0:
465,34,90663,6,0,L|399:24,1,53.75,2|0,1:2|0:0,0:0:0:0:
319,34,90839,2,0,L|306:-35,1,53.75,8|0,0:0|1:0,0:0:0:0:
411,51,91016,2,0,L|425:-15,1,53.75,2|0,0:0|0:0,0:0:0:0:
328,109,91192,2,0,L|266:106,1,53.75,10|0,0:0|0:0,0:0:0:0:
57,102,91369,5,0,1:0:0:0:
33,48,91545,2,0,L|123:34,1,53.75,8|0,0:0|0:0,0:0:0:0:
238,89,91722,2,0,L|245:24,1,53.75,2|0,1:2|1:0,0:0:0:0:
151,49,91898,2,0,L|142:-17,1,53.75,8|0,0:0|0:0,0:0:0:0:
305,144,92075,6,0,L|224:137,1,53.75,2|0,1:2|1:0,0:0:0:0:
345,94,92251,2,0,L|357:31,1,53.75,8|0,0:0|1:0,0:0:0:0:
194,56,92427,2,0,L|130:56,1,53.75,2|0,1:2|1:0,0:0:0:0:
335,39,92604,2,0,L|407:35,1,53.75,8|0,0:0|1:0,0:0:0:0:
173,180,92780,5,2,1:2:0:0:
314,121,92957,1,8,0:0:0:0:
319,67,93045,1,0,0:0:0:0:
226,60,93133,2,0,L|295:45,1,53.75,0|0,1:0|1:0,0:0:0:0:
456,41,93310,1,10,0:0:0:0:
298,112,93486,5,0,1:0:0:0:
292,165,93574,1,0,0:0:0:0:
287,219,93662,1,8,0:0:0:0:
38,109,93839,1,2,0:0:0:0:
96,103,93927,1,0,1:0:0:0:
154,97,94015,1,8,0:0:0:0:
426,75,94192,6,0,L|350:64,1,53.75,2|0,1:2|0:0,0:0:0:0:
183,53,94369,1,8,0:0:0:0:
329,90,94545,2,0,L|412:76,1,53.75,0|0,1:0|1:0,0:0:0:0:
210,66,94722,1,8,0:0:0:0:
353,43,94898,6,0,L|277:33,1,53.75,2|0,1:2|1:0,0:0:0:0:
122,137,95075,2,0,L|200:127,1,53.75,8|0,0:0|1:0,0:0:0:0:
78,95,95251,2,0,L|70:30,1,53.75,2|0,1:2|1:0,0:0:0:0:
274,31,95427,2,0,L|357:25,1,53.75,8|0,0:0|1:0,0:0:0:0:
145,80,95604,6,0,L|25:82,1,107.5,4|8,1:2|0:0,0:0:0:0:
194,129,95957,2,0,L|195:266,1,107.5,2|8,1:2|0:0,0:0:0:0:
461,233,96310,5,2,1:2:0:0:
295,165,96486,1,8,0:0:0:0:
243,160,96574,1,0,1:0:0:0:
337,117,96662,1,2,0:0:0:0:
359,70,96750,1,0,1:0:0:0:
191,58,96838,1,10,0:0:0:0:
340,45,97016,6,0,L|466:42,1,107.5,0|8,1:0|0:0,0:0:0:0:
205,144,97369,2,0,L|280:133,1,53.75,2|0,1:2|1:0,0:0:0:0:
427,83,97545,1,8,0:0:0:0:
262,77,97722,5,2,1:2:0:0:
200,65,97810,1,0,1:0:0:0:
311,96,97898,2,0,L|318:177,1,53.75,8|0,0:0|1:0,0:0:0:0:
160,215,98075,2,0,L|251:197,1,53.75,2|0,1:2|1:0,0:0:0:0:
119,157,98251,2,0,L|43:149,1,53.75,8|0,0:0|1:0,0:0:0:0:
304,133,98427,6,0,L|450:128,1,107.5,6|8,1:2|0:0,0:0:0:0:
330,187,98692,1,0,0:0:0:0:
411,129,98780,2,0,L|416:62,1,53.75,0|0,1:0|1:0,0:0:0:0:
208,133,98957,6,0,L|62:128,1,107.5,10|0,0:0|1:0,0:0:0:0:
182,187,99222,1,0,0:0:0:0:
101,129,99310,2,0,L|96:62,1,53.75,8|0,0:0|1:0,0:0:0:0:
271,86,99486,1,2,1:2:0:0:
217,82,99574,1,0,1:0:0:0:
163,79,99662,1,8,0:0:0:0:
217,82,99751,1,2,0:0:0:0:
445,101,99839,6,0,L|458:248,1,107.5,0|8,1:0|0:0,0:0:0:0:
385,221,100104,1,0,0:0:0:0:
213,168,100192,2,0,L|140:168,1,53.75,2|0,1:2|1:0,0:0:0:0:
255,126,100369,2,0,L|267:54,1,53.75,8|0,0:0|0:0,0:0:0:0:
115,131,100545,5,2,1:2:0:0:
184,97,100633,1,8,0:0:0:0:
251,94,100722,1,0,0:0:0:0:
184,97,100810,1,8,0:0:0:0:
22,79,100898,2,0,L|103:66,1,53.75,2|0,1:2|1:0,0:0:0:0:
164,51,101075,2,0,L|183:-7,1,53.75,0|0,1:0|1:0,0:0:0:0:
376,146,101251,6,0,L|295:142,1,53.75,4|0,1:2|1:0,0:0:0:0:
229,107,101427,2,0,L|222:35,1,53.75,8|8,0:0|0:0,0:0:0:0:
400,53,101604,1,10,0:0:0:0:
457,65,101692,1,8,0:0:0:0:
460,114,101780,1,4,1:2:0:0:
405,128,101868,1,0,1:0:0:0:
231,156,101957,6,0,L|316:127,1,53.75,2|0,1:2|1:0,0:0:0:0:
373,103,102133,2,0,L|395:35,1,53.75,0|0,1:0|1:0,0:0:0:0:
214,57,102310,2,0,L|116:50,1,53.75,2|0,1:2|1:0,0:0:0:0:
331,57,102486,2,0,L|339:144,1,53.75,2|0,1:2|1:0,0:0:0:0:
166,191,102663,5,8,0:0:0:0:
235,145,102751,1,8,0:0:0:0:
309,115,102839,2,0,L|320:38,1,53.75,8|8,0:0|0:0,0:0:0:0:
139,68,103016,2,0,L|66:65,1,53.75,2|0,1:2|1:0,0:0:0:0:
181,104,103192,2,0,L|251:98,1,53.75,0|0,1:0|1:0,0:0:0:0:
51,171,103369,6,0,L|124:146,1,53.75,2|0,1:2|1:0,0:0:0:0:
200,121,103545,2,0,L|211:52,1,53.75,0|0,1:0|1:0,0:0:0:0:
37,61,103722,2,0,L|8:7,1,53.75,10|8,0:0|0:0,0:0:0:0:
242,41,103898,2,0,L|311:30,1,53.75,8|0,0:0|1:0,0:0:0:0:
46,221,104075,5,6,1:2:0:0:
31,165,104163,1,0,1:0:0:0:
82,114,104251,1,0,1:0:0:0:
144,84,104339,1,0,1:0:0:0:
344,102,104427,1,10,0:0:0:0:
328,158,104515,1,0,1:0:0:0:
283,195,104603,1,0,1:0:0:0:
225,199,104691,1,0,1:0:0:0:
393,139,104780,6,0,L|425:79,1,53.75,0|0,1:0|1:0,0:0:0:0:
314,59,104957,2,0,L|242:60,1,53.75,0|0,1:0|1:0,0:0:0:0:
429,56,105133,1,10,0:0:0:0:
489,81,105221,1,0,1:0:0:0:
485,131,105309,1,0,1:0:0:0:
422,143,105397,1,0,1:0:0:0:
228,135,105486,6,0,L|109:126,1,107.5,0|2,1:0|1:2,0:0:0:0:
290,65,105839,2,0,L|165:59,1,107.5,8|2,0:0|1:2,0:0:0:0:
456,79,106192,6,0,L|464:211,1,107.5,2|0,1:2|1:0,0:0:0:0:
310,209,106545,2,0,L|452:197,1,107.5,10|0,0:0|1:0,0:0:0:0:
106,136,106898,5,6,1:2:0:0:
256,75,107075,2,0,L|178:57,1,53.75,0|0,1:0|1:0,0:0:0:0:
110,35,107251,1,10,0:0:0:0:
275,115,107427,2,0,L|197:97,1,53.75,2|0,1:2|1:0,0:0:0:0:
129,75,107603,5,0,1:0:0:0:
296,152,107780,2,0,L|218:134,1,53.75,0|0,1:0|1:0,0:0:0:0:
54,134,107957,2,0,L|173:119,1,107.5,10|0,0:0|1:0,0:0:0:0:
237,91,108222,1,0,1:0:0:0:
423,72,108310,5,2,1:2:0:0:
278,38,108486,2,0,L|365:28,1,53.75,0|0,1:0|1:0,0:0:0:0:
425,11,108663,1,10,0:0:0:0:
255,84,108839,2,0,L|342:74,1,53.75,0|0,1:0|1:0,0:0:0:0:
402,57,109016,5,2,1:2:0:0:
234,155,109192,2,0,L|321:145,1,53.75,0|0,1:0|1:0,0:0:0:0:
381,128,109369,1,10,0:0:0:0:
202,208,109545,2,0,L|289:198,1,53.75,0|0,1:0|1:0,0:0:0:0:
456,183,109722,5,6,1:2:0:0:
296,103,109898,1,0,1:0:0:0:
292,49,109986,1,0,1:0:0:0:
289,0,110074,1,10,0:0:0:0:
130,96,110251,2,0,L|209:86,1,53.75,0|0,1:0|1:0,0:0:0:0:
358,74,110427,5,0,1:0:0:0:
210,44,110604,2,0,L|307:22,1,53.75,0|0,1:0|1:0,0:0:0:0:
440,36,110780,1,10,0:0:0:0:
466,83,110957,2,0,L|370:75,1,53.75,2|0,1:2|1:0,0:0:0:0:
231,103,111133,6,0,L|294:76,1,53.75,4|10,1:2|0:0,0:0:0:0:
371,56,111310,2,0,L|381:-17,1,53.75,0|0,1:0|1:0,0:0:0:0:
177,100,111486,2,0,L|111:108,1,53.75,10|0,0:0|1:0,0:0:0:0:
220,50,111663,2,0,L|304:39,1,53.75,0|0,1:0|1:0,0:0:0:0:
74,149,111839,6,0,L|56:86,1,53.75,10|0,0:0|1:0,0:0:0:0:
151,56,112016,2,0,L|90:50,1,53.75,10|0,0:0|1:0,0:0:0:0:
293,120,112192,2,0,L|373:103,3,53.75,2|0|0|0,1:2|1:0|1:0|1:0,0:0:0:0:
169,166,112545,5,4,1:2:0:0:
28,124,112722,1,8,0:0:0:0:
24,70,112810,1,8,0:0:0:0:
114,45,112898,2,0,L|128:-12,1,53.75,10|8,0:0|0:0,0:0:0:0:
29,11,113075,2,0,L|112:6,1,53.75,4|0,1:2|1:0,0:0:0:0:
283,108,113251,6,0,L|291:39,1,53.75,2|0,1:2|1:0,0:0:0:0:
198,45,113427,2,0,L|264:28,1,53.75,0|0,1:0|1:0,0:0:0:0:
456,54,113604,2,0,L|382:42,1,53.75,2|0,1:2|1:0,0:0:0:0:
311,42,113780,2,0,L|301:-22,1,53.75,2|0,1:2|1:0,0:0:0:0:
479,151,113957,5,8,0:0:0:0:
405,98,114045,1,8,0:0:0:0:
328,93,114133,2,0,L|316:167,1,53.75,8|8,0:0|0:0,0:0:0:0:
130,204,114310,2,0,L|213:182,1,53.75,8|8,3:0|3:0,0:0:0:0:
288,146,114486,2,0,L|301:68,1,53.75,8|8,3:0|3:0,0:0:0:0:
124,88,114663,6,0,L|220:69,1,53.75,4|4,3:0|3:0,0:0:0:0:
285,48,114839,2,0,L|377:25,1,53.75,4|4,3:0|3:0,0:0:0:0:
137,159,115016,1,8,0:0:0:0:
62,154,115104,1,8,0:0:0:0:
244,124,115192,1,8,0:0:0:0:
315,127,115280,1,8,0:0:0:0:
126,89,115369,5,6,1:2:0:0:
283,74,115545,2,0,L|276:229,1,107.5,8|2,0:0|1:2,0:0:0:0:
202,202,115810,2,0,L|131:196,1,53.75,0|8,1:0|0:0,0:0:0:0:
428,113,116075,5,0,1:0:0:0:
271,83,116251,1,8,0:0:0:0:
265,29,116339,1,0,1:0:0:0:
260,0,116427,1,2,0:0:0:0:
105,97,116604,1,8,0:0:0:0:
338,165,116780,6,0,L|187:153,1,107.5,0|8,1:0|0:0,0:0:0:0:
310,99,117045,1,0,0:0:0:0:
479,87,117133,2,0,L|334:69,1,107.5,2|8,1:2|0:0,0:0:0:0:
286,41,117398,1,0,0:0:0:0:
103,124,117486,6,0,L|200:100,1,53.75,2|0,1:2|0:0,0:0:0:0:
234,48,117663,1,8,0:0:0:0:
144,46,117751,2,0,L|72:38,2,53.75,2|0|0,1:2|0:0|1:0,0:0:0:0:
319,131,118016,2,0,L|391:128,1,53.75,10|0,0:0|0:0,0:0:0:0:
168,188,118192,5,6,1:2:0:0:
22,105,118369,2,0,L|99:97,1,53.75,8|0,0:0|0:0,0:0:0:0:
281,102,118545,2,0,L|211:100,1,53.75,2|0,1:2|1:0,0:0:0:0:
304,102,118722,2,0,L|314:37,1,53.75,8|0,0:0|1:0,0:0:0:0:
212,24,118898,5,0,1:0:0:0:
373,26,119075,1,8,0:0:0:0:
212,24,119251,2,0,L|282:17,1,53.75,2|0,1:2|1:0,0:0:0:0:
373,26,119427,2,0,L|291:18,1,53.75,8|0,0:0|1:0,0:0:0:0:
135,152,119604,5,0,1:0:0:0:
296,105,119780,2,0,L|228:94,1,53.75,8|0,0:0|0:0,0:0:0:0:
36,249,119957,1,2,1:2:0:0:
32,196,120045,1,0,1:0:0:0:
84,144,120133,1,8,0:0:0:0:
155,122,120221,1,0,1:0:0:0:
335,186,120310,5,2,1:2:0:0:
281,181,120398,1,0,1:0:0:0:
227,176,120486,1,8,0:0:0:0:
393,99,120575,2,0,L|470:93,2,53.75,2|0|0,1:2|1:0|1:0,0:0:0:0:
245,81,120839,2,0,L|328:77,1,53.75,10|0,0:0|1:0,0:0:0:0:
118,73,121016,6,0,L|26:66,3,53.75,14|0|0|0,0:0|1:0|1:0|1:0,0:0:0:0:
165,144,121369,2,0,L|169:80,1,53.75,2|0,1:2|1:0,0:0:0:0:
349,67,121545,6,0,L|432:60,3,53.75,14|0|0|0,0:0|1:0|1:0|1:0,0:0:0:0:
301,86,121898,2,0,L|297:162,1,53.75,2|0,1:2|1:0,0:0:0:0:
103,226,122075,1,14,0:0:0:0:
165,214,122163,1,0,1:0:0:0:
338,165,122251,1,0,1:0:0:0:
400,153,122339,1,0,1:0:0:0:
168,92,122427,5,6,1:2:0:0:
256,192,122780,12,0,123663,0:0:0:0:
154,147,123839,6,0,L|145:72,1,61.8125011789799,6|0,1:2|0:0,0:0:0:0:
237,68,124016,2,0,L|256:0,1,61.8125011789799,8|0,0:0|0:0,0:0:0:0:
83,72,124192,2,0,L|11:62,1,61.8125011789799,2|0,1:2|1:0,0:0:0:0:
248,21,124369,1,10,0:0:0:0:
322,24,124457,1,0,0:0:0:0:
382,65,124545,5,0,1:0:0:0:
414,130,124633,1,0,0:0:0:0:
228,242,124721,1,10,0:0:0:0:
160,211,124810,1,0,1:0:0:0:
243,181,124898,1,0,0:0:0:0:
313,167,124986,1,0,1:0:0:0:
382,154,125074,1,10,0:0:0:0:
313,167,125163,1,0,0:0:0:0:
68,141,125251,6,0,L|62:13,1,123.62500235796,2|8,1:2|0:0,0:0:0:0:
127,5,125516,1,0,0:0:0:0:
309,69,125604,2,0,L|316:151,1,61.8125011789799,2|0,1:2|1:0,0:0:0:0:
221,179,125780,2,0,L|131:176,1,61.8125011789799,8|0,0:0|0:0,0:0:0:0:
373,161,125957,5,2,1:2:0:0:
437,179,126045,1,0,1:0:0:0:
505,203,126133,1,8,0:0:0:0:
507,275,126222,1,0,1:0:0:0:
253,222,126310,1,2,1:2:0:0:
324,156,126398,1,0,1:0:0:0:
401,114,126486,2,0,L|411:39,1,61.8125011789799,8|0,0:0|1:0,0:0:0:0:
201,70,126663,5,6,1:2:0:0:
352,31,126839,2,0,L|254:20,1,61.8125011789799,10|0,0:0|1:0,0:0:0:0:
201,70,127016,1,0,1:0:0:0:
476,72,127192,1,10,0:0:0:0:
316,88,127369,6,0,L|407:76,1,61.8125011789799,2|0,1:2|1:2,0:0:0:0:
476,72,127545,2,0,L|384:59,1,61.8125011789799,8|0,0:0|1:0,0:0:0:0:
230,139,127722,2,0,L|141:130,1,61.8125011789799,2|0,1:2|1:0,0:0:0:0:
276,73,127898,2,0,L|380:51,1,61.8125011789799,10|0,0:0|1:0,0:0:0:0:
155,152,128075,5,0,1:0:0:0:
38,61,128251,1,10,0:0:0:0:
98,64,128339,1,0,1:0:0:0:
156,67,128427,1,0,1:0:0:0:
32,154,128604,1,10,0:0:0:0:
324,126,128780,5,2,1:2:0:0:
264,114,128868,1,0,1:0:0:0:
110,93,128957,1,8,0:0:0:0:
44,95,129045,1,0,1:0:0:0:
230,195,129133,1,2,1:2:0:0:
164,197,129221,1,0,1:0:0:0:
346,80,129310,1,8,0:0:0:0:
412,82,129398,1,0,1:0:0:0:
211,75,129486,6,0,L|205:222,1,123.62500235796,6|8,1:2|0:0,0:0:0:0:
287,216,129751,1,0,0:0:0:0:
115,103,129839,2,0,L|25:106,2,61.8125011789799,2|0|8,1:2|1:0|0:0,0:0:0:0:
401,145,130192,6,0,L|271:146,1,123.62500235796,2|8,1:2|0:0,0:0:0:0:
28,78,130545,2,0,L|132:76,2,61.8125011789799,2|0|8,0:0|1:0|0:0,0:0:0:0:
286,78,130898,6,0,L|416:72,1,123.62500235796,2|8,1:2|0:0,0:0:0:0:
208,155,131251,2,0,L|75:160,1,123.62500235796,2|8,1:2|0:0,0:0:0:0:
434,131,131604,6,0,L|301:107,1,123.62500235796,2|8,1:2|0:0,0:0:0:0:
241,62,131869,1,0,1:0:0:0:
75,68,131957,2,0,L|6:67,2,61.8125011789799,2|0|8,1:2|1:0|0:0,0:0:0:0:
384,169,132310,5,6,1:2:0:0:
246,123,132486,2,0,L|350:108,1,61.8125011789799,8|0,0:0|0:0,0:0:0:0:
475,89,132663,1,2,1:2:0:0:
314,61,132839,6,0,L|311:207,1,123.62500235796,10|0,0:0|1:0,0:0:0:0:
157,212,133192,1,10,0:0:0:0:
321,129,133369,2,0,L|409:116,1,61.8125011789799,0|0,1:0|1:0,0:0:0:0:
280,83,133545,2,0,L|191:89,1,61.8125011789799,10|0,0:0|1:0,0:0:0:0:
432,71,133722,6,0,L|468:6,1,61.8125011789799,2|0,1:2|1:0,0:0:0:0:
273,41,133898,2,0,L|267:-33,1,61.8125011789799,12|0,0:0|1:0,0:0:0:0:
78,127,134075,2,0,L|156:122,1,61.8125011789799,2|0,1:2|1:0,0:0:0:0:
333,82,134251,2,0,L|242:69,1,61.8125011789799,12|0,0:0|1:0,0:0:0:0:
182,52,134427,6,0,L|266:42,1,61.8125011789799,2|0,1:2|1:0,0:0:0:0:
333,82,134604,2,0,L|239:68,1,61.8125011789799,8|0,0:0|1:0,0:0:0:0:
62,192,134780,1,10,0:0:0:0:
122,188,134868,1,8,0:0:0:0:
316,133,134957,1,8,0:0:0:0:
378,126,135045,1,8,0:0:0:0:
154,130,135133,6,0,L|21:132,1,123.62500235796,6|8,1:2|0:0,0:0:0:0:
305,200,135486,1,2,1:2:0:0:
139,114,135663,1,10,0:0:0:0:
138,52,135751,1,0,0:0:0:0:
137,0,135839,5,0,1:0:0:0:
306,66,136016,1,10,0:0:0:0:
139,114,136192,1,0,0:0:0:0:
426,102,136369,2,0,L|345:93,1,61.8125011789799,10|0,0:0|0:0,0:0:0:0:
219,208,136545,6,0,L|369:207,1,123.62500235796,2|8,1:2|0:0,0:0:0:0:
255,129,136810,1,0,0:0:0:0:
91,93,136898,2,0,L|235:84,1,123.62500235796,2|8,1:2|0:0,0:0:0:0:
312,45,137163,1,0,0:0:0:0:
110,167,137251,6,0,L|-15:156,1,123.62500235796,2|8,1:2|0:0,0:0:0:0:
80,91,137516,1,0,1:0:0:0:
294,88,137604,2,0,L|369:77,1,61.8125011789799,2|0,1:2|1:0,0:0:0:0:
275,160,137780,2,0,L|362:143,1,61.8125011789799,8|0,0:0|1:0,0:0:0:0:
150,136,137957,5,6,1:2:0:0:
299,118,138133,1,8,0:0:0:0:
301,179,138221,1,0,1:0:0:0:
304,241,138309,1,0,1:0:0:0:
474,263,138486,1,10,0:0:0:0:
226,130,138663,6,0,L|314:117,1,61.8125011789799,6|0,1:2|1:0,0:0:0:0:
387,100,138839,2,0,L|313:86,1,61.8125011789799,8|0,0:0|1:0,0:0:0:0:
212,66,139016,2,0,L|201:-1,1,61.8125011789799,0|0,1:0|1:0,0:0:0:0:
324,21,139192,2,0,L|408:12,1,61.8125011789799,10|0,0:0|1:0,0:0:0:0:
174,94,139369,5,6,1:2:0:0:
108,91,139457,1,0,1:0:0:0:
51,138,139545,1,8,0:0:0:0:
52,204,139633,1,0,1:0:0:0:
265,201,139722,2,0,L|337:207,1,61.8125011789799,2|0,1:2|1:0,0:0:0:0:
213,138,139898,2,0,L|126:122,1,61.8125011789799,8|0,0:0|1:0,0:0:0:0:
371,87,140075,5,6,1:2:0:0:
311,56,140163,1,0,1:0:0:0:
223,56,140251,1,8,0:0:0:0:
152,92,140339,1,0,1:0:0:0:
372,148,140427,2,0,L|479:142,1,61.8125011789799,2|0,1:2|1:0,0:0:0:0:
216,83,140604,2,0,L|131:77,1,61.8125011789799,8|8,0:0|0:0,0:0:0:0:
374,68,140780,5,4,1:2:0:0:
253,93,140957,1,8,0:0:0:0:
421,52,141133,2,0,L|311:43,1,61.8125011789799,0|0,1:0|1:0,0:0:0:0:
183,170,141310,6,0,L|350:159,1,123.62500235796,10|2,0:0|1:2,0:0:0:0:
133,104,141663,1,8,0:0:0:0:
317,96,141839,1,0,1:0:0:0:
317,157,141927,1,0,1:0:0:0:
317,219,142015,1,10,0:0:0:0:
17,169,142192,6,0,L|154:166,1,123.62500235796,2|8,1:2|0:0,0:0:0:0:
315,137,142545,1,2,1:2:0:0:
253,129,142633,1,0,1:0:0:0:
192,121,142721,1,8,0:0:0:0:
363,63,142898,6,0,L|440:60,2,61.8125011789799,2|0|8,1:2|1:0|0:0,0:0:0:0:
195,76,143251,2,0,L|281:68,1,61.8125011789799,2|0,1:2|1:0,0:0:0:0:
366,70,143427,2,0,L|373:151,1,61.8125011789799,8|0,0:0|1:0,0:0:0:0:
161,182,143604,6,0,L|233:173,1,61.8125011789799,14|0,0:0|1:0,0:0:0:0:
115,137,143780,2,0,L|104:68,1,61.8125011789799,0|0,1:0|1:0,0:0:0:0:
210,67,143957,2,0,L|304:58,1,61.8125011789799,2|0,1:2|1:0,0:0:0:0:
41,197,144133,6,0,L|26:132,1,61.8125011789799,14|0,0:0|1:0,0:0:0:0:
134,109,144310,2,0,L|218:102,1,61.8125011789799,2|0,1:2|1:0,0:0:0:0:
74,69,144486,2,0,L|61:5,1,61.8125011789799,0|0,1:0|1:0,0:0:0:0:
298,66,144663,2,0,L|406:62,1,61.8125011789799,14|8,0:0|0:0,0:0:0:0:
161,62,144839,2,0,L|58:55,1,61.8125011789799,8|8,0:0|0:0,0:0:0:0:
372,138,145016,5,14,0:0:0:0:
383,85,145369,2,0,P|299:85|237:193,1,215
345,142,145898,2,0,L|349:77,1,53.75,0|0,1:0|0:0,0:0:0:0:
156,72,146075,2,0,L|80:87,2,53.75,8|8|0,0:0|0:0|1:0,0:0:0:0:
428,68,146427,6,0,L|498:60,1,53.75,14|0,0:0|1:0,0:0:0:0:
378,79,146604,2,0,L|368:21,1,53.75,0|0,1:0|1:0,0:0:0:0:
470,25,146780,2,0,L|479:-37,1,53.75,10|0,0:0|1:0,0:0:0:0:
248,85,146957,2,0,L|154:82,1,53.75,2|0,1:2|1:0,0:0:0:0:
361,42,147133,6,0,L|435:36,1,53.75,10|0,0:0|1:0,0:0:0:0:
308,114,147310,2,0,L|236:114,1,53.75,0|0,1:0|1:0,0:0:0:0:
355,68,147486,2,0,L|359:0,1,53.75,8|0,0:0|1:0,0:0:0:0:
173,40,147663,2,0,L|111:41,1,53.75,2|0,1:2|1:0,0:0:0:0:
280,62,147839,6,0,L|282:134,1,53.75,10|0,0:0|1:0,0:0:0:0:
181,180,148016,2,0,L|245:175,1,53.75,0|0,1:0|1:0,0:0:0:0:
337,139,148192,2,0,L|350:70,1,53.75,8|0,0:0|1:0,0:0:0:0:
164,76,148369,2,0,L|98:73,1,53.75,2|0,1:2|1:0,0:0:0:0:
297,73,148545,5,10,0:0:0:0:
396,64,148633,2,0,L|459:31,2,53.75,0|0|0,1:0|1:0|1:0,0:0:0:0:
187,106,148898,1,10,0:0:0:0:
88,75,148986,2,0,L|43:45,2,53.75,0|2|0,1:0|1:2|1:0,0:0:0:0:
322,139,149251,6,0,L|343:215,1,53.75,14|0,0:0|1:0,0:0:0:0:
242,223,149427,2,0,L|176:217,1,53.75,0|0,1:0|1:0,0:0:0:0:
291,164,149604,2,0,L|307:93,1,53.75,8|0,0:0|1:0,0:0:0:0:
131,93,149780,2,0,L|218:79,1,53.75,2|0,1:2|1:0,0:0:0:0:
372,64,149957,6,0,L|379:138,1,53.75,10|0,0:0|1:0,0:0:0:0:
277,159,150133,2,0,L|213:154,1,53.75,0|0,1:0|1:0,0:0:0:0:
325,96,150310,2,0,L|397:88,1,53.75,8|0,0:0|1:0,0:0:0:0:
179,57,150486,2,0,L|88:52,1,53.75,2|0,1:2|1:0,0:0:0:0:
309,68,150663,6,0,L|320:147,1,53.75,10|0,0:0|1:0,0:0:0:0:
213,148,150839,2,0,L|198:83,1,53.75,0|0,1:0|1:0,0:0:0:0:
302,61,151016,2,0,L|311:-2,1,53.75,8|0,0:0|1:0,0:0:0:0:
144,44,151192,2,0,L|60:37,1,53.75,2|0,1:2|1:0,0:0:0:0:
296,157,151369,6,0,L|129:145,1,145.125000553608,10|0,0:0|1:0,0:0:0:0:
235,93,151633,1,2,1:2:0:0:
418,110,151722,2,0,L|431:32,1,72.562500276804,12|0,0:0|1:0,0:0:0:0:
221,33,151898,2,0,L|117:37,1,72.562500276804,2|0,1:2|1:0,0:0:0:0:
355,180,152075,6,0,L|432:165,1,53.75,14|0,0:0|1:0,0:0:0:0:
308,132,152251,2,0,L|295:63,1,53.75,0|0,1:0|1:0,0:0:0:0:
194,76,152427,2,0,L|184:11,1,53.75,8|0,0:0|1:0,0:0:0:0:
366,28,152604,2,0,L|439:28,1,53.75,2|0,1:2|1:0,0:0:0:0:
250,132,152780,6,0,L|149:124,1,53.75,10|0,0:0|1:0,0:0:0:0:
299,78,152957,2,0,L|312:10,1,53.75,0|0,1:0|1:0,0:0:0:0:
409,64,153133,2,0,L|423:-11,1,53.75,8|0,0:0|1:0,0:0:0:0:
237,192,153310,2,0,L|165:187,1,53.75,2|0,1:2|1:0,0:0:0:0:
330,131,153486,6,0,L|407:127,1,53.75,10|0,0:0|1:0,0:0:0:0:
284,69,153663,2,0,L|191:72,1,53.75,0|0,1:0|1:0,0:0:0:0:
336,25,153839,2,0,L|421:22,1,53.75,8|0,0:0|1:0,0:0:0:0:
186,150,154016,2,0,L|98:141,1,53.75,2|0,1:2|1:0,0:0:0:0:
313,134,154192,6,0,L|336:73,1,53.75,10|0,0:0|1:0,0:0:0:0:
223,71,154369,2,0,L|212:5,1,53.75,0|0,1:0|1:0,0:0:0:0:
390,37,154545,2,0,L|472:34,1,53.75,14|0,0:0|1:0,0:0:0:0:
212,137,154722,2,0,L|108:129,1,53.75,2|0,1:2|1:0,0:0:0:0:
371,137,154898,6,0,L|377:71,1,53.75,14|0,0:0|1:0,0:0:0:0:
275,62,155075,2,0,L|207:51,1,53.75,0|0,1:0|1:0,0:0:0:0:
321,99,155251,2,0,L|325:189,1,53.75,8|0,0:0|1:0,0:0:0:0:
130,251,155427,2,0,L|211:241,1,53.75,2|0,1:2|1:0,0:0:0:0:
351,197,155604,6,0,L|369:130,1,53.75,10|0,0:0|1:0,0:0:0:0:
267,116,155780,2,0,L|261:44,1,53.75,0|0,1:0|1:0,0:0:0:0:
367,28,155957,2,0,L|463:23,1,53.75,8|0,0:0|1:0,0:0:0:0:
245,168,156133,2,0,L|152:158,1,53.75,2|0,1:2|1:0,0:0:0:0:
403,88,156310,6,0,L|409:167,1,53.75,10|0,0:0|1:0,0:0:0:0:
307,192,156486,2,0,L|216:190,1,53.75,0|0,1:0|1:0,0:0:0:0:
354,131,156663,2,0,L|359:55,1,53.75,8|0,0:0|1:0,0:0:0:0:
193,68,156839,2,0,L|109:68,1,53.75,2|8,1:2|0:0,0:0:0:0:
315,29,157016,5,10,0:0:0:0:
390,20,157104,1,0,1:0:0:0:
315,29,157192,1,10,0:0:0:0:
390,20,157280,1,0,1:0:0:0:
190,129,157369,1,8,0:0:0:0:
27,102,157457,2,0,L|17:33,1,53.75,8|8,0:0|0:0,0:0:0:0:
95,13,157633,1,8,0:0:0:0:
358,182,157722,6,0,P|267:154|195:327,1,322.500012302399,6|0,1:2|0:0,0:0:0:0:
359,272,158251,2,0,L|263:255,1,53.75,10|2,0:0|1:2,0:0:0:0:
463,202,158427,6,0,L|470:340,1,107.5,2|8,1:2|0:0,0:0:0:0:
363,327,158692,2,0,L|482:320,1,107.5,2|0,1:2|1:0,0:0:0:0:
367,248,158957,2,0,L|431:243,1,53.75,10|2,0:0|1:2,0:0:0:0:
186,155,159133,6,0,L|35:141,1,107.5,2|10,1:2|0:0,0:0:0:0:
192,93,159398,2,0,L|193:245,1,107.5,2|0,1:2|1:0,0:0:0:0:
363,210,159663,2,0,L|450:208,1,53.75,10|0,0:0|0:0,0:0:0:0:
223,112,159839,5,2,1:2:0:0:
148,93,159927,1,0,0:0:0:0:
356,72,160016,2,0,P|298:73|269:189,1,161.25
359,158,160369,1,8,0:0:0:0:
436,150,160457,1,0,1:0:0:0:
207,180,160545,5,6,1:2:0:0:
113,143,160633,1,0,0:0:0:0:
207,180,160722,1,0,0:0:0:0:
113,143,160810,1,0,0:0:0:0:
207,180,160898,2,0,L|216:117,1,53.75,0|0,0:0|1:0,0:0:0:0:
47,87,161075,2,0,L|130:76,1,53.75,10|0,0:0|0:0,0:0:0:0:
276,86,161251,6,0,L|202:84,3,53.75,2|0|8|0,1:2|1:0|0:0|1:0,0:0:0:0:
405,60,161604,2,0,L|489:55,3,53.75,2|0|8|0,1:2|1:0|0:0|1:0,0:0:0:0:
281,153,161957,6,0,L|175:146,3,53.75,2|0|8|0,1:2|1:0|0:0|1:0,0:0:0:0:
51,62,162310,2,0,L|135:53,3,53.75,2|0|10|0,1:2|1:0|0:0|1:0,0:0:0:0:
308,69,162663,5,2,1:2:0:0:
389,70,162751,2,0,L|401:7,1,53.75,0|8,1:0|0:0,0:0:0:0:
480,14,162927,1,0,1:0:0:0:
235,122,163016,1,2,1:2:0:0:
162,82,163104,1,0,1:0:0:0:
252,52,163192,1,8,0:0:0:0:
317,66,163280,1,0,1:0:0:0:
95,125,163369,6,0,P|71:187|97:255,1,107.5,6|8,1:2|0:0,0:0:0:0:
190,244,163633,2,0,L|347:235,1,107.5,2|0,1:2|1:0,0:0:0:0:
190,244,163898,2,0,L|263:237,1,53.75,10|2,0:0|1:2,0:0:0:0:
64,187,164075,6,0,L|200:170,1,107.5,2|8,1:2|0:0,0:0:0:0:
278,132,164339,2,0,L|157:125,1,107.5,2|0,1:2|1:0,0:0:0:0:
278,132,164604,2,0,L|194:127,1,53.75,10|0,0:0|0:0,0:0:0:0:
392,108,164780,6,0,L|518:98,1,107.5,2|10,1:2|0:0,0:0:0:0:
392,108,165045,2,0,L|241:110,1,107.5,2|0,1:2|1:0,0:0:0:0:
455,72,165310,2,0,L|510:71,1,53.75,10|0,0:0|0:0,0:0:0:0:
255,175,165486,5,2,1:2:0:0:
321,134,165575,1,0,0:0:0:0:
123,112,165663,2,0,L|33:109,1,53.75
174,84,165839,2,0,L|189:15,1,53.75,0|0,0:0|1:0,0:0:0:0:
363,33,166016,2,0,L|441:27,1,53.75,10|0,0:0|1:0,0:0:0:0:
205,135,166192,5,4,1:2:0:0:
111,115,166280,1,0,0:0:0:0:
272,75,166369,1,10,0:0:0:0:
341,75,166457,1,0,0:0:0:0:
404,103,166545,1,0,0:0:0:0:
450,155,166633,1,0,0:0:0:0:
471,221,166721,1,8,0:0:0:0:
463,290,166810,1,0,1:0:0:0:
357,246,166898,6,0,L|405:210,1,53.75,2|0,1:2|1:0,0:0:0:0:
302,167,167075,2,0,L|296:105,1,53.75,8|0,0:0|1:0,0:0:0:0:
395,92,167251,2,0,L|399:16,1,53.75,2|0,1:2|1:0,0:0:0:0:
287,39,167427,2,0,L|359:28,1,53.75,8|0,0:0|1:0,0:0:0:0:
154,132,167604,6,0,L|81:123,1,53.75,2|0,1:2|1:0,0:0:0:0:
190,64,167780,2,0,L|107:57,1,53.75,8|0,0:0|1:0,0:0:0:0:
376,148,167957,1,2,1:2:0:0:
449,135,168045,1,0,1:0:0:0:
358,87,168133,1,10,0:0:0:0:
431,74,168221,1,0,1:0:0:0:
231,128,168310,5,2,1:2:0:0:
57,118,168398,2,0,L|47:58,1,53.75,8|0,0:0|1:0,0:0:0:0:
131,20,168575,1,0,1:0:0:0:
316,162,168663,1,10,0:0:0:0:
244,119,168751,1,0,1:0:0:0:
172,108,168839,1,0,1:0:0:0:
244,119,168927,1,8,0:0:0:0:
63,192,169016,6,0,L|55:125,1,53.75,6|0,1:2|0:0,0:0:0:0:
149,102,169192,2,0,L|163:44,1,53.75,8|0,0:0|1:0,0:0:0:0:
101,46,169369,2,0,L|88:-21,1,53.75,0|0,0:0|1:0,0:0:0:0:
150,21,169545,2,0,L|177:-44,1,53.75,8|8,0:0|0:0,0:0:0:0:
61,94,169722,6,0,L|195:78,1,107.5,2|8,1:2|0:0,0:0:0:0:
463,82,170075,2,0,L|328:76,1,107.5,2|10,1:2|0:0,0:0:0:0:
80,174,170427,6,0,L|101:105,1,53.75,2|0,1:2|1:0,0:0:0:0:
201,95,170604,2,0,L|217:27,1,53.75,8|0,0:0|1:0,0:0:0:0:
325,58,170780,2,0,L|341:-11,1,53.75,0|0,1:0|1:0,0:0:0:0:
442,35,170957,2,0,L|351:27,1,53.75,10|2,0:0|0:0,0:0:0:0:
229,173,171133,6,0,L|378:157,1,107.5,2|8,0:0|0:0,0:0:0:0:
141,100,171398,2,0,L|65:99,2,53.75,2|0|0,0:0|0:0|1:0,0:0:0:0:
306,92,171663,2,0,L|219:86,1,53.75,10|0,0:0|1:0,0:0:0:0:
440,68,171839,6,0,L|450:138,1,53.75,6|0,1:2|0:0,0:0:0:0:
249,154,172016,1,10,0:0:0:0:
165,121,172104,1,0,0:0:0:0:
249,154,172192,1,0,0:0:0:0:
165,121,172280,1,0,1:0:0:0:
249,154,172369,1,10,0:0:0:0:
332,172,172457,1,0,0:0:0:0:
90,137,172545,6,0,L|28:120,3,53.75,2|0|8|0,1:2|1:0|0:0|1:0,0:0:0:0:
236,66,172898,2,0,L|314:66,3,53.75,2|0|8|0,1:2|1:0|0:0|1:0,0:0:0:0:
475,68,173251,5,2,1:2:0:0:
410,68,173339,1,0,1:0:0:0:
475,68,173427,1,8,0:0:0:0:
410,68,173515,1,0,1:0:0:0:
206,121,173604,1,2,1:2:0:0:
278,121,173692,1,0,1:0:0:0:
206,121,173780,1,8,0:0:0:0:
278,121,173868,1,0,1:0:0:0:
107,48,173957,5,2,1:2:0:0:
32,48,174045,1,0,1:0:0:0:
107,48,174133,1,8,0:0:0:0:
32,48,174221,1,0,1:0:0:0:
255,178,174310,1,2,1:2:0:0:
329,163,174398,1,0,1:0:0:0:
161,119,174486,1,10,0:0:0:0:
329,163,174575,1,8,0:0:0:0:
161,119,174663,5,6,1:2:0:0:
94,110,174751,1,0,0:0:0:0:
94,110,174839,1,0,0:0:0:0:
293,83,174927,1,0,0:0:0:0:
266,80,174971,1,0,0:0:0:0:
239,78,175015,1,0,0:0:0:0:
143,54,175104,1,0,0:0:0:0:
239,36,175192,1,0,0:0:0:0:
240,62,175236,1,0,0:0:0:0:
241,89,175280,1,0,0:0:0:0:
143,54,175369,1,2,1:2:0:0:
330,67,175457,6,0,L|377:66,2,26.875,0|0|10,1:0|0:0|0:0,0:0:0:0:
235,148,175633,1,0,0:0:0:0:
330,67,175722,1,2,1:2:0:0:
330,93,175766,1,0,0:0:0:0:
331,120,175810,1,0,1:0:0:0:
235,148,175898,1,8,0:0:0:0:
395,116,175986,5,0,0:0:0:0:
421,114,176030,1,0,0:0:0:0:
448,113,176074,1,2,1:2:0:0:
349,57,176163,1,0,0:0:0:0:
255,72,176251,1,10,0:0:0:0:
228,70,176295,1,0,0:0:0:0:
201,69,176339,1,0,1:0:0:0:
294,55,176427,1,2,0:0:0:0:
119,114,176516,5,0,1:0:0:0:
118,140,176560,1,0,0:0:0:0:
118,167,176604,1,8,0:0:0:0:
211,194,176692,1,0,0:0:0:0:
118,167,176780,2,0,L|71:168,2,26.875,2|0|0,1:2|0:0|1:0,0:0:0:0:
211,194,176957,1,8,0:0:0:0:
51,179,177045,6,0,L|6:180,2,26.875,0|0|2,1:0|0:0|1:2,0:0:0:0:
142,154,177222,1,0,1:0:0:0:
343,96,177310,1,12,0:0:0:0:
421,79,177398,1,0,1:0:0:0:
260,64,177486,6,0,L|191:62,3,53.75,6|0|8|0,1:2|1:0|0:0|1:0,0:0:0:0:
315,175,177839,2,0,L|324:109,1,53.75,2|0,1:2|1:0,0:0:0:0:
495,77,178016,2,0,L|435:68,1,53.75,12|0,0:0|1:0,0:0:0:0:
345,77,178192,6,0,L|339:148,1,53.75,2|0,1:2|1:0,0:0:0:0:
171,192,178369,2,0,L|240:187,1,53.75,12|0,0:0|1:0,0:0:0:0:
58,86,178545,2,0,L|2:84,3,53.75,2|0|12|0,1:2|1:0|0:0|1:0,0:0:0:0:
241,97,178898,6,0,L|356:85,1,107.5,6|8,1:2|0:0,0:0:0:0:
169,177,179163,2,0,L|241:169,1,53.75,0|2,1:0|1:2,0:0:0:0:
399,107,179339,1,0,1:0:0:0:
323,83,179427,1,14,0:0:0:0:
245,69,179516,1,0,1:0:0:0:
403,51,179604,5,14,0:0:0:0:
469,32,179692,1,8,0:0:0:0:
389,92,179780,1,8,0:0:0:0:
455,73,179868,1,8,0:0:0:0:
227,136,179957,1,10,0:0:0:0:
162,116,180045,1,8,0:0:0:0:
344,94,180133,1,10,0:0:0:0:
279,74,180221,1,8,0:0:0:0:
53,188,180310,6,0,P|47:146|183:68,1,215,6|0,1:2|0:0,0:0:0:0:
325,77,180839,2,0,L|329:158,1,53.75,8|0,0:0|0:0,0:0:0:0:
218,190,181016,6,0,L|109:203,1,107.5,2|8,1:2|0:0,0:0:0:0:
276,117,181369,2,0,L|411:111,1,107.5,2|10,0:0|0:0,0:0:0:0:
83,144,181722,6,0,L|222:132,1,107.5,2|8,1:2|0:0,0:0:0:0:
303,127,181986,2,0,L|313:258,1,107.5,2|0,1:2|1:0,0:0:0:0:
126,218,182251,2,0,L|203:207,1,53.75,10|0,0:0|0:0,0:0:0:0:
429,144,182427,6,0,L|290:132,1,107.5,2|8,1:2|0:0,0:0:0:0:
209,127,182691,2,0,L|199:258,1,107.5,2|0,1:2|1:0,0:0:0:0:
386,218,182956,2,0,L|309:207,1,53.75,10|0,0:0|0:0,0:0:0:0:
77,172,183133,6,0,P|77:239|226:274,1,215,6|0,1:2|0:0,0:0:0:0:
360,160,183663,2,0,L|292:150,1,53.75,10|2,0:0|1:2,0:0:0:0:
93,136,183839,6,0,L|202:121,1,107.5,2|8,1:2|0:0,0:0:0:0:
313,113,184104,2,0,L|439:93,1,107.5,2|0,1:2|1:0,0:0:0:0:
302,69,184369,2,0,L|227:65,1,53.75,10|0,0:0|0:0,0:0:0:0:
432,60,184545,6,0,L|442:172,1,107.5,2|8,1:2|0:0,0:0:0:0:
331,201,184810,2,0,L|215:191,1,107.5,2|0,1:2|1:0,0:0:0:0:
340,137,185075,2,0,L|346:72,1,53.75,10|0,0:0|0:0,0:0:0:0:
196,91,185251,6,0,L|135:90,1,53.75,2|0,1:2|1:0,0:0:0:0:
243,118,185427,2,0,L|252:200,1,53.75,8|2,0:0|1:2,0:0:0:0:
62,227,185604,2,0,L|0:221,3,53.75,0|0|10|0,1:0|1:0|0:0|1:0,0:0:0:0:
206,189,185957,6,0,L|226:79,1,107.5,6|8,1:2|0:0,0:0:0:0:
336,87,186222,2,0,L|472:73,1,107.5,2|0,1:2|1:0,0:0:0:0:
336,87,186486,2,0,L|329:17,1,53.75,10|0,0:0|0:0,0:0:0:0:
149,67,186663,6,0,L|69:67,2,53.75,2|0|8,1:2|1:0|0:0,0:0:0:0:
256,67,186927,2,0,L|260:143,1,53.75,2|0,1:2|1:0,0:0:0:0:
185,151,187104,1,0,1:0:0:0:
360,101,187192,2,0,L|438:95,1,53.75,8|0,0:0|1:0,0:0:0:0:
208,76,187369,6,0,L|81:73,1,107.5,6|8,1:2|0:0,0:0:0:0:
216,81,187633,2,0,L|228:203,1,107.5,2|0,1:2|1:0,0:0:0:0:
47,224,187898,2,0,L|138:216,1,53.75,10|0,0:0|0:0,0:0:0:0:
309,155,188075,6,0,L|405:142,3,53.75,2|0|8|2,1:2|1:0|0:0|1:2,0:0:0:0:
195,92,188427,2,0,L|126:92,1,53.75,0|0,1:0|1:0,0:0:0:0:
329,48,188604,2,0,L|422:43,1,53.75,8|0,0:0|1:0,0:0:0:0:
162,178,188780,6,0,L|297:171,1,107.5,6|8,1:2|0:0,0:0:0:0:
155,113,189045,2,0,L|149:-8,1,107.5,2|0,1:2|1:0,0:0:0:0:
327,37,189310,2,0,L|244:32,1,53.75,10|0,0:0|0:0,0:0:0:0:
41,134,189486,6,0,L|186:125,1,107.5,2|8,1:2|0:0,0:0:0:0:
271,113,189751,2,0,L|146:94,1,107.5,2|0,1:2|1:0,0:0:0:0:
361,71,190016,2,0,L|451:65,1,53.75,8|0,0:0|1:0,0:0:0:0:
219,184,190192,6,0,L|137:182,1,53.75,6|0,1:2|1:0,0:0:0:0:
350,147,190369,2,0,L|357:75,1,53.75,8|2,0:0|1:2,0:0:0:0:
273,53,190545,1,0,1:0:0:0:
40,142,190633,2,0,L|30:70,1,53.75,8|2,0:0|1:2,0:0:0:0:
131,47,190810,1,0,1:0:0:0:
324,81,190898,6,0,L|395:54,1,53.75,10|8,0:0|0:0,0:0:0:0:
282,40,191075,2,0,L|217:29,1,53.75,8|10,0:0|0:0,0:0:0:0:
429,146,191251,1,8,0:0:0:0:
362,118,191339,1,8,0:0:0:0:
191,103,191427,1,10,0:0:0:0:
125,95,191515,1,8,0:0:0:0:
346,141,191604,6,0,L|420:132,1,53.75,6|0,1:2|0:0,0:0:0:0:
296,103,191780,2,0,L|286:42,1,53.75,8|0,0:0|0:0,0:0:0:0:
389,60,191957,2,0,L|400:2,1,53.75,0|0,0:0|1:0,0:0:0:0:
198,172,192133,2,0,L|122:165,1,53.75,8|0,0:0|0:0,0:0:0:0:
316,132,192310,6,0,L|335:77,1,53.75,2|0,1:2|0:0,0:0:0:0:
226,67,192486,2,0,L|216:-3,1,53.75,8|0,0:0|1:0,0:0:0:0:
321,17,192663,2,0,L|384:7,1,53.75,2|0,0:0|1:0,0:0:0:0:
268,83,192839,2,0,L|178:80,1,53.75,10|0,0:0|0:0,0:0:0:0:
428,146,193016,6,0,L|301:133,1,107.5,2|8,1:2|0:0,0:0:0:0:
489,93,193280,2,0,L|363:83,1,107.5,2|0,1:2|1:0,0:0:0:0:
213,62,193545,2,0,L|319:61,1,53.75,10|0,0:0|0:0,0:0:0:0:
82,207,193722,6,0,L|272:208,1,139.749993602753,2|8,1:2|0:0,0:0:0:0:
28,136,193986,2,0,L|188:132,1,139.749993602753,2|0,1:2|1:0,0:0:0:0:
370,84,194251,2,0,L|270:78,1,69.8749968013765,14|0,0:0|0:0,0:0:0:0:
95,97,194427,6,0,P|85:165|204:233,1,215,6|0,1:2|0:0,0:0:0:0:
353,145,194957,2,0,L|281:131,1,53.75,10|2,0:0|1:2,0:0:0:0:
196,72,195133,6,0,L|339:66,1,107.5,2|10,1:2|0:0,0:0:0:0:
150,154,195486,1,0,0:0:0:0:
329,146,195663,1,10,0:0:0:0:
26,191,195839,6,0,P|95:184|174:326,1,215,2|0,1:2|0:0,0:0:0:0:
31,300,196369,2,0,L|84:283,1,53.75,10|2,0:0|0:0,0:0:0:0:
279,189,196545,1,2,1:2:0:0:
447,167,196722,6,0,L|246:142,1,161.25,10|0,0:0|1:0,0:0:0:0:
392,97,197075,2,0,L|405:28,1,53.75,10|0,0:0|1:0,0:0:0:0:
194,62,197251,6,0,L|116:55,3,53.75,6|0|8|0,1:2|0:0|0:0|0:0,0:0:0:0:
318,62,197604,2,0,L|396:55,3,53.75,2|0|10|0,1:2|1:0|0:0|0:0,0:0:0:0:
186,146,197957,6,0,L|260:139,1,53.75,0|0,1:0|1:0,0:0:0:0:
136,89,198133,2,0,L|76:79,1,53.75,10|0,0:0|1:0,0:0:0:0:
297,87,198310,2,0,L|371:81,1,53.75,0|0,1:0|1:0,0:0:0:0:
176,36,198486,2,0,L|93:28,1,53.75,10|0,0:0|1:0,0:0:0:0:
311,113,198663,5,6,1:2:0:0:
472,117,198751,2,0,L|505:61,2,53.75,0|8|0,0:0|0:0|0:0,0:0:0:0:
252,190,199016,1,2,1:2:0:0:
351,175,199104,2,0,L|384:119,2,53.75,0|10|0,1:0|0:0|0:0,0:0:0:0:
144,115,199369,5,0,1:0:0:0:
45,100,199457,2,0,L|12:44,2,53.75,0|10|0,1:0|0:0|1:0,0:0:0:0:
250,98,199722,2,0,L|342:91,1,53.75,0|0,1:0|1:0,0:0:0:0:
111,36,199898,2,0,L|42:28,1,53.75,10|0,0:0|1:0,0:0:0:0:
272,192,200075,6,0,L|283:130,1,53.75,6|0,1:2|1:0,0:0:0:0:
442,103,200251,2,0,L|501:105,1,53.75,12|0,0:0|1:0,0:0:0:0:
294,89,200427,2,0,L|284:16,1,53.75,2|0,1:2|1:0,0:0:0:0:
104,99,200604,2,0,L|40:103,1,53.75,14|0,0:0|1:0,0:0:0:0:
219,171,200780,6,0,L|241:101,1,53.75,0|0,1:0|1:0,0:0:0:0:
397,81,200957,2,0,L|466:77,1,53.75,14|0,0:0|1:0,0:0:0:0:
239,84,201133,2,0,L|154:90,1,53.75,0|0,1:0|1:0,0:0:0:0:
439,40,201310,2,0,L|502:37,1,53.75,14|0,0:0|1:0,0:0:0:0:
245,158,201486,5,6,1:2:0:0:
163,108,201575,1,0,1:0:0:0:
233,81,201663,1,10,0:0:0:0:
307,52,201751,1,8,0:0:0:0:
132,178,201839,2,0,L|59:168,3,53.75,10|8|10|8,0:0|0:0|0:0|0:0,0:0:0:0:
303,127,202192,6,0,L|373:127,3,53.75,0|0|2|0,1:0|1:0|1:2|1:0,0:0:0:0:
110,232,202545,1,2,1:2:0:0:
178,220,202633,1,0,1:0:0:0:
360,160,202722,1,2,1:2:0:0:
428,148,202810,1,0,1:0:0:0:
196,62,202898,5,6,1:2:0:0:
133,54,202986,1,0,1:0:0:0:
70,87,203074,1,0,1:0:0:0:
66,151,203162,1,0,1:0:0:0:
260,185,203251,2,0,L|279:127,3,53.75,10|0|0|0,0:0|1:0|1:0|1:0,0:0:0:0:
168,106,203604,6,0,L|141:42,3,53.75,2|0|0|0,1:2|1:0|1:0|1:0,0:0:0:0:
252,93,203957,1,10,0:0:0:0:
320,91,204045,1,0,1:0:0:0:
379,135,204133,1,0,1:0:0:0:
380,203,204221,1,0,1:0:0:0:
168,178,204310,6,0,L|152:120,1,53.75,2|0,1:2|1:0,0:0:0:0:
216,93,204486,2,0,L|230:30,1,53.75,0|0,1:0|1:0,0:0:0:0:
169,35,204663,2,0,L|114:47,1,53.75,8|0,0:0|1:0,0:0:0:0:
178,37,204839,2,0,L|246:22,1,53.75,0|0,1:0|1:0,0:0:0:0:
61,87,205016,5,2,1:2:0:0:
24,134,205104,1,0,1:0:0:0:
19,193,205192,1,0,1:0:0:0:
51,246,205280,1,0,1:0:0:0:
111,302,205368,1,8,0:0:0:0:
178,332,205457,1,0,1:0:0:0:
252,351,205545,1,0,1:0:0:0:
333,345,205633,1,0,1:0:0:0:
149,200,205722,6,0,L|220:163,1,53.75,6|0,1:2|1:0,0:0:0:0:
288,140,205898,2,0,L|301:68,1,53.75,0|0,1:0|1:0,0:0:0:0:
197,72,206075,2,0,L|188:-2,1,53.75,8|0,0:0|1:0,0:0:0:0:
292,21,206251,2,0,L|372:13,1,53.75,0|0,1:0|1:0,0:0:0:0:
159,156,206427,6,0,L|241:147,1,53.75,6|0,1:2|1:0,0:0:0:0:
313,91,206604,2,0,L|241:83,1,53.75,0|0,1:0|1:0,0:0:0:0:
155,68,206780,2,0,L|141:2,1,53.75,8|0,0:0|1:0,0:0:0:0:
256,17,206957,2,0,L|322:8,1,53.75,2|0,1:2|1:0,0:0:0:0:
83,92,207133,5,6,1:2:0:0:
32,156,207221,1,0,1:0:0:0:
92,186,207309,1,0,1:0:0:0:
161,202,207397,1,0,1:0:0:0:
272,166,207486,2,0,L|287:101,1,53.75,8|0,0:0|1:0,0:0:0:0:
227,77,207663,2,0,L|207:-1,1,53.75,0|0,1:0|1:0,0:0:0:0:
396,38,207839,5,2,1:2:0:0:
446,46,207927,1,0,1:0:0:0:
491,89,208015,1,0,1:0:0:0:
488,146,208103,1,0,1:0:0:0:
307,117,208192,2,0,L|245:105,1,53.75,10|8,0:0|0:0,0:0:0:0:
422,45,208369,2,0,L|491:35,1,53.75,0|0,1:0|1:0,0:0:0:0:
288,147,208545,6,0,L|268:92,3,53.75,6|0|0|0,1:2|1:0|1:0|1:0,0:0:0:0:
381,96,208898,2,0,L|406:43,3,53.75,10|0|0|0,0:0|1:0|1:0|1:0,0:0:0:0:
228,86,209251,5,2,1:2:0:0:
175,88,209339,1,0,1:0:0:0:
130,129,209427,1,0,1:0:0:0:
134,181,209515,1,0,1:0:0:0:
250,199,209604,1,10,0:0:0:0:
301,193,209692,1,0,1:0:0:0:
354,225,209780,1,0,1:0:0:0:
354,295,209868,1,0,1:0:0:0:
139,314,209957,5,2,1:2:0:0:
97,281,210045,1,0,1:0:0:0:
74,233,210133,1,0,1:0:0:0:
75,179,210221,1,0,1:0:0:0:
100,132,210309,1,8,0:0:0:0:
143,102,210398,1,0,1:0:0:0:
196,94,210486,1,0,1:0:0:0:
247,110,210574,1,0,1:0:0:0:
83,61,210663,5,2,1:2:0:0:
144,54,210751,1,0,1:0:0:0:
314,56,210839,1,0,1:0:0:0:
375,63,210927,1,0,1:0:0:0:
167,159,211016,1,8,0:0:0:0:
228,152,211104,1,0,1:0:0:0:
401,116,211192,1,0,1:0:0:0:
462,109,211280,1,0,1:0:0:0:
250,90,211369,5,6,1:2:0:0:
402,47,211545,2,0,L|322:42,1,53.75,8|8,0:0|0:0,0:0:0:0:
165,128,211722,2,0,L|253:122,1,53.75,10|8,0:0|0:0,0:0:0:0:
414,133,211898,1,6,1:2:0:0:
270,70,212075,6,0,L|351:67,1,53.75,10|8,0:0|0:0,0:0:0:0:
155,168,212251,2,0,L|73:165,1,53.75,10|8,0:0|0:0,0:0:0:0:
283,93,212427,2,0,L|376:93,1,53.75,6|0,1:2|0:0,0:0:0:0:
82,143,212604,6,0,P|31:198|105:268,1,161.25,6|0,1:2|0:0,0:0:0:0:
258,227,212957,2,0,L|329:224,1,53.75,8|0,0:0|0:0,0:0:0:0:
162,152,213133,2,0,L|30:148,1,107.5,10|0,0:0|1:0,0:0:0:0:
139,84,213398,1,0,1:0:0:0:
321,159,213486,6,0,L|453:155,1,107.5,14|8,0:0|0:0,0:0:0:0:
344,91,213751,1,8,0:0:0:0:
156,60,213839,2,0,L|95:55,1,53.75,10|8,0:0|0:0,0:0:0:0:
191,122,214016,2,0,L|116:121,1,53.75,10|8,0:0|0:0,0:0:0:0:
349,104,214192,5,4,1:2:0:0:
201,44,214369,2,0,L|286:36,1,53.75,8|0,0:0|0:0,0:0:0:0:
357,35,214545,2,0,L|292:27,1,53.75,2|0,1:2|1:0,0:0:0:0:
198,45,214722,2,0,L|268:37,1,53.75,8|0,0:0|0:0,0:0:0:0:
468,84,214898,6,0,L|366:73,1,53.75,2|0,1:2|0:0,0:0:0:0:
309,74,215075,2,0,L|301:8,1,53.75,8|0,0:0|1:0,0:0:0:0:
100,150,215251,2,0,L|46:152,1,53.75,2|0,0:0|1:0,0:0:0:0:
153,96,215427,2,0,L|164:22,1,53.75,8|0,0:0|0:0,0:0:0:0:
368,72,215604,5,2,1:2:0:0:
419,83,215692,1,0,0:0:0:0:
470,122,215780,1,8,0:0:0:0:
470,183,215868,1,0,0:0:0:0:
368,196,215957,2,0,L|299:194,1,53.75,0|0,1:0|1:0,0:0:0:0:
413,137,216133,2,0,L|420:71,1,53.75,8|0,0:0|0:0,0:0:0:0:
249,82,216310,6,0,L|182:72,1,53.75,2|0,1:2|0:0,0:0:0:0:
86,76,216486,2,0,L|74:11,1,53.75,8|0,0:0|1:0,0:0:0:0:
266,24,216663,2,0,L|344:21,1,53.75,2|0,0:0|1:0,0:0:0:0:
214,124,216839,2,0,L|135:122,1,53.75,8|0,0:0|0:0,0:0:0:0:
366,122,217016,6,0,L|366:239,1,107.5,6|8,1:2|0:0,0:0:0:0:
200,235,217369,2,0,L|280:231,2,53.75,0|0|8,1:0|1:0|0:0,0:0:0:0:
464,136,217722,6,0,L|348:137,1,107.5,6|8,1:2|0:0,0:0:0:0:
200,72,218075,1,0,1:0:0:0:
278,59,218163,1,0,1:0:0:0:
356,51,218251,1,8,0:0:0:0:
72,237,218427,5,6,1:2:0:0:
23,227,218515,1,0,1:0:0:0:
26,178,218603,1,8,0:0:0:0:
75,175,218691,1,0,1:0:0:0:
265,148,218780,2,0,L|278:80,1,53.75,2|0,1:2|1:0,0:0:0:0:
170,68,218957,2,0,L|158:5,1,53.75,8|0,0:0|1:0,0:0:0:0:
338,54,219133,6,0,L|405:49,1,53.75,6|0,1:2|1:0,0:0:0:0:
280,108,219310,2,0,L|201:101,1,53.75,8|0,0:0|1:0,0:0:0:0:
442,69,219486,1,10,0:0:0:0:
378,56,219574,1,8,0:0:0:0:
185,38,219663,1,8,0:0:0:0:
120,35,219751,1,8,0:0:0:0:
321,150,219839,6,0,L|395:134,3,53.75,14|0|0|0,0:0|1:0|1:0|1:0,0:0:0:0:
211,99,220192,2,0,L|129:92,1,53.75,10|0,0:0|1:0,0:0:0:0:
270,41,220369,2,0,L|336:31,1,53.75,0|0,1:0|1:0,0:0:0:0:
126,152,220545,6,0,L|62:146,3,53.75,10|0|0|0,0:0|1:0|1:0|1:0,0:0:0:0:
289,91,220898,2,0,L|377:83,1,53.75,14|0,0:0|1:0,0:0:0:0:
142,47,221075,2,0,L|55:44,1,53.75,0|0,1:0|1:0,0:0:0:0:
284,42,221251,5,14,0:0:0:0:
360,43,221339,1,0,1:0:0:0:
434,50,221427,2,0,L|446:127,1,53.75,0|0,1:0|1:0,0:0:0:0:
228,42,221604,1,10,0:0:0:0:
152,43,221692,1,0,1:0:0:0:
78,50,221780,2,0,L|66:127,1,53.75,0|0,1:0|1:0,0:0:0:0:
290,126,221957,6,0,L|380:119,1,53.75,10|0,0:0|1:0,0:0:0:0:
241,74,222133,2,0,L|230:14,1,53.75,0|0,1:0|1:0,0:0:0:0:
341,14,222310,2,0,L|406:12,1,53.75,10|0,0:0|1:0,0:0:0:0:
188,162,222486,2,0,L|120:157,1,53.75,2|0,1:2|1:0,0:0:0:0:
322,119,222663,6,0,L|334:41,1,53.75,0|0,1:2|1:0,0:0:0:0:
438,55,222839,2,0,L|455:-12,1,53.75,14|0,0:0|1:0,0:0:0:0:
272,59,223016,2,0,L|178:57,3,53.75,2|8|0|0,1:2|0:0|1:0|1:0,0:0:0:0:
43,155,223369,6,0,L|33:76,1,53.75,14|0,0:0|1:0,0:0:0:0:
123,52,223545,1,0,1:0:0:0:
296,79,223633,1,0,1:0:0:0:
380,62,223722,1,2,1:2:0:0:
296,79,223810,1,0,1:0:0:0:
215,97,223898,1,2,1:2:0:0:
296,79,223986,1,0,1:0:0:0:
128,190,224075,5,2,1:2:0:0:
107,117,224310,1,0,1:0:0:0:
145,109,224369,1,0,1:0:0:0:
325,103,224427,6,0,P|386:109|441:247,1,215,6|0,1:2|0:0,0:0:0:0:
173,218,225133,1,0,0:0:0:0:
321,154,225310,1,0,0:0:0:0:
67,130,225486,5,14,0:0:0:0:
222,83,225663,2,0,L|297:72,1,53.75,0|0,1:0|1:0,0:0:0:0:
170,36,225839,2,0,L|87:37,1,53.75,2|0,1:2|1:0,0:0:0:0:
334,79,226016,1,14,0:0:0:0:
191,148,226192,6,0,L|113:143,1,53.75,0|0,1:0|1:0,0:0:0:0:
245,86,226369,2,0,L|319:82,1,53.75,2|0,1:2|1:0,0:0:0:0:
84,103,226545,1,14,0:0:0:0:
232,82,226722,2,0,L|248:27,1,53.75,0|0,1:0|1:0,0:0:0:0:
356,39,226898,6,0,L|374:-30,1,53.75,2|0,1:2|1:0,0:0:0:0:
196,155,227075,1,14,0:0:0:0:
330,95,227251,2,0,L|243:87,1,53.75,0|0,1:0|1:0,0:0:0:0:
385,42,227427,2,0,L|461:42,1,53.75,2|0,1:2|1:0,0:0:0:0:
246,122,227604,6,0,L|241:50,1,53.75,14|0,0:0|1:0,0:0:0:0:
349,37,227780,2,0,L|369:-35,1,53.75,8|8,0:0|0:0,0:0:0:0:
191,64,227957,2,0,L|111:56,3,53.75,2|8|4|2,1:2|3:0|3:0|3:0,0:0:0:0:
330,89,228310,6,0,P|411:93|456:213,1,215,6|10,1:2|1:2,0:0:0:0:
337,194,228839,1,8,0:0:0:0:
465,202,229016,1,10,1:2:0:0:
314,125,229192,1,8,0:0:0:0:
465,202,229369,1,10,1:2:0:0:
200,173,229545,1,8,0:0:0:0:
483,160,229722,6,0,L|414:155,2,53.75,6|0|10,1:2|0:0|0:0,0:0:0:0:
341,100,230075,1,4,1:2:0:0:
483,162,230251,1,0,1:0:0:0:
194,106,230427,6,0,P|125:117|91:226,1,161.25,8|0,3:0|0:0,0:0:0:0:
301,196,230780,2,0,P|366:206|398:308,1,161.25,0|0,1:0|0:0,0:0:0:0:
183,257,231133,6,0,P|122:236|206:136,1,215,4|2,1:2|0:0,0:0:0:0:
279,99,231663,1,0,0:0:0:0:
115,270,231839,2,0,L|113:50,1,215,10|2,0:0|0:0,0:0:0:0:
226,29,232369,1,10,0:0:0:0:
404,34,232545,5,0,1:0:0:0:
404,34,232898,2,0,L|178:84,2,215,2|10|2,1:2|0:0|0:0,0:0:0:0:
404,34,233780,1,8,0:0:0:0:
127,210,233957,6,0,P|75:190|159:104,1,215,6|0,1:2|0:0,0:0:0:0:
259,93,234486,1,0,0:0:0:0:
433,89,234663,2,0,L|431:316,1,215,8|0,0:0|0:0,0:0:0:0:
260,201,235192,2,0,L|331:189,1,53.75,8|8,0:0|0:0,0:0:0:0:
419,163,235369,6,0,L|266:138,1,107.5,0|8,1:0|0:0,0:0:0:0:
145,132,235722,2,0,L|141:8,1,107.5,0|0,1:0|1:0,0:0:0:0:
296,28,236075,2,0,L|436:22,1,107.5,10|0,0:0|1:0,0:0:0:0:
238,111,236427,2,0,L|246:239,1,107.5,0|0,0:0|1:0,0:0:0:0:
317,218,236692,1,0,1:0:0:0:
91,244,236780,6,0,P|41:215|125:127,1,215,6|2,1:2|0:0,0:0:0:0:
228,125,237310,1,2,0:0:0:0:
393,127,237486,2,0,L|396:253,1,107.5,8|0,0:0|0:0,0:0:0:0:
230,246,237839,2,0,L|111:240,1,107.5,2|8,0:0|0:0,0:0:0:0:
304,162,238192,6,0,L|129:32,2,215,2|2|10,1:2|1:2|0:0,0:0:0:0:
165,219,239075,1,0,1:0:0:0:
310,166,239251,2,0,L|310:43,1,107.5,0|8,0:0|0:0,0:0:0:0:
39,93,239604,6,0,L|177:87,2,107.5,2|0|12,1:2|1:0|0:0,0:0:0:0:
334,130,240133,2,0,L|213:133,2,107.5,0|0|12,1:0|1:0|0:0,0:0:0:0:
179,220,240663,1,0,1:0:0:0:
336,127,240839,1,0,1:0:0:0:
54,142,241016,6,0,L|131:129,1,53.75,12|0,0:0|0:0,0:0:0:0:
214,116,241192,2,0,L|231:47,1,53.75,8|8,0:0|0:0,0:0:0:0:
113,60,241369,2,0,L|-8:59,1,107.5,8|8,0:0|0:0,0:0:0:0:
162,161,241722,1,0,1:0:0:0:
108,160,241810,1,0,1:0:0:0:
54,160,241898,1,0,1:0:0:0:
333,88,242075,2,0,L|447:88,1,107.5,12|0,0:0|0:0,0:0:0:0:
144,250,242427,6,0,P|83:232|158:144,1,215,4|10,1:2|0:0,0:3:0:0:
271,131,242957,1,0,0:0:0:0:
135,150,243133,2,0,L|131:30,1,107.5,2|0,1:2|1:0,0:0:0:0:
286,30,243486,1,10,0:0:0:0:
40,174,243663,1,2,0:0:0:0:
199,151,243839,6,0,L|208:31,1,107.5,0|0,1:0|1:0,0:0:0:0:
363,55,244192,2,0,L|487:51,1,107.5,10|0,0:0|1:0,0:0:0:0:
301,147,244545,2,0,L|178:142,1,107.5,2|0,0:0|1:0,0:0:0:0:
355,71,244898,2,0,L|471:69,1,107.5,10|0,0:0|0:0,0:0:0:0:
228,107,245251,6,0,P|215:188|343:226,1,215,6|8,1:2|0:0,0:0:0:0:
474,157,245780,2,0,L|392:147,1,53.75,0|0,1:0|1:0,0:0:0:0:
309,111,245957,2,0,L|302:227,1,107.5,0|0,1:0|1:0,0:0:0:0:
478,238,246310,2,0,L|348:225,1,107.5,8|0,0:0|0:0,0:0:0:0:
113,143,246663,6,0,P|104:204|196:234,1,161.25,0|0,1:0|0:0,0:0:0:0:
298,224,247016,2,0,L|303:89,1,107.5,10|0,0:0|1:0,0:0:0:0:
141,92,247369,2,0,L|27:86,1,107.5,2|0,0:0|1:0,0:0:0:0:
96,144,247633,1,2,1:2:0:0:
288,84,247722,2,0,L|361:77,1,53.75,8|8,0:0|0:0,0:0:0:0:
189,35,247898,2,0,L|103:31,1,53.75,10|0,0:0|0:0,0:0:0:0:
342,51,248075,6,0,P|416:58|479:188,1,215,14|10,0:0|0:0,0:0:0:0:
326,180,248604,1,2,1:2:0:0:
481,147,248780,2,0,L|488:22,1,107.5,8|2,0:0|1:2,0:0:0:0:
330,49,249133,2,0,L|467:50,1,107.5,10|0,0:0|1:0,0:0:0:0:
355,116,249398,1,0,1:0:0:0:
150,122,249486,6,0,P|76:129|38:271,1,215,14|10,0:0|0:0,0:0:0:0:
195,234,250016,2,0,L|276:231,1,53.75,0|0,1:0|1:0,0:0:0:0:
80,143,250192,2,0,L|73:30,1,107.5,10|0,0:0|1:0,0:0:0:0:
278,56,250457,2,0,L|396:53,1,107.5,2|0,1:2|1:0,0:0:0:0:
230,112,250722,2,0,L|163:108,1,53.75,2|0,1:2|1:0,0:0:0:0:
351,61,250898,5,14,0:0:0:0:
448,54,250986,2,0,L|492:107,2,53.75,0|0|0,1:0|1:0|1:0,0:0:0:0:
342,111,251251,2,0,L|279:112,1,53.75,10|0,0:0|1:0,0:0:0:0:
470,77,251427,2,0,L|491:13,1,53.75,2|0,1:2|1:0,0:0:0:0:
386,24,251604,6,0,L|371:-34,1,53.75,8|0,0:0|1:0,0:0:0:0:
476,22,251780,2,0,L|496:-40,1,53.75,2|0,1:2|1:0,0:0:0:0:
280,172,251957,2,0,L|153:165,1,107.5,14|0,0:0|1:0,0:0:0:0:
462,186,252310,6,0,L|228:179,1,209.62499040413,14|0,0:0|1:0,0:0:0:0:
359,140,252663,2,0,L|425:139,1,53.75,10|0,0:0|1:0,0:0:0:0:
237,74,252839,2,0,L|156:81,1,53.75,2|8,1:2|0:0,0:0:0:0:
286,121,253016,6,0,L|349:111,1,53.75,10|0,0:0|1:0,0:0:0:0:
234,77,253192,2,0,L|156:81,1,53.75,8|0,0:0|1:0,0:0:0:0:
359,42,253369,2,0,L|434:39,1,53.75,10|8,0:0|0:0,0:0:0:0:
229,184,253545,2,0,L|298:180,1,53.75,10|8,0:0|0:0,0:0:0:0:
110,121,253722,5,4,1:2:0:0:
261,66,253898,2,0,L|331:62,1,53.75,14|0,0:0|1:0,0:0:0:0:
214,31,254075,2,0,L|125:27,1,53.75,0|0,1:0|1:0,0:0:0:0:
367,121,254251,1,6,1:2:0:0:
231,136,254427,6,0,L|304:127,1,53.75,0|0,1:0|1:0,0:0:0:0:
206,70,254604,2,0,L|282:58,1,53.75,2|0,1:2|1:0,0:0:0:0:
65,169,254780,2,0,L|-8:160,1,53.75,10|8,0:0|0:0,0:0:0:0:
90,103,254957,2,0,L|14:91,1,53.75,10|8,0:0|0:0,0:0:0:0:
245,89,255133,6,0,P|330:93|375:230,1,215,6|0,1:2|0:0,0:0:0:0:
204,255,255839,2,0,L|411:177,1,215
102,143,256545,5,2,0:0:0:0:
256,192,266780,12,2,267486,0:0:0:0:
254,157,267839,6,0,P|331:164|365:299,1,215,6|2,1:2|0:0,0:0:0:0:
230,284,268369,1,2,0:0:0:0:
383,227,268545,2,0,L|388:104,1,107.5,8|0,0:0|0:0,0:0:0:0:
272,102,268898,1,0,0:0:0:0:
430,83,269075,1,2,0:0:0:0:
272,102,269251,6,0,P|185:106|151:237,1,215,2|2,1:2|1:2,0:0:0:0:
425,293,269957,2,0,P|478:267|401:169,1,215,10|2,0:0|0:0,0:0:0:0:
304,159,270486,1,0,0:0:0:0:
41,251,270663,6,0,L|256:182,1,215,6|0,1:2|0:0,0:0:0:0:
114,162,271192,1,0,0:0:0:0:
402,136,271369,6,0,L|407:267,1,107.5,12|0,0:0|0:0,0:0:0:0:
343,263,271633,1,0,0:0:0:0:
241,181,271722,2,0,L|233:107,1,53.75
334,81,271898,2,0,L|343:12,1,53.75
148,63,272075,6,0,L|13:72,1,107.5,4|0,1:2|0:0,0:0:0:0:
191,116,272427,2,0,L|194:243,1,107.5,2|0,1:2|1:0,0:0:0:0:
489,150,272780,2,0,L|376:128,1,107.5,10|4,0:0|1:2,0:0:0:0:
213,83,273133,2,0,L|85:66,1,107.5
429,91,273486,6,0,L|432:222,1,107.5,6|0,1:2|1:0,0:0:0:0:
350,222,273751,1,8,0:0:0:0:
270,230,273839,1,8,0:0:0:0:
432,141,274016,1,4,1:2:0:0:
270,230,274192,5,0,1:0:0:0:
350,222,274280,1,8,0:0:0:0:
432,141,274369,1,8,0:0:0:0:
270,230,274545,2,0,L|146:228,1,107.5,4|0,1:2|1:0,0:0:0:0:
423,113,274898,6,0,L|429:52,1,53.75,12|0,0:0|1:0,0:0:0:0:
357,21,275075,1,0,0:0:0:0:
130,182,275163,2,0,L|124:121,1,53.75,8|2,0:0|1:2,0:0:0:0:
196,90,275340,1,0,0:0:0:0:
414,64,275427,6,0,L|480:61,2,53.75,12|0|2,0:0|1:0|0:0,0:0:0:0:
203,139,275692,2,0,L|137:136,2,53.75,8|0|0,0:0|1:0|0:0,0:0:0:0:
393,103,275957,1,10,0:0:0:0:
329,92,276045,1,8,0:0:0:0:
155,72,276133,1,8,0:0:0:0:
91,61,276221,1,8,0:0:0:0:
281,121,276310,5,10,0:0:0:0:
322,117,276368,1,8,3:0:0:0:
354,145,276427,1,4,3:0:0:0:
356,187,276486,1,2,3:0:0:0:
330,219,276545,1,2,3:0:0:0:
288,222,276604,1,2,3:0:0:0:
168,43,276663,2,0,L|112:42,2,35.8333333333333,2|0|0,1:2|0:0|0:0,0:0:0:0:
347,48,276839,5,10,0:0:0:0:
352,90,276897,1,8,3:0:0:0:
339,130,276956,1,4,3:0:0:0:
310,161,277015,1,2,3:0:0:0:
270,176,277074,1,2,3:0:0:0:
227,171,277133,1,2,3:0:0:0:
97,193,277192,2,0,L|94:128,1,35.8333333333333,2|0,1:2|0:0,0:0:0:0:
146,117,277310,1,0,0:0:0:0:
352,122,277369,6,0,L|422:105,1,53.75,8|8,0:0|0:0,0:0:0:0:
318,67,277545,2,0,L|403:48,1,53.75,8|8,0:0|0:0,0:0:0:0:
182,127,277722,5,6,1:2:0:0:
120,61,277898,2,0,L|199:47,1,53.75,8|8,0:0|0:0,0:0:0:0:
346,157,278075,2,0,L|254:147,1,53.75,10|8,0:0|0:0,0:0:0:0:
389,105,278251,2,0,L|399:34,1,53.75,8|8,0:0|0:0,0:0:0:0:
216,56,278427,6,0,L|144:48,3,53.75,8|8|4|4,3:0|3:0|3:0|3:0,0:0:0:0:
371,49,278780,2,0,L|443:41,3,53.75,2|0|0|0,1:2|1:0|1:0|1:0,0:0:0:0:
225,133,279133,6,0,L|124:133,1,61.8125011789799,6|0,1:2|0:0,0:0:0:0:
341,73,279310,1,8,0:0:0:0:
203,68,279486,2,0,L|276:69,1,61.8125011789799,2|0,1:2|1:0,0:0:0:0:
424,145,279663,1,10,0:0:0:0:
263,162,279839,6,0,L|264:310,1,123.62500235796,0|10,1:0|0:0,0:0:0:0:
348,301,280104,1,0,1:0:0:0:
187,185,280280,2,0,L|102:186,1,61.8125011789799,0|10,1:0|0:0,0:0:0:0:
384,123,280545,6,0,L|235:123,1,123.62500235796,2|8,1:2|0:0,0:0:0:0:
424,58,280898,2,0,L|347:59,2,61.8125011789799,2|0|8,1:2|1:0|0:0,0:0:0:0:
253,132,281251,6,0,L|331:124,1,61.8125011789799,2|0,1:2|1:0,0:0:0:0:
475,74,281427,1,8,0:0:0:0:
311,68,281604,2,0,L|229:64,1,61.8125011789799,2|0,1:2|1:0,0:0:0:0:
349,23,281780,2,0,L|426:14,1,61.8125011789799,8|0,0:0|1:0,0:0:0:0:
207,156,281957,5,6,1:2:0:0:
346,96,282133,2,0,L|264:84,1,61.8125011789799,10|0,0:0|1:0,0:0:0:0:
180,51,282310,1,0,1:0:0:0:
453,64,282486,6,0,L|461:226,1,123.62500235796,10|2,0:0|1:2,0:0:0:0:
374,220,282751,1,0,1:2:0:0:
215,152,282839,2,0,L|283:137,1,61.8125011789799,8|0,0:0|1:0,0:0:0:0:
460,112,283016,2,0,L|374:107,1,61.8125011789799,2|0,1:2|1:0,0:0:0:0:
191,70,283192,2,0,L|101:56,1,61.8125011789799,10|0,0:0|1:0,0:0:0:0:
314,68,283369,6,0,L|326:147,1,61.8125011789799,0|0,1:0|1:0,0:0:0:0:
432,135,283545,2,0,L|447:218,1,61.8125011789799,10|0,0:0|1:0,0:0:0:0:
251,138,283722,2,0,L|239:217,1,61.8125011789799,0|0,1:0|1:0,0:0:0:0:
135,204,283898,2,0,L|120:287,1,61.8125011789799,10|0,0:0|1:0,0:0:0:0:
315,200,284075,5,2,1:2:0:0:
375,198,284163,1,0,1:0:0:0:
439,238,284251,1,8,0:0:0:0:
437,308,284339,1,0,1:0:0:0:
158,246,284427,1,2,1:2:0:0:
230,230,284515,1,0,1:0:0:0:
419,196,284604,1,8,0:0:0:0:
494,183,284692,1,0,1:0:0:0:
235,137,284780,6,0,L|103:134,1,123.62500235796,6|8,1:2|0:0,0:0:0:0:
273,76,285133,2,0,L|414:75,1,123.62500235796,2|8,1:2|0:0,0:0:0:0:
108,114,285486,6,0,L|86:270,1,123.62500235796,2|8,1:2|0:0,0:0:0:0:
155,260,285751,1,0,1:0:0:0:
364,183,285839,2,0,L|445:182,2,61.8125011789799,2|0|8,0:0|1:0|0:0,0:0:0:0:
40,157,286192,6,0,L|163:147,1,123.62500235796,2|8,1:2|0:0,0:0:0:0:
330,128,286545,2,0,L|334:262,1,123.62500235796,2|8,1:2|0:0,0:0:0:0:
70,70,286898,6,0,L|161:68,2,61.8125011789799,2|0|8,1:2|1:0|0:0,0:0:0:0:
238,111,287251,1,2,1:2:0:0:
70,70,287427,2,0,L|156:67,1,61.8125011789799,8|0,0:0|1:0,0:0:0:0:
347,93,287604,6,0,L|200:98,1,123.62500235796,6|8,1:2|0:0,0:0:0:0:
317,169,287869,1,0,0:0:0:0:
224,98,287957,2,0,L|212:22,1,61.8125011789799,2|0,1:2|1:0,0:0:0:0:
317,25,288133,2,0,L|398:16,1,61.8125011789799,10|0,0:0|0:0,0:0:0:0:
196,177,288310,6,0,L|116:172,1,61.8125011789799,0|0,1:0|1:0,0:0:0:0:
242,109,288486,2,0,L|332:108,1,61.8125011789799,10|0,0:0|1:0,0:0:0:0:
100,71,288663,2,0,L|32:68,1,61.8125011789799,0|0,1:0|1:0,0:0:0:0:
256,76,288839,1,10,0:0:0:0:
191,66,288927,1,0,1:0:0:0:
130,93,289016,5,10,0:0:0:0:
122,165,289103,1,0,1:0:0:0:
318,164,289192,2,0,L|404:155,1,61.8125011789799,0|10,1:0|0:0,0:0:0:0:
178,136,289369,2,0,L|172:67,1,61.8125011789799,0|0,1:0|1:0,0:0:0:0:
60,67,289545,2,0,L|46:1,1,61.8125011789799,10|0,0:0|1:0,0:0:0:0:
222,44,289722,6,0,L|320:42,1,61.8125011789799,10|0,0:0|1:0,0:0:0:0:
171,121,289898,2,0,L|83:115,1,61.8125011789799,10|0,0:0|1:0,0:0:0:0:
332,82,290075,1,10,0:0:0:0:
405,76,290163,1,8,0:0:0:0:
332,82,290251,1,8,0:0:0:0:
405,76,290339,1,8,0:0:0:0:
203,155,290427,6,0,L|60:158,1,123.62500235796,6|8,1:2|0:0,0:0:0:0:
256,92,290780,2,0,L|331:85,1,61.8125011789799,2|0,1:2|1:0,0:0:0:0:
112,81,290957,1,10,0:0:0:0:
271,67,291133,5,0,1:0:0:0:
275,128,291221,1,0,0:0:0:0:
279,190,291309,1,10,0:0:0:0:
443,193,291486,1,0,0:0:0:0:
279,190,291663,2,0,L|352:183,1,61.8125011789799,10|0,0:0|0:0,0:0:0:0:
149,123,291839,6,0,L|23:125,1,123.62500235796,2|8,1:2|0:0,0:0:0:0:
192,62,292192,2,0,L|33:64,1,123.62500235796,2|8,1:2|0:0,0:0:0:0:
363,123,292545,6,0,L|489:125,1,123.62500235796,2|8,1:2|0:0,0:0:0:0:
207,208,292898,2,0,L|366:210,1,123.62500235796,2|8,1:2|0:0,0:0:0:0:
42,128,293251,6,0,L|181:127,1,123.62500235796,6|8,1:2|0:0,0:0:0:0:
257,90,293516,1,0,1:0:0:0:
421,83,293604,2,0,L|489:82,1,61.8125011789799,0|0,1:0|1:0,0:0:0:0:
261,31,293780,2,0,L|188:31,1,61.8125011789799,8|0,0:0|1:0,0:0:0:0:
386,85,293957,6,0,L|228:88,1,123.62500235796,6|8,1:2|0:0,0:0:0:0:
166,95,294222,1,0,1:0:0:0:
353,42,294310,2,0,L|423:39,1,61.8125011789799,0|0,1:0|1:0,0:0:0:0:
211,39,294486,2,0,L|120:42,1,61.8125011789799,10|0,0:0|1:0,0:0:0:0:
312,88,294663,6,0,L|327:172,1,61.8125011789799,6|0,1:2|1:0,0:0:0:0:
212,194,294839,2,0,L|137:205,1,61.8125011789799,8|0,0:0|1:0,0:0:0:0:
329,134,295016,2,0,L|416:131,1,61.8125011789799,2|0,1:2|1:0,0:0:0:0:
282,91,295192,2,0,L|272:21,1,61.8125011789799,8|0,0:0|1:0,0:0:0:0:
78,113,295369,5,6,1:2:0:0:
147,103,295457,1,0,1:0:0:0:
316,66,295545,1,8,0:0:0:0:
392,65,295633,1,0,1:0:0:0:
185,199,295722,1,10,0:0:0:0:
254,189,295810,1,8,0:0:0:0:
185,199,295898,1,8,0:0:0:0:
254,189,295986,1,8,0:0:0:0:
90,226,296075,6,0,L|81:96,1,123.62500235796,14|0,0:0|1:0,0:0:0:0:
163,62,296339,1,0,1:0:0:0:
353,58,296427,2,0,L|357:196,1,123.62500235796,8|2,0:0|1:2,0:0:0:0:
277,216,296692,1,0,1:0:0:0:
453,156,296780,6,0,L|463:68,1,61.8125011789799,10|0,0:0|1:0,0:0:0:0:
366,68,296957,2,0,L|282:55,1,61.8125011789799,0|0,1:0|1:0,0:0:0:0:
481,31,297133,2,0,L|399:19,1,61.8125011789799,8|0,0:0|1:0,0:0:0:0:
223,23,297310,2,0,L|127:25,1,61.8125011789799,2|0,1:2|1:0,0:0:0:0:
368,51,297486,5,14,0:0:0:0:
428,47,297574,1,0,1:0:0:0:
488,85,297662,1,0,1:0:0:0:
487,156,297750,1,0,1:0:0:0:
304,191,297839,1,10,0:0:0:0:
310,130,297927,1,0,1:0:0:0:
378,83,298015,1,0,1:0:0:0:
438,83,298103,1,0,1:0:0:0:
237,83,298192,5,10,0:0:0:0:
177,73,298280,1,0,1:0:0:0:
101,102,298368,1,0,1:0:0:0:
90,170,298456,1,0,1:0:0:0:
274,188,298545,2,0,L|363:174,1,61.8125011789799,10|0,0:0|1:0,0:0:0:0:
218,124,298722,2,0,L|118:128,1,61.8125011789799,0|0,1:0|1:0,0:0:0:0:
365,68,298898,5,6,1:2:0:0:
208,46,299075,2,0,L|304:32,1,61.8125011789799,8|8,0:0|0:0,0:0:0:0:
91,125,299251,2,0,L|-8:123,1,61.8125011789799,10|8,0:0|0:0,0:0:0:0:
257,91,299427,2,0,L|345:90,1,61.8125011789799,4|0,1:2|1:0,0:0:0:0:
151,212,299604,5,10,0:0:0:0:
110,213,299662,1,0,1:0:0:0:
82,184,299721,1,0,1:0:0:0:
84,144,299780,1,8,0:0:0:0:
115,118,299839,1,0,1:0:0:0:
155,124,299898,1,0,1:0:0:0:
356,103,299957,2,0,L|414:100,2,41.2083341193199,2|0|0,1:2|1:0|1:0,0:0:0:0:
156,103,300133,2,0,L|98:100,2,41.2083341193199,0|0|0,1:0|1:0|1:0,0:0:0:0:
374,176,300310,5,14,0:0:0:0:
374,176,300663,2,0,P|288:178|223:319,2,215
120,171,301722,6,0,L|116:24,1,107.5,6|8,1:2|0:0,0:0:0:0:
268,59,302075,1,2,1:2:0:0:
114,58,302251,1,10,0:0:0:0:
268,59,302427,6,0,L|271:183,1,107.5,0|10,1:0|0:0,0:0:0:0:
158,173,302692,2,0,L|35:169,1,107.5,0|0,1:0|1:0,0:0:0:0:
113,108,302957,1,10,0:0:0:0:
390,165,303133,6,0,L|395:297,1,107.5,2|8,1:2|0:0,0:0:0:0:
231,258,303486,2,0,L|93:245,1,107.5,2|10,1:2|0:0,0:0:0:0:
206,172,303751,1,0,0:0:0:0:
395,138,303839,6,0,L|506:128,1,107.5,0|10,1:0|0:0,0:0:0:0:
421,73,304104,1,0,1:0:0:0:
228,77,304192,2,0,L|137:71,3,53.75,0|0|10|0,1:0|1:0|0:0|1:0,0:0:0:0:
351,102,304545,6,0,L|491:114,1,107.5,6|8,1:2|0:0,0:0:0:0:
171,118,304898,2,0,L|163:254,1,107.5,2|10,1:2|0:0,0:0:0:0:
314,287,305251,2,0,L|178:278,2,107.5,0|10|2,1:0|0:0|0:0,0:0:0:0:
25,144,305780,6,0,L|256:128,1,215,10|10,0:0|0:0,0:0:0:0:
81,68,306310,2,0,L|166:52,1,53.75,0|0,1:0|1:0,0:0:0:0:
317,89,306486,1,10,0:0:0:0:
173,83,306663,6,0,L|168:227,1,107.5,2|8,1:2|0:0,0:0:0:0:
326,234,307016,2,0,L|441:230,1,107.5,2|10,1:2|0:0,0:0:0:0:
167,122,307369,6,0,L|85:112,1,53.75,6|0,1:2|1:0,0:0:0:0:
214,68,307545,2,0,L|311:72,1,53.75,8|0,0:0|1:0,0:0:0:0:
167,122,307722,2,0,L|85:112,1,53.75,2|0,1:2|1:0,0:0:0:0:
332,130,307898,6,0,L|412:126,3,53.75,10|0|0|0,0:0|1:0|1:0|1:0,0:0:0:0:
180,130,308251,2,0,L|100:126,3,53.75,10|0|0|0,0:0|1:0|1:0|1:0,0:0:0:0:
307,60,308604,2,0,L|396:54,1,53.75,10|0,0:0|1:0,0:0:0:0:
180,54,308781,5,2,1:2:0:0:
128,53,308868,1,0,1:0:0:0:
72,91,308956,1,12,0:0:0:0:
70,143,309044,1,0,1:0:0:0:
270,150,309133,2,0,L|357:165,1,53.75,2|12,1:2|0:0,0:0:0:0:
270,150,309310,2,0,L|203:138,1,53.75,0|0,1:0|1:0,0:0:0:0:
372,96,309486,5,10,0:0:0:0:
433,97,309574,1,8,0:0:0:0:
226,75,309663,1,8,0:0:0:0:
162,71,309751,1,8,0:0:0:0:
367,192,309839,1,10,0:0:0:0:
303,187,309927,1,0,1:0:0:0:
109,117,310016,1,2,1:2:0:0:
42,105,310104,1,0,1:0:0:0:
264,113,310192,5,14,0:0:0:0:
406,75,310369,2,0,L|333:65,1,53.75,0|0,1:0|1:0,0:0:0:0:
252,54,310545,2,0,L|248:139,1,53.75,8|0,0:0|1:0,0:0:0:0:
423,201,310722,2,0,L|500:195,1,53.75,2|0,1:2|1:0,0:0:0:0:
293,137,310898,6,0,L|208:136,1,53.75,10|0,0:0|1:0,0:0:0:0:
343,92,311075,2,0,L|352:21,1,53.75,0|0,1:0|1:0,0:0:0:0:
245,24,311251,2,0,L|161:20,1,53.75,8|0,0:0|1:0,0:0:0:0:
361,198,311427,2,0,L|430:194,1,53.75,2|0,1:2|1:0,0:0:0:0:
233,143,311604,6,0,L|166:142,1,53.75,10|0,0:0|1:0,0:0:0:0:
279,97,311780,2,0,L|287:27,1,53.75,0|0,1:0|1:0,0:0:0:0:
181,27,311957,2,0,L|105:21,1,53.75,8|0,0:0|1:0,0:0:0:0:
335,152,312133,2,0,L|409:149,1,53.75,2|0,1:2|1:0,0:0:0:0:
195,101,312310,6,0,L|178:30,1,53.75,10|0,0:0|1:0,0:0:0:0:
85,51,312486,2,0,L|70:-10,1,53.75,0|0,1:0|1:0,0:0:0:0:
282,113,312663,2,0,L|371:106,3,53.75,14|0|2|0,0:0|1:0|1:2|1:0,0:0:0:0:
136,120,313016,6,0,L|60:109,1,53.75,14|0,0:0|1:0,0:0:0:0:
178,75,313192,2,0,L|246:76,1,53.75,0|0,1:0|1:0,0:0:0:0:
133,78,313369,2,0,L|128:165,1,53.75,8|0,0:0|1:0,0:0:0:0:
306,197,313545,2,0,L|394:190,1,53.75,2|0,1:2|1:0,0:0:0:0:
186,142,313722,6,0,L|173:62,1,53.75,10|0,0:0|1:0,0:0:0:0:
281,72,313898,2,0,L|285:0,1,53.75,0|0,1:0|1:0,0:0:0:0:
180,15,314075,2,0,L|95:13,1,53.75,8|0,0:0|1:0,0:0:0:0:
304,132,314251,2,0,L|384:130,1,53.75,2|0,1:2|1:0,0:0:0:0:
154,86,314427,6,0,L|147:15,1,53.75,10|0,0:0|1:0,0:0:0:0:
247,30,314604,2,0,L|185:22,1,53.75,0|0,1:0|1:0,0:0:0:0:
95,22,314780,2,0,L|82:90,1,53.75,8|0,0:0|1:0,0:0:0:0:
280,172,314957,2,0,L|368:166,1,53.75,2|0,1:2|1:0,0:0:0:0:
138,114,315133,6,0,L|326:101,1,139.749993602753,10|0,0:0|1:0,0:0:0:0:
198,51,315398,1,2,1:2:0:0:
376,58,315486,2,0,L|468:57,1,69.8749968013765,8|0,0:0|1:0,0:0:0:0:
218,81,315663,2,0,L|119:76,1,69.8749968013765,2|0,1:2|1:0,0:0:0:0:
372,165,315839,5,14,0:0:0:0:
221,117,316016,2,0,L|297:105,1,53.75,0|0,1:0|1:0,0:0:0:0:
382,85,316192,2,0,L|312:77,1,53.75,8|0,0:0|1:0,0:0:0:0:
150,67,316369,1,2,1:2:0:0:
289,151,316545,6,0,L|364:144,1,53.75,10|0,0:0|1:0,0:0:0:0:
243,86,316722,2,0,L|170:83,1,53.75,0|0,1:0|1:0,0:0:0:0:
373,68,316898,1,8,0:0:0:0:
219,62,317075,1,2,1:2:0:0:
484,163,317251,5,10,0:0:0:0:
417,155,317339,1,0,1:0:0:0:
229,135,317427,1,0,1:0:0:0:
162,127,317515,1,0,1:0:0:0:
347,86,317604,1,8,0:0:0:0:
202,52,317780,2,0,L|303:45,1,53.75,2|0,1:2|1:0,0:0:0:0:
82,40,317957,6,0,L|12:34,3,53.75,10|0|0|0,0:0|1:0|1:0|1:0,0:0:0:0:
225,158,318310,2,0,L|305:147,1,53.75,10|0,0:0|1:0,0:0:0:0:
106,103,318486,2,0,L|12:93,1,53.75,2|0,1:2|1:0,0:0:0:0:
281,104,318663,6,0,L|355:103,2,53.75,14|0|0,0:0|1:0|1:0,0:0:0:0:
70,107,318927,2,0,L|66:188,1,53.75,8|0,0:0|1:0,0:0:0:0:
158,202,319104,1,0,1:0:0:0:
326,127,319192,2,0,L|253:123,1,53.75,14|0,0:0|1:0,0:0:0:0:
454,124,319369,6,0,L|459:65,1,53.75,14|0,0:0|1:0,0:0:0:0:
376,21,319545,1,0,1:0:0:0:
178,124,319633,1,8,0:0:0:0:
253,109,319721,1,0,1:0:0:0:
328,81,319809,1,0,1:0:0:0:
148,44,319898,2,0,L|76:37,1,53.75,14|0,0:0|1:0,0:0:0:0:
291,193,320075,6,0,L|310:135,1,53.75,14|0,0:0|1:0,0:0:0:0:
206,118,320251,2,0,L|190:40,1,53.75,0|8,1:0|0:0,0:0:0:0:
305,43,320427,2,0,L|379:46,1,53.75,0|0,1:0|1:0,0:0:0:0:
150,47,320604,2,0,L|66:39,1,53.75,10|0,0:0|1:0,0:0:0:0:
271,161,320780,5,10,0:0:0:0:
336,145,320869,1,8,0:0:0:0:
142,92,320957,1,2,1:2:0:0:
207,75,321045,1,0,0:0:0:0:
415,122,321133,6,0,P|441:181|256:272,1,322.5,6|0,1:2|0:0,0:0:0:0:
