osu file format v14

[General]
AudioFilename: audio.mp3
AudioLeadIn: 0
PreviewTime: 122684
Countdown: 0
SampleSet: Soft
StackLeniency: 0.4
Mode: 0
LetterboxInBreaks: 0
WidescreenStoryboard: 0

[Editor]
DistanceSpacing: 1
BeatDivisor: 4
GridSize: 32
TimelineZoom: 8

[Metadata]
Title:Akatsuki
TitleUnicode:紅月 -アカツキ-
Artist:BABYMETAL
ArtistUnicode:BABYMETAL
Creator:Nevertary
Version:Going Over a Thousand Nights and Beyond
Source:
Tags:su-metal moametal yuimetal kawaii japanese metal j-metal jmetal
BeatmapID:3573701
BeatmapSetID:1747115

[Difficulty]
HPDrainRate:5
CircleSize:4.2
OverallDifficulty:9
ApproachRate:9.5
SliderMultiplier:2
SliderTickRate:1

[Events]
//Background and Video events
0,0,"BG.jpg",0,0
//Break Periods
//Storyboard Layer 0 (Background)
//Storyboard Layer 1 (Fail)
//Storyboard Layer 2 (Pass)
//Storyboard Layer 3 (Foreground)
//Storyboard Layer 4 (Overlay)
//Storyboard Sound Samples

[TimingPoints]
2428,352.941176470588,4,2,2,50,1,0
2428,-250,4,2,2,50,0,0
34192,-200,4,2,2,50,0,0
34545,-166.666666666667,4,2,2,50,0,0
34898,-250,4,2,2,50,0,0
36222,-1000,4,2,2,5,0,0
36310,-71.4285714285714,4,2,2,60,0,0
36575,-71.4285714285714,4,2,2,5,0,0
36663,-250,4,2,2,60,0,0
38339,-250,4,2,2,5,0,0
38427,-250,4,2,2,60,0,0
39133,-142.857142857143,4,2,2,55,0,0
41604,-71.4285714285715,4,2,2,55,0,0
41692,-71.4285714285715,4,2,2,5,0,0
41780,-71.4285714285715,4,2,2,55,0,0
41869,-71.4285714285715,4,2,2,5,0,0
41957,-142.857142857143,4,2,2,55,0,0
46192,-125,4,2,2,70,0,0
46457,-125,4,2,2,5,0,0
46545,-125,4,2,2,70,0,0
46633,-125,4,2,2,5,0,0
46722,-111.111111111111,4,2,2,70,0,0
46986,-111.111111111111,4,2,2,5,0,0
47075,-111.111111111111,4,2,2,60,0,0
47604,-100,4,2,1,60,0,0
61898,-100,4,2,1,5,0,0
61986,-100,4,2,1,65,0,0
63927,-100,4,2,1,5,0,0
64016,-100,4,2,1,65,0,0
64457,-100,4,2,1,5,0,0
64545,-100,4,2,1,65,0,0
65339,-100,4,2,1,65,0,0
65780,-62.5,4,2,1,65,0,0
66310,-100,4,2,1,65,0,0
67369,-200,4,2,1,60,0,0
68604,-200,4,2,1,5,0,0
68780,-200,4,2,1,60,0,0
70016,-200,4,2,1,5,0,0
70192,-142.857142857143,4,2,1,60,0,0
70898,-125,4,2,1,60,0,0
71604,-111.111111111111,4,2,1,60,0,0
72310,-100,4,2,1,60,0,0
73369,-100,4,2,1,30,0,0
73545,-100,4,2,1,33,0,0
73722,-100,4,2,1,35,0,0
73898,-100,4,2,1,37,0,0
74075,-100,4,2,1,40,0,0
74251,-100,4,2,1,43,0,0
74427,-100,4,2,1,45,0,0
74604,-100,4,2,1,47,0,0
74780,-100,4,2,1,50,0,0
74957,-100,4,2,1,55,0,0
75133,-100,4,2,1,60,0,0
75310,-100,4,2,1,65,0,0
75486,-100,4,2,1,70,0,0
75663,-100,4,2,1,75,0,0
75839,-100,4,2,1,60,0,0
78663,-111.111111111111,4,2,2,65,0,0
83604,-111.111111111111,4,2,2,55,0,0
84310,-111.111111111111,4,2,2,65,0,0
94898,-111.111111111111,4,2,2,55,0,0
95604,-111.111111111111,4,2,2,65,0,0
100898,-111.111111111111,4,2,2,55,0,0
105486,-125,4,2,2,55,0,0
106192,-111.111111111111,4,2,2,55,0,0
115369,-111.111111111111,4,2,2,65,0,0
121016,-111.111111111111,4,2,2,60,0,0
123839,-90.9090909090909,4,2,1,80,0,1
126663,-90.9090909090909,4,2,1,60,0,1
129486,-90.9090909090909,4,2,1,80,0,1
133016,-90.9090909090909,4,2,1,60,0,1
135133,-90.9090909090909,4,2,1,80,0,1
137957,-90.9090909090909,4,2,1,60,0,1
140604,-90.9090909090909,4,2,1,80,0,1
143604,-90.9090909090909,4,2,1,60,0,1
145016,-125,4,2,1,70,0,0
146427,-100,4,2,1,60,0,0
157722,-90.9090909090908,4,2,2,65,0,0
158251,-90.9090909090908,4,2,2,55,0,0
159839,-66.6666666666666,4,2,2,65,0,0
161251,-66.6666666666666,4,2,2,55,0,0
162663,-83.3333333333333,4,2,2,55,0,0
163016,-55.5555555555556,4,2,2,55,0,0
163369,-90.9090909090908,4,2,2,65,0,0
163898,-90.9090909090908,4,2,2,55,0,0
165486,-66.6666666666667,4,2,2,65,0,0
166898,-66.6666666666667,4,2,2,55,0,0
169016,-55.5555555555555,4,2,2,70,0,0
169633,-55.5555555555555,4,2,2,5,0,0
169722,-111.111111111111,4,2,2,70,0,0
170427,-66.6666666666667,4,2,2,70,0,0
171133,-90.9090909090908,4,2,2,70,0,0
171839,-66.6666666666667,4,2,2,70,0,0
172545,-66.6666666666667,4,2,2,55,0,0
174663,-55.5555555555556,4,2,2,70,0,0
175280,-55.5555555555556,4,2,2,5,0,0
175369,-71.4285714285714,4,2,2,70,0,0
177133,-90.9090909090908,4,2,2,70,0,0
177486,-90.9090909090908,4,2,2,55,0,0
180310,-50,4,2,1,80,0,1
181016,-76.9230769230769,4,2,1,80,0,1
181722,-71.4285714285714,4,2,1,80,0,1
182427,-66.6666666666667,4,2,1,80,0,1
183133,-50,4,2,1,80,0,1
183839,-76.9230769230769,4,2,1,80,0,1
184545,-71.4285714285714,4,2,1,80,0,1
185251,-71.4285714285714,4,2,1,60,0,1
185957,-76.9230769230769,4,2,1,80,0,1
186663,-76.9230769230769,4,2,1,60,0,1
187369,-71.4285714285714,4,2,1,80,0,1
188075,-71.4285714285714,4,2,1,60,0,1
188780,-66.6666666666667,4,2,1,80,0,1
189486,-66.6666666666667,4,2,1,60,0,1
190192,-66.6666666666667,4,2,1,80,0,1
190898,-66.6666666666667,4,2,1,60,0,1
191604,-50,4,2,1,80,0,1
192133,-62.5,4,2,1,80,0,1
192310,-71.4285714285714,4,2,1,80,0,1
193016,-55.5555555555556,4,2,1,80,0,1
193722,-45.4545454545455,4,2,1,80,0,1
193986,-50,4,2,1,80,0,1
194427,-45.4545454545455,4,2,1,80,0,1
195133,-55.5555555555556,4,2,1,80,0,1
195310,-50,4,2,1,80,0,1
195839,-45.4545454545455,4,2,1,80,0,1
196545,-45.4545454545455,4,2,1,60,0,1
197251,-71.4285714285714,4,2,1,80,0,1
197957,-71.4285714285714,4,2,1,60,0,1
198663,-71.4285714285714,4,2,1,80,0,1
199369,-71.4285714285714,4,2,1,60,0,1
202898,-100,4,2,1,60,0,0
214192,-111.111111111111,4,2,2,65,0,0
218427,-111.111111111111,4,2,2,55,0,0
219839,-100,4,2,1,60,0,0
224427,-333.333333333333,4,2,1,70,0,0
225398,-333.333333333333,4,2,1,5,0,0
225486,-90.9090909090909,4,2,1,60,0,0
228310,-125,4,2,1,65,0,0
228663,-125,4,2,1,35,0,0
228839,-125,4,2,1,45,0,0
229016,-125,4,2,1,55,0,0
229192,-125,4,2,1,65,0,0
229369,-125,4,2,1,75,0,0
229545,-125,4,2,1,85,0,0
229722,-125,4,2,1,95,0,0
229898,-125,4,2,1,60,0,0
231045,-125,4,2,1,5,0,0
231133,-166.666666666667,4,2,2,55,0,0
232810,-166.666666666667,4,2,2,5,0,0
232898,-166.666666666667,4,2,2,55,0,0
238457,-166.666666666667,4,2,2,5,0,0
238545,-166.666666666667,4,2,2,55,0,0
242427,-125,4,2,2,60,0,0
242692,-125,4,2,2,5,0,0
242780,-125,4,2,2,60,0,0
245516,-125,4,2,2,5,0,0
245604,-125,4,2,2,60,0,0
246663,-83.3333333333333,4,2,2,60,0,0
246927,-83.3333333333333,4,2,2,5,0,0
247016,-125,4,2,2,60,0,0
248075,-111.111111111111,4,2,1,65,0,0
250369,-111.111111111111,4,2,1,55,0,0
250898,-100,4,2,1,55,0,0
253722,-100,4,2,1,60,0,0
256545,-250,4,2,2,50,0,0
267486,-1000,4,2,2,50,0,0
267751,-1000,4,2,2,5,0,0
267839,-166.666666666667,4,2,2,55,0,0
269516,-166.666666666667,4,2,2,5,0,0
269604,-166.666666666667,4,2,2,55,0,0
269869,-166.666666666667,4,2,2,5,0,0
269957,-166.666666666667,4,2,2,55,0,0
270222,-166.666666666667,4,2,2,5,0,0
270310,-166.666666666667,4,2,2,55,0,0
272339,-166.666666666667,4,2,2,5,0,0
272427,-166.666666666667,4,2,2,55,0,0
273486,-142.857142857143,4,2,2,60,0,0
276310,-125,4,2,2,70,0,0
276751,-125,4,2,2,5,0,0
276839,-125,4,2,2,70,0,0
277280,-125,4,2,2,5,0,0
277369,-125,4,2,2,70,0,0
277810,-125,4,2,2,5,0,0
277898,-125,4,2,2,55,0,0
279133,-90.9090909090909,4,2,1,80,0,1
281957,-90.9090909090909,4,2,1,60,0,1
284780,-90.9090909090909,4,2,1,80,0,1
288310,-90.9090909090909,4,2,1,60,0,1
290427,-90.9090909090909,4,2,1,80,0,1
293251,-90.9090909090909,4,2,1,60,0,1
300310,-90.9090909090909,4,2,1,80,0,0
303839,-90.9090909090909,4,2,1,60,0,0
304545,-90.9090909090909,4,2,1,80,0,0
306663,-90.9090909090909,4,2,1,60,0,0
313016,-100,4,2,1,60,0,0
320604,-50,4,2,1,80,0,0
321133,-166.666666666667,4,2,1,80,0,0
321663,-166.666666666667,4,2,1,5,0,0

[Colours]
Combo1 : 214,160,37
Combo2 : 102,70,185
Combo3 : 203,22,36
Combo4 : 43,89,159

[HitObjects]
50,47,12663,5,2,0:0:0:0:
53,66,13016,1,2,0:0:0:0:
56,86,13369,1,2,0:0:0:0:
73,168,13722,6,0,L|80:208,1,40,2|0,0:0|0:0,0:0:0:0:
28,358,14075,5,0,0:0:0:0:
28,358,14251,2,0,B|86:342|95:289|95:289|128:331|181:326,1,200,2|0,0:0|0:0,0:0:0:0:
427,219,15486,6,0,P|450:226|462:236,1,40,2|0,0:0|0:0,0:0:0:0:
362,302,15839,2,0,P|356:278|359:263,1,40,2|0,0:0|0:0,0:0:0:0:
466,319,16192,2,0,P|448:336|433:341,1,40,2|0,0:0|0:0,0:0:0:0:
281,247,16545,6,0,B|246:248|223:218|223:218|235:258|275:283|300:252|342:267|364:305,1,240,2|2,0:0|0:0,0:0:0:0:
208,336,17780,5,0,0:0:0:0:
208,336,17957,2,0,P|169:343|145:373,1,80,2|0,0:0|0:0,0:0:0:0:
33,197,18663,5,2,0:0:0:0:
30,178,19016,1,2,0:0:0:0:
5,55,19369,6,0,L|12:95,1,40,2|0,0:0|0:0,0:0:0:0:
76,15,19722,2,0,L|83:55,1,40
140,149,20075,2,0,L|147:109,1,40,2|0,0:0|0:0,0:0:0:0:
212,182,20427,2,0,L|219:142,1,40
343,39,20780,6,0,P|366:46|377:58,1,40,2|0,0:0|0:0,0:0:0:0:
458,50,21133,2,0,P|469:71|468:88,1,40
247,108,21486,2,0,P|268:96|283:97,1,40,2|0,0:0|0:0,0:0:0:0:
343,39,21839,2,0,P|366:46|377:58,1,40
165,96,22192,6,0,L|125:89,1,40,2|0,0:0|0:0,0:0:0:0:
73,196,22545,5,0,0:0:0:0:
73,196,22722,2,0,B|61:247|107:254|116:278|116:278|132:256|182:257|184:208,1,200,2|0,0:0|0:0,0:0:0:0:
399,88,23957,6,0,L|439:81,1,40,2|0,0:0|0:0,0:0:0:0:
316,101,24310,2,0,L|276:108,1,40,2|0,0:0|0:0,0:0:0:0:
347,25,24663,1,2,0:0:0:0:
74,90,25016,6,0,P|57:72|54:56,1,40,2|0,0:0|0:0,0:0:0:0:
18,221,25369,5,0,0:0:0:0:
18,221,25545,2,0,P|59:177|130:186,1,120,2|0,0:0|0:0,0:0:0:0:
297,215,26251,5,0,0:0:0:0:
243,156,26427,2,0,P|225:173|221:189,1,40,2|0,0:0|0:0,0:0:0:0:
339,145,26780,2,0,P|359:157|367:172,1,40
194,93,27133,6,0,P|174:85|162:68,1,40,2|0,0:0|0:0,0:0:0:0:
369,72,27486,2,0,P|387:60|395:43,1,40
291,219,27839,6,0,B|285:248|258:273|258:273|297:288|322:340|322:340|324:281|357:255|357:255|319:241|304:215,1,320,2|0,0:0|0:0,0:0:0:0:
241,75,29604,6,0,P|221:67|210:51,1,40,2|0,0:0|0:0,0:0:0:0:
322,64,29957,2,0,P|340:52|348:34,1,40
294,139,30310,1,2,0:0:0:0:
0,96,30663,6,0,B|54:137|103:136|117:121|162:109|176:87|179:52|160:20|131:5|111:6|83:16|70:41,1,320,2|0,0:0|0:0,0:0:0:0:
71,38,32427,5,2,0:0:0:0:
90,35,32780,1,0,0:0:0:0:
110,32,33133,1,2,0:0:0:0:
173,88,33486,6,0,L|180:128,1,40,2|0,0:0|0:0,0:0:0:0:
190,213,33839,6,0,B|194:220|194:220|193:231,3,20,2|0|0|0,0:0|0:0|0:0|0:0,0:0:0:0:
77,208,34192,6,0,B|90:213|90:213|100:224,3,25,2|0|0|0,0:0|0:0|0:0|0:0,0:0:0:0:
5,292,34545,6,0,B|17:285|17:285|35:288,3,29.9999990844727,2|0|0|0,0:0|0:0|0:0|0:0,0:0:0:0:
112,327,34898,6,0,P|209:319|112:241,1,300,2|0,0:0|0:0,0:0:0:0:
109,253,36310,6,0,B|195:269|195:269|213:261|213:261|336:284,1,209.999993591309,6|0,1:2|1:2,1:2:0:0:
431,314,36663,5,2,1:2:0:0:
431,314,36839,2,0,B|465:279|516:294|516:294|437:263|387:306|415:349|363:387|302:371,1,340,2|0,0:0|0:0,0:0:0:0:
290,369,38427,5,8,0:0:0:0:
160,98,38604,5,4,1:2:0:0:
138,236,38781,1,4,1:2:0:0:
116,374,38957,1,4,1:2:0:0:
401,178,39133,6,0,P|443:188|460:215,1,69.9999978637696,6|0,1:2|0:0,0:0:0:0:
466,224,39398,1,0,0:0:0:0:
468,232,39486,1,0,1:0:0:0:
390,261,39663,1,2,0:0:0:0:
347,109,39839,6,0,P|380:88|412:93,1,69.9999978637696,2|0,1:2|0:0,0:0:0:0:
424,96,40104,1,0,0:0:0:0:
432,101,40192,1,0,1:0:0:0:
401,178,40369,1,2,0:0:0:0:
259,99,40545,6,0,P|266:61|293:41,1,69.9999978637696,2|0,1:2|0:0,0:0:0:0:
305,35,40810,1,0,0:0:0:0:
314,34,40898,1,0,1:0:0:0:
347,109,41075,6,0,L|377:104,2,23.3333326212565,2|0|0,1:2|1:0|1:0,0:0:0:0:
443,93,41251,1,10,0:0:0:0:
454,91,41339,1,0,1:0:0:0:
466,89,41427,1,4,1:2:0:0:
454,297,41604,6,0,B|441:311|442:331|442:331|434:311|417:304,1,69.9999978637696,4|0,1:2|0:0,0:0:0:0:
405,229,41780,2,0,B|418:215|417:195|417:195|425:215|442:222,1,69.9999978637696,4|0,0:0|0:0,0:0:0:0:
300,363,41957,6,0,L|229:349,1,69.9999978637696,6|0,1:2|0:0,0:0:0:0:
215,346,42222,1,0,0:0:0:0:
205,344,42310,1,0,1:0:0:0:
112,196,42486,5,2,0:0:0:0:
90,281,42663,2,0,L|161:267,1,69.9999978637696,2|0,1:2|0:0,0:0:0:0:
175,264,42928,1,0,0:0:0:0:
185,262,43016,1,0,1:0:0:0:
277,112,43192,5,2,0:0:0:0:
299,197,43369,2,0,L|228:183,1,69.9999978637696,2|0,1:2|0:0,0:0:0:0:
214,180,43634,1,0,0:0:0:0:
204,178,43722,1,0,1:0:0:0:
55,62,43898,5,2,0:0:0:0:
90,281,44075,1,10,0:0:0:0:
321,59,44251,5,4,1:2:0:0:
299,197,44428,1,4,1:2:0:0:
277,335,44604,1,4,1:2:0:0:
81,198,44780,6,0,P|39:208|20:233,1,69.9999978637696,6|0,1:2|0:0,0:0:0:0:
14,244,45045,1,0,0:0:0:0:
13,253,45133,1,0,1:0:0:0:
90,281,45310,1,2,0:0:0:0:
243,61,45486,6,0,P|282:68|301:94,1,69.9999978637696,2|0,1:2|0:0,0:0:0:0:
307,105,45751,1,0,0:0:0:0:
309,114,45839,1,0,1:0:0:0:
231,142,46016,1,2,0:0:0:0:
362,308,46192,5,2,1:2:0:0:
364,319,46280,1,0,1:0:0:0:
367,329,46369,2,0,L|377:369,1,40,12|0,0:0|0:0,0:0:0:0:
436,237,46545,2,0,L|446:277,1,40,12|0,0:0|0:0,0:0:0:0:
150,308,46722,6,0,L|157:277,2,29.9999990844727,2|0|0,1:2|1:0|1:0,0:0:0:0:
139,322,46898,2,0,L|128:369,1,44.999998626709,14|0,0:0|0:0,0:0:0:0:
19,122,47075,5,8,0:0:0:0:
24,142,47163,1,8,0:0:0:0:
29,162,47251,1,8,0:0:0:0:
34,183,47339,1,8,0:0:0:0:
39,203,47427,1,8,0:0:0:0:
44,223,47516,1,8,0:0:0:0:
49,240,47604,5,6,1:2:0:0:
93,218,47692,1,0,1:0:0:0:
143,218,47780,1,8,0:0:0:0:
188,239,47868,1,0,1:0:0:0:
226,272,47957,1,0,1:0:0:0:
270,294,48045,1,0,1:0:0:0:
320,300,48133,2,0,P|344:296|364:276,1,50,10|0,0:0|1:0,0:0:0:0:
364,164,48310,5,2,1:2:0:0:
320,142,48398,1,0,1:0:0:0:
270,142,48486,1,8,0:0:0:0:
225,163,48574,1,0,1:0:0:0:
187,196,48663,1,0,1:0:0:0:
143,218,48751,1,0,1:0:0:0:
93,218,48839,2,0,P|69:214|49:194,1,50,10|0,0:0|1:0,0:0:0:0:
51,48,49016,5,2,1:2:0:0:
100,34,49104,1,0,1:0:0:0:
149,43,49192,1,8,0:0:0:0:
190,72,49280,1,0,1:0:0:0:
216,113,49368,1,0,1:0:0:0:
225,163,49457,1,0,1:0:0:0:
213,209,49545,6,0,P|197:234|169:243,1,50,10|0,0:0|1:0,0:0:0:0:
3,185,49722,2,0,P|28:174|58:181,1,50,2|0,1:2|1:0,0:0:0:0:
161,324,49898,2,0,P|134:318|114:292,1,50,8|0,0:0|1:0,0:0:0:0:
117,124,50075,2,0,P|136:146|136:175,1,50,2|0,1:2|1:0,0:0:0:0:
32,310,50251,2,0,P|30:282|48:255,1,50,10|0,0:0|1:0,0:0:0:0:
219,53,50427,5,6,1:2:0:0:
241,97,50515,1,0,1:0:0:0:
241,147,50603,1,8,0:0:0:0:
220,192,50691,1,0,1:0:0:0:
187,230,50780,1,0,1:0:0:0:
165,274,50868,1,0,1:0:0:0:
161,324,50957,2,0,P|165:348|185:368,1,50,10|0,0:0|1:0,0:0:0:0:
295,368,51133,5,2,1:2:0:0:
317,324,51221,1,0,1:0:0:0:
317,274,51309,1,8,0:0:0:0:
296,229,51397,1,0,1:0:0:0:
263,191,51486,1,0,1:0:0:0:
241,147,51574,1,0,1:0:0:0:
241,97,51662,2,0,P|248:69|265:53,1,50,10|0,0:0|1:0,0:0:0:0:
388,21,51839,5,2,1:2:0:0:
421,58,51927,1,0,1:0:0:0:
430,107,52015,1,8,0:0:0:0:
418,156,52103,1,0,1:0:0:0:
389,195,52191,1,0,1:0:0:0:
346,221,52280,1,0,1:0:0:0:
296,229,52369,2,0,P|265:225|243:207,1,50,10|0,0:0|1:0,0:0:0:0:
144,118,52545,6,0,L|94:109,1,50,2|0,1:2|1:0,0:0:0:0:
0,201,52722,1,8,0:0:0:0:
11,199,52810,2,0,L|61:190,1,50,2|0,1:2|1:0,0:0:0:0:
85,328,52986,1,0,1:0:0:0:
92,320,53075,2,0,P|102:291|97:264,1,50,10|0,0:0|1:0,0:0:0:0:
144,118,53251,5,6,1:2:0:0:
181,85,53339,1,0,1:0:0:0:
230,76,53427,1,8,0:0:0:0:
279,88,53515,1,0,1:0:0:0:
318,117,53603,1,0,1:0:0:0:
344,160,53692,1,0,1:0:0:0:
352,210,53781,2,0,P|348:241|330:263,1,50,10|0,0:0|1:0,0:0:0:0:
255,363,53957,5,2,1:2:0:0:
228,321,54045,1,0,1:0:0:0:
224,271,54133,1,8,0:0:0:0:
241,224,54221,1,0,1:0:0:0:
271,184,54310,1,0,1:0:0:0:
288,138,54398,1,0,1:0:0:0:
279,88,54486,2,0,P|275:64|255:44,1,50,10|0,0:0|1:0,0:0:0:0:
153,116,54663,5,2,1:2:0:0:
163,165,54751,1,0,1:0:0:0:
196,203,54839,1,8,0:0:0:0:
241,224,54927,1,0,1:0:0:0:
291,232,55016,1,0,1:0:0:0:
335,252,55104,1,0,1:0:0:0:
364,294,55192,6,0,P|378:313|378:342,1,50,10|0,0:0|1:0,0:0:0:0:
247,363,55369,2,0,P|272:358|292:338,1,50,2|0,1:2|1:0,0:0:0:0:
409,161,55545,2,0,P|423:180|425:208,1,50,8|0,0:0|1:0,0:0:0:0:
291,232,55722,2,0,P|312:216|340:216,1,50,2|0,1:2|1:0,0:0:0:0:
512,277,55898,2,0,P|489:290|460:288,1,50,10|0,0:0|1:0,0:0:0:0:
317,123,56075,5,6,1:2:0:0:
266,122,56163,1,0,1:0:0:0:
220,139,56251,1,8,0:0:0:0:
183,171,56339,1,0,1:0:0:0:
158,214,56427,1,0,1:0:0:0:
148,263,56516,1,0,1:0:0:0:
126,308,56604,2,0,P|106:322|77:322,1,50,10|0,0:0|1:0,0:0:0:0:
15,232,56780,5,2,1:2:0:0:
42,190,56868,1,0,1:0:0:0:
84,164,56956,1,8,0:0:0:0:
134,159,57044,1,0,1:0:0:0:
183,171,57133,1,0,1:0:0:0:
233,166,57221,1,0,1:0:0:0:
275,140,57309,1,10,0:0:0:0:
302,98,57397,1,0,1:0:0:0:
308,48,57486,6,0,P|304:24|285:4,1,50,2|0,1:2|1:0,0:0:0:0:
127,6,57663,1,8,0:0:0:0:
138,6,57751,2,0,P|162:10|180:28,1,50,2|0,1:2|1:0,0:0:0:0:
1,101,57927,1,8,0:0:0:0:
6,93,58015,2,0,P|24:78|51:75,3,50,6|0|0|0,1:2|1:0|1:0|1:0,0:0:0:0:
127,190,58369,5,10,0:0:0:0:
132,210,58457,1,8,0:0:0:0:
137,230,58545,1,10,0:0:0:0:
142,251,58633,1,8,0:0:0:0:
147,271,58721,1,8,0:0:0:0:
152,291,58810,1,8,0:0:0:0:
156,308,58898,6,0,B|196:296|222:335|222:335|245:373|295:356,1,150,6|8,1:2|0:0,0:0:0:0:
302,356,59251,1,8,0:0:0:0:
481,203,59427,2,0,P|471:252|424:279,1,100,6|0,1:2|1:0,0:0:0:0:
411,284,59692,1,8,3:0:0:0:
402,284,59780,1,4,3:0:0:0:
219,54,59957,5,6,1:2:0:0:
268,250,60133,1,6,1:2:0:0:
268,250,60486,5,0,1:0:0:0:
264,260,60575,1,0,1:0:0:0:
259,270,60663,2,0,L|209:261,3,50,8|8|8|0,0:0|0:0|0:0|1:0,0:0:0:0:
315,192,61016,6,0,L|365:183,1,50,8|0,0:0|1:0,0:0:0:0:
432,103,61192,1,8,0:0:0:0:
436,123,61280,1,8,0:0:0:0:
440,143,61368,1,8,3:0:0:0:
444,164,61456,1,4,3:0:0:0:
449,184,61544,1,2,3:0:0:0:
453,204,61633,1,0,1:0:0:0:
458,223,61722,6,0,L|478:322,1,100,6|0,1:2|0:0,0:0:0:0:
435,377,61986,5,8,0:0:0:0:
403,356,62074,1,8,0:0:0:0:
367,352,62162,1,8,0:0:0:0:
332,364,62251,6,0,B|292:376|266:337|266:337|243:299|193:316,1,150,6|8,1:2|3:0,0:0:0:0:
136,339,62604,5,4,3:0:0:0:
134,349,62692,1,2,3:0:0:0:
133,358,62780,1,6,1:2:0:0:
161,139,62957,1,6,1:2:0:0:
161,139,63310,5,8,0:0:0:0:
174,137,63398,1,8,0:0:0:0:
186,139,63486,2,0,P|210:144|230:164,3,50,8|4|2|0,3:0|3:0|3:0|1:0,0:0:0:0:
330,68,63839,6,0,P|316:88|315:123,1,50,12|0,0:0|0:0,0:0:0:0:
348,186,64016,1,8,0:0:0:0:
385,203,64104,1,8,0:0:0:0:
426,201,64192,1,4,3:0:0:0:
461,179,64280,1,2,3:0:0:0:
485,146,64369,6,0,P|490:120|481:93,1,50,4|0,1:2|0:0,0:0:0:0:
415,5,64545,1,6,1:2:0:0:
385,203,64722,5,8,0:0:0:0:
378,248,64810,1,8,0:0:0:0:
371,293,64898,1,8,0:0:0:0:
364,338,64986,1,8,0:0:0:0:
356,384,65075,6,0,L|336:285,1,100,6|8,1:2|3:0,0:0:0:0:
268,246,65339,1,8,3:0:0:0:
265,261,65427,1,4,3:0:0:0:
262,276,65515,1,2,3:0:0:0:
259,291,65603,1,6,1:2:0:0:
404,91,65780,6,0,B|421:73|442:69|460:83|474:97|483:116|462:140|455:156|426:163|401:168|374:159|349:137|349:137|331:141|314:157|314:157|288:138|253:147,1,320,6|0,1:2|1:0,0:0:0:0:
196,91,66192,5,0,1:0:0:0:
188,89,66251,1,0,1:0:0:0:
179,87,66310,2,0,L|129:78,3,50,14|8|0|8,0:0|0:0|1:0|0:0,0:0:0:0:
35,167,66663,2,0,L|85:158,3,50,2|8|0|8,1:2|0:0|1:0|0:0,0:0:0:0:
167,199,67016,5,8,3:0:0:0:
174,229,67104,1,4,3:0:0:0:
172,260,67192,1,2,3:0:0:0:
159,288,67280,1,0,1:0:0:0:
134,309,67369,6,0,B|96:293|63:316|63:316|103:278|161:272|190:290|183:338|223:344|247:348|274:357|317:330,1,350,6|0,1:2|0:0,0:0:0:0:
421,208,68780,6,0,B|436:192|458:188|471:188|487:194|498:207|509:222|510:238|505:255|496:266|484:281|472:286|458:293|442:295|419:294|396:285|379:275|370:266|352:239|343:231|318:241|305:237|288:250,1,350,6|0,1:2|0:0,0:0:0:0:
174,322,70192,6,0,P|135:319|111:296,1,69.9999978637696,6|0,1:2|0:0,0:0:0:0:
180,215,70545,1,0,1:0:0:0:
178,225,70634,1,0,1:0:0:0:
176,235,70722,1,2,0:0:0:0:
320,275,70898,6,0,P|360:272|389:241,1,80,6|0,1:2|0:0,0:0:0:0:
315,159,71251,1,0,1:0:0:0:
319,172,71339,1,0,1:0:0:0:
323,186,71428,1,2,0:0:0:0:
60,219,71604,6,0,P|25:188|26:139,1,89.9999972534181,6|0,1:2|0:0,0:0:0:0:
132,99,71957,1,0,1:0:0:0:
126,116,72045,1,0,1:0:0:0:
119,134,72134,1,2,0:0:0:0:
421,178,72310,6,0,P|462:146|464:91,1,100,6|0,1:2|0:0,0:0:0:0:
355,45,72663,1,0,1:0:0:0:
363,68,72752,1,0,1:0:0:0:
372,92,72840,1,2,0:0:0:0:
197,361,73016,5,6,1:2:0:0:
197,361,73369,5,8,1:2:0:0:
228,276,73545,1,8,0:0:0:0:
283,341,73722,1,8,1:2:0:0:
142,292,73898,1,8,0:0:0:0:
311,259,74075,1,8,1:2:0:0:
197,361,74251,1,8,0:0:0:0:
285,108,74427,5,10,1:2:0:0:
366,325,74604,1,8,0:0:0:0:
372,92,74780,1,8,1:2:0:0:
311,259,74957,1,8,0:0:0:0:
316,27,75133,1,8,1:2:0:0:
228,276,75310,1,8,0:0:0:0:
460,75,75486,1,8,1:2:0:0:
452,308,75663,1,8,0:0:0:0:
159,146,75839,6,0,L|109:137,1,50,14|0,0:0|1:0,0:0:0:0:
207,245,76016,2,0,L|257:254,1,50,8|0,0:0|1:0,0:0:0:0:
41,30,76192,5,8,0:0:0:0:
32,75,76280,1,0,1:0:0:0:
24,121,76368,1,0,1:0:0:0:
16,167,76456,1,0,1:0:0:0:
8,214,76545,6,0,L|-1:264,1,50,14|0,0:0|1:0,0:0:0:0:
69,383,76722,2,0,L|78:333,1,50,8|0,0:0|1:0,0:0:0:0:
250,143,76898,5,8,0:0:0:0:
295,134,76986,1,0,1:0:0:0:
341,126,77074,1,0,1:0:0:0:
387,118,77162,1,0,1:0:0:0:
433,111,77251,6,0,P|461:125|471:145,1,50,14|0,0:0|1:0,0:0:0:0:
378,249,77427,2,0,P|352:238|340:215,1,50,12|0,0:0|1:0,0:0:0:0:
227,70,77604,6,0,P|253:82|265:104,1,50,14|0,0:0|1:0,0:0:0:0:
172,208,77780,2,0,P|148:199|134:174,1,50,12|0,0:0|1:0,0:0:0:0:
25,23,77957,5,10,0:0:0:0:
0,65,78045,1,8,0:0:0:0:
0,116,78133,1,8,3:0:0:0:
18,161,78221,1,8,3:0:0:0:
50,200,78310,1,4,3:0:0:0:
70,245,78398,1,4,3:0:0:0:
69,295,78486,1,2,3:0:0:0:
46,339,78574,1,2,3:0:0:0:
5,365,78663,6,0,L|97:348,1,89.9999972534181,4|8,1:2|0:0,0:0:0:0:
249,300,79016,1,2,1:2:0:0:
248,309,79104,1,0,1:0:0:0:
247,318,79192,1,8,0:0:0:0:
135,141,79369,2,0,L|152:235,1,89.9999972534181,2|8,1:2|0:0,0:0:0:0:
156,252,79633,1,0,1:0:0:0:
158,261,79722,1,2,0:0:0:0:
203,85,79898,6,0,P|167:54|121:55,1,89.9999972534181,10|0,0:0|1:0,0:0:0:0:
218,171,80251,1,8,0:0:0:0:
323,49,80427,1,2,1:2:0:0:
322,40,80515,1,0,1:0:0:0:
321,31,80603,1,8,0:0:0:0:
428,238,80780,6,0,L|436:285,3,44.999998626709,2|0|8|0,1:2|1:0|0:0|1:0,0:0:0:0:
351,182,81133,2,0,L|341:135,3,44.999998626709,2|0|8|0,1:2|1:0|0:0|1:0,0:0:0:0:
297,255,81486,6,0,P|260:293|261:335,1,89.9999972534181,2|8,1:2|0:0,0:0:0:0:
120,255,81839,1,0,1:0:0:0:
111,254,81927,1,0,1:0:0:0:
102,253,82015,1,10,0:0:0:0:
233,170,82192,1,0,1:0:0:0:
42,77,82369,1,8,0:0:0:0:
40,87,82457,2,0,L|31:136,1,44.999998626709,0|2,1:0|0:0,0:0:0:0:
134,27,82633,1,0,1:0:0:0:
135,37,82721,2,0,L|144:83,1,44.999998626709,8|0,0:0|0:0,0:0:0:0:
16,216,82898,5,2,1:2:0:0:
233,170,83075,2,0,L|325:153,1,89.9999972534181,8|0,0:0|1:0,0:0:0:0:
338,150,83339,1,0,1:0:0:0:
348,149,83427,1,8,0:0:0:0:
482,38,83604,5,2,1:2:0:0:
466,72,83692,1,0,1:0:0:0:
464,110,83780,1,8,0:0:0:0:
474,144,83868,1,0,1:0:0:0:
492,177,83957,1,2,1:2:0:0:
502,212,84045,1,0,1:0:0:0:
500,249,84133,1,8,0:0:0:0:
484,283,84221,1,0,1:0:0:0:
455,312,84310,6,0,L|359:295,1,89.9999972534181,4|8,1:2|0:0,0:0:0:0:
250,152,84663,1,2,1:2:0:0:
251,143,84751,1,0,1:0:0:0:
252,134,84839,1,8,0:0:0:0:
117,266,85016,2,0,L|212:246,1,89.9999972534181,2|8,1:2|0:0,0:0:0:0:
223,243,85280,1,0,1:0:0:0:
232,241,85369,1,2,0:0:0:0:
226,51,85545,6,0,P|181:76|168:118,1,89.9999972534181,10|0,0:0|1:0,0:0:0:0:
115,22,85898,1,8,0:0:0:0:
27,188,86075,1,2,1:2:0:0:
26,179,86163,1,0,1:0:0:0:
25,170,86251,1,8,0:0:0:0:
230,152,86427,6,0,L|277:144,3,44.999998626709,2|0|8|0,1:2|1:0|0:0|1:0,0:0:0:0:
356,208,86780,2,0,L|403:198,3,44.999998626709,2|0|8|0,1:2|1:0|0:0|1:0,0:0:0:0:
299,62,87133,6,0,P|344:87|357:129,1,89.9999972534181,6|8,1:2|0:0,0:0:0:0:
257,284,87486,2,0,L|306:275,1,44.999998626709,0|0,1:0|1:0,0:0:0:0:
401,199,87663,2,0,L|383:293,1,89.9999972534181,10|0,0:0|1:0,0:0:0:0:
208,209,88016,1,8,0:0:0:0:
198,207,88104,1,0,1:0:0:0:
188,205,88192,2,0,L|140:197,1,44.999998626709,2|0,0:0|1:0,0:0:0:0:
34,272,88369,2,0,L|79:263,1,44.999998626709,10|0,0:0|0:0,0:0:0:0:
176,112,88545,5,0,1:0:0:0:
23,60,88722,2,0,L|41:154,1,89.9999972534181,8|0,0:0|1:0,0:0:0:0:
44,170,88986,1,0,1:0:0:0:
46,179,89075,1,10,0:0:0:0:
152,368,89251,6,0,B|168:361|168:361|183:342,3,29.9999990844727,0|0|0|14,1:0|1:0|1:0|0:0,0:0:0:0:
360,368,89604,2,0,B|344:361|344:361|329:342,3,29.9999990844727,0|0|0|14,1:0|1:0|1:0|0:0,0:0:0:0:
379,168,89957,6,0,P|336:190|325:237,1,89.9999972534181,4|8,1:2|0:0,0:0:0:0:
477,165,90310,1,2,1:2:0:0:
476,156,90398,1,0,1:0:0:0:
475,147,90486,1,8,0:0:0:0:
278,129,90663,2,0,P|236:101|232:58,1,89.9999972534181,2|8,1:2|0:0,0:0:0:0:
237,48,90927,1,0,1:0:0:0:
239,39,91016,1,2,0:0:0:0:
98,146,91192,6,0,L|3:129,1,89.9999972534181,10|0,0:0|1:0,0:0:0:0:
68,50,91545,1,8,0:0:0:0:
39,226,91722,1,2,1:2:0:0:
38,235,91810,1,0,1:0:0:0:
37,244,91898,1,8,0:0:0:0:
267,248,92075,6,0,P|295:256|308:273,3,44.999998626709,2|0|8|0,1:2|1:0|0:0|1:0,0:0:0:0:
227,369,92427,2,0,P|235:341|252:327,3,44.999998626709,2|0|8|0,1:2|1:0|0:0|1:0,0:0:0:0:
361,333,92780,6,0,L|456:316,1,89.9999972534181,2|8,1:2|0:0,0:0:0:0:
357,178,93133,2,0,L|310:170,1,44.999998626709,0|0,1:0|1:0,0:0:0:0:
461,107,93310,2,0,L|443:203,1,89.9999972534181,10|0,0:0|1:0,0:0:0:0:
301,86,93663,5,8,0:0:0:0:
291,85,93751,2,0,P|263:94|250:113,1,44.999998626709,0|2,1:0|0:0,0:0:0:0:
138,149,93927,1,0,1:0:0:0:
149,148,94015,2,0,P|177:159|190:178,1,44.999998626709,8|0,0:0|0:0,0:0:0:0:
282,379,94192,5,2,1:2:0:0:
127,317,94369,1,8,0:0:0:0:
320,238,94545,1,0,1:0:0:0:
321,247,94633,1,0,1:0:0:0:
322,256,94721,1,8,0:0:0:0:
17,366,94898,5,2,1:2:0:0:
36,329,94986,1,0,1:0:0:0:
42,287,95074,1,8,0:0:0:0:
32,245,95162,1,0,1:0:0:0:
10,205,95251,1,2,1:2:0:0:
0,163,95339,1,0,1:0:0:0:
6,121,95427,1,8,0:0:0:0:
26,83,95515,1,0,1:0:0:0:
58,56,95604,6,0,P|107:44|146:66,1,89.9999972534181,4|8,1:2|0:0,0:0:0:0:
226,175,95957,1,2,1:2:0:0:
227,184,96045,1,0,1:0:0:0:
228,193,96133,1,8,0:0:0:0:
32,245,96310,2,0,P|55:198|98:185,1,89.9999972534181,2|8,1:2|0:0,0:0:0:0:
110,185,96575,1,0,1:0:0:0:
119,188,96663,1,2,0:0:0:0:
189,373,96839,6,0,L|170:275,1,89.9999972534181,10|0,0:0|1:0,0:0:0:0:
137,92,97192,1,8,0:0:0:0:
320,170,97369,1,2,1:2:0:0:
321,161,97457,1,0,1:0:0:0:
322,152,97545,1,8,0:0:0:0:
489,10,97722,6,0,P|466:20|453:40,3,44.999998626709,2|0|8|0,1:2|1:0|0:0|1:0,0:0:0:0:
347,69,98075,2,0,P|375:80|387:97,3,44.999998626709,2|0|8|0,1:2|1:0|0:0|1:0,0:0:0:0:
499,193,98427,6,0,L|402:175,1,89.9999972534181,6|8,1:2|0:0,0:0:0:0:
187,206,98780,2,0,L|235:197,1,44.999998626709,0|0,1:0|1:0,0:0:0:0:
266,20,98957,2,0,L|248:113,1,89.9999972534181,10|0,0:0|1:0,0:0:0:0:
154,369,99310,5,8,0:0:0:0:
149,360,99398,1,0,1:0:0:0:
148,350,99486,2,0,P|149:319|161:300,1,44.999998626709,2|0,1:2|1:0,0:0:0:0:
265,325,99663,2,0,P|263:355|251:373,1,44.999998626709,8|2,0:0|0:0,0:0:0:0:
62,181,99839,5,0,1:0:0:0:
248,118,100016,1,8,0:0:0:0:
37,37,100192,1,2,1:2:0:0:
38,46,100280,1,0,1:0:0:0:
39,55,100368,1,8,0:0:0:0:
11,266,100545,5,2,1:2:0:0:
10,276,100633,2,0,L|2:323,1,44.999998626709,8|0,0:0|0:0,0:0:0:0:
110,202,100810,1,8,0:0:0:0:
112,212,100898,1,2,1:2:0:0:
116,237,100986,1,0,1:0:0:0:
121,261,101074,1,0,1:0:0:0:
125,286,101162,1,0,1:0:0:0:
129,311,101251,2,0,L|137:357,1,44.999998626709,4|0,1:2|1:0,0:0:0:0:
303,281,101427,5,8,0:0:0:0:
317,232,101516,1,8,0:0:0:0:
289,194,101604,1,10,0:0:0:0:
241,192,101692,1,8,0:0:0:0:
209,228,101780,1,4,1:2:0:0:
220,276,101869,1,0,1:0:0:0:
261,297,101957,5,2,1:2:0:0:
285,292,102045,1,0,1:0:0:0:
310,288,102133,1,0,1:0:0:0:
334,283,102221,1,0,1:0:0:0:
359,279,102310,6,0,L|408:271,1,44.999998626709,2|0,1:2|1:0,0:0:0:0:
508,212,102486,2,0,L|458:202,1,44.999998626709,2|0,1:2|1:0,0:0:0:0:
311,106,102663,5,8,0:0:0:0:
297,57,102752,1,8,0:0:0:0:
325,19,102840,1,8,0:0:0:0:
373,17,102928,1,8,0:0:0:0:
405,53,103016,6,0,P|402:86|389:102,3,44.999998626709,2|0|0|0,1:2|1:0|1:0|1:0,0:0:0:0:
399,202,103369,2,0,P|374:189|363:166,3,44.999998626709,2|0|0|0,1:2|1:0|1:0|1:0,0:0:0:0:
263,138,103722,1,10,0:0:0:0:
266,129,103810,1,8,0:0:0:0:
271,122,103898,2,0,P|294:106|315:106,1,44.999998626709,8|0,0:0|1:0,0:0:0:0:
343,287,104075,5,6,1:2:0:0:
319,282,104163,1,0,1:0:0:0:
295,278,104251,1,0,1:0:0:0:
272,274,104339,1,0,1:0:0:0:
241,289,104427,5,10,0:0:0:0:
217,284,104515,1,0,1:0:0:0:
193,280,104603,1,0,1:0:0:0:
170,276,104691,1,0,1:0:0:0:
128,293,104780,5,0,1:0:0:0:
123,269,104868,1,0,1:0:0:0:
119,245,104956,1,0,1:0:0:0:
115,222,105044,1,0,1:0:0:0:
130,191,105132,5,10,0:0:0:0:
125,167,105222,1,0,1:0:0:0:
121,143,105310,1,0,1:0:0:0:
117,120,105398,1,0,1:0:0:0:
132,88,105486,6,0,L|123:42,1,40,0|0,1:0|1:0,0:0:0:0:
140,80,105663,2,0,L|131:34,1,40,2|0,1:2|1:0,0:0:0:0:
250,152,105839,6,0,L|259:106,1,40,8|0,0:0|1:0,0:0:0:0:
242,144,106016,2,0,L|251:98,1,40,2|0,1:2|1:0,0:0:0:0:
130,191,106192,6,0,P|101:198|78:190,3,44.999998626709,2|0|0|0,1:2|1:0|1:0|1:0,0:0:0:0:
0,95,106545,2,0,P|25:110|34:131,3,44.999998626709,10|0|0|0,0:0|1:0|1:0|1:0,0:0:0:0:
17,249,106898,5,6,1:2:0:0:
19,285,106986,1,0,1:0:0:0:
37,317,107074,1,0,1:0:0:0:
67,337,107162,1,0,1:0:0:0:
104,343,107251,6,0,P|127:344|150:330,1,44.999998626709,10|0,0:0|1:0,0:0:0:0:
250,276,107427,2,0,P|227:277|203:264,1,44.999998626709,2|0,1:2|1:0,0:0:0:0:
101,186,107604,5,0,1:0:0:0:
96,162,107692,1,0,1:0:0:0:
92,138,107780,1,0,1:0:0:0:
88,115,107868,1,0,1:0:0:0:
102,79,107957,6,0,L|93:31,3,44.999998626709,10|0|0|0,0:0|1:0|1:0|1:0,0:0:0:0:
185,109,108310,2,0,L|228:84,3,44.999998626709,2|0|0|0,1:2|1:0|1:0|1:0,0:0:0:0:
180,195,108663,2,0,L|215:228,3,44.999998626709,10|0|0|0,0:0|1:0|1:0|1:0,0:0:0:0:
97,222,109016,2,0,L|75:264,3,44.999998626709,2|0|0|0,1:2|1:0|1:0|1:0,0:0:0:0:
50,148,109369,2,0,L|3:141,3,44.999998626709,10|0|0|0,0:0|1:0|1:0|1:0,0:0:0:0:
180,195,109722,5,6,1:2:0:0:
205,202,109810,1,0,1:0:0:0:
232,201,109898,1,0,1:0:0:0:
259,194,109986,1,0,1:0:0:0:
287,165,110075,5,10,0:0:0:0:
313,158,110163,1,0,1:0:0:0:
341,157,110251,1,0,1:0:0:0:
366,165,110339,1,0,1:0:0:0:
396,193,110427,5,0,1:0:0:0:
421,200,110515,1,0,1:0:0:0:
448,199,110603,1,0,1:0:0:0:
475,192,110691,1,0,1:0:0:0:
504,168,110780,6,0,P|519:145|518:118,1,44.999998626709,10|0,0:0|1:0,0:0:0:0:
479,22,110957,2,0,P|464:45|466:71,1,44.999998626709,2|0,1:2|1:0,0:0:0:0:
331,250,111133,5,4,1:2:0:0:
321,248,111222,2,0,L|272:238,1,44.999998626709,10|0,0:0|1:0,0:0:0:0:
162,313,111398,1,0,1:0:0:0:
172,311,111486,2,0,L|221:301,1,44.999998626709,10|0,0:0|1:0,0:0:0:0:
153,168,111662,5,0,1:0:0:0:
160,174,111750,1,0,1:0:0:0:
166,183,111839,2,0,P|175:204|170:233,1,44.999998626709,10|0,0:0|1:0,0:0:0:0:
94,345,112016,2,0,P|85:321|91:294,1,44.999998626709,10|0,0:0|1:0,0:0:0:0:
260,167,112192,5,2,1:2:0:0:
284,162,112280,1,0,1:0:0:0:
308,158,112368,1,0,1:0:0:0:
331,154,112456,1,0,1:0:0:0:
356,150,112545,2,0,L|404:142,1,44.999998626709,4|0,1:2|0:0,0:0:0:0:
389,280,112722,5,8,0:0:0:0:
403,329,112811,1,8,0:0:0:0:
375,367,112899,1,10,0:0:0:0:
327,369,112987,1,8,0:0:0:0:
295,333,113075,1,4,1:2:0:0:
306,285,113164,1,0,1:0:0:0:
347,264,113252,5,2,1:2:0:0:
371,269,113340,1,0,1:0:0:0:
396,273,113428,1,0,1:0:0:0:
420,278,113516,1,0,1:0:0:0:
445,282,113605,6,0,L|492:291,1,44.999998626709,2|0,1:2|1:0,0:0:0:0:
339,340,113780,2,0,L|293:332,1,44.999998626709,2|0,1:2|1:0,0:0:0:0:
458,198,113957,5,8,0:0:0:0:
477,150,114046,1,8,0:0:0:0:
453,109,114134,1,8,0:0:0:0:
406,101,114222,1,8,0:0:0:0:
370,133,114310,6,0,P|368:166|378:184,3,44.999998626709,8|8|8|8,3:0|3:0|3:0|3:0,0:0:0:0:
293,42,114663,2,0,P|294:75|285:92,3,44.999998626709,4|4|4|4,3:0|3:0|3:0|3:0,0:0:0:0:
206,156,115016,5,8,0:0:0:0:
163,148,115104,1,8,0:0:0:0:
121,140,115192,1,8,0:0:0:0:
79,132,115280,1,8,0:0:0:0:
36,124,115369,6,0,L|129:108,1,89.9999972534181,6|8,1:2|0:0,0:0:0:0:
313,200,115722,1,2,1:2:0:0:
314,209,115810,1,0,1:0:0:0:
315,218,115898,1,8,0:0:0:0:
293,42,116075,1,0,1:0:0:0:
198,243,116251,5,8,0:0:0:0:
188,242,116339,2,0,L|137:233,1,44.999998626709,0|2,1:0|0:0,0:0:0:0:
29,313,116515,1,0,1:0:0:0:
39,312,116603,2,0,L|89:303,1,44.999998626709,8|0,0:0|0:0,0:0:0:0:
115,152,116780,6,0,P|71:177|62:220,1,89.9999972534181,0|8,1:0|0:0,0:0:0:0:
205,143,117133,1,2,1:2:0:0:
206,134,117221,1,0,1:0:0:0:
207,125,117309,1,8,0:0:0:0:
318,265,117486,1,2,1:2:0:0:
499,110,117663,5,8,0:0:0:0:
488,109,117751,2,0,P|460:120|450:138,1,44.999998626709,2|0,1:2|0:0,0:0:0:0:
335,171,117927,1,0,1:0:0:0:
346,170,118015,2,0,P|374:181|386:198,1,44.999998626709,10|0,0:0|0:0,0:0:0:0:
512,361,118192,5,6,1:2:0:0:
478,220,118369,1,8,0:0:0:0:
307,377,118545,1,2,1:2:0:0:
324,340,118633,1,0,1:0:0:0:
354,314,118721,1,8,0:0:0:0:
393,303,118809,1,0,1:0:0:0:
433,309,118897,1,0,1:0:0:0:
216,117,119075,5,8,0:0:0:0:
224,270,119251,1,2,1:2:0:0:
206,233,119339,1,0,1:0:0:0:
176,207,119427,1,8,0:0:0:0:
137,196,119515,1,0,1:0:0:0:
97,202,119603,1,0,1:0:0:0:
360,14,119780,5,8,0:0:0:0:
352,167,119956,1,2,1:2:0:0:
370,130,120044,1,0,1:0:0:0:
400,104,120132,1,8,0:0:0:0:
439,93,120222,1,0,1:0:0:0:
480,99,120310,5,2,1:2:0:0:
460,158,120398,1,0,1:0:0:0:
416,200,120486,1,8,0:0:0:0:
357,219,120574,1,2,1:2:0:0:
297,215,120663,1,0,1:0:0:0:
249,180,120751,1,0,1:0:0:0:
220,127,120839,2,0,P|209:107|210:81,1,44.999998626709,10|0,0:0|1:0,0:0:0:0:
13,276,121016,5,14,0:0:0:0:
62,220,121104,1,0,1:0:0:0:
136,210,121192,1,0,1:0:0:0:
207,241,121280,1,0,1:0:0:0:
262,292,121369,1,2,1:2:0:0:
337,296,121457,1,0,1:0:0:0:
398,252,121545,5,14,0:0:0:0:
415,178,121633,1,0,1:0:0:0:
380,111,121722,1,0,1:0:0:0:
311,82,121810,1,0,1:0:0:0:
239,104,121898,1,2,1:2:0:0:
199,167,121986,1,0,1:0:0:0:
207,241,122075,5,14,0:0:0:0:
190,314,122163,1,0,1:0:0:0:
143,370,122251,1,0,1:0:0:0:
70,376,122339,1,0,1:0:0:0:
1,350,122428,1,6,1:2:0:0:
146,134,123839,6,0,L|125:247,1,110.000003356934,6|8,1:2|0:0,0:0:0:0:
395,377,124192,2,0,L|384:322,1,55.0000016784668,2|0,1:2|1:0,0:0:0:0:
443,162,124369,2,0,P|420:215|361:229,1,110.000003356934,10|0,0:0|1:0,0:0:0:0:
170,49,124722,5,10,0:0:0:0:
182,46,124810,2,0,P|216:50|236:67,1,55.0000016784668,0|0,1:0|0:0,0:0:0:0:
189,218,124986,1,0,1:0:0:0:
177,221,125074,2,0,P|147:217|123:196,1,55.0000016784668,10|0,0:0|0:0,0:0:0:0:
23,37,125251,5,2,1:2:0:0:
181,135,125427,1,8,0:0:0:0:
0,269,125604,1,2,1:2:0:0:
3,256,125692,1,0,1:0:0:0:
5,244,125780,1,8,0:0:0:0:
166,61,125957,5,2,1:2:0:0:
168,71,126045,1,0,1:0:0:0:
170,81,126133,2,0,L|181:136,1,55.0000016784668,8|0,0:0|1:0,0:0:0:0:
123,324,126310,1,2,1:2:0:0:
121,314,126398,1,0,1:0:0:0:
119,304,126486,2,0,L|108:249,1,55.0000016784668,8|0,0:0|1:0,0:0:0:0:
314,119,126663,5,6,1:2:0:0:
368,109,126751,1,0,1:0:0:0:
422,121,126839,1,10,0:0:0:0:
468,152,126927,1,0,1:0:0:0:
496,200,127015,1,0,1:0:0:0:
504,255,127104,1,0,1:0:0:0:
497,309,127192,1,10,0:0:0:0:
466,354,127280,1,0,1:0:0:0:
415,374,127369,5,2,1:2:0:0:
394,324,127457,1,0,1:2:0:0:
391,270,127545,1,8,0:0:0:0:
413,219,127633,1,0,1:0:0:0:
448,176,127722,2,0,P|466:151|466:124,1,55.0000016784668,2|0,1:2|1:0,0:0:0:0:
380,17,127898,2,0,P|362:42|362:69,1,55.0000016784668,10|0,0:0|1:0,0:0:0:0:
318,197,128075,5,0,1:0:0:0:
267,199,128163,1,0,1:0:0:0:
222,182,128251,1,10,0:0:0:0:
193,141,128339,1,0,1:0:0:0:
176,94,128427,1,0,1:0:0:0:
147,54,128515,1,0,1:0:0:0:
101,36,128603,1,10,0:0:0:0:
50,37,128691,1,0,1:0:0:0:
8,65,128780,5,2,1:2:0:0:
20,124,128868,1,0,1:0:0:0:
60,168,128956,1,8,0:0:0:0:
118,175,129044,1,0,1:0:0:0:
173,155,129133,5,2,1:2:0:0:
109,122,129221,1,0,1:0:0:0:
40,142,129309,1,8,0:0:0:0:
0,203,129397,1,0,1:0:0:0:
0,276,129486,6,0,L|21:389,1,110.000003356934,6|8,1:2|0:0,0:0:0:0:
167,180,129839,1,2,1:2:0:0:
170,167,129927,1,0,1:0:0:0:
173,155,130015,1,8,0:0:0:0:
261,349,130192,1,2,1:2:0:0:
426,157,130369,5,8,0:0:0:0:
429,169,130457,2,0,L|440:224,1,55.0000016784668,0|2,1:0|0:0,0:0:0:0:
360,362,130633,1,0,1:0:0:0:
357,350,130721,2,0,L|346:295,1,55.0000016784668,8|0,0:0|0:0,0:0:0:0:
435,64,130898,6,0,P|488:79|512:133,1,110.000003356934,2|8,1:2|0:0,0:0:0:0:
273,70,131251,1,2,1:2:0:0:
260,67,131339,1,0,1:0:0:0:
248,65,131427,1,8,0:0:0:0:
25,215,131604,5,2,1:2:0:0:
80,242,131692,1,0,1:0:0:0:
140,228,131780,1,8,0:0:0:0:
177,179,131868,1,0,1:0:0:0:
169,119,131957,5,2,1:2:0:0:
120,138,132045,1,0,1:0:0:0:
99,184,132133,1,8,0:0:0:0:
108,234,132221,1,0,1:0:0:0:
134,276,132310,6,0,L|247:297,1,110.000003356934,6|8,1:2|0:0,0:0:0:0:
11,75,132663,2,0,L|0:130,1,55.0000016784668,2|0,1:2|1:0,0:0:0:0:
24,278,132839,2,0,L|35:223,1,55.0000016784668,10|0,0:0|0:0,0:0:0:0:
131,52,133016,5,0,1:0:0:0:
175,30,133104,1,0,1:2:0:0:
225,30,133192,1,10,0:0:0:0:
270,51,133280,1,0,1:0:0:0:
308,84,133369,1,0,1:0:0:0:
352,106,133457,1,0,1:0:0:0:
402,106,133545,1,10,0:0:0:0:
447,85,133633,1,0,1:0:0:0:
475,44,133722,5,2,1:2:0:0:
425,21,133810,1,0,1:0:0:0:
370,19,133898,1,12,0:0:0:0:
319,38,133986,1,0,1:0:0:0:
279,75,134074,1,2,1:2:0:0:
257,125,134163,1,0,1:0:0:0:
250,177,134251,1,12,0:0:0:0:
228,227,134340,1,0,1:0:0:0:
196,269,134427,6,0,P|174:281|139:275,1,55.0000016784668,2|0,1:2|1:0,0:0:0:0:
0,91,134604,2,0,P|27:93|49:111,1,55.0000016784668,8|0,0:0|1:0,0:0:0:0:
91,382,134780,5,10,0:0:0:0:
45,318,134868,1,8,0:0:0:0:
50,241,134957,1,8,0:0:0:0:
102,186,135044,1,8,0:0:0:0:
177,171,135133,6,0,P|233:182|262:237,1,110.000003356934,6|8,1:2|0:0,0:0:0:0:
421,375,135486,2,0,P|391:366|375:339,1,55.0000016784668,2|0,1:2|1:0,0:0:0:0:
484,190,135663,2,0,P|492:243|452:292,1,110.000003356934,10|0,0:0|1:0,0:0:0:0:
210,307,136016,5,10,0:0:0:0:
198,310,136104,2,0,L|143:321,1,55.0000016784668,0|0,1:0|0:0,0:0:0:0:
264,224,136280,1,0,1:0:0:0:
276,221,136368,2,0,L|331:210,1,55.0000016784668,10|0,0:0|0:0,0:0:0:0:
120,88,136545,6,0,P|113:145|153:189,1,110.000003356934,2|8,1:2|0:0,0:0:0:0:
304,56,136898,1,2,1:2:0:0:
307,43,136986,1,0,1:0:0:0:
309,31,137074,1,8,0:0:0:0:
276,221,137251,5,2,1:2:0:0:
274,231,137339,1,0,1:0:0:0:
272,241,137427,2,0,L|261:296,1,55.0000016784668,8|0,0:0|1:0,0:0:0:0:
403,144,137604,1,2,1:2:0:0:
405,134,137692,1,0,1:0:0:0:
407,124,137780,2,0,L|418:69,1,55.0000016784668,8|0,0:0|1:0,0:0:0:0:
472,269,137957,5,6,1:2:0:0:
403,297,138045,1,0,1:0:0:0:
331,283,138133,1,8,0:0:0:0:
272,241,138221,1,0,1:0:0:0:
246,172,138310,1,0,1:0:0:0:
251,99,138398,1,0,1:0:0:0:
302,46,138486,1,10,0:0:0:0:
374,30,138574,1,0,1:0:0:0:
448,46,138663,5,6,1:2:0:0:
438,118,138751,1,0,1:0:0:0:
390,173,138839,1,8,0:0:0:0:
318,182,138927,1,0,1:0:0:0:
253,152,139016,1,0,1:0:0:0:
180,158,139104,1,0,1:0:0:0:
125,205,139192,1,10,0:0:0:0:
107,276,139280,1,0,1:0:0:0:
127,347,139369,5,6,1:2:0:0:
182,367,139457,1,0,1:0:0:0:
237,350,139545,1,8,0:0:0:0:
278,311,139633,1,0,1:0:0:0:
302,257,139721,5,2,1:2:0:0:
297,205,139809,1,0,1:0:0:0:
267,163,139897,1,8,0:0:0:0:
222,139,139985,1,0,1:0:0:0:
152,147,140075,5,6,1:2:0:0:
152,219,140163,1,0,1:0:0:0:
199,275,140251,1,8,0:0:0:0:
269,296,140339,1,0,1:0:0:0:
344,282,140427,2,0,P|378:274|398:251,1,55.0000016784668,2|0,1:2|1:0,0:0:0:0:
512,17,140604,5,8,0:0:0:0:
499,14,140692,1,8,0:0:0:0:
486,13,140780,2,0,P|433:30|409:82,1,110.000003356934,4|8,1:2|0:0,0:0:0:0:
138,197,141133,5,0,1:0:0:0:
184,188,141221,1,0,1:0:0:0:
231,179,141309,1,10,0:0:0:0:
278,172,141398,1,0,1:0:0:0:
325,164,141486,1,2,1:2:0:0:
217,84,141663,1,8,0:0:0:0:
187,315,141839,5,0,1:0:0:0:
141,306,141927,1,0,1:0:0:0:
94,297,142015,1,10,0:0:0:0:
47,290,142104,1,0,1:0:0:0:
0,282,142192,1,2,1:2:0:0:
108,202,142369,1,8,0:0:0:0:
412,354,142545,5,2,1:2:0:0:
461,338,142633,1,0,1:0:0:0:
461,287,142722,1,8,0:0:0:0:
412,271,142810,1,0,1:0:0:0:
383,312,142898,5,2,1:2:0:0:
327,336,142986,1,0,1:0:0:0:
263,330,143075,1,8,0:0:0:0:
218,291,143163,1,0,1:0:0:0:
196,237,143251,1,2,1:2:0:0:
214,182,143339,1,0,1:0:0:0:
257,144,143427,2,0,P|288:133|315:142,1,55.0000016784668,8|0,0:0|1:0,0:0:0:0:
512,351,143604,5,14,0:0:0:0:
438,336,143692,1,0,1:0:0:0:
364,322,143780,1,0,1:0:0:0:
291,307,143868,1,0,1:0:0:0:
218,291,143957,2,0,L|163:279,1,55.0000016784668,2|0,1:2|1:0,0:0:0:0:
0,162,144133,5,14,0:0:0:0:
74,147,144221,1,0,1:0:0:0:
148,133,144309,1,2,1:2:0:0:
221,118,144398,1,0,1:0:0:0:
294,102,144486,2,0,L|356:89,1,55.0000016784668,0|0,1:0|1:0,0:0:0:0:
438,336,144663,5,14,0:0:0:0:
365,302,144751,1,8,0:0:0:0:
371,222,144839,1,8,0:0:0:0:
449,205,144927,1,8,0:0:0:0:
489,274,145016,1,14,0:0:0:0:
253,112,145898,6,0,L|259:137,2,26.6666666666667,0|0|0,1:0|1:0|1:0,0:0:0:0:
234,37,146075,1,8,0:0:0:0:
231,26,146163,1,8,0:0:0:0:
228,16,146251,1,0,1:0:0:0:
15,280,146427,5,14,0:0:0:0:
68,297,146515,1,0,1:0:0:0:
121,281,146603,1,0,1:0:0:0:
156,240,146691,1,0,1:0:0:0:
174,187,146780,1,10,0:0:0:0:
208,143,146868,1,0,1:0:0:0:
253,112,146957,2,0,P|283:103|308:111,1,50,2|0,1:2|1:0,0:0:0:0:
315,228,147133,5,10,0:0:0:0:
262,244,147221,1,0,1:0:0:0:
209,228,147309,1,0,1:0:0:0:
174,187,147397,1,0,1:0:0:0:
156,134,147486,1,8,0:0:0:0:
122,90,147574,1,0,1:0:0:0:
77,59,147663,2,0,P|47:50|22:58,1,50,2|0,1:2|1:0,0:0:0:0:
1,179,147839,5,10,0:0:0:0:
5,233,147927,1,0,1:0:0:0:
28,283,148015,1,0,1:0:0:0:
72,317,148103,1,0,1:0:0:0:
124,329,148191,1,8,0:0:0:0:
178,319,148280,1,0,1:0:0:0:
221,286,148369,6,0,L|230:236,1,50,2|0,1:2|1:0,0:0:0:0:
259,59,148545,2,0,L|221:93,1,50,10|0,0:0|1:0,0:0:0:0:
93,225,148722,2,0,L|142:218,1,50,0|0,1:0|1:0,0:0:0:0:
329,182,148898,2,0,L|283:158,1,50,10|0,0:0|1:0,0:0:0:0:
115,80,149075,2,0,L|135:126,1,50,2|0,1:2|1:0,0:0:0:0:
344,306,149251,5,14,0:0:0:0:
385,279,149339,1,0,1:0:0:0:
412,237,149427,1,0,1:0:0:0:
418,187,149515,1,0,1:0:0:0:
410,138,149604,1,8,0:0:0:0:
415,89,149692,1,0,1:0:0:0:
439,45,149780,2,0,P|459:21|486:16,1,50,2|0,1:2|1:0,0:0:0:0:
511,160,149957,5,10,0:0:0:0:
467,183,150045,1,0,1:0:0:0:
418,187,150133,1,0,1:0:0:0:
371,169,150221,1,0,1:0:0:0:
331,139,150310,1,8,0:0:0:0:
286,120,150398,1,0,1:0:0:0:
235,121,150486,2,0,P|204:128|187:148,1,50,2|0,1:2|1:0,0:0:0:0:
115,229,150663,5,10,0:0:0:0:
154,256,150751,1,0,1:0:0:0:
203,266,150839,1,0,1:0:0:0:
252,256,150927,1,0,1:0:0:0:
294,229,151015,1,8,0:0:0:0:
321,188,151104,1,0,1:0:0:0:
331,139,151192,2,0,L|321:83,1,50,2|0,1:2|1:0,0:0:0:0:
427,11,151369,6,0,P|403:19|386:42,1,50,10|0,0:0|1:0,0:0:0:0:
199,40,151545,1,0,1:0:0:0:
207,36,151633,2,0,P|232:34|256:48,1,50,2|12,1:2|0:0,0:0:0:0:
340,224,151810,1,0,1:0:0:0:
342,235,151898,2,0,L|351:285,1,50,2|0,1:2|1:0,0:0:0:0:
233,139,152075,5,14,0:0:0:0:
183,147,152163,1,0,1:0:0:0:
142,175,152251,1,0,1:0:0:0:
117,218,152339,1,0,1:0:0:0:
105,266,152428,1,8,0:0:0:0:
82,309,152516,1,0,1:0:0:0:
45,341,152604,2,0,P|17:356|-8:354,1,50,2|0,1:2|1:0,0:0:0:0:
1,150,152780,5,10,0:0:0:0:
50,142,152868,1,0,1:0:0:0:
99,151,152956,1,0,1:0:0:0:
142,175,153044,1,0,1:0:0:0:
175,212,153132,1,8,0:0:0:0:
194,258,153221,1,0,1:0:0:0:
194,308,153310,2,0,P|188:338|169:357,1,50,2|0,1:2|1:0,0:0:0:0:
72,244,153486,5,10,0:0:0:0:
100,203,153574,1,0,1:0:0:0:
142,175,153662,1,0,1:0:0:0:
189,161,153750,1,0,1:0:0:0:
238,164,153838,1,8,0:0:0:0:
284,183,153927,1,0,1:0:0:0:
319,219,154016,6,0,L|328:269,1,50,2|0,1:2|1:0,0:0:0:0:
386,124,154192,2,0,L|395:174,1,50,10|0,0:0|1:0,0:0:0:0:
189,161,154369,2,0,L|198:211,1,50,0|0,1:0|1:0,0:0:0:0:
259,68,154545,2,0,L|268:118,1,50,14|0,0:0|1:0,0:0:0:0:
319,219,154722,2,0,L|328:269,1,50,2|0,1:2|1:0,0:0:0:0:
259,68,154898,5,14,0:0:0:0:
216,38,154986,1,0,1:0:0:0:
167,26,155074,1,0,1:0:0:0:
119,29,155162,1,0,1:0:0:0:
74,48,155250,1,8,0:0:0:0:
36,82,155339,1,0,1:0:0:0:
12,128,155427,2,0,P|8:159|20:182,1,50,2|0,1:2|1:0,0:0:0:0:
125,219,155604,5,10,0:0:0:0:
174,217,155692,1,0,1:0:0:0:
220,235,155780,1,0,1:0:0:0:
254,272,155868,1,0,1:0:0:0:
277,316,155957,1,8,0:0:0:0:
309,353,156045,1,0,1:0:0:0:
355,375,156133,2,0,P|385:381|410:370,1,50,2|0,1:2|1:0,0:0:0:0:
383,219,156310,5,10,0:0:0:0:
334,217,156398,1,0,1:0:0:0:
288,235,156486,1,0,1:0:0:0:
254,272,156574,1,0,1:0:0:0:
231,316,156663,1,8,0:0:0:0:
199,353,156751,1,0,1:0:0:0:
156,366,156839,5,2,1:2:0:0:
147,367,156927,1,8,0:0:0:0:
138,370,157016,2,0,P|113:373|89:361,1,50,10|0,0:0|1:0,0:0:0:0:
0,280,157192,2,0,P|24:283|48:271,1,50,10|0,0:0|1:0,0:0:0:0:
245,122,157369,5,8,0:0:0:0:
207,155,157457,1,8,0:0:0:0:
160,172,157545,1,8,0:0:0:0:
111,169,157633,1,8,0:0:0:0:
69,146,157722,6,0,L|59:87,1,55.0000016784668,6|0,1:2|0:0,0:0:0:0:
138,370,157898,1,8,0:0:0:0:
136,360,157986,2,0,L|114:245,1,110.000003356934,2|0,1:2|1:0,0:0:0:0:
84,156,158251,5,10,0:0:0:0:
78,149,158339,1,2,1:2:0:0:
69,146,158427,2,0,P|37:146|12:169,1,55.0000016784668,2|0,1:2|1:0,0:0:0:0:
164,27,158604,1,8,0:0:0:0:
154,28,158692,2,0,P|132:53|133:87,2,55.0000016784668,2|0|0,1:2|0:0|1:0,0:0:0:0:
238,172,158957,5,10,0:0:0:0:
240,184,159045,1,2,1:2:0:0:
242,195,159133,2,0,L|253:263,1,55.0000016784668,2|0,1:2|0:0,0:0:0:0:
392,178,159310,1,10,0:0:0:0:
382,180,159398,2,0,L|303:196,1,55.0000016784668,2|0,1:2|0:0,0:0:0:0:
331,35,159575,1,0,1:0:0:0:
333,45,159663,2,0,L|343:101,1,55.0000016784668,10|0,0:0|0:0,0:0:0:0:
421,314,159839,6,0,B|469:314|491:352|491:352|473:283|422:259|360:265|338:272|327:303|324:316|322:327|295:361|258:367|216:356|193:330,1,450.000017166138,2|8,1:2|0:0,0:0:0:0:
81,237,160457,5,0,1:0:0:0:
75,228,160545,2,0,B|47:195|-3:194|-26:246|-37:285|-11:312|37:334|76:324|97:303|104:289|110:279|122:249|143:221|170:218|190:222|215:239,1,375.000014305115,6|0,1:2|1:0,0:0:0:0:
219,368,161075,5,10,0:0:0:0:
208,363,161163,1,0,0:0:0:0:
198,355,161251,5,2,1:2:0:0:
177,314,161339,1,0,1:0:0:0:
178,269,161427,1,8,0:0:0:0:
202,231,161515,1,0,1:0:0:0:
241,206,161604,5,2,1:2:0:0:
255,224,161692,1,0,1:0:0:0:
263,246,161780,1,8,0:0:0:0:
264,269,161868,1,0,1:0:0:0:
263,292,161957,5,2,1:2:0:0:
273,281,162045,1,0,1:0:0:0:
286,273,162133,1,8,0:0:0:0:
300,267,162221,1,0,1:0:0:0:
317,264,162310,5,2,1:2:0:0:
321,272,162398,1,0,1:0:0:0:
324,281,162486,1,10,0:0:0:0:
326,290,162574,1,0,1:0:0:0:
328,298,162663,5,2,1:2:0:0:
349,271,162751,1,0,1:0:0:0:
377,255,162839,1,8,0:0:0:0:
412,255,162927,1,0,1:0:0:0:
443,268,163016,5,2,1:2:0:0:
479,226,163104,1,0,1:0:0:0:
493,172,163192,1,8,0:0:0:0:
479,121,163280,1,0,1:0:0:0:
437,89,163369,6,0,L|378:79,1,55.0000016784668,6|0,1:2|0:0,0:0:0:0:
212,183,163545,1,8,0:0:0:0:
223,181,163633,2,0,L|333:162,1,110.000003356934,2|0,1:2|1:0,0:0:0:0:
186,35,163898,5,10,0:0:0:0:
194,33,163986,1,2,1:2:0:0:
204,35,164074,2,0,P|229:53|236:87,1,55.0000016784668,2|0,1:2|1:0,0:0:0:0:
134,173,164251,1,8,0:0:0:0:
130,163,164339,2,0,P|140:131|170:115,1,55.0000016784668,2|0,1:2|0:0,0:0:0:0:
279,174,164516,1,0,1:0:0:0:
274,182,164604,2,0,P|247:189|222:180,1,55.0000016784668,10|0,0:0|0:0,0:0:0:0:
0,75,164780,6,0,L|68:64,1,55.0000016784668,2|0,1:2|1:0,0:0:0:0:
57,222,164957,1,10,0:0:0:0:
55,212,165045,2,0,L|39:133,1,55.0000016784668,2|0,1:2|0:0,0:0:0:0:
134,17,165222,1,0,1:0:0:0:
136,26,165310,2,0,L|146:82,1,55.0000016784668,10|0,0:0|0:0,0:0:0:0:
177,306,165486,6,0,B|134:370|219:417|266:329|187:296|187:296|105:264|154:171|237:219|196:282,1,375.000014305115,2|0,1:2|1:0,0:0:0:0:
44,328,166016,5,10,0:0:0:0:
22,333,166104,1,0,1:0:0:0:
0,337,166192,1,4,1:2:0:0:
69,77,166369,6,0,B|57:26|-6:24|-6:24|67:6|115:47|134:116|108:151,1,300.000011444092,10|8,0:0|0:0,0:0:0:0:
112,244,166810,5,0,1:0:0:0:
117,232,166898,1,2,1:2:0:0:
152,202,166986,1,0,1:0:0:0:
196,193,167074,1,8,0:0:0:0:
239,208,167162,1,0,1:0:0:0:
268,241,167251,5,2,1:2:0:0:
257,220,167339,1,0,1:0:0:0:
253,198,167427,1,8,0:0:0:0:
256,175,167515,1,0,1:0:0:0:
267,154,167604,5,2,1:2:0:0:
293,145,167692,1,0,1:0:0:0:
321,146,167780,1,8,0:0:0:0:
347,155,167868,1,0,1:0:0:0:
370,169,167957,5,2,1:2:0:0:
341,134,168045,1,0,1:0:0:0:
332,90,168133,1,10,0:0:0:0:
346,48,168221,1,0,1:0:0:0:
377,19,168310,5,2,1:2:0:0:
396,30,168398,1,8,0:0:0:0:
409,44,168486,2,0,P|423:73|413:118,1,75.0000028610231,0|0,1:0|1:0,0:0:0:0:
222,372,168663,5,10,0:0:0:0:
256,330,168751,1,0,1:0:0:0:
311,317,168839,1,0,1:0:0:0:
363,334,168927,1,8,0:0:0:0:
403,372,169016,6,0,B|320:366|299:303|351:285|316:232|256:221|256:221|-4:175|-4:175|80:190|108:244,1,629.999980773926,6|0,1:2|0:0,0:0:0:0:
116,354,169722,2,0,P|127:333|128:311,1,44.999998626709,2|0,1:2|1:0,0:0:0:0:
283,92,169898,6,0,L|292:141,1,44.999998626709,8|0,0:0|0:0,0:0:0:0:
355,52,170075,2,0,L|364:101,1,44.999998626709,2|0,1:2|1:0,0:0:0:0:
428,16,170251,2,0,L|437:65,1,44.999998626709,10|0,0:0|0:0,0:0:0:0:
72,57,170427,6,0,B|45:25|-4:36|-4:36|44:12|109:23|140:52|156:101|148:117|138:136|161:183|212:176,1,375.000014305115,2|0,1:2|1:0,0:0:0:0:
8,322,170957,5,10,0:0:0:0:
7,310,171045,1,2,0:0:0:0:
9,300,171133,2,0,P|32:266|101:253,1,110.000003356934,2|8,0:0|0:0,0:0:0:0:
143,325,171398,2,0,P|120:359|54:374,1,110.000003356934,2|0,0:0|1:0,0:0:0:0:
13,269,171663,2,0,P|34:246|63:242,1,55.0000016784668,10|0,0:0|1:0,0:0:0:0:
293,323,171839,6,0,B|293:343|307:358|307:358|291:343|275:345,1,75.0000028610231,6|0,1:2|0:0,0:0:0:0:
214,274,172016,2,0,B|205:244|170:240|170:240|195:194|261:186|303:218|312:238,1,225.000008583069,10|0,0:0|1:0,0:0:0:0:
391,335,172369,2,0,B|411:346|411:366|411:366|391:357|393:335,1,75.0000028610231,10|0,0:0|0:0,0:0:0:0:
413,139,172545,5,2,1:2:0:0:
424,124,172633,1,0,1:0:0:0:
440,113,172721,1,8,0:0:0:0:
459,109,172809,1,0,1:0:0:0:
473,112,172898,5,2,1:2:0:0:
471,139,172986,1,0,1:0:0:0:
461,164,173074,1,8,0:0:0:0:
442,185,173162,1,0,1:0:0:0:
419,201,173251,5,2,1:2:0:0:
383,179,173339,1,0,1:0:0:0:
358,146,173427,1,8,0:0:0:0:
347,108,173516,1,0,1:0:0:0:
361,72,173604,5,2,1:2:0:0:
407,88,173692,1,0,1:0:0:0:
440,126,173780,1,8,0:0:0:0:
452,174,173869,1,0,1:0:0:0:
426,216,173957,5,2,1:2:0:0:
416,164,174045,1,0,1:0:0:0:
425,113,174133,1,8,0:0:0:0:
455,70,174221,1,0,1:0:0:0:
504,52,174310,5,2,1:2:0:0:
473,108,174398,1,0,1:0:0:0:
415,133,174486,1,10,0:0:0:0:
353,120,174574,1,8,0:0:0:0:
314,74,174663,6,0,B|284:31|232:41|232:41|241:28|278:18|305:17|325:17|351:32|376:57|388:98|408:113|427:148|412:179|382:203|369:221|365:247|398:304|424:333|447:342|473:338|504:315|507:287|511:264|492:251|472:234,1,629.999980773926,6|0,1:2|0:0,0:0:0:0:
182,306,175369,6,0,B|166:318|166:318|151:313|151:313|164:300|164:300|180:305,1,69.9999978637696,2|0,1:2|1:0,0:0:0:0:
254,268,175545,1,10,0:0:0:0:
256,259,175633,1,0,0:0:0:0:
259,250,175722,2,0,B|255:230|255:230|267:219|267:219|272:238|272:238|260:248,1,69.9999978637696,2|0,1:2|1:0,0:0:0:0:
275,346,175898,2,0,B|293:352|293:352|296:368|296:368|278:363|278:363|275:347,1,69.9999978637696,8|0,0:0|0:0,0:0:0:0:
39,97,176075,6,0,B|19:96|14:76|14:76|36:77|38:97,1,69.9999978637696,2|0,1:2|0:0,0:0:0:0:
67,174,176251,1,10,0:0:0:0:
64,182,176339,1,0,1:0:0:0:
62,192,176427,2,0,B|71:208|56:223|56:223|46:204|62:192,1,69.9999978637696,2|0,0:0|1:0,0:0:0:0:
130,123,176604,2,0,B|139:106|160:112|160:112|148:130|130:122,1,69.9999978637696,8|0,0:0|0:0,0:0:0:0:
4,351,176780,5,2,1:2:0:0:
29,345,176868,1,0,1:0:0:0:
55,340,176956,1,8,0:0:0:0:
81,335,177044,1,0,1:0:0:0:
106,330,177133,2,0,L|167:318,1,55.0000016784668,2|0,1:2|1:0,0:0:0:0:
339,376,177310,5,12,0:0:0:0:
349,380,177398,1,0,1:0:0:0:
359,384,177486,5,6,1:2:0:0:
406,358,177574,1,0,1:0:0:0:
418,304,177662,1,8,0:0:0:0:
403,250,177751,1,0,1:0:0:0:
353,225,177839,5,2,1:2:0:0:
363,256,177927,1,0,1:0:0:0:
386,280,178015,1,12,0:0:0:0:
416,295,178103,1,0,1:0:0:0:
443,288,178192,5,2,1:2:0:0:
414,280,178280,1,0,1:0:0:0:
386,280,178369,1,12,0:0:0:0:
360,290,178456,1,0,1:0:0:0:
349,305,178545,5,2,1:2:0:0:
369,296,178633,1,0,1:0:0:0:
386,280,178721,1,12,0:0:0:0:
400,263,178809,1,0,1:0:0:0:
401,246,178898,5,6,1:2:0:0:
353,225,178986,1,0,1:0:0:0:
301,224,179074,1,8,0:0:0:0:
255,244,179163,1,0,1:0:0:0:
214,275,179251,1,2,1:2:0:0:
166,296,179339,1,0,1:0:0:0:
114,297,179427,1,14,0:0:0:0:
68,277,179516,1,0,1:0:0:0:
29,214,179604,5,14,0:0:0:0:
67,156,179692,1,8,0:0:0:0:
130,125,179780,1,8,0:0:0:0:
199,130,179868,1,8,0:0:0:0:
255,170,179956,1,10,0:0:0:0:
301,224,180045,1,8,0:0:0:0:
363,257,180133,1,10,0:0:0:0:
432,254,180221,1,8,0:0:0:0:
499,219,180310,6,0,B|426:146|347:179|318:230|308:247|299:262|270:312|191:318|148:240|148:240|185:281|232:268,1,500,6|0,1:2|1:0,0:0:0:0:
293,300,180839,2,0,B|325:300|330:335|330:335|313:314|296:308,1,100,8|0,0:0|0:0,0:0:0:0:
88,103,181016,6,0,B|79:88|63:82|63:82|79:88|97:80,1,64.9999970245363,2|0,1:2|0:0,0:0:0:0:
217,127,181192,2,0,B|225:141|241:147|241:147|225:141|207:149,1,64.9999970245363,8|0,0:0|1:0,0:0:0:0:
164,53,181369,2,0,B|178:44|184:28|184:28|178:44|186:62,1,64.9999970245363,2|0,0:0|1:0,0:0:0:0:
142,179,181545,2,0,B|127:187|121:203|121:203|127:187|119:169,1,64.9999970245363,10|0,0:0|0:0,0:0:0:0:
281,60,181722,6,0,P|329:58|414:97,1,139.999995727539,2|8,1:2|0:0,0:0:0:0:
453,208,181986,2,0,B|481:200|512:216|512:216|437:178,1,139.999995727539,2|0,1:2|1:0,0:0:0:0:
411,94,182251,2,0,B|404:68|425:56|425:56|418:69|417:85,1,69.9999978637696,10|0,0:0|0:0,0:0:0:0:
385,268,182427,6,0,B|341:251|315:289|315:289|290:325|242:304,1,150.000005722046,2|8,1:2|0:0,0:0:0:0:
125,243,182692,2,0,B|104:227|103:200|126:180|162:180|181:197|195:221|195:244,1,150.000005722046,2|0,1:2|1:0,0:0:0:0:
117,327,182957,2,0,B|99:332|89:353|89:353|93:330|81:314,1,75.0000028610231,10|0,0:0|0:0,0:0:0:0:
73,74,183133,6,0,B|102:31|79:6|36:-3|27:0|7:21|-3:40|-5:59|-2:75|8:93|31:106|58:112|84:114|106:113|130:85|137:99|149:84|161:65|161:65|188:71|202:92|202:92|238:64|284:62|316:88,1,500,6|0,1:2|1:0,0:0:0:0:
393,192,183663,5,10,0:0:0:0:
403,188,183751,1,2,1:2:0:0:
413,186,183839,2,0,B|434:173|468:186|468:186|396:159,1,129.999994049073,2|8,1:2|0:0,0:0:0:0:
301,206,184104,2,0,B|261:225|280:266|280:266|277:236|304:211,1,129.999994049073,2|0,1:2|1:0,0:0:0:0:
387,75,184369,2,0,B|408:49|408:49|405:82,1,64.9999970245363,10|0,0:0|0:0,0:0:0:0:
221,151,184545,6,0,P|165:144|103:89,1,139.999995727539,2|8,1:2|0:0,0:0:0:0:
31,264,184810,2,0,B|11:273|-11:259|-14:228|6:199|31:193|59:196|78:210,1,139.999995727539,2|0,1:2|1:0,0:0:0:0:
190,258,185075,2,0,P|188:296|163:322,1,69.9999978637696,10|0,0:0|0:0,0:0:0:0:
144,86,185251,5,2,1:2:0:0:
192,53,185339,1,0,1:0:0:0:
248,51,185427,1,8,0:0:0:0:
294,79,185515,1,2,1:2:0:0:
329,124,185604,1,0,1:0:0:0:
374,153,185692,1,0,1:0:0:0:
430,151,185780,1,10,0:0:0:0:
475,120,185868,1,0,1:0:0:0:
486,71,185957,6,0,B|448:78|430:46|430:46|411:9|368:17,1,129.999994049073,6|8,1:2|0:0,0:0:0:0:
248,51,186222,2,0,B|198:48|193:92|193:92|211:63|247:56,1,129.999994049073,2|0,1:2|1:0,0:0:0:0:
378,15,186486,2,0,B|394:9|401:-8|401:-8|398:10|407:28,1,64.9999970245363,10|0,0:0|0:0,0:0:0:0:
377,262,186663,5,2,1:2:0:0:
333,284,186751,1,0,1:0:0:0:
283,284,186839,1,8,0:0:0:0:
238,263,186927,1,2,1:2:0:0:
200,230,187016,1,0,1:0:0:0:
156,208,187104,1,0,1:0:0:0:
106,208,187192,1,8,0:0:0:0:
61,229,187280,1,0,1:0:0:0:
31,268,187369,6,0,B|13:304|37:334|37:334|73:349|110:318,1,139.999995727539,6|8,1:2|0:0,0:0:0:0:
64,135,187633,2,0,B|92:63|92:63|79:97|97:129,1,139.999995727539,2|0,1:2|1:0,0:0:0:0:
200,230,187898,2,0,B|215:249|212:267|212:267|207:245|191:237,1,69.9999978637696,10|0,0:0|0:0,0:0:0:0:
303,65,188075,5,2,1:2:0:0:
342,32,188163,1,0,1:0:0:0:
392,18,188251,1,8,0:0:0:0:
442,28,188339,1,2,1:2:0:0:
484,58,188427,1,0,1:0:0:0:
509,103,188516,1,0,1:0:0:0:
512,154,188604,1,8,0:0:0:0:
493,202,188692,1,0,1:0:0:0:
457,238,188780,6,0,B|445:252|420:263|394:264|365:242|359:212|377:192|403:192,1,150.000005722046,6|8,1:2|0:0,0:0:0:0:
340,355,189045,2,0,B|293:349|269:377|269:377|294:348|282:304,1,150.000005722046,2|0,1:2|1:0,0:0:0:0:
255,160,189310,2,0,B|249:122|249:122|279:155,1,75.0000028610231,10|0,0:0|0:0,0:0:0:0:
81,376,189486,5,2,1:2:0:0:
54,334,189574,1,0,1:0:0:0:
49,284,189662,1,8,0:0:0:0:
65,237,189751,1,2,1:2:0:0:
94,196,189839,1,0,1:0:0:0:
111,150,189927,1,0,1:0:0:0:
106,100,190015,1,8,0:0:0:0:
80,58,190103,1,0,1:0:0:0:
34,41,190192,6,0,P|9:64|8:111,1,75.0000028610231,6|0,1:2|1:0,0:0:0:0:
180,90,190368,1,8,0:0:0:0:
172,82,190457,2,0,P|138:77|101:107,1,75.0000028610231,2|0,1:2|1:0,0:0:0:0:
210,239,190633,1,8,0:0:0:0:
214,228,190722,2,0,P|201:196|156:179,1,75.0000028610231,2|0,1:2|1:0,0:0:0:0:
127,383,190898,5,10,0:0:0:0:
107,311,190986,1,8,0:0:0:0:
121,238,191074,1,8,0:0:0:0:
165,178,191162,1,10,0:0:0:0:
230,143,191250,1,8,0:0:0:0:
305,139,191339,1,8,0:0:0:0:
373,169,191427,1,10,0:0:0:0:
423,223,191516,1,8,0:0:0:0:
441,297,191604,6,0,B|454:336|428:357|406:375|372:375|338:363|337:318|335:301|340:266|369:251|396:246|422:237|439:215|447:187|443:158|432:133|416:111|396:97|383:90|383:90|408:110|419:136|410:166|405:180,1,500,6|0,1:2|1:0,0:0:0:0:
331,346,192133,2,0,P|300:366|246:363,1,80,8|0,0:0|0:0,0:0:0:0:
133,116,192310,6,0,B|127:97|127:97|141:84|141:84|146:102|146:102|133:114,1,69.9999978637696,2|0,1:2|0:0,0:0:0:0:
95,249,192486,2,0,B|100:267|100:267|86:280|86:280|81:262|81:262|94:250,1,69.9999978637696,8|0,0:0|1:0,0:0:0:0:
185,200,192663,2,0,B|203:194|203:194|216:208|216:208|198:213|198:213|186:200,1,69.9999978637696,2|0,0:0|1:0,0:0:0:0:
45,163,192839,2,0,B|26:168|26:168|13:154|13:154|31:149|31:149|43:162,1,69.9999978637696,10|0,0:0|0:0,0:0:0:0:
402,60,193016,6,0,B|356:36|301:67|345:93|285:126|241:103,1,179.999994506836,2|8,1:2|0:0,0:0:0:0:
381,248,193280,2,0,B|404:267|431:268|451:245|451:209|434:190|409:168|368:173,1,179.999994506836,2|0,1:2|1:0,0:0:0:0:
249,290,193545,2,0,B|229:297|220:319|220:319|237:265,1,89.9999972534181,10|0,0:0|0:0,0:0:0:0:
57,70,193722,6,0,B|32:57|4:66|4:66|38:42|73:40|111:59|131:68|144:114,1,220.000006713867,2|8,1:2|0:0,0:0:0:0:
125,319,193986,2,0,B|73:298|30:335|30:335|70:295|61:244,1,200,2|0,1:2|1:0,0:0:0:0:
222,165,194251,2,0,B|228:137|257:134|257:134|251:163|222:165,1,100,14|0,0:0|0:0,0:0:0:0:
512,347,194427,6,0,B|500:298|460:278|420:272|345:293|330:363|330:363|397:348|421:273|471:194|477:153|478:107|451:77|413:67|393:75|373:100|371:128|404:146|417:131,1,660.000020141602,6|10,1:2|0:0,0:0:0:0:
379,339,195045,1,2,1:2:0:0:
385,345,195133,2,0,B|390:371|416:374|416:374|411:348|381:342,1,89.9999972534181,2|0,1:2|0:0,0:0:0:0:
173,80,195310,6,0,B|198:67|206:41|206:41|200:67|212:90,1,100,10|0,0:0|1:0,0:0:0:0:
238,187,195486,2,0,B|237:214|255:234|255:234|236:216|209:215,1,100,0|0,0:0|1:0,0:0:0:0:
112,193,195663,2,0,B|88:178|62:184|62:184|87:176|102:153,1,100,10|0,0:0|0:0,0:0:0:0:
351,108,195839,6,0,B|388:103|413:81|416:55|414:25|400:4|377:-11|352:-7|330:0|298:5|294:33|286:51|285:82|288:110|298:138|307:159|321:180|353:212|367:225|385:238|406:248|424:255|449:266|477:265|511:262,1,550.000016784668,2|0,1:2|1:0,0:0:0:0:
481,86,196369,2,0,B|494:64|485:29|485:29|494:64|522:77,1,110.000003356934,10|2,0:0|0:0,0:0:0:0:
385,345,196545,5,2,1:2:0:0:
341,367,196633,1,0,1:0:0:0:
291,367,196721,1,10,0:0:0:0:
246,346,196809,1,0,1:0:0:0:
208,313,196898,1,0,1:0:0:0:
164,291,196986,1,0,1:0:0:0:
114,291,197075,1,10,0:0:0:0:
69,312,197162,1,0,1:0:0:0:
32,345,197251,6,0,B|26:365|36:382|36:382|33:362|39:348,1,69.9999978637696,6|0,1:2|0:0,0:0:0:0:
153,192,197427,2,0,B|158:171|148:154|148:154|151:174|145:188,1,69.9999978637696,8|0,0:0|0:0,0:0:0:0:
17,211,197604,2,0,B|-3:205|-20:215|-20:215|0:212|13:218,1,69.9999978637696,2|0,1:2|1:0,0:0:0:0:
165,330,197780,2,0,B|185:335|202:325|202:325|182:328|168:322,1,69.9999978637696,10|0,0:0|0:0,0:0:0:0:
303,65,197957,5,0,1:0:0:0:
342,32,198045,1,0,1:0:0:0:
392,18,198133,1,10,0:0:0:0:
442,28,198221,1,0,1:0:0:0:
484,58,198309,1,0,1:0:0:0:
509,103,198398,1,0,1:0:0:0:
512,154,198486,1,10,0:0:0:0:
493,202,198574,1,0,1:0:0:0:
462,241,198663,6,0,B|446:254|426:252|426:252|445:246|455:235,1,69.9999978637696,6|0,1:2|0:0,0:0:0:0:
257,308,198839,2,0,B|272:294|292:296|292:296|273:302|263:313,1,69.9999978637696,8|0,0:0|0:0,0:0:0:0:
389,376,199016,2,0,B|375:360|377:340|377:340|383:359|394:369,1,69.9999978637696,2|0,1:2|1:0,0:0:0:0:
323,171,199192,2,0,B|336:186|334:206|334:206|328:187|317:177,1,69.9999978637696,10|0,0:0|0:0,0:0:0:0:
130,362,199369,5,0,1:0:0:0:
98,324,199457,1,0,1:0:0:0:
87,275,199545,1,10,0:0:0:0:
97,226,199633,1,0,1:0:0:0:
121,182,199722,1,0,1:0:0:0:
132,134,199810,1,0,1:0:0:0:
121,85,199898,1,10,0:0:0:0:
91,46,199986,1,0,1:0:0:0:
41,47,200075,5,6,1:2:0:0:
51,107,200163,1,0,1:0:0:0:
91,154,200251,1,12,0:0:0:0:
147,178,200339,1,0,1:0:0:0:
208,186,200428,1,2,1:2:0:0:
265,213,200516,1,0,1:0:0:0:
302,261,200604,1,14,0:0:0:0:
315,322,200692,1,0,1:0:0:0:
291,377,200780,5,0,1:0:0:0:
249,327,200868,1,0,1:0:0:0:
233,265,200956,1,14,0:0:0:0:
245,201,201044,1,0,1:0:0:0:
284,150,201132,1,0,1:0:0:0:
342,121,201221,1,0,1:0:0:0:
406,119,201309,1,14,0:0:0:0:
465,146,201397,1,0,1:0:0:0:
501,210,201486,5,6,1:2:0:0:
488,283,201575,1,0,1:0:0:0:
432,330,201662,1,10,0:0:0:0:
359,330,201751,1,8,0:0:0:0:
302,283,201839,1,10,0:0:0:0:
290,235,201927,1,8,0:0:0:0:
295,209,202015,1,10,0:0:0:0:
304,195,202104,1,8,0:0:0:0:
313,187,202192,5,0,1:0:0:0:
313,259,202280,1,0,1:0:0:0:
266,316,202369,1,2,1:2:0:0:
193,329,202457,1,0,1:0:0:0:
129,293,202545,1,2,1:2:0:0:
104,223,202633,1,0,1:0:0:0:
129,154,202722,1,2,1:2:0:0:
193,118,202810,1,0,1:0:0:0:
265,133,202898,6,0,L|274:183,3,50,6|0|0|0,1:2|1:0|1:0|1:0,0:0:0:0:
359,273,203251,2,0,L|350:223,3,50,10|0|0|0,0:0|1:0|1:0|1:0,0:0:0:0:
403,109,203604,2,0,L|412:159,3,50,2|0|0|0,1:2|1:0|1:0|1:0,0:0:0:0:
507,240,203957,2,0,L|498:190,3,50,10|0|0|0,0:0|1:0|1:0|1:0,0:0:0:0:
422,340,204310,5,2,1:2:0:0:
391,356,204398,1,0,1:0:0:0:
357,361,204486,1,0,1:0:0:0:
323,356,204574,1,0,1:0:0:0:
292,341,204663,2,0,P|272:320|270:290,3,50,8|0|0|0,0:0|1:0|1:0|1:0,0:0:0:0:
119,212,205016,5,2,1:2:0:0:
150,228,205104,1,0,1:0:0:0:
184,233,205192,1,0,1:0:0:0:
218,228,205280,1,0,1:0:0:0:
249,213,205369,2,0,P|269:192|272:162,3,50,8|0|0|0,0:0|1:0|1:0|1:0,0:0:0:0:
368,23,205722,5,6,1:2:0:0:
377,69,205810,1,0,1:0:0:0:
385,115,205898,1,0,1:0:0:0:
393,161,205986,1,0,1:0:0:0:
401,207,206075,2,0,L|410:257,3,50,8|0|0|0,0:0|1:0|1:0|1:0,0:0:0:0:
283,341,206427,5,6,1:2:0:0:
275,299,206515,1,0,1:0:0:0:
267,258,206603,1,0,1:0:0:0:
259,216,206691,1,0,1:0:0:0:
251,175,206780,2,0,L|242:125,1,50,8|0,0:0|1:0,0:0:0:0:
160,31,206957,2,0,L|151:81,1,50,2|0,1:2|1:0,0:0:0:0:
0,257,207133,5,6,1:2:0:0:
35,237,207221,1,0,1:0:0:0:
75,230,207309,1,0,1:0:0:0:
114,237,207397,1,0,1:0:0:0:
150,257,207486,2,0,P|172:284|172:304,3,50,8|0|0|0,0:0|1:0|1:0|1:0,0:0:0:0:
48,371,207839,2,0,P|56:347|75:330,3,50,2|0|0|0,1:2|1:0|1:0|1:0,0:0:0:0:
263,270,208192,5,10,0:0:0:0:
287,265,208280,1,8,0:0:0:0:
312,261,208368,1,0,1:0:0:0:
336,256,208456,1,0,1:0:0:0:
361,252,208545,6,0,L|411:243,3,50,6|0|0|0,1:2|1:0|1:0|1:0,0:0:0:0:
512,181,208898,2,0,L|462:172,3,50,10|0|0|0,0:0|1:0|1:0|1:0,0:0:0:0:
361,112,209251,2,0,L|411:103,3,50,2|0|0|0,1:2|1:0|1:0|1:0,0:0:0:0:
512,41,209604,2,0,L|462:32,3,50,10|0|0|0,0:0|1:0|1:0|1:0,0:0:0:0:
361,112,209957,5,2,1:2:0:0:
330,128,210045,1,0,1:0:0:0:
296,133,210133,1,0,1:0:0:0:
262,128,210221,1,0,1:0:0:0:
231,113,210310,2,0,P|211:92|208:64,3,50,8|0|0|0,0:0|1:0|1:0|1:0,0:0:0:0:
38,205,210663,5,2,1:2:0:0:
76,179,210751,1,0,1:0:0:0:
122,169,210839,1,0,1:0:0:0:
167,179,210927,1,0,1:0:0:0:
206,205,211016,2,0,P|223:233|221:256,3,50,8|0|0|0,0:0|1:0|1:0|1:0,0:0:0:0:
465,157,211369,5,6,1:2:0:0:
400,362,211545,1,8,0:0:0:0:
389,309,211633,1,8,0:0:0:0:
381,255,211721,1,10,0:0:0:0:
373,201,211809,1,8,0:0:0:0:
364,147,211898,1,6,1:2:0:0:
31,204,212075,5,10,0:0:0:0:
87,212,212163,1,8,0:0:0:0:
138,186,212251,1,10,0:0:0:0:
165,135,212339,1,8,0:0:0:0:
157,78,212427,5,6,1:2:0:0:
105,360,212604,1,6,1:2:0:0:
440,29,212957,5,8,0:0:0:0:
477,226,213133,1,10,0:0:0:0:
459,140,213310,5,0,1:0:0:0:
457,129,213398,1,0,1:0:0:0:
455,117,213486,1,14,0:0:0:0:
303,90,213663,5,8,0:0:0:0:
272,53,213751,1,8,0:0:0:0:
225,61,213839,1,10,0:0:0:0:
209,105,213927,1,8,0:0:0:0:
240,142,214016,1,10,0:0:0:0:
286,133,214104,1,8,0:0:0:0:
256,96,214192,6,0,L|161:79,1,89.9999972534181,4|8,1:2|0:0,0:0:0:0:
37,217,214545,1,2,1:2:0:0:
36,226,214633,1,0,1:0:0:0:
35,235,214721,1,8,0:0:0:0:
191,175,214898,1,2,1:2:0:0:
152,375,215075,5,8,0:0:0:0:
150,365,215163,2,0,L|141:316,1,44.999998626709,0|2,1:0|0:0,0:0:0:0:
252,247,215339,1,0,1:0:0:0:
251,257,215427,2,0,L|242:303,1,44.999998626709,8|0,0:0|0:0,0:0:0:0:
425,370,215604,6,0,P|466:357|488:310,1,89.9999972534181,2|8,1:2|0:0,0:0:0:0:
469,127,215957,1,0,1:0:0:0:
470,118,216045,1,0,1:0:0:0:
471,109,216133,1,8,0:0:0:0:
407,284,216310,1,2,1:2:0:0:
241,154,216486,5,8,0:0:0:0:
230,154,216574,2,0,P|202:165|189:184,1,44.999998626709,0|2,1:0|0:0,0:0:0:0:
77,86,216750,1,0,1:0:0:0:
88,87,216838,2,0,P|116:98|128:118,1,44.999998626709,8|0,0:0|0:0,0:0:0:0:
33,353,217016,6,0,L|16:258,1,89.9999972534181,6|8,1:2|0:0,0:0:0:0:
65,188,217369,1,0,1:0:0:0:
64,179,217457,1,0,1:0:0:0:
63,170,217545,1,8,0:0:0:0:
313,241,217722,6,0,L|330:146,1,89.9999972534181,6|8,1:2|0:0,0:0:0:0:
281,76,218075,1,0,1:0:0:0:
282,67,218163,1,0,1:0:0:0:
283,58,218251,1,8,0:0:0:0:
65,188,218427,6,0,L|12:177,3,44.999998626709,6|0|8|0,1:2|1:0|0:0|1:0,0:0:0:0:
150,262,218780,2,0,L|202:251,3,44.999998626709,2|0|8|0,1:2|1:0|0:0|1:0,0:0:0:0:
314,264,219133,6,0,P|322:286|317:311,1,44.999998626709,6|0,1:2|1:0,0:0:0:0:
246,378,219310,2,0,P|238:356|245:329,1,44.999998626709,8|0,0:0|1:0,0:0:0:0:
502,187,219486,5,10,0:0:0:0:
498,207,219574,1,8,0:0:0:0:
494,227,219662,1,8,0:0:0:0:
490,248,219750,1,8,0:0:0:0:
486,265,219839,5,14,0:0:0:0:
430,293,219927,1,0,1:0:0:0:
369,292,220015,1,0,1:0:0:0:
314,264,220103,1,0,1:0:0:0:
270,222,220192,1,10,0:0:0:0:
212,195,220280,1,0,1:0:0:0:
149,194,220368,1,0,1:0:0:0:
91,219,220456,1,0,1:0:0:0:
54,270,220545,5,10,0:0:0:0:
97,314,220633,1,0,1:0:0:0:
154,337,220721,1,0,1:0:0:0:
216,336,220809,1,0,1:0:0:0:
273,310,220897,1,14,0:0:0:0:
314,264,220986,1,0,1:0:0:0:
334,205,221074,1,0,1:0:0:0:
329,143,221162,1,0,1:0:0:0:
303,89,221251,6,0,P|288:66|264:56,3,50,14|0|0|0,0:0|1:0|1:0|1:0,0:0:0:0:
422,168,221604,2,0,P|437:145|462:135,3,50,10|0|0|0,0:0|1:0|1:0|1:0,0:0:0:0:
333,323,221957,5,10,0:0:0:0:
273,310,222045,1,0,1:0:0:0:
212,297,222133,1,0,1:0:0:0:
150,284,222221,1,0,1:0:0:0:
92,268,222310,6,0,L|42:257,1,50,10|0,0:0|1:0,0:0:0:0:
252,212,222486,2,0,L|302:201,1,50,2|0,1:2|1:0,0:0:0:0:
95,60,222663,6,0,P|68:48|43:53,1,50,0|0,1:2|1:0,0:0:0:0:
278,84,222839,1,14,0:0:0:0:
287,80,222927,2,0,P|310:62|319:38,1,50,0|2,1:0|1:2,0:0:0:0:
172,213,223104,1,8,0:0:0:0:
171,223,223192,2,0,P|174:252|190:271,1,50,0|0,1:0|1:0,0:0:0:0:
464,180,223368,5,14,0:0:0:0:
512,124,223457,1,0,1:0:0:0:
472,60,223545,1,0,1:0:0:0:
400,78,223633,1,0,1:0:0:0:
392,150,223722,1,2,1:2:0:0:
464,180,223810,1,0,1:0:0:0:
460,256,223898,1,2,1:2:0:0:
386,274,223986,1,0,1:0:0:0:
345,210,224075,1,2,1:2:0:0:
11,41,224251,6,0,P|2:59|0:78,2,33.3333333333333,0|0|0,1:0|1:0|1:0,0:0:0:0:
20,32,224427,2,0,B|65:18|108:59|65:72|109:116|151:104,1,164.9999949646,6|0,1:2|0:0,0:0:0:0:
321,38,225486,5,14,0:0:0:0:
250,12,225574,1,0,1:0:0:0:
183,38,225662,1,0,1:0:0:0:
151,105,225750,1,0,1:0:0:0:
164,177,225839,2,0,P|189:206|215:210,1,55.0000016784668,2|0,1:2|1:0,0:0:0:0:
387,373,226016,5,14,0:0:0:0:
444,326,226104,1,0,1:0:0:0:
453,253,226192,1,0,1:0:0:0:
412,193,226280,1,0,1:0:0:0:
341,169,226369,2,0,P|302:175|286:198,1,55.0000016784668,2|0,1:2|1:0,0:0:0:0:
62,263,226545,5,14,0:0:0:0:
75,336,226633,1,0,1:0:0:0:
133,380,226721,1,0,1:0:0:0:
205,376,226809,1,0,1:0:0:0:
262,327,226898,2,0,P|274:290|261:262,1,55.0000016784668,2|0,1:2|1:0,0:0:0:0:
321,38,227075,5,14,0:0:0:0:
250,12,227163,1,0,1:0:0:0:
183,38,227251,1,0,1:0:0:0:
151,105,227339,1,0,1:0:0:0:
164,177,227428,2,0,P|189:206|215:209,1,55.0000016784668,2|0,1:2|1:0,0:0:0:0:
341,169,227604,6,0,L|400:159,1,55.0000016784668,14|0,0:0|1:0,0:0:0:0:
44,328,227780,5,8,0:0:0:0:
48,308,227868,1,8,0:0:0:0:
52,288,227956,1,2,1:2:0:0:
56,267,228044,1,8,3:0:0:0:
60,247,228132,1,4,3:0:0:0:
64,226,228221,1,2,3:0:0:0:
68,207,228310,5,6,1:2:0:0:
68,207,228663,5,10,1:2:0:0:
148,282,228839,1,8,0:0:0:0:
201,164,229016,1,10,1:2:0:0:
295,288,229192,1,8,0:0:0:0:
333,122,229369,1,10,1:2:0:0:
468,293,229545,1,8,0:0:0:0:
512,74,229722,1,6,1:2:0:0:
399,203,229898,5,10,0:0:0:0:
398,212,229986,1,8,0:0:0:0:
397,221,230074,1,4,1:2:0:0:
471,162,230251,1,0,1:0:0:0:
247,321,230427,6,0,L|242:362,1,40,8|4,3:0|3:0,0:0:0:0:
257,239,230604,1,2,3:0:0:0:
41,345,230780,6,0,P|5:360|40:343,1,120,0|0,1:0|0:0,0:0:0:0:
110,321,231133,1,4,1:2:0:0:
96,93,231486,6,0,P|97:55|80:36,1,59.9999981689454,2|0,0:0|0:0,0:0:0:0:
3,137,231839,2,0,P|21:103|107:100,1,119.999996337891,10|2,0:0|0:0,0:0:0:0:
263,128,232369,5,10,0:0:0:0:
193,66,232545,2,0,L|177:155,1,89.9999972534181,0|0,1:0|0:0,0:0:0:0:
180,168,232898,2,0,L|169:228,1,59.9999981689454,2|0,1:2|0:0,0:0:0:0:
284,369,233251,6,0,P|219:353|205:306,1,119.999996337891,10|2,0:0|0:0,0:0:0:0:
270,256,233780,1,8,0:0:0:0:
390,365,233957,6,0,B|423:368|440:335|440:335|457:304|491:308,1,119.999996337891,6|0,1:2|0:0,0:0:0:0:
466,62,234663,2,0,P|450:98|437:179,1,119.999996337891,8|0,0:0|0:0,0:0:0:0:
260,57,235192,5,8,0:0:0:0:
258,47,235280,1,8,0:0:0:0:
256,37,235368,1,0,1:0:0:0:
197,146,235545,1,8,0:0:0:0:
370,80,235722,1,0,1:0:0:0:
370,80,235898,1,0,1:0:0:0:
346,249,236075,5,10,0:0:0:0:
256,37,236251,1,0,1:0:0:0:
0,79,236604,5,0,1:0:0:0:
6,71,236692,1,0,1:0:0:0:
12,64,236780,2,0,B|56:72|56:72|79:94|79:94|126:103,1,119.999996337891,6|2,1:2|0:0,0:0:0:0:
266,224,237310,5,2,0:0:0:0:
256,308,237486,2,0,P|203:291|183:226,1,119.999996337891,8|2,0:0|0:0,0:0:0:0:
374,123,238016,5,8,0:0:0:0:
445,184,238192,2,0,L|461:95,1,89.9999972534181,2|0,1:2|0:0,0:0:0:0:
468,87,238545,2,0,L|479:27,1,59.9999981689454,2|0,1:2|0:0,0:0:0:0:
256,144,238898,5,10,0:0:0:0:
219,67,239075,2,0,P|189:36|105:35,1,119.999996337891,0|8,1:0|0:0,0:0:0:0:
8,162,239604,5,2,1:2:0:0:
8,162,239780,1,0,1:0:0:0:
219,67,239957,5,12,0:0:0:0:
177,266,240134,1,0,1:0:0:0:
252,184,240310,1,0,1:0:0:0:
451,311,240486,5,12,0:0:0:0:
409,112,240663,1,0,1:0:0:0:
376,214,240839,1,0,1:0:0:0:
134,88,241016,5,12,0:0:0:0:
356,35,241192,1,8,0:0:0:0:
365,32,241280,1,8,0:0:0:0:
375,30,241369,1,8,0:0:0:0:
259,12,241545,1,8,0:0:0:0:
376,214,241722,5,0,1:0:0:0:
378,223,241810,1,0,1:0:0:0:
380,232,241898,1,0,1:0:0:0:
419,130,242075,1,12,0:0:0:0:
346,327,242252,1,0,0:0:0:0:
129,196,242427,6,0,P|69:192|28:234,1,120,4|0,1:2|0:3,0:3:0:0:
4,302,242780,2,0,P|0:328|8:302,1,80,10|0,0:0|0:0,0:0:0:0:
186,266,243133,5,2,1:2:0:0:
101,283,243310,1,0,1:0:0:0:
275,154,243486,1,10,0:0:0:0:
275,154,243663,2,0,L|195:139,1,80,2|0,0:0|1:0,0:0:0:0:
129,196,244016,1,0,1:0:0:0:
293,68,244192,6,0,P|336:83|354:118,1,80,10|0,0:0|1:0,0:0:0:0:
333,275,244545,2,0,P|328:233|351:197,1,80,2|0,0:0|1:0,0:0:0:0:
491,133,244898,2,0,P|456:162|418:159,1,80,10|0,0:0|0:0,0:0:0:0:
210,65,245251,6,0,P|153:43|101:69,1,120,6|0,1:2|0:0,0:0:0:0:
28,68,245604,2,0,P|-1:104|1:139,1,80,8|0,0:0|1:0,0:0:0:0:
7,154,245869,1,0,1:0:0:0:
12,162,245957,1,0,1:0:0:0:
157,128,246133,1,0,1:0:0:0:
113,274,246310,1,8,0:0:0:0:
95,187,246486,1,0,0:0:0:0:
327,309,246663,6,0,B|344:268|320:234|320:234|336:204|336:204|313:168|330:131,1,179.999994506836,0|0,1:0|0:0,0:0:0:0:
361,71,247016,6,0,B|372:55|390:45|390:45|356:50|359:69,1,80,10|0,0:0|1:0,0:0:0:0:
237,144,247369,1,2,0:0:0:0:
414,241,247545,1,0,1:0:0:0:
424,239,247633,1,2,1:2:0:0:
434,237,247722,2,0,L|474:229,2,40,8|8|10,0:0|0:0|0:0,0:0:0:0:
149,128,248075,6,0,L|57:111,1,89.9999972534181,14|0,0:0|0:0,0:0:0:0:
220,232,248427,1,10,0:0:0:0:
165,39,248604,1,2,1:2:0:0:
5,304,248780,1,8,0:0:0:0:
60,111,248957,1,2,1:2:0:0:
210,343,249133,1,10,0:0:0:0:
357,182,249310,5,0,1:0:0:0:
365,175,249398,1,0,1:0:0:0:
373,169,249486,2,0,L|465:152,1,89.9999972534181,14|0,0:0|0:0,0:0:0:0:
134,217,249839,1,10,0:0:0:0:
327,272,250016,1,0,1:0:0:0:
337,275,250104,1,0,1:0:0:0:
347,280,250192,1,10,0:0:0:0:
103,28,250369,5,0,1:0:0:0:
94,21,250457,1,2,1:2:0:0:
85,15,250545,1,8,0:0:0:0:
73,37,250633,1,0,1:0:0:0:
69,61,250721,1,2,1:2:0:0:
72,85,250809,1,0,1:0:0:0:
80,103,250898,5,14,0:0:0:0:
130,137,250986,1,0,1:0:0:0:
191,139,251074,1,0,1:0:0:0:
244,110,251163,1,0,1:0:0:0:
290,70,251251,1,10,0:0:0:0:
340,36,251339,1,0,1:0:0:0:
401,34,251427,1,2,1:2:0:0:
454,63,251516,1,0,1:0:0:0:
481,119,251604,5,8,0:0:0:0:
483,179,251692,1,0,1:0:0:0:
450,229,251780,1,2,1:2:0:0:
394,255,251868,1,0,1:0:0:0:
334,249,251957,1,14,0:0:0:0:
276,230,252045,1,0,1:0:0:0:
217,218,252133,1,0,1:0:0:0:
160,240,252221,1,0,1:0:0:0:
118,290,252310,5,14,0:0:0:0:
164,329,252398,1,0,1:0:0:0:
223,347,252486,1,0,1:0:0:0:
283,340,252574,1,0,1:0:0:0:
336,309,252663,1,10,0:0:0:0:
372,259,252751,1,0,1:0:0:0:
385,199,252839,5,2,1:2:0:0:
386,188,252927,1,8,0:0:0:0:
387,178,253016,2,0,P|384:149|364:125,1,50,10|0,0:0|1:0,0:0:0:0:
464,8,253192,2,0,P|453:30|454:57,1,50,8|0,0:0|1:0,0:0:0:0:
506,171,253369,5,10,0:0:0:0:
502,191,253457,1,8,0:0:0:0:
498,211,253545,1,10,0:0:0:0:
494,232,253633,1,8,0:0:0:0:
490,250,253722,5,4,1:2:0:0:
425,287,253810,1,0,1:0:0:0:
351,294,253898,1,14,0:0:0:0:
281,268,253986,1,0,1:0:0:0:
227,215,254074,1,0,1:0:0:0:
209,144,254163,1,0,1:0:0:0:
228,70,254251,5,6,1:2:0:0:
284,123,254339,1,0,1:0:0:0:
300,195,254427,1,0,1:0:0:0:
281,268,254515,1,0,1:0:0:0:
233,324,254604,2,0,P|217:339|188:347,1,50,2|0,1:2|1:0,0:0:0:0:
0,227,254780,5,10,0:0:0:0:
32,153,254868,1,8,0:0:0:0:
112,161,254956,1,10,0:0:0:0:
131,238,255044,1,8,0:0:0:0:
61,277,255133,1,6,1:2:0:0:
343,227,256545,6,0,L|350:187,1,40,2|0,0:0|0:0,0:0:0:0:
443,64,256898,5,0,0:0:0:0:
443,64,257075,2,0,B|461:41|488:40|488:40|457:33|425:45|412:65|421:87|398:108|367:108,1,200,2|0,0:0|0:0,0:0:0:0:
37,37,258310,6,0,P|56:42|70:57,1,40,2|0,0:0|0:0,0:0:0:0:
166,92,258663,2,0,P|146:97|130:113,1,40
34,142,259016,2,0,P|53:147|67:162,1,40,2|0,0:0|0:0,0:0:0:0:
62,350,259369,6,0,B|24:347|7:375|7:375|24:323|69:306|104:299|153:319,1,240,2|2,0:0|0:0,0:0:0:0:
307,378,260604,5,0,0:0:0:0:
307,378,260780,2,0,P|271:358|261:319,1,80,2|0,0:0|0:0,0:0:0:0:
453,137,261486,5,2,0:0:0:0:
450,156,261839,1,2,0:0:0:0:
436,239,262192,6,0,L|429:279,1,40,2|0,0:0|0:0,0:0:0:0:
362,329,262545,2,0,L|355:369,1,40
323,217,262898,2,0,L|316:257,1,40,2|0,0:0|0:0,0:0:0:0:
247,307,263251,2,0,L|240:347,1,40
77,190,263604,6,0,P|70:171|72:152,1,40,2|0,0:0|0:0,0:0:0:0:
47,269,263957,2,0,P|34:284|15:292,1,40
129,256,264310,2,0,P|148:259|165:273,1,40,2|0,0:0|0:0,0:0:0:0:
77,190,264663,2,0,P|70:171|72:152,1,40
262,218,265016,6,0,L|302:211,1,40,2|0,0:0|0:0,0:0:0:0:
444,91,265369,5,0,0:0:0:0:
444,91,265545,2,0,B|386:107|377:160|377:160|344:118|291:123,1,200,2|0,0:0|0:0,0:0:0:0:
55,31,266780,6,0,L|62:71,1,40,2|0,0:0|0:0,0:0:0:0:
82,97,267045,1,0,0:0:0:0:
85,105,267133,2,0,L|92:145,1,40,6|0,0:0|0:0,0:0:0:0:
111,248,267486,6,0,L|114:262,1,15,2|0,0:0|0:0,0:0:0:0:
120,279,267839,6,0,B|156:270|173:301|173:301|192:330|225:322,1,119.999996337891,6|2,1:2|0:0,0:0:0:0:
378,289,268369,1,2,0:0:0:0:
309,379,268545,2,0,P|305:345|293:258,1,119.999996337891,8|0,0:0|0:0,0:0:0:0:
410,100,269075,5,2,0:0:0:0:
410,100,269251,2,0,B|414:78|414:78|437:71|437:71|433:93|433:93|410:99,1,89.9999972534181,2|0,1:2|0:0,0:0:0:0:
334,130,269604,2,0,B|313:137|313:137|295:120|295:120|316:113|316:113|333:129,1,89.9999972534181,2|0,1:2|0:0,0:0:0:0:
398,179,269957,2,0,B|414:193|414:193|409:216|409:216|391:202|391:202|397:179,1,89.9999972534181,10|0,0:0|0:0,0:0:0:0:
344,31,270310,5,2,0:0:0:0:
344,31,270663,6,0,B|263:16|263:16|283:20|296:35,1,119.999996337891,6|0,1:2|0:0,0:0:0:0:
202,183,271192,5,0,0:0:0:0:
99,119,271369,2,0,B|180:104|180:104|160:108|147:123,1,119.999996337891,12|0,0:0|0:0,0:0:0:0:
276,289,271898,5,0,0:0:0:0:
341,237,272075,2,0,P|366:226|428:228,1,89.9999972534181,4|0,1:2|0:0,0:0:0:0:
441,234,272427,1,2,1:2:0:0:
372,109,272604,1,0,1:0:0:0:
370,100,272692,1,0,1:0:0:0:
368,92,272780,1,10,0:0:0:0:
168,157,272957,6,0,B|131:165|114:134|114:134|95:105|62:113,1,119.999996337891,4|0,1:2|0:0,0:0:0:0:
9,340,273486,6,0,P|14:298|35:278,1,69.9999978637696,6|0,1:2|1:0,0:0:0:0:
48,273,273751,1,8,0:0:0:0:
57,271,273839,1,8,0:0:0:0:
252,139,274016,6,0,P|244:98|217:78,1,69.9999978637696,4|0,1:2|1:0,0:0:0:0:
206,76,274281,1,8,0:0:0:0:
197,75,274369,1,8,0:0:0:0:
134,239,274545,5,4,1:2:0:0:
168,157,274722,1,0,1:0:0:0:
348,291,274898,5,12,0:0:0:0:
351,301,274987,2,0,L|360:341,1,34.9999989318848,0|0,1:0|0:0,0:0:0:0:
426,240,275163,1,8,0:0:0:0:
429,250,275252,2,0,L|438:290,1,34.9999989318848,2|0,1:2|0:0,0:0:0:0:
168,157,275427,5,12,0:0:0:0:
165,167,275516,2,0,L|156:207,1,34.9999989318848,0|2,1:0|0:0,0:0:0:0:
90,106,275692,1,8,0:0:0:0:
87,116,275781,2,0,L|78:156,1,34.9999989318848,0|0,1:0|0:0,0:0:0:0:
321,32,275957,5,10,0:0:0:0:
328,63,276045,1,8,0:0:0:0:
335,97,276133,1,8,0:0:0:0:
344,129,276222,1,8,0:0:0:0:
406,182,276310,5,10,0:0:0:0:
416,181,276369,1,8,3:0:0:0:
425,176,276427,2,0,P|442:158|443:135,3,26.6666666666667,4|2|2|2,3:0|3:0|3:0|3:0,0:0:0:0:
297,205,276663,6,0,P|273:197|259:181,1,40,2|0,1:2|1:0,0:0:0:0:
486,246,276839,2,0,P|509:253|519:267,5,26.6666666666667,10|8|4|2|2|2,0:0|3:0|3:0|3:0|3:0|3:0,0:0:0:0:
271,295,277192,6,0,P|253:312|248:332,1,40,2|0,1:2|1:0,0:0:0:0:
425,176,277369,2,0,P|442:158|448:138,3,40,8|8|8|8,0:0|0:0|0:0|0:0,0:0:0:0:
394,340,277722,6,0,L|403:379,1,40,6|0,1:2|0:0,0:0:0:0:
123,121,277898,5,8,0:0:0:0:
77,100,277987,1,8,0:0:0:0:
35,121,278075,1,10,0:0:0:0:
26,169,278163,1,8,0:0:0:0:
56,206,278251,1,8,0:0:0:0:
105,202,278340,1,8,0:0:0:0:
139,168,278428,5,8,3:0:0:0:
113,163,278516,1,8,3:0:0:0:
88,159,278604,1,4,3:0:0:0:
64,154,278692,1,4,3:0:0:0:
39,150,278781,6,0,L|-6:142,1,40,2|0,1:2|1:0,0:0:0:0:
138,263,278957,2,0,L|182:254,1,40,0|0,1:0|1:0,0:0:0:0:
400,116,279133,6,0,P|451:98|509:124,1,110.000003356934,6|8,1:2|0:0,0:0:0:0:
328,372,279486,2,0,P|301:354|293:326,1,55.0000016784668,2|0,1:2|1:0,0:0:0:0:
202,160,279663,2,0,P|254:182|273:241,1,110.000003356934,10|0,0:0|1:0,0:0:0:0:
13,372,280016,5,10,0:0:0:0:
10,360,280104,2,0,L|-1:305,1,55.0000016784668,0|0,1:0|0:0,0:0:0:0:
72,183,280280,1,0,1:0:0:0:
75,195,280368,2,0,L|86:250,1,55.0000016784668,10|0,0:0|0:0,0:0:0:0:
328,372,280545,5,2,1:2:0:0:
180,248,280721,1,8,0:0:0:0:
410,192,280898,1,2,1:2:0:0:
423,189,280986,1,0,1:0:0:0:
435,187,281074,1,8,0:0:0:0:
194,0,281251,5,2,1:2:0:0:
189,10,281339,1,0,1:0:0:0:
187,21,281427,2,0,P|187:52|205:76,1,55.0000016784668,8|0,0:0|1:0,0:0:0:0:
327,117,281604,1,2,1:2:0:0:
337,114,281692,1,0,1:0:0:0:
346,109,281780,2,0,P|371:86|378:58,1,55.0000016784668,8|0,0:0|1:0,0:0:0:0:
82,248,281957,5,6,1:2:0:0:
115,203,282045,1,0,1:0:0:0:
162,177,282133,1,10,0:0:0:0:
218,169,282221,1,0,1:0:0:0:
270,185,282309,1,0,1:0:0:0:
313,221,282398,1,0,1:0:0:0:
344,265,282486,1,10,0:0:0:0:
351,320,282574,1,0,1:0:0:0:
330,370,282663,5,2,1:2:0:0:
281,345,282751,1,0,1:2:0:0:
244,305,282839,1,8,0:0:0:0:
228,252,282927,1,0,1:0:0:0:
228,197,283016,2,0,P|242:170|267:158,1,55.0000016784668,2|0,1:2|1:0,0:0:0:0:
161,317,283192,2,0,P|147:344|123:357,1,55.0000016784668,10|0,0:0|1:0,0:0:0:0:
8,136,283369,5,0,1:0:0:0:
53,115,283457,1,0,1:0:0:0:
103,116,283545,1,10,0:0:0:0:
147,140,283633,1,0,1:0:0:0:
184,173,283722,1,0,1:0:0:0:
228,197,283810,1,0,1:0:0:0:
278,199,283898,1,10,0:0:0:0:
324,179,283986,1,0,1:0:0:0:
344,133,284075,5,2,1:2:0:0:
285,145,284163,1,0,1:0:0:0:
241,185,284251,1,8,0:0:0:0:
234,243,284339,1,0,1:0:0:0:
273,307,284428,5,2,1:2:0:0:
306,243,284516,1,0,1:0:0:0:
286,174,284604,1,8,0:0:0:0:
225,134,284692,1,0,1:0:0:0:
149,136,284780,6,0,P|102:164|91:223,1,110.000003356934,6|8,1:2|0:0,0:0:0:0:
50,25,285133,1,2,1:2:0:0:
47,12,285221,1,0,1:0:0:0:
45,0,285309,1,8,0:0:0:0:
239,125,285486,1,2,1:2:0:0:
8,274,285663,5,8,0:0:0:0:
1,265,285751,2,0,P|-7:235|6:205,1,55.0000016784668,0|2,1:0|0:0,0:0:0:0:
146,74,285927,1,0,1:0:0:0:
149,83,286015,2,0,P|155:113|143:141,1,55.0000016784668,8|0,0:0|0:0,0:0:0:0:
111,384,286192,6,0,L|90:271,1,110.000003356934,2|8,1:2|0:0,0:0:0:0:
59,113,286545,1,2,1:2:0:0:
56,100,286633,1,0,1:0:0:0:
54,88,286721,1,8,0:0:0:0:
242,274,286898,5,2,1:2:0:0:
299,290,286986,1,0,1:0:0:0:
356,266,287074,1,8,0:0:0:0:
384,211,287162,1,0,1:0:0:0:
365,154,287251,5,2,1:2:0:0:
321,181,287339,1,0,1:0:0:0:
309,230,287427,1,8,0:0:0:0:
326,278,287515,1,0,1:0:0:0:
367,309,287604,6,0,L|480:330,1,110.000003356934,6|8,1:2|0:0,0:0:0:0:
147,189,287957,2,0,L|136:244,1,55.0000016784668,2|0,1:2|1:0,0:0:0:0:
32,319,288133,2,0,L|43:264,1,55.0000016784668,10|0,0:0|0:0,0:0:0:0:
137,20,288310,5,0,1:0:0:0:
199,24,288398,1,0,1:0:0:0:
251,57,288486,1,10,0:0:0:0:
283,109,288574,1,0,1:0:0:0:
300,168,288663,1,0,1:0:0:0:
333,220,288751,1,0,1:0:0:0:
385,246,288839,2,0,P|418:253|440:242,1,55.0000016784668,10|0,0:0|1:0,0:0:0:0:
511,71,289016,5,10,0:0:0:0:
452,24,289104,1,0,1:0:0:0:
378,15,289192,1,0,1:0:0:0:
311,48,289280,1,10,0:0:0:0:
272,111,289368,1,0,1:0:0:0:
206,153,289457,1,0,1:0:0:0:
130,136,289545,6,0,P|101:107|102:77,1,55.0000016784668,10|0,0:0|1:0,0:0:0:0:
362,54,289722,2,0,P|322:43|296:59,1,55.0000016784668,10|0,0:0|1:0,0:0:0:0:
170,271,289898,2,0,P|150:235|159:206,1,55.0000016784668,10|0,0:0|1:0,0:0:0:0:
474,55,290075,5,10,0:0:0:0:
459,129,290163,1,8,0:0:0:0:
445,203,290251,1,8,0:0:0:0:
430,276,290339,1,8,0:0:0:0:
417,351,290427,6,0,L|396:238,1,110.000003356934,6|8,1:2|0:0,0:0:0:0:
287,69,290780,2,0,L|276:125,1,55.0000016784668,2|0,1:2|1:0,0:0:0:0:
151,238,290957,2,0,L|264:217,1,110.000003356934,10|0,0:0|1:0,0:0:0:0:
385,52,291310,5,10,0:0:0:0:
387,61,291398,2,0,P|385:94|371:115,1,55.0000016784668,0|0,1:0|0:0,0:0:0:0:
194,71,291575,1,0,1:0:0:0:
191,60,291663,2,0,P|194:27|209:6,1,55.0000016784668,10|0,0:0|0:0,0:0:0:0:
259,217,291839,6,0,L|280:330,1,110.000003356934,2|8,1:2|0:0,0:0:0:0:
34,265,292192,1,2,1:2:0:0:
21,262,292280,1,0,1:0:0:0:
9,260,292368,1,8,0:0:0:0:
191,60,292545,5,2,1:2:0:0:
186,69,292633,1,0,1:0:0:0:
184,79,292721,2,0,P|189:110|207:133,1,55.0000016784668,8|0,0:0|1:0,0:0:0:0:
377,96,292898,1,2,1:2:0:0:
380,85,292986,1,0,1:0:0:0:
380,74,293074,2,0,P|374:42|352:20,1,55.0000016784668,8|0,0:0|1:0,0:0:0:0:
0,77,293251,5,6,1:2:0:0:
56,29,293339,1,0,1:0:0:0:
129,33,293427,1,8,0:0:0:0:
184,79,293515,1,0,1:0:0:0:
214,148,293604,1,0,1:0:0:0:
270,196,293692,1,0,1:0:0:0:
343,192,293780,1,8,0:0:0:0:
398,146,293868,1,0,1:0:0:0:
407,71,293957,5,6,1:2:0:0:
338,43,294045,1,0,1:0:0:0:
266,57,294133,1,8,0:0:0:0:
207,99,294221,1,0,1:0:0:0:
181,168,294310,1,0,1:0:0:0:
186,241,294398,1,0,1:0:0:0:
237,294,294486,1,10,0:0:0:0:
309,310,294574,1,0,1:0:0:0:
373,270,294663,5,6,1:2:0:0:
326,233,294751,1,0,1:0:0:0:
268,229,294839,1,8,0:0:0:0:
219,259,294927,1,0,1:0:0:0:
177,298,295016,1,2,1:2:0:0:
130,335,295104,1,0,1:0:0:0:
72,339,295192,1,8,0:0:0:0:
23,309,295280,1,0,1:0:0:0:
0,256,295369,6,0,P|-5:226|7:199,1,55.0000016784668,6|0,1:2|1:0,0:0:0:0:
116,67,295545,2,0,P|130:93|127:120,1,55.0000016784668,8|0,0:0|1:0,0:0:0:0:
205,317,295722,5,10,0:0:0:0:
279,332,295810,1,8,0:0:0:0:
353,346,295898,1,8,0:0:0:0:
426,361,295986,1,8,0:0:0:0:
499,376,296075,5,14,0:0:0:0:
512,316,296163,1,0,1:0:0:0:
482,261,296251,1,0,1:0:0:0:
433,227,296339,1,0,1:0:0:0:
375,205,296428,1,8,0:0:0:0:
325,168,296516,1,0,1:0:0:0:
298,114,296604,1,2,1:2:0:0:
297,52,296692,1,0,1:0:0:0:
334,5,296780,5,10,0:0:0:0:
377,49,296868,1,0,1:0:0:0:
400,105,296956,1,0,1:0:0:0:
402,167,297044,1,0,1:0:0:0:
382,224,297132,1,8,0:0:0:0:
343,271,297221,1,0,1:0:0:0:
290,302,297309,1,2,1:2:0:0:
229,311,297397,1,0,1:0:0:0:
167,296,297486,5,14,0:0:0:0:
164,252,297574,1,0,1:0:0:0:
178,210,297662,1,0,1:0:0:0:
207,179,297750,1,0,1:0:0:0:
244,164,297838,5,10,0:0:0:0:
260,163,297927,1,0,1:0:0:0:
275,171,298016,2,0,P|293:193|293:228,1,55.0000016784668,0|0,1:0|1:0,0:0:0:0:
145,368,298192,5,10,0:0:0:0:
137,354,298281,1,0,1:0:0:0:
136,337,298370,2,0,P|147:310|177:292,1,55.0000016784668,0|0,1:0|1:0,0:0:0:0:
367,339,298545,5,10,0:0:0:0:
360,353,298634,1,0,1:0:0:0:
346,362,298723,2,0,P|318:365|288:348,1,55.0000016784668,0|0,1:0|1:0,0:0:0:0:
193,26,298898,6,0,L|182:82,1,55.0000016784668,6|0,1:2|1:0,0:0:0:0:
19,190,299074,1,8,0:0:0:0:
92,175,299162,1,8,0:0:0:0:
165,160,299251,1,10,0:0:0:0:
237,144,299339,1,8,0:0:0:0:
310,129,299427,2,0,L|366:118,1,55.0000016784668,4|0,1:2|1:0,0:0:0:0:
512,339,299604,6,0,L|462:329,2,36.6666677856446,10|0|0,0:0|1:0|1:0,0:0:0:0:
292,296,299780,2,0,L|341:305,2,36.6666677856446,8|0|0,0:0|1:0|1:0,0:0:0:0:
413,263,299957,5,2,1:2:0:0:
409,280,300015,1,0,1:0:0:0:
406,298,300074,1,0,1:0:0:0:
402,316,300133,1,0,1:0:0:0:
399,334,300192,1,0,1:0:0:0:
395,352,300251,1,0,1:0:0:0:
392,370,300310,1,14,0:0:0:0:
110,108,301722,6,0,L|-3:87,1,110.000003356934,6|8,1:2|0:0,0:0:0:0:
237,211,302075,2,0,L|293:200,1,55.0000016784668,2|0,1:2|1:0,0:0:0:0:
164,374,302251,2,0,P|142:325|168:267,1,110.000003356934,10|0,0:0|1:0,0:0:0:0:
378,161,302604,5,10,0:0:0:0:
383,170,302692,2,0,P|389:203|380:227,1,55.0000016784668,0|0,1:0|0:0,0:0:0:0:
468,346,302869,1,0,1:0:0:0:
462,338,302957,2,0,P|456:305|465:284,1,55.0000016784668,10|0,0:0|0:0,0:0:0:0:
508,79,303133,6,0,L|487:192,1,110.000003356934,2|8,1:2|0:0,0:0:0:0:
355,44,303486,1,2,1:2:0:0:
353,32,303574,1,0,1:0:0:0:
350,19,303663,1,10,0:0:0:0:
112,210,303839,5,0,1:0:0:0:
156,236,303927,1,0,1:0:0:0:
204,244,304015,1,10,0:0:0:0:
250,223,304103,1,0,1:0:0:0:
288,190,304191,1,0,1:0:0:0:
334,170,304279,1,0,1:0:0:0:
382,178,304369,1,10,0:0:0:0:
426,204,304457,1,0,1:0:0:0:
456,246,304545,6,0,P|462:298|426:350,1,110.000003356934,6|8,1:2|0:0,0:0:0:0:
288,190,304898,1,2,1:2:0:0:
286,178,304986,1,0,1:0:0:0:
283,165,305074,1,10,0:0:0:0:
473,87,305251,1,0,1:0:0:0:
232,29,305427,6,0,L|221:85,1,55.0000016784668,10|0,0:0|1:0,0:0:0:0:
157,203,305604,2,0,L|146:147,1,55.0000016784668,2|0,0:0|1:0,0:0:0:0:
72,15,305780,2,0,P|42:64|53:117,1,110.000003356934,10|0,0:0|1:0,0:0:0:0:
283,165,306133,1,10,0:0:0:0:
173,298,306310,5,0,1:0:0:0:
176,312,306398,1,0,1:0:0:0:
179,324,306486,2,0,L|190:380,1,55.0000016784668,10|0,0:0|1:0,0:0:0:0:
333,324,306663,2,0,L|322:380,1,55.0000016784668,2|0,1:2|1:0,0:0:0:0:
146,149,306839,6,0,L|156:202,1,55.0000016784668,8|0,0:0|1:0,0:0:0:0:
366,149,307016,2,0,L|356:202,1,55.0000016784668,2|0,1:2|1:0,0:0:0:0:
256,22,307192,6,0,L|256:78,1,55.0000016784668,10|0,0:0|1:0,0:0:0:0:
50,374,307369,5,6,1:2:0:0:
67,314,307457,1,0,1:0:0:0:
119,281,307545,1,8,0:0:0:0:
180,274,307633,1,0,1:0:0:0:
240,283,307722,1,2,1:2:0:0:
303,275,307810,1,0,1:0:0:0:
353,241,307898,1,10,0:0:0:0:
383,187,307986,1,0,1:0:0:0:
376,126,308075,5,0,1:0:0:0:
311,127,308163,1,0,1:0:0:0:
256,159,308251,1,10,0:0:0:0:
223,215,308339,1,0,1:0:0:0:
222,279,308427,1,0,1:0:0:0:
252,336,308516,1,0,1:0:0:0:
306,371,308604,1,10,0:0:0:0:
370,380,308692,1,0,1:0:0:0:
429,358,308780,6,0,P|428:312|417:298,1,55.0000016784668,2|0,1:2|1:0,0:0:0:0:
394,145,308957,2,0,P|354:168|348:185,1,55.0000016784668,12|0,0:0|1:0,0:0:0:0:
218,269,309133,1,2,1:2:0:0:
222,279,309222,2,0,P|262:301|279:298,1,55.0000016784668,12|0,0:0|1:0,0:0:0:0:
138,50,309398,5,0,1:0:0:0:
141,39,309486,2,0,P|155:23|192:16,1,55.0000016784668,10|8,0:0|0:0,0:0:0:0:
24,151,309663,2,0,P|8:137|0:102,1,55.0000016784668,8|8,0:0|0:0,0:0:0:0:
251,151,309839,2,0,P|267:165|274:204,1,55.0000016784668,10|0,0:0|1:0,0:0:0:0:
127,270,310016,2,0,P|113:286|72:290,1,55.0000016784668,2|0,1:2|1:0,0:0:0:0:
401,32,310192,5,14,0:0:0:0:
456,81,310280,1,0,1:0:0:0:
468,156,310369,1,0,1:0:0:0:
430,220,310457,1,0,1:0:0:0:
358,244,310545,1,8,0:0:0:0:
289,217,310633,1,0,1:0:0:0:
251,151,310722,1,2,1:2:0:0:
193,101,310810,1,0,1:0:0:0:
118,107,310898,5,10,0:0:0:0:
62,155,310986,1,0,1:0:0:0:
48,229,311075,1,0,1:0:0:0:
85,294,311163,1,0,1:0:0:0:
157,319,311251,1,8,0:0:0:0:
226,293,311339,1,0,1:0:0:0:
265,228,311428,1,2,1:2:0:0:
251,151,311516,1,0,1:0:0:0:
193,101,311604,5,10,0:0:0:0:
168,171,311692,1,0,1:0:0:0:
182,244,311780,1,0,1:0:0:0:
230,301,311868,1,0,1:0:0:0:
300,326,311956,1,8,0:0:0:0:
373,313,312045,1,0,1:0:0:0:
434,269,312133,1,2,1:2:0:0:
457,199,312222,1,0,1:0:0:0:
458,123,312310,6,0,P|449:97|419:78,1,55.0000016784668,10|0,0:0|1:0,0:0:0:0:
321,240,312486,2,0,P|330:214|356:198,1,55.0000016784668,0|0,1:0|1:0,0:0:0:0:
238,71,312663,2,0,P|229:45|201:27,1,55.0000016784668,14|0,0:0|1:0,0:0:0:0:
98,208,312839,2,0,P|107:182|132:164,1,55.0000016784668,2|0,1:2|1:0,0:0:0:0:
427,31,313016,5,14,0:0:0:0:
454,73,313104,1,0,1:0:0:0:
458,123,313192,1,0,1:0:0:0:
441,170,313280,1,0,1:0:0:0:
411,210,313369,1,8,0:0:0:0:
394,256,313457,1,0,1:0:0:0:
387,304,313545,2,0,P|387:329|401:352,1,50,2|0,1:2|1:0,0:0:0:0:
512,239,313722,5,10,0:0:0:0:
483,195,313810,1,0,1:0:0:0:
441,170,313898,1,0,1:0:0:0:
391,165,313986,1,0,1:0:0:0:
343,174,314075,1,8,0:0:0:0:
293,170,314163,1,0,1:0:0:0:
249,146,314251,2,0,P|225:124|219:99,1,50,2|0,1:2|1:0,0:0:0:0:
319,21,314428,5,10,0:0:0:0:
370,14,314517,1,0,1:0:0:0:
416,36,314605,1,0,1:0:0:0:
448,75,314693,1,0,1:0:0:0:
458,123,314781,1,8,0:0:0:0:
441,170,314869,1,0,1:0:0:0:
407,208,314957,2,0,P|384:221|358:219,1,50,2|0,1:2|1:0,0:0:0:0:
249,146,315133,6,0,L|199:137,1,50,10|0,0:0|1:0,0:0:0:0:
80,232,315310,1,0,1:0:0:0:
90,230,315398,2,0,L|140:221,1,50,2|8,1:2|0:0,0:0:0:0:
282,64,315575,1,0,1:0:0:0:
292,67,315663,2,0,P|315:79|329:105,1,50,2|0,1:2|1:0,0:0:0:0:
503,272,315839,5,14,0:0:0:0:
440,283,315927,1,0,1:0:0:0:
380,272,316015,1,0,1:0:0:0:
328,237,316103,1,0,1:0:0:0:
292,187,316191,1,8,0:0:0:0:
278,126,316280,1,0,1:0:0:0:
292,67,316369,2,0,P|303:45|331:29,1,50,2|0,1:2|1:0,0:0:0:0:
489,106,316545,5,10,0:0:0:0:
467,162,316633,1,0,1:0:0:0:
415,192,316721,1,0,1:0:0:0:
353,198,316809,1,0,1:0:0:0:
292,187,316898,1,8,0:0:0:0:
228,195,316986,1,0,1:0:0:0:
173,219,317075,2,0,P|150:235|141:266,1,50,2|0,1:2|1:0,0:0:0:0:
41,352,317251,5,10,0:0:0:0:
100,374,317339,1,0,1:0:0:0:
161,373,317427,1,0,1:0:0:0:
217,348,317515,1,0,1:0:0:0:
262,304,317603,1,8,0:0:0:0:
286,247,317692,1,0,1:0:0:0:
292,187,317780,6,0,P|287:158|264:138,1,50,2|0,1:2|1:0,0:0:0:0:
85,42,317957,2,0,P|71:66|75:95,1,50,10|0,0:0|1:0,0:0:0:0:
152,281,318133,2,0,P|177:267|189:238,1,50,0|0,1:0|1:0,0:0:0:0:
240,47,318310,2,0,P|211:41|184:56,1,50,10|0,0:0|1:0,0:0:0:0:
31,190,318486,2,0,P|50:210|80:213,1,50,2|0,1:2|1:0,0:0:0:0:
434,42,318663,6,0,L|422:99,1,50,14|0,0:0|1:0,0:0:0:0:
295,321,318839,1,0,1:0:0:0:
373,306,318927,1,8,0:0:0:0:
452,291,319016,2,0,L|509:279,1,50,0|0,1:0|1:0,0:0:0:0:
354,2,319192,2,0,L|342:59,1,50,14|0,0:0|1:0,0:0:0:0:
78,342,319369,6,0,L|89:284,1,50,14|0,0:0|1:0,0:0:0:0:
217,63,319545,1,0,1:0:0:0:
139,78,319633,1,8,0:0:0:0:
60,93,319722,2,0,L|2:104,1,50,0|0,1:0|1:0,0:0:0:0:
158,382,319898,2,0,L|169:324,1,50,14|0,0:0|1:0,0:0:0:0:
434,42,320075,6,0,L|422:99,1,50,14|0,0:0|1:0,0:0:0:0:
295,321,320251,1,0,1:0:0:0:
373,306,320339,1,8,0:0:0:0:
452,291,320428,2,0,L|510:280,1,50,0|0,1:0|1:0,0:0:0:0:
113,206,320604,6,0,B|85:215|63:192|63:192|89:205|111:200,1,100,10|0,0:0|1:0,0:0:0:0:
313,59,320780,2,0,B|319:30|351:22|351:22|327:38|320:59,1,100,10|8,0:0|0:0,0:0:0:0:
340,306,320957,2,0,B|363:326|354:356|354:356|351:328|337:312,1,100,2|0,1:2|0:0,0:0:0:0:
224,188,321133,6,0,P|286:191|224:191,1,179.999994506836,6|0,1:2|0:0,0:0:0:0:
