osu file format v14

[General]
AudioFilename: audio.mp3
AudioLeadIn: 0
PreviewTime: -1
Countdown: 0
SampleSet: Normal
StackLeniency: 0.7
Mode: 0
LetterboxInBreaks: 0
WidescreenStoryboard: 0
SamplesMatchPlaybackRate: 1

[Editor]
Bookmarks: 254374
DistanceSpacing: 0.6
BeatDivisor: 4
GridSize: 4
TimelineZoom: 2.799999

[Metadata]
Title:Akatsuki
TitleUnicode:Akatsuki
Artist:BABYMETAL
ArtistUnicode:BABYMETAL
Creator:Freaking Azazel
Version:Marathon
Source:BABYMETAL
Tags:Babymetal akatsuki stream deathstream jrock metalcore metal
BeatmapID:915838
BeatmapSetID:423871

[Difficulty]
HPDrainRate:6.6
CircleSize:4
OverallDifficulty:8.5
ApproachRate:9
SliderMultiplier:2
SliderTickRate:1

[Events]
//Background and Video events
0,0,"Blood_Moon_2015-HD-Pictures.jpg",0,0
//Break Periods
//Storyboard Layer 0 (Background)
//Storyboard Layer 1 (Fail)
//Storyboard Layer 2 (Pass)
//Storyboard Layer 3 (Foreground)
//Storyboard Sound Samples

[TimingPoints]
1585,352.941176470588,4,1,1,100,1,0
35473.8981744874,352.922907488987,4,1,1,100,1,0
47385,-100,4,1,1,100,0,0

[HitObjects]
200,260,1585,6,0,B|332:288|332:288|300:244,1,190
312,68,2114,2,0,B|176:112|176:112|236:132,1,190
392,208,2643,5,0,0:0:0:0:
112,212,2820,1,0,0:0:0:0:
248,320,2996,2,0,B|208:216|288:236|232:100,1,190
168,56,3526,5,0,0:0:0:0:
72,128,3702,1,0,0:0:0:0:
220,196,3879,2,0,B|256:156|256:156|328:144,1,95
424,252,4232,5,0,0:0:0:0:
204,216,4408,2,0,B|156:160|156:160|204:116,1,95
268,76,4761,1,0,0:0:0:0:
384,112,4937,6,0,B|416:144|416:144|416:196,1,95
352,200,5290,2,0,B|352:152|352:152|304:112,1,95
156,288,5643,2,0,B|116:236|116:236|128:200,1,95
368,288,5996,2,0,B|404:224|404:224|380:196,1,95
256,88,6349,1,0,0:0:0:0:
256,332,6526,2,0,B|248:288|248:288|260:252|260:252|256:208,1,95
248,136,6879,6,0,B|280:176|280:176|352:176,1,95
356,104,7232,2,0,B|288:28|288:28|168:32,1,190
156,136,7761,2,0,B|208:140|208:140|240:188,1,95
372,324,8114,2,0,B|376:200|376:200|328:136,1,190
168,136,8643,6,0,B|208:176|208:176|208:232,1,95
200,336,8996,1,0,0:0:0:0:
368,240,9173,1,0,0:0:0:0:
260,92,9349,2,0,B|224:136|224:136|244:184,1,95
392,332,9702,5,0,0:0:0:0:
196,304,9879,1,0,0:0:0:0:
208,148,10055,2,0,B|164:100|164:100|196:56,1,95
424,76,10408,5,0,0:0:0:0:
416,280,10584,2,0,B|340:284|340:284|300:240,1,95
144,156,10937,1,0,0:0:0:0:
372,208,11114,1,0,0:0:0:0:
112,272,11290,2,0,B|168:316|168:316|216:296,1,95
424,128,11820,5,0,0:0:0:0:
80,128,12173,2,0,B|64:200|128:232,1,95
232,296,12526,1,0,0:0:0:0:
380,224,12879,6,0,P|384:168|344:136,1,95
204,100,13232,1,0,0:0:0:0:
84,304,13408,2,0,P|164:324|244:256,1,190
280,116,13937,5,0,0:0:0:0:
408,300,14114,1,0,0:0:0:0:
196,212,14290,1,0,0:0:0:0:
400,188,14467,1,0,0:0:0:0:
216,316,14643,1,0,0:0:0:0:
120,196,14820,1,0,0:0:0:0:
236,72,14996,2,0,P|288:128|280:172,1,95
168,292,15349,5,0,0:0:0:0:
104,188,15526,1,0,0:0:0:0:
300,52,15702,2,0,P|344:132|332:240,1,190
188,324,16232,6,0,P|148:224|176:128,1,190
328,112,16761,1,0,0:0:0:0:
424,272,16937,1,0,0:0:0:0:
128,292,17114,6,0,P|104:216|128:204,1,95
400,76,17467,2,0,P|420:132|400:172,1,95
276,324,17820,2,0,P|204:308|192:288,1,95
204,40,18173,2,0,P|248:36|292:64,1,95
260,224,18526,5,0,0:0:0:0:
108,200,18702,2,0,P|148:168|176:132,1,95
304,72,19055,6,0,P|364:128|344:160,1,95
320,312,19408,1,0,0:0:0:0:
240,192,19584,2,0,B|184:152|212:120|216:100,1,95
416,324,19937,6,0,P|420:268|392:228,1,95
140,200,20290,1,0,0:0:0:0:
352,104,20467,2,0,P|288:148|296:188,1,95
332,296,20820,5,0,0:0:0:0:
128,248,20996,2,0,P|104:192|128:160,1,95
328,176,21349,2,0,P|348:112|324:88,1,95
360,320,21702,5,0,0:0:0:0:
364,192,21879,2,0,P|328:144|336:108,1,95
424,68,22232,2,0,P|344:48|296:52,1,95
112,56,22584,5,0,0:0:0:0:
104,264,22761,2,0,P|140:296|188:284,1,95
356,284,23114,1,0,0:0:0:0:
400,124,23290,1,0,0:0:0:0:
160,164,23467,2,0,P|196:232|240:236,1,95
384,232,23820,5,0,0:0:0:0:
124,112,23996,1,0,0:0:0:0:
232,264,24173,2,0,B|232:172|292:196|288:80,1,190
128,200,24702,6,0,B|196:272|244:208|320:312,1,190
408,308,25232,1,0,0:0:0:0:
420,184,25408,1,0,0:0:0:0:
392,64,25584,2,0,P|312:68|220:168,1,190
96,312,26290,5,0,0:0:0:0:
400,72,26643,1,0,0:0:0:0:
356,312,26996,5,0,0:0:0:0:
208,208,27173,1,0,0:0:0:0:
296,88,27349,1,0,0:0:0:0:
420,180,27526,5,0,0:0:0:0:
248,176,27702,1,0,0:0:0:0:
248,32,27879,1,0,0:0:0:0:
424,36,28055,5,0,0:0:0:0:
304,188,28232,1,0,0:0:0:0:
156,76,28408,1,0,0:0:0:0:
120,304,28761,6,0,B|148:236|232:260|260:172,1,190
404,112,29467,1,0,0:0:0:0:
412,240,29820,2,0,P|320:304|268:248,1,190
144,108,30349,5,0,0:0:0:0:
344,136,30526,2,0,P|264:164|256:200,1,95
132,308,30879,1,0,0:0:0:0:
320,324,31055,1,0,0:0:0:0:
440,224,31232,1,0,0:0:0:0:
264,80,31584,6,0,P|180:96|132:204,1,190
312,260,32114,1,0,0:0:0:0:
140,328,32290,1,0,0:0:0:0:
232,192,32467,1,0,0:0:0:0:
88,108,32643,6,0,P|160:76|196:100,1,95
340,140,32996,1,0,0:0:0:0:
408,216,33173,1,0,0:0:0:0:
220,264,33349,6,0,P|284:204|272:172,1,95
104,124,33702,1,0,0:0:0:0:
240,96,33879,2,0,P|316:104|328:156,1,95
312,288,34232,5,0,0:0:0:0:
428,184,34408,1,0,0:0:0:0:
228,112,34584,1,0,0:0:0:0:
156,288,34761,6,0,P|188:232|236:220,1,95
400,184,35114,1,0,0:0:0:0:
256,96,35290,1,0,0:0:0:0:
272,248,35467,1,0,0:0:0:0:
424,152,35650,5,0,0:0:0:0:
428,180,35738,1,0,0:0:0:0:
432,208,35826,1,0,0:0:0:0:
320,240,36003,2,0,B|324:176|324:176|296:144,1,100
136,232,36356,5,0,0:0:0:0:
160,248,36444,1,0,0:0:0:0:
184,260,36532,1,0,0:0:0:0:
348,136,36709,2,0,B|388:184|388:184|344:184,1,100
136,184,37062,5,0,0:0:0:0:
164,184,37150,1,0,0:0:0:0:
192,184,37238,1,0,0:0:0:0:
368,292,37414,1,0,0:0:0:0:
412,112,37591,5,0,0:0:0:0:
392,132,37679,1,0,0:0:0:0:
372,152,37767,1,0,0:0:0:0:
144,300,37944,5,0,0:0:0:0:
112,148,38120,1,0,0:0:0:0:
324,224,38297,1,0,0:0:0:0:
144,296,38473,5,0,0:0:0:0:
172,304,38561,1,0,0:0:0:0:
200,312,38650,1,0,0:0:0:0:
432,304,38826,1,0,0:0:0:0:
284,160,39003,1,0,0:0:0:0:
272,300,39179,5,0,0:0:0:0:
252,280,39267,1,0,0:0:0:0:
232,260,39356,1,0,0:0:0:0:
416,160,39532,1,0,0:0:0:0:
224,116,39708,1,0,0:0:0:0:
428,96,39885,5,0,0:0:0:0:
404,112,39973,1,0,0:0:0:0:
380,128,40061,1,0,0:0:0:0:
272,296,40238,1,0,0:0:0:0:
144,228,40414,1,0,0:0:0:0:
168,212,40503,1,0,0:0:0:0:
192,196,40591,1,0,0:0:0:0:
392,96,40767,2,0,B|396:164|396:164|376:136,1,100
200,176,41120,5,0,0:0:0:0:
400,280,41297,1,0,0:0:0:0:
192,324,41473,1,0,0:0:0:0:
212,304,41561,1,0,0:0:0:0:
232,284,41650,1,0,0:0:0:0:
412,216,41826,5,0,0:0:0:0:
304,88,42002,1,0,0:0:0:0:
224,248,42179,1,0,0:0:0:0:
212,224,42267,1,0,0:0:0:0:
200,196,42355,1,0,0:0:0:0:
344,312,42532,5,0,0:0:0:0:
276,136,42708,1,0,0:0:0:0:
412,152,42885,1,0,0:0:0:0:
396,176,42973,1,0,0:0:0:0:
380,200,43061,1,0,0:0:0:0:
192,292,43238,5,0,0:0:0:0:
184,264,43326,1,0,0:0:0:0:
176,236,43414,1,0,0:0:0:0:
120,92,43591,5,0,0:0:0:0:
272,104,43767,1,0,0:0:0:0:
92,244,43944,1,0,0:0:0:0:
224,340,44120,1,0,0:0:0:0:
312,196,44296,1,0,0:0:0:0:
176,120,44473,1,0,0:0:0:0:
228,276,44649,1,0,0:0:0:0:
340,120,44826,1,0,0:0:0:0:
152,116,45002,1,0,0:0:0:0:
280,228,45179,1,0,0:0:0:0:
416,100,45355,5,0,0:0:0:0:
416,128,45443,1,0,0:0:0:0:
416,156,45532,1,0,0:0:0:0:
416,344,45708,5,0,0:0:0:0:
248,308,45885,1,0,0:0:0:0:
260,300,45973,1,0,0:0:0:0:
272,292,46061,1,0,0:0:0:0:
292,276,46149,1,0,0:0:0:0:
308,244,46238,1,0,0:0:0:0:
312,212,46326,1,0,0:0:0:0:
308,176,46414,1,0,0:0:0:0:
296,140,46502,1,0,0:0:0:0:
300,104,46590,5,0,0:0:0:0:
328,64,46679,1,0,0:0:0:0:
376,52,46767,1,0,0:0:0:0:
416,272,46943,5,0,0:0:0:0:
164,296,47120,1,0,0:0:0:0:
160,272,47208,1,0,0:0:0:0:
156,248,47296,1,0,0:0:0:0:
224,88,47473,5,0,0:0:0:0:
316,152,47649,1,0,0:0:0:0:
308,312,47826,1,0,0:0:0:0:
296,288,47914,1,0,0:0:0:0:
284,264,48002,1,0,0:0:0:0:
432,272,48179,5,0,0:0:0:0:
264,332,48355,1,0,0:0:0:0:
356,172,48532,1,0,0:0:0:0:
360,196,48620,1,0,0:0:0:0:
364,220,48708,1,0,0:0:0:0:
152,272,48884,5,0,0:0:0:0:
296,196,49061,1,0,0:0:0:0:
120,148,49237,1,0,0:0:0:0:
144,140,49326,1,0,0:0:0:0:
168,132,49414,1,0,0:0:0:0:
192,124,49502,1,0,0:0:0:0:
216,120,49590,1,0,0:0:0:0:
360,264,49767,5,0,0:0:0:0:
84,260,49943,2,0,L|36:216,2,50
304,308,50296,5,0,0:0:0:0:
144,120,50473,1,0,0:0:0:0:
352,136,50649,1,0,0:0:0:0:
344,156,50737,1,0,0:0:0:0:
336,176,50826,1,0,0:0:0:0:
140,232,51002,5,0,0:0:0:0:
284,112,51178,2,0,L|272:60,2,50
336,300,51531,1,0,0:0:0:0:
96,112,51708,5,0,0:0:0:0:
124,120,51796,1,0,0:0:0:0:
140,144,51884,1,0,0:0:0:0:
152,172,51973,1,0,0:0:0:0:
180,188,52061,1,0,0:0:0:0:
208,192,52149,1,0,0:0:0:0:
232,208,52237,1,0,0:0:0:0:
252,232,52325,1,0,0:0:0:0:
284,236,52414,1,0,0:0:0:0:
424,320,52590,1,0,0:0:0:0:
204,332,52767,5,0,0:0:0:0:
192,304,52855,1,0,0:0:0:0:
176,280,52943,1,0,0:0:0:0:
268,68,53120,5,0,0:0:0:0:
432,280,53296,1,0,0:0:0:0:
112,280,53472,2,0,L|68:320,2,50
256,168,53825,5,0,0:0:0:0:
420,76,54002,1,0,0:0:0:0:
184,80,54178,1,0,0:0:0:0:
204,104,54267,1,0,0:0:0:0:
220,128,54355,1,0,0:0:0:0:
336,256,54531,5,0,0:0:0:0:
152,256,54708,1,0,0:0:0:0:
360,320,54884,1,0,0:0:0:0:
340,296,54972,1,0,0:0:0:0:
320,272,55061,1,0,0:0:0:0:
304,248,55149,1,0,0:0:0:0:
288,224,55237,1,0,0:0:0:0:
112,160,55414,5,0,0:0:0:0:
176,296,55590,1,0,0:0:0:0:
196,272,55678,1,0,0:0:0:0:
216,248,55766,1,0,0:0:0:0:
348,116,55943,5,0,0:0:0:0:
164,160,56119,1,0,0:0:0:0:
192,152,56208,1,0,0:0:0:0:
220,144,56296,1,0,0:0:0:0:
376,248,56472,5,0,0:0:0:0:
280,84,56649,1,0,0:0:0:0:
304,104,56737,1,0,0:0:0:0:
328,124,56825,1,0,0:0:0:0:
352,144,56913,1,0,0:0:0:0:
400,188,57002,5,0,0:0:0:0:
380,208,57090,1,0,0:0:0:0:
360,228,57178,1,0,0:0:0:0:
292,188,57266,5,0,0:0:0:0:
272,208,57355,1,0,0:0:0:0:
248,228,57443,1,0,0:0:0:0:
224,248,57531,1,0,0:0:0:0:
268,308,57619,5,0,0:0:0:0:
288,288,57708,1,0,0:0:0:0:
308,268,57796,1,0,0:0:0:0:
360,216,57884,1,0,0:0:0:0:
336,200,57972,1,0,0:0:0:0:
312,184,58060,1,0,0:0:0:0:
