osu file format v14

[General]
AudioFilename: audio.mp3
AudioLeadIn: 0
PreviewTime: 100791
Countdown: 0
SampleSet: Normal
StackLeniency: 0.3
Mode: 0
LetterboxInBreaks: 0
WidescreenStoryboard: 0

[Editor]
Bookmarks: 37087,48894,51489,56678,61867,64462,67056,72245,77435,82624,93087,100872,106061,111250,116439,121628,124223,126818,128115,133389,138664,143939,147895,149213,156791,161844,167173,172419,180288,188071,198450,208837,219159,224320,226901,228191,233353,235974,246353
DistanceSpacing: 1.2
BeatDivisor: 4
GridSize: 4
TimelineZoom: 1.4

[Metadata]
Title:- Headbangeeeeerrrrr!!
TitleUnicode:ヘドバンギャー!!- Headbangeeeeerrrrr!!
Artist:BABYMETAL
ArtistUnicode:BABYMETAL
Creator:caned
Version:BANG
Source:
Tags:
BeatmapID:1131035
BeatmapSetID:533895

[Difficulty]
HPDrainRate:4.5
CircleSize:4.6
OverallDifficulty:8.7
ApproachRate:9.4
SliderMultiplier:1.8
SliderTickRate:1

[Events]
//Background and Video events
0,0,"babymetal__red_dead_resistance_by_jfivemedia-daobnjt.jpg",0,0
//Break Periods
//Storyboard Layer 0 (Background)
//Storyboard Layer 1 (Fail)
//Storyboard Layer 2 (Pass)
//Storyboard Layer 3 (Foreground)
//Storyboard Sound Samples

[TimingPoints]
31709,336.134453781513,4,1,0,75,1,0
41123,324.324324324324,4,1,0,75,1,0
46300,324.324324324324,4,1,0,75,1,0
78245,-76.9230769230769,4,1,0,75,0,0
87813,327.868852459016,4,1,0,75,1,0
95683,324.324324324324,4,1,0,75,1,0
126818,-133.333333333333,4,1,0,75,0,0
128115,329.67032967033,4,1,0,75,1,0
149213,315.789473684211,4,1,0,75,1,0
161928,327.868852459016,4,1,0,75,1,0
161928,-133.333333333333,4,1,0,75,0,0
172419,-100,4,1,0,75,0,0
180288,324.324324324324,4,1,0,75,1,0
208837,322.58064516129,4,1,0,75,1,0
228191,324.324324324324,4,1,0,75,1,0
228191,-133.333333333333,4,1,0,75,0,0
236004,324.324324324324,4,1,0,75,1,0
257085,-200,4,1,0,75,0,0
266166,-200,4,1,0,75,0,0

[HitObjects]
80,136,31709,6,0,P|124:128|176:140,1,90,4|0,0:0|0:0,0:0:0:0:
274,307,32045,2,0,P|230:315|178:303,1,90
80,136,32381,2,0,L|60:252,1,90
240,208,32717,2,0,L|260:92,1,90
188,300,33053,2,0,P|236:315|288:300,1,90,0|0,0:0|0:0,0:0:0:0:
372,220,33389,1,0,0:0:0:0:
340,116,33557,1,0,0:0:0:0:
252,52,33725,2,0,L|152:68,1,90
92,148,34061,2,0,L|192:164,1,90
346,205,34398,6,0,P|356:152|338:101,2,90,0|0|0,0:0|0:0|0:0,0:0:0:0:
276,288,34902,1,0,0:0:0:0:
188,228,35070,2,0,L|84:216,1,90
32,132,35406,2,0,L|136:120,1,90
216,68,35742,5,4,0:0:0:0:
292,40,35910,1,0,0:0:0:0:
372,60,36078,1,0,0:0:0:0:
432,112,36246,1,0,0:0:0:0:
352,272,36414,2,0,L|336:160,1,90,4|0,0:0|0:0,0:0:0:0:
216,68,36750,2,0,L|232:180,1,90
439,272,37087,6,0,P|395:280|343:268,1,90,4|0,0:0|0:0,0:0:0:0:
228,157,37423,2,0,P|272:149|324:161,1,90
439,272,37759,2,0,L|459:156,1,90
272,224,38095,2,0,L|252:340,1,90
320,116,38431,2,0,P|272:101|220:116,1,90
140,164,38767,1,0,0:0:0:0:
172,268,38935,1,0,0:0:0:0:
260,332,39103,2,0,L|360:316,1,90
420,236,39440,2,0,L|320:220,1,90
204,172,39776,6,0,B|260:172|260:172|288:128|288:128|344:104|372:152,1,180
420,236,40280,1,0,0:0:0:0:
320,320,40448,2,0,B|264:304|264:304|212:340|212:340|148:308,1,180
76,248,40952,1,0,0:0:0:0:
424,240,41120,5,4,0:0:0:0:
424,240,41204,1,0,0:0:0:0:
424,240,41285,1,0,0:0:0:0:
32,196,41609,1,0,0:0:0:0:
420,156,41771,5,4,0:0:0:0:
420,156,41855,1,0,0:0:0:0:
420,156,41936,1,0,0:0:0:0:
32,120,42258,1,0,0:0:0:0:
120,332,42420,5,0,0:0:0:0:
140,292,42501,1,0,0:0:0:0:
144,248,42582,1,0,0:0:0:0:
140,204,42663,1,0,0:0:0:0:
132,160,42744,1,0,0:0:0:0:
120,116,42825,1,0,0:0:0:0:
124,72,42906,1,0,0:0:0:0:
156,40,42987,1,0,0:0:0:0:
200,32,43068,1,0,0:0:0:0:
244,48,43150,1,0,0:0:0:0:
280,68,43231,1,0,0:0:0:0:
320,60,43312,1,0,0:0:0:0:
352,84,43393,2,0,P|352:112|356:136,1,45
452,200,43555,2,0,P|452:172|448:148,1,45
256,192,43717,12,0,44852,0:0:0:0:
208,240,45014,5,0,0:0:0:0:
208,240,45095,1,0,0:0:0:0:
208,240,45177,1,0,0:0:0:0:
252,36,45501,1,0,0:0:0:0:
328,144,45663,2,0,B|360:204|332:268|332:268|280:224,1,180
172,76,46300,5,4,0:0:0:0:
112,328,46462,1,0,0:0:0:0:
48,100,46624,1,8,0:0:0:0:
200,152,46786,2,0,L|308:136,1,90
400,120,47110,1,0,0:0:0:0:
368,344,47272,1,8,0:0:0:0:
289,138,47435,1,0,0:0:0:0:
232,292,47597,5,0,0:0:0:0:
492,216,47759,1,0,0:0:0:0:
289,138,47921,2,0,L|160:160,1,90,8|0,0:0|0:0,0:0:0:0:
200,153,48164,1,0,0:0:0:0:
200,153,48245,1,0,0:0:0:0:
104,28,48408,1,0,0:0:0:0:
176,272,48570,1,8,0:0:0:0:
228,60,48732,1,0,0:0:0:0:
96,104,48894,5,0,0:0:0:0:
336,120,49056,1,0,0:0:0:0:
172,220,49218,2,0,L|288:204,1,90,8|0,0:0|0:0,0:0:0:0:
396,196,49543,1,0,0:0:0:0:
344,352,49705,1,0,0:0:0:0:
261,207,49867,1,8,0:0:0:0:
188,352,50029,1,0,0:0:0:0:
220,128,50191,5,0,0:0:0:0:
280,360,50354,1,0,0:0:0:0:
280,72,50516,1,8,0:0:0:0:
120,328,50678,1,0,0:0:0:0:
120,328,50759,1,0,0:0:0:0:
120,328,50840,1,0,0:0:0:0:
272,80,51002,1,0,0:0:0:0:
432,248,51164,2,0,L|440:188,1,45
364,88,51327,2,0,L|356:148,1,45
340,308,51489,5,4,0:0:0:0:
408,104,51651,1,0,0:0:0:0:
464,284,51813,1,8,0:0:0:0:
312,232,51975,2,0,L|204:248,1,90
64,264,52299,1,0,0:0:0:0:
120,48,52461,1,8,0:0:0:0:
223,246,52624,1,0,0:0:0:0:
256,64,52786,5,0,0:0:0:0:
32,144,52948,1,0,0:0:0:0:
223,246,53110,2,0,L|352:224,1,90,8|0,0:0|0:0,0:0:0:0:
312,231,53353,1,0,0:0:0:0:
312,231,53434,1,0,0:0:0:0:
408,356,53597,1,0,0:0:0:0:
324,84,53759,1,8,0:0:0:0:
284,324,53921,1,0,0:0:0:0:
404,248,54083,5,0,0:0:0:0:
148,320,54245,1,0,0:0:0:0:
340,164,54407,2,0,L|224:180,1,90,8|0,0:0|0:0,0:0:0:0:
116,188,54732,1,0,0:0:0:0:
168,32,54894,1,0,0:0:0:0:
251,177,55056,1,8,0:0:0:0:
324,32,55218,1,0,0:0:0:0:
296,264,55380,5,0,0:0:0:0:
28,216,55543,1,0,0:0:0:0:
260,100,55705,1,0,0:0:0:0:
272,352,55867,1,0,0:0:0:0:
272,352,55948,1,0,0:0:0:0:
272,352,56029,1,0,0:0:0:0:
80,136,56191,1,0,0:0:0:0:
80,136,56272,1,0,0:0:0:0:
80,136,56353,2,0,L|72:196,1,45
148,296,56516,2,0,L|156:236,1,45
176,148,56678,5,4,0:0:0:0:
212,352,56840,1,0,0:0:0:0:
252,96,57002,1,8,0:0:0:0:
148,296,57164,1,0,0:0:0:0:
176,76,57327,5,0,0:0:0:0:
228,284,57489,1,0,0:0:0:0:
308,144,57651,1,8,0:0:0:0:
148,224,57813,1,0,0:0:0:0:
228,24,57975,5,0,0:0:0:0:
268,348,58137,1,0,0:0:0:0:
360,200,58299,1,8,0:0:0:0:
152,152,58462,1,0,0:0:0:0:
152,152,58543,1,0,0:0:0:0:
152,152,58624,1,0,0:0:0:0:
424,120,58786,1,0,0:0:0:0:
120,64,58948,1,8,0:0:0:0:
444,32,59110,2,0,L|380:48,1,45
312,76,59272,5,4,0:0:0:0:
360,284,59435,1,0,0:0:0:0:
424,120,59597,1,8,0:0:0:0:
212,144,59759,1,0,0:0:0:0:
480,196,59921,5,0,0:0:0:0:
264,96,60083,1,0,0:0:0:0:
424,120,60245,1,8,0:0:0:0:
220,228,60408,1,0,0:0:0:0:
328,304,60570,5,0,0:0:0:0:
288,24,60732,1,0,0:0:0:0:
220,228,60894,1,8,0:0:0:0:
484,196,61056,1,0,0:0:0:0:
208,96,61218,1,0,0:0:0:0:
216,332,61381,5,0,0:0:0:0:
192,296,61462,1,0,0:0:0:0:
192,252,61543,1,0,0:0:0:0:
216,216,61624,1,0,0:0:0:0:
256,196,61705,1,0,0:0:0:0:
300,208,61786,1,0,0:0:0:0:
336,236,61867,5,4,0:0:0:0:
300,32,62029,1,0,0:0:0:0:
260,288,62191,1,8,0:0:0:0:
364,88,62353,1,0,0:0:0:0:
336,308,62516,5,0,0:0:0:0:
284,100,62678,1,0,0:0:0:0:
204,240,62840,1,8,0:0:0:0:
364,160,63002,1,0,0:0:0:0:
284,360,63164,5,0,0:0:0:0:
244,36,63326,1,0,0:0:0:0:
152,184,63488,1,8,0:0:0:0:
360,232,63651,1,0,0:0:0:0:
360,232,63732,1,0,0:0:0:0:
360,232,63813,1,0,0:0:0:0:
88,264,63975,1,0,0:0:0:0:
392,320,64137,1,8,0:0:0:0:
68,352,64299,2,0,L|132:336,1,45
256,192,64462,12,0,65597,0:0:0:0:
304,144,65759,5,0,0:0:0:0:
304,144,65840,1,0,0:0:0:0:
304,144,65922,1,0,0:0:0:0:
260,348,66246,1,0,0:0:0:0:
184,240,66408,2,0,B|152:180|180:116|180:116|232:160,1,180
72,40,67056,5,0,0:0:0:0:
219,149,67218,2,0,L|323:141,1,90,0|8,0:0|0:0,0:0:0:0:
136,288,67543,1,0,0:0:0:0:
136,288,67624,1,0,0:0:0:0:
136,288,67705,2,0,L|28:272,1,90
368,216,68029,2,0,P|376:256|352:320,1,90,8|0,0:0|0:0,0:0:0:0:
244,360,68354,5,0,0:0:0:0:
46,274,68516,1,0,0:0:0:0:
192,304,68678,1,8,0:0:0:0:
216,128,68840,1,0,0:0:0:0:
344,300,69002,2,0,L|352:172,1,90
364,44,69327,1,8,0:0:0:0:
216,128,69489,1,0,0:0:0:0:
216,128,69570,1,0,0:0:0:0:
216,128,69651,6,0,P|168:116|120:132,1,90
32,260,69975,1,8,0:0:0:0:
136,360,70137,1,0,0:0:0:0:
200,220,70299,1,0,0:0:0:0:
280,356,70462,1,0,0:0:0:0:
112,276,70624,1,8,0:0:0:0:
308,244,70786,1,0,0:0:0:0:
128,132,70948,5,0,0:0:0:0:
168,112,71029,1,0,0:0:0:0:
212,104,71110,1,0,0:0:0:0:
256,104,71191,1,0,0:0:0:0:
300,112,71272,1,8,0:0:0:0:
344,124,71354,1,0,0:0:0:0:
388,124,71435,1,0,0:0:0:0:
424,100,71516,1,0,0:0:0:0:
452,68,71597,5,0,0:0:0:0:
420,52,71678,1,0,0:0:0:0:
388,64,71759,1,0,0:0:0:0:
384,100,71840,1,0,0:0:0:0:
396,132,71921,1,8,0:0:0:0:
416,160,72002,1,0,0:0:0:0:
436,188,72083,1,0,0:0:0:0:
440,224,72164,1,0,0:0:0:0:
432,260,72245,5,4,0:0:0:0:
293,235,72407,2,0,L|189:243,1,90,0|8,0:0|0:0,0:0:0:0:
400,76,72732,1,0,0:0:0:0:
400,76,72813,1,0,0:0:0:0:
400,76,72894,2,0,L|508:92,1,90
160,136,73218,2,0,P|152:96|176:32,1,90,8|0,0:0|0:0,0:0:0:0:
336,24,73543,5,0,0:0:0:0:
400,252,73705,1,0,0:0:0:0:
308,88,73867,1,8,0:0:0:0:
248,272,74029,1,0,0:0:0:0:
168,84,74191,2,0,L|160:212,1,90
152,344,74516,1,8,0:0:0:0:
272,192,74678,1,0,0:0:0:0:
272,192,74759,1,0,0:0:0:0:
272,192,74840,6,0,P|320:204|368:188,1,90
460,152,75164,1,8,0:0:0:0:
324,84,75326,1,0,0:0:0:0:
292,312,75488,1,0,0:0:0:0:
208,120,75651,1,0,0:0:0:0:
404,156,75813,1,8,0:0:0:0:
188,224,75975,1,0,0:0:0:0:
420,296,76137,5,0,0:0:0:0:
380,316,76218,1,0,0:0:0:0:
336,324,76299,1,0,0:0:0:0:
292,324,76380,1,0,0:0:0:0:
248,316,76461,1,8,0:0:0:0:
204,304,76543,1,0,0:0:0:0:
160,304,76624,1,0,0:0:0:0:
124,328,76705,1,0,0:0:0:0:
96,360,76786,5,0,0:0:0:0:
76,328,76867,1,0,0:0:0:0:
64,292,76948,1,0,0:0:0:0:
60,256,77029,1,0,0:0:0:0:
64,220,77110,1,8,0:0:0:0:
68,184,77191,1,0,0:0:0:0:
80,148,77272,1,0,0:0:0:0:
96,116,77353,1,0,0:0:0:0:
124,92,77435,5,4,0:0:0:0:
152,288,77597,1,0,0:0:0:0:
232,52,77759,1,8,0:0:0:0:
136,180,77921,1,0,0:0:0:0:
136,180,78002,1,0,0:0:0:0:
136,180,78083,1,0,0:0:0:0:
288,352,78245,6,2,B|256:312|256:312|276:276|352:300,1,116.999994644165
440,16,78570,2,2,B|472:56|472:56|452:92|376:68,1,116.999994644165
212,56,78894,5,0,0:0:0:0:
180,304,79056,1,8,0:0:0:0:
108,80,79218,1,0,0:0:0:0:
108,80,79299,1,0,0:0:0:0:
108,80,79381,1,0,0:0:0:0:
88,356,79543,6,2,B|56:316|56:316|76:280|152:304,1,116.999994644165
444,32,79868,2,2,B|476:72|476:72|456:108|380:84,1,116.999994644165
212,56,80191,5,0,0:0:0:0:
24,92,80354,1,8,0:0:0:0:
264,120,80516,1,0,0:0:0:0:
160,32,80678,1,0,0:0:0:0:
176,284,80840,1,0,0:0:0:0:
252,52,81002,1,8,0:0:0:0:
352,272,81164,1,0,0:0:0:0:
384,88,81327,5,0,0:0:0:0:
344,64,81408,1,0,0:0:0:0:
300,52,81489,1,0,0:0:0:0:
252,52,81570,1,0,0:0:0:0:
208,64,81651,2,0,P|176:71|140:72,1,58.4999973220826,8|0,0:0|0:0,0:0:0:0:
48,104,81813,2,0,P|61:132|85:161,1,58.4999973220826
116,184,81975,1,0,0:0:0:0:
160,204,82056,1,0,0:0:0:0:
188,240,82137,1,0,0:0:0:0:
204,284,82218,1,0,0:0:0:0:
216,320,82299,6,0,L|228:248,1,58.4999973220826,8|0,0:0|0:0,0:0:0:0:
332,200,82462,2,0,L|336:272,1,58.4999973220826
408,216,82624,5,4,0:0:0:0:
176,160,82786,1,0,0:0:0:0:
416,96,82948,1,8,0:0:0:0:
376,340,83110,1,0,0:0:0:0:
376,340,83191,1,0,0:0:0:0:
376,340,83272,1,0,0:0:0:0:
416,96,83434,6,2,B|376:63|376:63|340:84|364:160,1,116.999994644165
72,272,83759,2,2,B|112:304|112:304|148:284|124:208,1,116.999994644165
412,188,84083,5,0,0:0:0:0:
130,259,84245,1,8,0:0:0:0:
404,304,84407,1,0,0:0:0:0:
404,304,84488,1,0,0:0:0:0:
404,304,84570,1,0,0:0:0:0:
384,24,84732,6,2,B|416:64|416:64|396:100|320:76,1,116.999994644165
104,320,85057,2,2,B|72:280|72:280|92:244|168:268,2,116.999994644165,2|2|0,0:0|0:0|0:0,0:0:0:0:
256,344,85543,2,0,L|380:324,1,116.999994644165,8|0,0:0|0:0,0:0:0:0:
488,284,85867,5,0,0:0:0:0:
308,260,86029,1,0,0:0:0:0:
48,40,86354,1,0,0:0:0:0:
80,192,86516,5,0,0:0:0:0:
144,88,86678,1,0,0:0:0:0:
208,244,86840,1,8,0:0:0:0:
280,52,87002,1,0,0:0:0:0:
72,80,87164,1,0,0:0:0:0:
272,148,87327,2,0,L|340:156,1,58.4999973220826
456,204,87489,2,0,L|388:212,1,58.4999973220826
272,264,87651,2,0,L|340:272,1,58.4999973220826
448,304,87813,5,4,0:0:0:0:
432,308,87894,1,0,0:0:0:0:
416,312,87975,1,0,0:0:0:0:
400,316,88056,1,0,0:0:0:0:
384,320,88137,1,0,0:0:0:0:
368,324,88218,1,0,0:0:0:0:
352,328,88299,1,0,0:0:0:0:
336,332,88381,1,0,0:0:0:0:
320,336,88462,6,0,B|264:344|264:344|220:348|208:308|128:328,1,180,0|2,0:0|0:0,0:0:0:0:
144,324,89131,5,4,0:0:0:0:
148,308,89212,1,0,0:0:0:0:
148,292,89293,1,0,0:0:0:0:
144,276,89375,1,0,0:0:0:0:
136,260,89456,1,0,0:0:0:0:
132,244,89537,1,0,0:0:0:0:
128,228,89618,1,0,0:0:0:0:
128,212,89699,1,0,0:0:0:0:
128,196,89780,6,0,B|112:124|188:128|188:128|220:156|220:156|264:116,1,180,0|2,0:0|0:0,0:0:0:0:
238,139,90443,5,4,0:0:0:0:
256,144,90524,1,0,0:0:0:0:
272,140,90605,1,0,0:0:0:0:
284,128,90686,1,0,0:0:0:0:
288,112,90767,1,0,0:0:0:0:
288,96,90848,1,0,0:0:0:0:
280,80,90929,1,0,0:0:0:0:
268,68,91010,1,0,0:0:0:0:
252,64,91091,2,0,L|56:80,1,180,0|2,0:0|0:0,0:0:0:0:
72,78,91741,5,4,0:0:0:0:
76,96,91823,1,0,0:0:0:0:
80,112,91905,1,0,0:0:0:0:
84,128,91988,1,0,0:0:0:0:
88,144,92070,1,0,0:0:0:0:
92,160,92153,1,0,0:0:0:0:
96,176,92235,1,0,0:0:0:0:
100,192,92317,1,0,0:0:0:0:
104,212,92400,6,0,L|128:316,1,90
152,332,92647,2,0,L|164:268,1,45,0|2,0:0|0:0,0:0:0:0:
192,120,92894,1,0,0:0:0:0:
256,256,93054,5,4,0:0:0:0:
272,260,93137,1,0,0:0:0:0:
288,264,93219,1,0,0:0:0:0:
304,268,93301,1,0,0:0:0:0:
320,272,93384,1,0,0:0:0:0:
336,276,93466,1,0,0:0:0:0:
352,280,93549,1,0,0:0:0:0:
368,284,93631,1,0,0:0:0:0:
384,288,93714,6,0,B|424:312|424:312|472:248|432:208|432:208|392:228,1,180,0|2,0:0|0:0,0:0:0:0:
256,256,94363,5,4,0:0:0:0:
272,224,94445,1,0,0:0:0:0:
276,188,94528,1,0,0:0:0:0:
264,156,94610,1,0,0:0:0:0:
236,132,94693,1,0,0:0:0:0:
204,120,94775,1,0,0:0:0:0:
168,120,94857,1,0,0:0:0:0:
132,128,94940,1,0,0:0:0:0:
100,144,95022,6,0,L|48:188,1,45
52,296,95187,2,0,L|104:252,1,45
224,156,95352,6,0,L|172:200,1,45
176,308,95517,2,0,L|228:264,1,45
208,208,95683,6,0,B|248:188|248:188|324:200,1,90
404,260,96007,1,8,0:0:0:0:
272,280,96169,1,0,0:0:0:0:
348,104,96331,2,0,B|345:148|345:148|296:208,1,90
192,304,96655,1,8,0:0:0:0:
212,88,96817,1,0,0:0:0:0:
304,352,96980,6,0,L|324:228,1,90
128,44,97304,2,0,L|148:168,1,90,8|0,0:0|0:0,0:0:0:0:
88,264,97628,2,0,L|184:248,1,90
420,100,97953,2,0,L|324:116,1,90,8|0,0:0|0:0,0:0:0:0:
68,168,98277,5,0,0:0:0:0:
460,228,98439,1,0,0:0:0:0:
71,233,98764,5,0,0:0:0:0:
460,156,98926,1,0,0:0:0:0:
92,296,99250,5,0,0:0:0:0:
428,216,99412,1,0,0:0:0:0:
360,360,99574,1,0,0:0:0:0:
304,60,99737,1,0,0:0:0:0:
460,156,99899,1,0,0:0:0:0:
92,196,100061,1,0,0:0:0:0:
344,272,100223,1,0,0:0:0:0:
128,40,100547,5,0,0:0:0:0:
128,40,100872,5,0,0:0:0:0:
244,264,101034,1,0,0:0:0:0:
244,264,101115,1,0,0:0:0:0:
244,264,101196,2,0,P|292:248|344:268,1,90
328,257,101439,2,0,L|344:201,1,45
372,68,101683,5,0,0:0:0:0:
372,68,101764,1,0,0:0:0:0:
372,68,101845,2,0,L|324:84,1,45
168,72,102007,2,0,L|216:88,1,45
304,128,102169,5,0,0:0:0:0:
392,348,102331,1,0,0:0:0:0:
396,148,102493,1,0,0:0:0:0:
308,340,102655,1,0,0:0:0:0:
248,88,102818,1,0,0:0:0:0:
392,352,102980,5,0,0:0:0:0:
392,352,103061,1,0,0:0:0:0:
392,352,103142,1,0,0:0:0:0:
196,164,103304,1,0,0:0:0:0:
196,164,103385,1,0,0:0:0:0:
196,164,103466,6,0,P|140:156|88:176,1,90
328,340,103791,2,0,P|384:348|436:328,1,90
124,292,104115,2,8,P|89:336|80:391,1,90,0|0,0:0|0:0,0:0:0:0:
360,144,104440,2,0,P|394:99|403:44,1,90
264,52,104764,5,0,0:0:0:0:
328,348,104926,1,0,0:0:0:0:
332,80,105088,1,0,0:0:0:0:
32,144,105250,1,0,0:0:0:0:
388,280,105412,5,0,0:0:0:0:
76,192,105574,1,0,0:0:0:0:
432,108,105737,1,0,0:0:0:0:
364,360,105899,1,0,0:0:0:0:
336,48,106061,5,0,0:0:0:0:
300,236,106223,1,0,0:0:0:0:
300,236,106304,1,0,0:0:0:0:
300,236,106385,2,0,P|244:252|204:240,1,90
214,245,106628,2,0,L|198:189,1,45
96,56,106872,1,0,0:0:0:0:
96,56,106953,1,0,0:0:0:0:
96,56,107034,2,0,L|84:116,1,45
72,168,107196,2,0,L|60:228,1,45
52,284,107358,5,0,0:0:0:0:
300,236,107520,1,0,0:0:0:0:
100,228,107682,1,0,0:0:0:0:
204,44,107844,1,0,0:0:0:0:
252,300,108007,1,0,0:0:0:0:
312,40,108169,5,0,0:0:0:0:
312,40,108250,1,0,0:0:0:0:
312,40,108331,1,0,0:0:0:0:
316,220,108493,1,0,0:0:0:0:
316,220,108574,1,0,0:0:0:0:
316,220,108655,6,0,P|372:228|424:208,1,90
156,80,108980,2,0,P|100:72|48:92,1,90
364,104,109304,2,8,P|398:59|407:4,1,90,0|0,0:0|0:0,0:0:0:0:
120,244,109629,2,0,P|85:288|76:343,1,90
248,332,109953,5,0,0:0:0:0:
472,304,110115,1,0,0:0:0:0:
352,112,110277,1,0,0:0:0:0:
412,348,110439,1,0,0:0:0:0:
460,80,110601,5,0,0:0:0:0:
400,280,110763,1,0,0:0:0:0:
356,88,110926,1,0,0:0:0:0:
84,112,111088,1,0,0:0:0:0:
312,40,111250,5,0,0:0:0:0:
292,80,111331,1,0,0:0:0:0:
292,124,111412,1,0,0:0:0:0:
300,168,111493,1,0,0:0:0:0:
324,208,111574,1,0,0:0:0:0:
360,232,111655,1,0,0:0:0:0:
404,232,111737,1,0,0:0:0:0:
436,200,111818,1,0,0:0:0:0:
420,160,111899,5,0,0:0:0:0:
376,144,111980,1,0,0:0:0:0:
332,144,112061,1,0,0:0:0:0:
292,164,112142,1,0,0:0:0:0:
256,192,112223,1,0,0:0:0:0:
216,208,112304,1,0,0:0:0:0:
172,212,112385,1,0,0:0:0:0:
128,204,112466,1,0,0:0:0:0:
84,188,112547,6,0,L|24:144,1,45
116,44,112710,2,0,L|152:70,1,45
72,216,112872,6,0,L|12:172,1,45
132,16,113035,2,0,L|168:42,1,45
204,68,113196,5,0,0:0:0:0:
232,104,113277,1,0,0:0:0:0:
240,148,113358,1,0,0:0:0:0:
228,192,113439,1,0,0:0:0:0:
232,236,113520,1,0,0:0:0:0:
252,276,113601,1,0,0:0:0:0:
288,304,113682,1,0,0:0:0:0:
332,300,113764,1,0,0:0:0:0:
372,276,113845,6,0,P|392:256|432:248,1,45
504,208,114007,2,0,P|492:182|457:161,1,45
416,68,114169,2,0,P|390:79|369:114,1,45
306,168,114331,2,0,P|285:147|277:107,1,45
220,52,114493,6,0,P|265:35|315:43,2,90
92,104,114980,1,0,0:0:0:0:
306,39,115142,5,0,0:0:0:0:
340,356,115304,1,0,0:0:0:0:
368,72,115466,1,0,0:0:0:0:
24,104,115628,1,0,0:0:0:0:
464,136,115791,5,0,0:0:0:0:
88,80,115953,1,0,0:0:0:0:
288,348,116115,1,0,0:0:0:0:
316,32,116277,1,0,0:0:0:0:
360,312,116439,5,0,0:0:0:0:
324,284,116520,1,0,0:0:0:0:
280,272,116601,1,0,0:0:0:0:
236,288,116682,1,0,0:0:0:0:
200,312,116764,1,0,0:0:0:0:
156,328,116845,1,0,0:0:0:0:
112,328,116926,1,0,0:0:0:0:
72,308,117007,1,0,0:0:0:0:
44,272,117088,6,0,L|20:228,1,45
48,104,117250,2,0,L|72:148,1,45
176,228,117412,2,0,L|152:184,1,45
196,72,117574,2,0,L|220:116,1,45
308,244,117737,5,0,0:0:0:0:
332,280,117818,1,0,0:0:0:0:
372,304,117899,1,0,0:0:0:0:
416,296,117980,1,0,0:0:0:0:
452,268,118061,1,0,0:0:0:0:
472,228,118142,1,0,0:0:0:0:
464,184,118223,1,0,0:0:0:0:
436,148,118304,1,0,0:0:0:0:
396,128,118385,5,0,0:0:0:0:
356,120,118466,1,0,0:0:0:0:
320,140,118547,1,0,0:0:0:0:
320,180,118628,1,0,0:0:0:0:
352,204,118710,1,0,0:0:0:0:
388,184,118791,1,0,0:0:0:0:
404,148,118872,1,0,0:0:0:0:
384,112,118953,1,0,0:0:0:0:
356,84,119034,6,0,B|292:64|248:120,1,90
204,336,119358,1,0,0:0:0:0:
252,64,119520,1,0,0:0:0:0:
252,64,119601,1,0,0:0:0:0:
252,64,119682,2,0,L|276:184,1,90
392,40,120007,1,0,0:0:0:0:
332,336,120169,1,0,0:0:0:0:
332,336,120250,1,0,0:0:0:0:
332,336,120331,1,0,0:0:0:0:
276,32,120493,1,0,0:0:0:0:
376,280,120655,1,0,0:0:0:0:
116,200,120818,1,0,0:0:0:0:
380,128,120980,1,0,0:0:0:0:
170,62,121142,5,0,0:0:0:0:
256,352,121304,1,0,0:0:0:0:
284,304,121385,1,0,0:0:0:0:
268,252,121466,1,0,0:0:0:0:
224,224,121547,1,0,0:0:0:0:
176,248,121628,1,0,0:0:0:0:
124,72,122926,5,0,0:0:0:0:
200,352,123088,2,0,L|204:296,1,45
216,168,123250,1,0,0:0:0:0:
296,332,123412,2,0,L|300:276,1,45
312,100,123574,1,0,0:0:0:0:
392,320,123737,2,0,L|396:264,1,45
408,48,123899,1,0,0:0:0:0:
224,228,124223,5,0,0:0:0:0:
288,156,124385,1,0,0:0:0:0:
220,264,124547,1,0,0:0:0:0:
292,120,124710,1,0,0:0:0:0:
232,296,124872,1,0,0:0:0:0:
280,88,125034,1,0,0:0:0:0:
256,328,125196,1,0,0:0:0:0:
256,56,125358,1,0,0:0:0:0:
292,300,125520,5,0,0:0:0:0:
64,108,125682,1,0,0:0:0:0:
408,48,125845,1,0,0:0:0:0:
368,352,126007,1,0,0:0:0:0:
24,192,126169,1,0,0:0:0:0:
488,28,126493,1,0,0:0:0:0:
320,164,126818,6,0,B|268:156|252:100|252:100|232:168|188:184|188:184|180:108|108:112|32:140|80:192,1,405.000015449525
268,304,128115,6,0,L|360:292,1,90
464,204,128444,1,0,0:0:0:0:
320,96,128609,2,0,L|304:224,1,90
268,304,128939,1,0,0:0:0:0:
220,144,129104,1,0,0:0:0:0:
144,296,129268,1,0,0:0:0:0:
52,160,129433,6,0,L|152:144,1,90
284,120,129763,1,0,0:0:0:0:
136,56,129928,1,0,0:0:0:0:
192,224,130093,1,0,0:0:0:0:
232,44,130257,1,0,0:0:0:0:
320,216,130422,1,0,0:0:0:0:
132,168,130587,1,0,0:0:0:0:
312,48,130752,6,0,L|416:32,1,90
196,108,131082,2,0,L|92:92,1,90
304,204,131411,2,0,L|408:188,1,90
188,264,131741,2,0,L|84:248,1,90
460,152,132071,5,0,0:0:0:0:
420,176,132153,1,0,0:0:0:0:
376,172,132235,2,0,L|304:152,1,45
220,184,132400,2,0,L|292:204,1,45
336,224,132565,1,0,0:0:0:0:
372,252,132647,1,0,0:0:0:0:
372,296,132730,1,0,0:0:0:0:
340,328,132812,1,0,0:0:0:0:
296,332,132895,1,0,0:0:0:0:
252,316,132977,1,0,0:0:0:0:
232,276,133060,1,0,0:0:0:0:
244,232,133142,1,0,0:0:0:0:
252,188,133224,1,0,0:0:0:0:
244,144,133307,1,0,0:0:0:0:
240,96,133389,6,0,L|148:108,1,90
48,200,133718,1,0,0:0:0:0:
200,332,133883,2,0,L|216:204,1,90
240,96,134213,1,0,0:0:0:0:
292,240,134378,1,0,0:0:0:0:
368,88,134542,1,0,0:0:0:0:
460,224,134707,6,0,L|360:240,1,90
228,264,135037,1,0,0:0:0:0:
376,328,135202,1,0,0:0:0:0:
320,160,135367,1,0,0:0:0:0:
280,340,135531,1,0,0:0:0:0:
192,168,135696,1,0,0:0:0:0:
380,216,135861,1,0,0:0:0:0:
200,336,136027,6,0,L|96:352,1,90
316,276,136356,2,0,L|420:292,1,90
208,180,136685,2,0,L|104:196,1,90
324,120,137015,2,0,L|428:136,1,90
120,324,137345,6,0,B|144:272|144:272|128:220,1,90
32,104,137675,2,0,L|144:80,1,90
288,64,138005,1,0,0:0:0:0:
224,240,138169,1,0,0:0:0:0:
160,40,138334,1,0,0:0:0:0:
400,120,138499,1,0,0:0:0:0:
172,184,138664,5,0,0:0:0:0:
132,168,138746,1,0,0:0:0:0:
88,168,138829,1,0,0:0:0:0:
48,192,138911,1,0,0:0:0:0:
28,232,138994,1,0,0:0:0:0:
32,276,139076,1,0,0:0:0:0:
52,316,139158,1,0,0:0:0:0:
92,336,139241,1,0,0:0:0:0:
132,316,139323,5,0,0:0:0:0:
144,272,139406,1,0,0:0:0:0:
144,228,139488,1,0,0:0:0:0:
136,184,139571,1,0,0:0:0:0:
140,140,139653,1,0,0:0:0:0:
160,100,139735,1,0,0:0:0:0:
192,68,139818,1,0,0:0:0:0:
232,48,139900,1,0,0:0:0:0:
276,44,139983,5,0,0:0:0:0:
320,60,140065,1,0,0:0:0:0:
340,100,140147,1,0,0:0:0:0:
328,144,140230,1,0,0:0:0:0:
288,164,140312,1,0,0:0:0:0:
248,148,140395,1,0,0:0:0:0:
244,104,140477,1,0,0:0:0:0:
288,88,140560,1,0,0:0:0:0:
328,104,140642,5,0,0:0:0:0:
344,156,140724,1,0,0:0:0:0:
328,208,140807,1,0,0:0:0:0:
276,228,140889,1,0,0:0:0:0:
224,212,140972,1,0,0:0:0:0:
188,172,141054,1,0,0:0:0:0:
160,128,141136,1,0,0:0:0:0:
112,104,141219,1,0,0:0:0:0:
60,84,141301,5,0,0:0:0:0:
16,116,141384,1,0,0:0:0:0:
8,168,141466,1,0,0:0:0:0:
24,220,141549,1,0,0:0:0:0:
77,232,141631,1,0,0:0:0:0:
124,256,141713,1,0,0:0:0:0:
132,308,141796,1,0,0:0:0:0:
84,336,141878,1,0,0:0:0:0:
88,276,141961,6,0,L|68:196,1,45
168,56,142125,2,0,L|188:136,1,45
336,280,142290,2,0,L|316:200,1,45
416,60,142454,2,0,L|436:140,1,45
460,272,142620,5,0,0:0:0:0:
432,328,142702,1,0,0:0:0:0:
376,356,142785,1,0,0:0:0:0:
312,360,142867,1,0,0:0:0:0:
252,340,142950,1,0,0:0:0:0:
204,300,143032,1,0,0:0:0:0:
172,248,143115,1,0,0:0:0:0:
160,188,143197,1,0,0:0:0:0:
124,136,143279,5,0,0:0:0:0:
64,112,143362,1,0,0:0:0:0:
16,152,143444,1,0,0:0:0:0:
20,216,143527,1,0,0:0:0:0:
72,248,143609,1,0,0:0:0:0:
132,224,143691,1,0,0:0:0:0:
196,216,143774,1,0,0:0:0:0:
252,244,143856,1,0,0:0:0:0:
316,248,143939,5,0,0:0:0:0:
360,232,144021,1,0,0:0:0:0:
392,200,144104,1,0,0:0:0:0:
396,156,144186,1,0,0:0:0:0:
380,116,144268,1,0,0:0:0:0:
344,88,144351,1,0,0:0:0:0:
300,76,144433,1,0,0:0:0:0:
256,92,144516,1,0,0:0:0:0:
232,132,144598,1,0,0:0:0:0:
196,160,144680,1,0,0:0:0:0:
152,172,144763,1,0,0:0:0:0:
108,164,144845,1,0,0:0:0:0:
72,136,144928,1,0,0:0:0:0:
56,96,145010,1,0,0:0:0:0:
64,52,145093,1,0,0:0:0:0:
100,28,145175,1,0,0:0:0:0:
144,44,145257,5,0,0:0:0:0:
188,76,145340,1,0,0:0:0:0:
236,100,145422,1,0,0:0:0:0:
288,112,145505,1,0,0:0:0:0:
340,100,145587,1,0,0:0:0:0:
388,72,145669,1,0,0:0:0:0:
440,84,145752,1,0,0:0:0:0:
464,132,145834,1,0,0:0:0:0:
456,184,145917,1,0,0:0:0:0:
412,216,145999,1,0,0:0:0:0:
360,208,146082,1,0,0:0:0:0:
328,164,146164,1,0,0:0:0:0:
284,136,146246,1,0,0:0:0:0:
228,136,146329,1,0,0:0:0:0:
180,156,146411,1,0,0:0:0:0:
156,204,146494,1,0,0:0:0:0:
160,256,146576,5,0,0:0:0:0:
192,308,146658,1,0,0:0:0:0:
256,316,146741,1,0,0:0:0:0:
316,292,146823,1,0,0:0:0:0:
356,244,146906,1,0,0:0:0:0:
360,180,146988,1,0,0:0:0:0:
344,120,147071,1,0,0:0:0:0:
296,80,147153,1,0,0:0:0:0:
232,76,147235,1,0,0:0:0:0:
180,108,147318,1,0,0:0:0:0:
120,128,147400,1,0,0:0:0:0:
56,124,147483,1,0,0:0:0:0:
36,64,147565,1,0,0:0:0:0:
80,20,147647,1,0,0:0:0:0:
144,28,147730,1,0,0:0:0:0:
152,88,147812,1,0,0:0:0:0:
108,132,147895,5,0,0:0:0:0:
76,320,149213,5,0,0:0:0:0:
144,344,149291,1,0,0:0:0:0:
216,352,149370,1,0,0:0:0:0:
288,340,149449,1,0,0:0:0:0:
356,312,149528,1,0,0:0:0:0:
404,260,149607,1,0,0:0:0:0:
416,188,149686,1,0,0:0:0:0:
376,128,149765,1,0,0:0:0:0:
312,96,149844,2,0,L|248:84,1,45
68,208,150002,2,0,L|132:196,1,45
320,220,150160,2,0,L|256:232,1,45
76,108,150318,2,0,L|140:120,1,45
208,140,150476,5,0,0:0:0:0:
276,160,150555,1,0,0:0:0:0:
348,152,150634,1,0,0:0:0:0:
396,100,150713,1,0,0:0:0:0:
380,32,150791,1,0,0:0:0:0:
308,16,150870,1,0,0:0:0:0:
256,64,150949,1,0,0:0:0:0:
272,136,151028,1,0,0:0:0:0:
312,196,151107,1,0,0:0:0:0:
328,268,151186,1,0,0:0:0:0:
292,332,151265,1,0,0:0:0:0:
224,348,151344,1,0,0:0:0:0:
152,344,151423,1,0,0:0:0:0:
92,304,151502,1,0,0:0:0:0:
72,236,151581,1,0,0:0:0:0:
104,172,151660,1,0,0:0:0:0:
168,140,151739,6,0,P|196:136|232:140,1,45
336,328,151897,2,0,P|308:332|272:328,1,45
132,232,152055,2,0,P|142:258|164:287,1,45
396,228,152213,2,0,P|385:201|364:172,1,45
320,108,152370,5,0,0:0:0:0:
268,60,152449,1,0,0:0:0:0:
196,44,152528,1,0,0:0:0:0:
124,48,152607,1,0,0:0:0:0:
60,84,152686,1,0,0:0:0:0:
28,148,152765,1,0,0:0:0:0:
32,220,152844,1,0,0:0:0:0:
68,284,152923,1,0,0:0:0:0:
132,320,153002,5,0,0:0:0:0:
212,324,153081,1,0,0:0:0:0:
288,300,153160,1,0,0:0:0:0:
360,260,153239,1,0,0:0:0:0:
404,192,153318,1,0,0:0:0:0:
384,112,153397,1,0,0:0:0:0:
320,60,153476,1,0,0:0:0:0:
240,68,153555,1,0,0:0:0:0:
184,116,153634,6,0,L|168:180,1,45
132,320,153791,1,0,0:0:0:0:
128,292,153870,1,0,0:0:0:0:
124,264,153949,1,0,0:0:0:0:
120,236,154028,1,0,0:0:0:0:
116,208,154107,1,0,0:0:0:0:
112,180,154186,1,0,0:0:0:0:
108,152,154265,6,0,L|100:92,1,45
404,232,154423,2,0,L|412:292,1,45
172,128,154581,2,0,L|185:68,1,45
336,264,154739,2,0,L|322:323,1,45
252,84,154897,2,0,L|284:32,1,45
256,284,155055,2,0,L|223:335,1,45
336,96,155213,2,0,L|383:59,1,45
168,272,155371,2,0,L|120:308,1,45
40,256,155528,5,0,0:0:0:0:
24,216,155607,1,0,0:0:0:0:
24,172,155686,1,0,0:0:0:0:
48,136,155765,1,0,0:0:0:0:
88,116,155844,1,0,0:0:0:0:
132,116,155923,1,0,0:0:0:0:
172,136,156002,1,0,0:0:0:0:
192,176,156081,1,0,0:0:0:0:
180,220,156160,5,0,0:0:0:0:
184,272,156239,1,0,0:0:0:0:
228,300,156318,1,0,0:0:0:0:
280,308,156397,1,0,0:0:0:0:
328,288,156476,1,0,0:0:0:0:
372,256,156555,1,0,0:0:0:0:
392,204,156634,1,0,0:0:0:0:
368,156,156713,1,0,0:0:0:0:
332,116,156791,6,0,L|264:108,1,45
20,344,156949,2,0,L|88:336,1,45
384,312,157107,2,0,L|316:320,1,45
72,84,157265,2,0,L|140:92,1,45
208,96,157423,5,0,0:0:0:0:
288,112,157502,1,0,0:0:0:0:
352,164,157581,1,0,0:0:0:0:
372,244,157660,1,0,0:0:0:0:
348,320,157739,1,0,0:0:0:0:
272,344,157818,1,0,0:0:0:0:
192,340,157897,1,0,0:0:0:0:
132,288,157976,1,0,0:0:0:0:
128,208,158055,6,0,L|144:144,1,45
460,24,158213,2,0,L|444:88,1,45
84,116,158370,2,0,L|120:61,1,45
488,144,158528,2,0,L|451:198,1,45
404,240,158686,5,0,0:0:0:0:
328,268,158765,1,0,0:0:0:0:
248,268,158844,1,0,0:0:0:0:
172,240,158923,1,0,0:0:0:0:
120,180,159002,1,0,0:0:0:0:
120,100,159081,1,0,0:0:0:0:
164,32,159160,1,0,0:0:0:0:
240,0,159239,1,0,0:0:0:0:
316,32,159318,5,0,0:0:0:0:
360,344,159634,1,0,0:0:0:0:
316,32,159949,1,0,0:0:0:0:
360,344,160265,1,0,0:0:0:0:
316,32,160581,6,0,L|324:104,1,45
380,136,160739,1,0,0:0:0:0:
340,156,160818,1,0,0:0:0:0:
296,152,160897,1,0,0:0:0:0:
252,136,160976,1,0,0:0:0:0:
208,132,161055,1,0,0:0:0:0:
164,144,161134,1,0,0:0:0:0:
124,160,161213,2,0,L|52:188,3,45
164,256,161528,2,0,L|236:284,4,45
261,208,161928,6,0,P|293:200|333:208,1,67.5000025749208
289,280,162255,2,0,P|279:311|253:342,1,67.5000025749208
205,272,162583,2,0,P|182:248|168:209,1,67.5000025749208
192,108,162911,1,0,0:0:0:0:
268,160,163075,1,0,0:0:0:0:
296,232,163239,6,0,P|264:240|224:232,1,67.5000025749208
268,160,163566,2,0,P|277:128|304:97,1,67.5000025749208
352,168,163894,2,0,P|374:191|388:230,1,67.5000025749208
365,332,164222,1,0,0:0:0:0:
289,280,164386,1,0,0:0:0:0:
200,240,164550,6,0,P|192:276|208:324,1,67.5000025749208
380,316,164878,2,0,P|388:280|372:232,1,67.5000025749208
202,174,165206,2,0,P|194:210|210:258,1,67.5000025749208
382,250,165534,2,0,P|390:214|374:166,1,67.5000025749208
344,116,165862,5,0,0:0:0:0:
268,88,166026,1,0,0:0:0:0:
188,92,166190,1,0,0:0:0:0:
112,120,166354,1,0,0:0:0:0:
88,240,166518,5,0,0:0:0:0:
164,268,166682,1,0,0:0:0:0:
244,264,166846,1,0,0:0:0:0:
320,236,167010,1,0,0:0:0:0:
251,176,167173,6,0,P|219:184|179:176,1,67.5000025749208
223,104,167500,2,0,P|232:72|259:41,1,67.5000025749208
307,112,167828,2,0,P|329:135|343:174,1,67.5000025749208
320,276,168156,1,0,0:0:0:0:
244,224,168320,1,0,0:0:0:0:
216,152,168484,6,0,P|248:144|288:152,1,67.5000025749208
244,224,168811,2,0,P|234:255|208:286,1,67.5000025749208
160,216,169139,2,0,P|137:192|124:153,1,67.5000025749208
147,52,169467,1,0,0:0:0:0:
223,104,169631,1,0,0:0:0:0:
312,144,169795,6,0,P|320:108|304:60,1,67.5000025749208
132,68,170123,2,0,P|124:104|140:152,1,67.5000025749208
310,210,170451,2,0,P|318:174|302:126,1,67.5000025749208
130,134,170779,2,0,P|122:170|138:218,1,67.5000025749208
234,198,171107,5,0,0:0:0:0:
130,134,171436,1,0,0:0:0:0:
30,202,171764,1,0,0:0:0:0:
432,168,171928,1,0,0:0:0:0:
432,168,172009,1,0,0:0:0:0:
432,168,172091,2,0,L|312:164,1,101.250003862381
312,164,172419,5,0,0:0:0:0:
292,164,172501,1,0,0:0:0:0:
276,164,172583,1,0,0:0:0:0:
260,164,172665,1,0,0:0:0:0:
244,164,172747,1,0,0:0:0:0:
228,164,172829,1,0,0:0:0:0:
212,164,172911,1,0,0:0:0:0:
196,164,172993,1,0,0:0:0:0:
176,164,173075,6,0,B|128:164|128:164|88:196|108:256|108:256|168:280,1,180
136,267,173731,5,0,0:0:0:0:
152,276,173813,1,0,0:0:0:0:
168,280,173895,1,0,0:0:0:0:
184,280,173977,1,0,0:0:0:0:
200,276,174059,1,0,0:0:0:0:
216,268,174141,1,0,0:0:0:0:
232,264,174223,1,0,0:0:0:0:
248,260,174305,1,0,0:0:0:0:
264,264,174387,6,0,B|328:300|396:264|396:264|352:208,1,180
370,231,175042,5,0,0:0:0:0:
380,216,175124,1,0,0:0:0:0:
376,200,175206,1,0,0:0:0:0:
364,184,175288,1,0,0:0:0:0:
348,176,175370,1,0,0:0:0:0:
332,176,175452,1,0,0:0:0:0:
316,180,175534,1,0,0:0:0:0:
304,196,175616,1,0,0:0:0:0:
296,212,175698,6,0,B|272:256|272:256|192:296|168:256|200:220,1,180
196,223,176354,5,0,0:0:0:0:
192,204,176436,1,0,0:0:0:0:
180,192,176518,1,0,0:0:0:0:
164,180,176600,1,0,0:0:0:0:
152,168,176682,1,0,0:0:0:0:
140,152,176764,1,0,0:0:0:0:
136,136,176846,1,0,0:0:0:0:
136,120,176927,1,0,0:0:0:0:
144,104,177009,6,0,P|196:72|308:108,1,180
303,103,177665,5,0,0:0:0:0:
308,120,177747,1,0,0:0:0:0:
312,136,177829,1,0,0:0:0:0:
316,152,177911,1,0,0:0:0:0:
320,168,177993,1,0,0:0:0:0:
324,184,178075,1,0,0:0:0:0:
328,200,178157,1,0,0:0:0:0:
332,216,178239,1,0,0:0:0:0:
336,232,178321,6,0,B|344:288|344:288|276:224|208:276,1,180
88,320,178977,5,0,0:0:0:0:
84,304,179059,1,0,0:0:0:0:
84,284,179141,1,0,0:0:0:0:
92,268,179223,1,0,0:0:0:0:
104,252,179305,1,0,0:0:0:0:
120,244,179387,1,0,0:0:0:0:
136,240,179468,1,0,0:0:0:0:
152,244,179550,1,0,0:0:0:0:
168,252,179632,5,0,0:0:0:0:
204,248,179714,1,0,0:0:0:0:
236,228,179796,1,0,0:0:0:0:
252,196,179878,1,0,0:0:0:0:
256,160,179960,1,0,0:0:0:0:
252,124,180042,1,0,0:0:0:0:
232,96,180124,1,0,0:0:0:0:
204,76,180206,1,0,0:0:0:0:
164,76,180288,6,0,L|96:96,1,45
40,148,180450,2,0,L|108:168,1,45
176,196,180612,1,0,0:0:0:0:
44,280,180774,1,0,0:0:0:0:
44,280,180855,1,0,0:0:0:0:
44,280,180936,1,0,0:0:0:0:
200,352,181098,1,0,0:0:0:0:
200,352,181179,1,0,0:0:0:0:
200,352,181260,1,0,0:0:0:0:
44,280,181423,1,0,0:0:0:0:
176,196,181585,6,0,B|232:176|232:176|308:200|308:200|376:192,1,180
468,296,182233,2,0,P|500:200|452:108,1,180
324,48,182882,5,0,0:0:0:0:
280,316,183044,1,0,0:0:0:0:
280,316,183125,1,0,0:0:0:0:
280,316,183206,1,0,0:0:0:0:
208,52,183369,1,0,0:0:0:0:
356,216,183531,6,0,L|308:224,3,45
272,232,183855,1,0,0:0:0:0:
228,240,183936,1,0,0:0:0:0:
192,264,184017,1,0,0:0:0:0:
156,292,184098,1,0,0:0:0:0:
112,308,184179,5,0,0:0:0:0:
60,288,184260,1,0,0:0:0:0:
32,240,184342,1,0,0:0:0:0:
36,188,184423,1,0,0:0:0:0:
64,140,184504,1,0,0:0:0:0:
108,108,184585,1,0,0:0:0:0:
160,116,184666,1,0,0:0:0:0:
192,160,184747,1,0,0:0:0:0:
236,192,184828,5,0,0:0:0:0:
300,188,184909,1,0,0:0:0:0:
356,160,184990,1,0,0:0:0:0:
388,108,185071,1,0,0:0:0:0:
388,44,185152,1,0,0:0:0:0:
332,12,185233,1,0,0:0:0:0:
268,8,185315,1,0,0:0:0:0:
240,64,185396,1,0,0:0:0:0:
284,112,185477,5,0,0:0:0:0:
32,352,185639,1,0,0:0:0:0:
160,68,185963,5,0,0:0:0:0:
412,308,186125,1,0,0:0:0:0:
452,48,186450,5,0,0:0:0:0:
200,288,186612,1,0,0:0:0:0:
240,24,186774,1,0,0:0:0:0:
276,344,186936,1,0,0:0:0:0:
136,68,187098,1,0,0:0:0:0:
472,32,187260,1,0,0:0:0:0:
92,356,187423,1,0,0:0:0:0:
32,40,187747,5,0,0:0:0:0:
32,40,188071,5,0,0:0:0:0:
268,120,188233,1,0,0:0:0:0:
268,120,188314,1,0,0:0:0:0:
268,120,188395,2,0,L|168:112,1,90
178,112,188638,2,0,L|162:168,1,45
60,300,188882,5,0,0:0:0:0:
92,312,188963,1,0,0:0:0:0:
128,312,189044,1,0,0:0:0:0:
160,296,189125,1,0,0:0:0:0:
196,292,189206,1,0,0:0:0:0:
232,304,189288,1,0,0:0:0:0:
264,320,189368,5,0,0:0:0:0:
480,276,189530,1,0,0:0:0:0:
216,248,189692,1,0,0:0:0:0:
480,340,189854,1,0,0:0:0:0:
440,76,190017,1,0,0:0:0:0:
412,304,190179,5,0,0:0:0:0:
412,304,190260,1,0,0:0:0:0:
412,304,190341,1,0,0:0:0:0:
316,44,190503,1,0,0:0:0:0:
316,44,190584,1,0,0:0:0:0:
316,44,190665,6,0,B|368:16|368:16|424:32,1,90
328,152,190990,2,0,B|356:204|356:204|340:260,1,90
184,216,191315,2,0,B|131:244|131:244|76:228,1,90
200,96,191639,2,0,B|172:43|172:43|188:-12,1,90
276,56,191963,5,0,0:0:0:0:
312,348,192125,1,0,0:0:0:0:
200,96,192287,1,0,0:0:0:0:
448,64,192449,1,0,0:0:0:0:
264,136,192611,5,0,0:0:0:0:
192,364,192774,1,0,0:0:0:0:
192,364,192855,1,0,0:0:0:0:
192,364,192936,1,0,0:0:0:0:
120,48,193098,1,0,0:0:0:0:
264,308,193260,5,0,0:0:0:0:
384,236,193422,1,0,0:0:0:0:
384,236,193503,1,0,0:0:0:0:
384,236,193584,2,0,L|484:224,1,90
492,183,193827,2,0,L|432:167,1,45
268,132,194071,1,0,0:0:0:0:
268,132,194152,1,0,0:0:0:0:
268,132,194233,2,0,L|256:192,1,45
200,252,194395,2,0,L|188:192,1,45
164,108,194557,5,0,0:0:0:0:
136,352,194719,1,0,0:0:0:0:
100,140,194881,1,0,0:0:0:0:
344,208,195043,1,0,0:0:0:0:
128,280,195206,1,0,0:0:0:0:
232,32,195368,5,0,0:0:0:0:
232,32,195449,1,0,0:0:0:0:
232,32,195530,1,0,0:0:0:0:
196,340,195693,1,0,0:0:0:0:
196,340,195774,1,0,0:0:0:0:
196,340,195855,6,0,B|144:368|144:368|88:352,1,90
184,232,196180,2,0,B|156:180|156:180|172:124,1,90
328,168,196505,2,0,B|380:140|380:140|436:156,1,90
312,288,196829,2,0,B|340:340|340:340|324:396,1,90
196,340,197152,5,0,0:0:0:0:
488,288,197314,1,0,0:0:0:0:
152,292,197476,1,0,0:0:0:0:
456,208,197638,1,0,0:0:0:0:
432,352,197800,5,0,0:0:0:0:
292,32,197962,1,0,0:0:0:0:
152,292,198125,1,0,0:0:0:0:
456,208,198287,1,0,0:0:0:0:
352,348,198450,5,0,0:0:0:0:
328,320,198531,1,0,0:0:0:0:
312,288,198612,1,0,0:0:0:0:
316,252,198693,1,0,0:0:0:0:
332,220,198774,1,0,0:0:0:0:
344,184,198855,1,0,0:0:0:0:
352,148,198936,1,0,0:0:0:0:
336,116,199017,1,0,0:0:0:0:
312,88,199098,5,0,0:0:0:0:
276,80,199179,1,0,0:0:0:0:
240,84,199260,1,0,0:0:0:0:
208,100,199342,1,0,0:0:0:0:
196,136,199423,1,0,0:0:0:0:
200,172,199504,1,0,0:0:0:0:
220,204,199585,1,0,0:0:0:0:
252,220,199666,1,0,0:0:0:0:
288,216,199747,6,0,L|344:200,1,45
448,148,199909,2,0,L|392:132,1,45
248,116,200071,6,0,L|304:100,1,45
408,48,200233,2,0,L|352:32,1,45
276,20,200396,5,0,0:0:0:0:
240,28,200477,1,0,0:0:0:0:
208,44,200558,1,0,0:0:0:0:
184,72,200639,1,0,0:0:0:0:
172,104,200720,1,0,0:0:0:0:
172,140,200801,1,0,0:0:0:0:
184,176,200882,1,0,0:0:0:0:
204,208,200963,1,0,0:0:0:0:
228,232,201044,6,0,P|256:248|272:280,1,45
112,236,201206,2,0,P|103:204|114:170,1,45
232,96,201369,2,0,P|216:124|183:140,1,45
64,72,201531,2,0,P|95:63|129:74,1,45,0|0,0:0|0:0,3:0:0:0:
232,96,201693,6,0,L|356:112,2,90
104,140,202179,1,0,0:0:0:0:
160,360,202342,5,0,0:0:0:0:
107,65,202504,1,0,0:0:0:0:
88,324,202666,1,0,0:0:0:0:
464,208,202828,1,0,0:0:0:0:
156,284,202990,5,0,0:0:0:0:
476,280,203152,1,0,0:0:0:0:
316,32,203315,1,0,0:0:0:0:
212,336,203477,1,0,0:0:0:0:
376,76,203639,5,0,0:0:0:0:
348,96,203720,1,0,0:0:0:0:
312,100,203801,1,0,0:0:0:0:
276,92,203882,1,0,0:0:0:0:
248,68,203963,1,0,0:0:0:0:
216,52,204044,1,0,0:0:0:0:
180,48,204125,1,0,0:0:0:0:
144,60,204206,1,0,0:0:0:0:
120,88,204287,5,0,0:0:0:0:
112,124,204369,1,0,0:0:0:0:
108,160,204450,1,0,0:0:0:0:
100,196,204531,1,0,0:0:0:0:
116,228,204612,1,0,0:0:0:0:
152,224,204693,1,0,0:0:0:0:
172,192,204774,1,0,0:0:0:0:
164,156,204855,1,0,0:0:0:0:
136,136,204936,5,0,0:0:0:0:
100,140,205017,1,0,0:0:0:0:
72,164,205098,1,0,0:0:0:0:
68,200,205179,1,0,0:0:0:0:
76,236,205260,1,0,0:0:0:0:
108,256,205342,1,0,0:0:0:0:
144,260,205423,1,0,0:0:0:0:
176,248,205504,1,0,0:0:0:0:
212,236,205585,5,0,0:0:0:0:
244,224,205666,1,0,0:0:0:0:
276,212,205747,1,0,0:0:0:0:
312,200,205828,1,0,0:0:0:0:
348,196,205909,1,0,0:0:0:0:
380,208,205990,1,0,0:0:0:0:
408,232,206071,1,0,0:0:0:0:
424,264,206152,1,0,0:0:0:0:
420,300,206233,6,0,P|376:284|312:296,1,90
196,344,206558,1,0,0:0:0:0:
60,132,206720,2,0,L|32:184,1,45
8,228,206882,6,0,P|52:212|116:224,1,90
196,344,207206,1,0,0:0:0:0:
288,248,207369,2,0,L|352:264,1,45
436,288,207531,5,0,0:0:0:0:
448,252,207612,1,0,0:0:0:0:
448,216,207693,1,0,0:0:0:0:
436,184,207774,1,0,0:0:0:0:
412,156,207855,1,0,0:0:0:0:
380,140,207936,1,0,0:0:0:0:
344,136,208017,1,0,0:0:0:0:
308,144,208098,1,0,0:0:0:0:
280,168,208179,5,0,0:0:0:0:
244,196,208260,1,0,0:0:0:0:
200,208,208342,1,0,0:0:0:0:
156,208,208423,1,0,0:0:0:0:
112,196,208504,1,0,0:0:0:0:
76,168,208585,1,0,0:0:0:0:
60,124,208666,1,0,0:0:0:0:
72,80,208747,1,0,0:0:0:0:
100,48,208828,5,0,0:0:0:0:
149,31,208908,1,0,0:0:0:0:
204,41,208989,2,0,P|235:55|258:75,1,45
328,212,209159,5,0,0:0:0:0:
279,229,209239,1,0,0:0:0:0:
224,219,209320,2,0,P|192:204|169:184,1,45
48,96,209482,5,0,0:0:0:0:
48,96,209562,1,0,0:0:0:0:
48,96,209643,2,0,P|40:124|44:160,1,45
152,352,209804,5,0,0:0:0:0:
152,352,209884,1,0,0:0:0:0:
152,352,209965,2,0,P|160:324|156:288,1,45
212,100,210127,6,0,L|220:157,1,45
304,360,210288,2,0,L|312:300,1,45
356,28,210449,2,0,L|364:85,1,45
448,288,210610,2,0,L|456:228,1,45
464,36,210772,5,0,0:0:0:0:
456,88,210853,1,0,0:0:0:0:
424,132,210933,1,0,0:0:0:0:
380,160,211014,1,0,0:0:0:0:
324,160,211095,1,0,0:0:0:0:
276,140,211175,1,0,0:0:0:0:
240,100,211256,1,0,0:0:0:0:
196,68,211337,1,0,0:0:0:0:
144,64,211417,6,0,L|84:72,1,45
16,296,211578,2,0,L|76:304,1,45
248,100,211740,6,0,L|188:108,1,45
120,332,211901,2,0,L|180:340,1,45
364,100,212062,6,0,L|304:108,1,45
236,332,212223,2,0,L|296:340,1,45
476,68,212385,6,0,L|416:76,1,45
348,300,212546,2,0,L|408:308,1,45
472,272,212707,5,0,0:0:0:0:
56,216,212869,1,0,0:0:0:0:
436,204,213030,1,0,0:0:0:0:
36,140,213191,1,0,0:0:0:0:
104,348,213353,5,0,0:0:0:0:
168,32,213514,1,0,0:0:0:0:
168,32,213595,1,0,0:0:0:0:
168,32,213675,1,0,0:0:0:0:
236,356,213837,1,0,0:0:0:0:
316,36,213998,5,0,0:0:0:0:
336,84,214078,1,0,0:0:0:0:
336,140,214159,1,0,0:0:0:0:
312,188,214240,1,0,0:0:0:0:
264,212,214320,1,0,0:0:0:0:
208,212,214401,1,0,0:0:0:0:
156,196,214482,1,0,0:0:0:0:
120,156,214562,1,0,0:0:0:0:
112,104,214643,5,0,0:0:0:0:
68,132,214724,1,0,0:0:0:0:
52,184,214804,1,0,0:0:0:0:
60,236,214885,1,0,0:0:0:0:
96,276,214966,1,0,0:0:0:0:
144,296,215046,1,0,0:0:0:0:
196,280,215127,1,0,0:0:0:0:
212,228,215207,1,0,0:0:0:0:
200,176,215288,6,0,L|180:124,1,45
260,16,215449,2,0,L|280:68,1,45
376,192,215611,2,0,L|356:140,1,45
436,32,215772,2,0,L|456:84,1,45
484,232,215933,5,0,0:0:0:0:
444,196,216014,1,0,0:0:0:0:
392,188,216095,1,0,0:0:0:0:
340,204,216175,1,0,0:0:0:0:
304,244,216256,1,0,0:0:0:0:
276,292,216337,1,0,0:0:0:0:
232,320,216417,1,0,0:0:0:0:
180,328,216498,1,0,0:0:0:0:
132,304,216578,6,0,L|60:264,1,45
56,108,216740,2,0,L|128:148,1,45
200,248,216901,2,0,L|128:208,1,45
124,52,217063,2,0,L|196:92,1,45
308,224,217224,2,0,L|236:184,1,45
232,28,217386,2,0,L|304:68,1,45
420,196,217546,2,0,L|348:156,1,45
344,0,217708,2,0,L|416:40,1,45
496,148,217869,6,0,L|452:128,3,45
260,144,218191,2,0,L|308:168,3,45
372,304,218514,2,0,L|328:324,3,45
136,308,218836,2,0,L|184:284,3,45
52,344,219159,5,0,0:0:0:0:
28,284,219240,1,0,0:0:0:0:
44,224,219320,1,0,0:0:0:0:
92,184,219401,1,0,0:0:0:0:
156,180,219482,1,0,0:0:0:0:
212,212,219562,1,0,0:0:0:0:
240,272,219643,1,0,0:0:0:0:
236,336,219724,1,0,0:0:0:0:
184,304,219804,5,0,0:0:0:0:
232,264,219885,1,0,0:0:0:0:
296,272,219966,1,0,0:0:0:0:
348,308,220046,1,0,0:0:0:0:
408,324,220127,1,0,0:0:0:0:
464,292,220207,1,0,0:0:0:0:
468,228,220288,1,0,0:0:0:0:
436,172,220369,1,0,0:0:0:0:
376,164,220449,6,0,L|312:180,1,45
248,136,220611,2,0,L|312:152,1,45
340,96,220772,2,0,L|276:112,1,45
312,80,220934,2,0,L|376:96,1,45
432,112,221095,5,0,0:0:0:0:
476,164,221175,1,0,0:0:0:0:
492,232,221256,1,0,0:0:0:0:
476,296,221337,1,0,0:0:0:0:
420,332,221417,1,0,0:0:0:0:
352,344,221498,1,0,0:0:0:0:
284,340,221578,1,0,0:0:0:0:
224,304,221659,1,0,0:0:0:0:
160,284,221740,6,0,P|136:288|112:304,1,45
156,168,221901,2,0,P|136:153|107:148,1,45
264,128,222062,2,0,P|260:104|244:80,1,45
368,208,222224,2,0,P|382:188|387:159,1,45
264,248,222385,2,0,P|270:292|256:348,2,90
180,100,222869,1,0,0:0:0:0:
196,292,223030,5,0,0:0:0:0:
240,40,223191,1,0,0:0:0:0:
116,324,223353,1,0,0:0:0:0:
472,300,223514,1,0,0:0:0:0:
76,248,223675,5,0,0:0:0:0:
312,32,223837,1,0,0:0:0:0:
432,356,223998,1,0,0:0:0:0:
32,192,224159,1,0,0:0:0:0:
480,292,224320,5,0,0:0:0:0:
416,272,224401,1,0,0:0:0:0:
356,304,224482,1,0,0:0:0:0:
296,332,224562,1,0,0:0:0:0:
228,336,224643,1,0,0:0:0:0:
164,312,224724,1,0,0:0:0:0:
132,252,224804,1,0,0:0:0:0:
128,184,224885,1,0,0:0:0:0:
148,120,224966,5,0,0:0:0:0:
200,68,225046,1,0,0:0:0:0:
276,60,225127,1,0,0:0:0:0:
344,96,225207,1,0,0:0:0:0:
384,160,225288,1,0,0:0:0:0:
376,236,225369,1,0,0:0:0:0:
320,288,225449,1,0,0:0:0:0:
244,300,225530,1,0,0:0:0:0:
168,292,225611,5,0,0:0:0:0:
108,244,225691,1,0,0:0:0:0:
108,168,225772,1,0,0:0:0:0:
176,132,225853,1,0,0:0:0:0:
228,188,225933,5,0,0:0:0:0:
200,260,226014,1,0,0:0:0:0:
124,268,226095,1,0,0:0:0:0:
72,212,226175,1,0,0:0:0:0:
68,136,226256,5,0,0:0:0:0:
116,76,226337,1,0,0:0:0:0:
192,76,226417,1,0,0:0:0:0:
236,140,226498,1,0,0:0:0:0:
252,216,226578,5,0,0:0:0:0:
300,276,226659,1,0,0:0:0:0:
376,284,226740,1,0,0:0:0:0:
432,232,226820,1,0,0:0:0:0:
412,160,226901,5,0,0:0:0:0:
36,220,227546,5,0,0:0:0:0:
192,52,228195,6,0,P|200:88|188:136,1,67.5000025749208
64,88,228518,2,0,L|156:92,1,67.5000025749208
352,148,228840,2,0,L|260:152,1,67.5000025749208
60,232,229163,2,0,L|152:236,1,67.5000025749208
320,332,229493,6,0,P|312:296|324:248,1,67.5000025749208
448,296,229816,2,0,L|356:292,1,67.5000025749208
160,236,230138,2,0,L|252:232,1,67.5000025749208
452,152,230461,2,0,L|360:148,1,67.5000025749208
332,48,230790,5,0,0:0:0:0:
280,172,230951,1,0,0:0:0:0:
184,48,231113,2,0,L|176:136,1,67.5000025749208
256,244,231435,5,0,0:0:0:0:
380,192,231596,1,0,0:0:0:0:
256,96,231758,2,0,L|344:88,1,67.5000025749208
244,324,232087,5,0,0:0:0:0:
296,200,232248,1,0,0:0:0:0:
392,324,232410,2,0,L|400:236,1,67.5000025749208
320,128,232732,5,0,0:0:0:0:
196,180,232893,1,0,0:0:0:0:
320,276,233055,2,0,L|232:284,1,67.5000025749208
88,248,233380,5,0,0:0:0:0:
188,48,233542,2,0,L|192:128,1,67.5000025749208
324,336,233866,2,0,L|320:256,1,67.5000025749208
428,40,234191,2,0,L|432:120,1,67.5000025749208
468,288,234515,1,0,0:0:0:0:
220,236,234677,5,0,0:0:0:0:
276,88,234839,1,0,0:0:0:0:
368,232,235001,1,0,0:0:0:0:
204,120,235163,1,0,0:0:0:0:
408,96,235326,1,0,0:0:0:0:
344,344,235488,1,0,0:0:0:0:
136,112,235650,1,0,0:0:0:0:
460,32,235812,1,0,0:0:0:0:
340,308,236004,5,0,0:0:0:0:
400,56,236166,1,0,0:0:0:0:
464,284,236328,1,0,0:0:0:0:
312,232,236490,2,0,L|204:248,1,90
112,264,236814,1,0,0:0:0:0:
144,40,236976,1,0,0:0:0:0:
223,246,237139,1,0,0:0:0:0:
280,92,237301,5,0,0:0:0:0:
20,168,237463,1,0,0:0:0:0:
223,246,237625,2,0,L|352:224,1,90
312,231,237868,1,0,0:0:0:0:
312,231,237949,1,0,0:0:0:0:
408,356,238112,1,0,0:0:0:0:
336,112,238274,1,0,0:0:0:0:
284,324,238436,1,0,0:0:0:0:
416,280,238598,5,0,0:0:0:0:
176,264,238760,1,0,0:0:0:0:
340,164,238922,2,0,L|224:180,1,90
116,188,239247,1,0,0:0:0:0:
168,32,239409,1,0,0:0:0:0:
251,177,239571,1,0,0:0:0:0:
324,32,239733,1,0,0:0:0:0:
292,256,239895,5,0,0:0:0:0:
232,24,240058,1,0,0:0:0:0:
232,312,240220,1,0,0:0:0:0:
392,56,240382,1,0,0:0:0:0:
392,56,240463,1,0,0:0:0:0:
392,56,240544,1,0,0:0:0:0:
240,304,240706,1,0,0:0:0:0:
80,136,240868,2,0,L|72:196,1,45
148,296,241031,2,0,L|156:236,1,45
172,76,241193,5,0,0:0:0:0:
104,280,241355,1,0,0:0:0:0:
48,100,241517,1,0,0:0:0:0:
200,152,241679,2,0,L|308:136,1,90
448,120,242003,1,0,0:0:0:0:
392,336,242165,1,0,0:0:0:0:
289,138,242328,1,0,0:0:0:0:
256,320,242490,5,0,0:0:0:0:
480,240,242652,1,0,0:0:0:0:
289,138,242814,2,0,L|160:160,1,90
200,153,243057,1,0,0:0:0:0:
200,153,243138,1,0,0:0:0:0:
104,28,243301,1,0,0:0:0:0:
188,300,243463,1,0,0:0:0:0:
228,60,243625,1,0,0:0:0:0:
108,136,243787,5,0,0:0:0:0:
364,64,243949,1,0,0:0:0:0:
172,220,244111,2,0,L|288:204,1,90
396,196,244436,1,0,0:0:0:0:
344,352,244598,1,0,0:0:0:0:
261,207,244760,1,0,0:0:0:0:
188,352,244922,1,0,0:0:0:0:
216,120,245084,5,0,0:0:0:0:
484,168,245247,1,0,0:0:0:0:
252,284,245409,1,0,0:0:0:0:
240,32,245571,1,0,0:0:0:0:
240,32,245652,1,0,0:0:0:0:
240,32,245733,1,0,0:0:0:0:
432,248,245895,1,0,0:0:0:0:
432,248,245976,1,0,0:0:0:0:
432,248,246057,2,0,L|440:188,1,45
364,88,246220,2,0,L|356:148,1,45
344,348,246382,5,0,0:0:0:0:
296,28,246544,1,0,0:0:0:0:
388,288,246706,1,0,0:0:0:0:
32,208,246868,1,0,0:0:0:0:
312,288,247031,5,0,0:0:0:0:
228,24,247193,1,0,0:0:0:0:
264,344,247355,1,0,0:0:0:0:
328,36,247517,1,0,0:0:0:0:
172,336,247679,5,0,0:0:0:0:
488,264,247841,1,0,0:0:0:0:
64,232,248004,1,0,0:0:0:0:
480,176,248166,1,0,0:0:0:0:
432,356,248328,5,0,0:0:0:0:
340,24,248490,1,0,0:0:0:0:
268,352,248652,1,0,0:0:0:0:
160,36,248814,2,0,L|144:104,1,45
48,348,248976,5,0,0:0:0:0:
496,272,249139,1,0,0:0:0:0:
160,36,249301,1,0,0:0:0:0:
120,376,249463,1,0,0:0:0:0:
428,32,249625,5,0,0:0:0:0:
468,344,249787,1,0,0:0:0:0:
64,184,249949,1,0,0:0:0:0:
480,80,250112,1,0,0:0:0:0:
68,356,250274,5,0,0:0:0:0:
208,32,250436,1,0,0:0:0:0:
412,348,250598,1,0,0:0:0:0:
32,80,250760,1,0,0:0:0:0:
412,76,250922,1,0,0:0:0:0:
92,212,251085,2,0,P|117:199|159:199,1,45,0|0,0:0|0:0,3:0:0:0:
180,112,251247,2,0,P|208:113|244:135,1,45,0|0,0:0|0:0,3:0:0:0:
304,168,251409,2,0,P|324:184|336:220,1,45
384,280,251571,5,0,0:0:0:0:
456,288,251652,1,0,0:0:0:0:
500,232,251733,1,0,0:0:0:0:
492,160,251814,1,0,0:0:0:0:
460,96,251895,1,0,0:0:0:0:
412,44,251976,1,0,0:0:0:0:
340,32,252058,1,0,0:0:0:0:
268,44,252139,1,0,0:0:0:0:
212,88,252220,5,0,0:0:0:0:
148,124,252301,1,0,0:0:0:0:
76,124,252382,1,0,0:0:0:0:
36,64,252463,1,0,0:0:0:0:
88,16,252544,1,0,0:0:0:0:
156,40,252625,1,0,0:0:0:0:
164,112,252706,1,0,0:0:0:0:
120,168,252787,1,0,0:0:0:0:
76,224,252868,5,0,0:0:0:0:
60,296,252949,1,0,0:0:0:0:
104,356,253031,1,0,0:0:0:0:
176,364,253112,1,0,0:0:0:0:
236,324,253193,1,0,0:0:0:0:
260,256,253274,1,0,0:0:0:0:
240,188,253355,1,0,0:0:0:0:
184,140,253436,1,0,0:0:0:0:
128,92,253517,5,0,0:0:0:0:
48,108,253598,1,0,0:0:0:0:
12,180,253679,1,0,0:0:0:0:
36,256,253760,1,0,0:0:0:0:
104,300,253841,5,0,0:0:0:0:
192,304,253922,1,0,0:0:0:0:
256,240,254003,1,0,0:0:0:0:
264,148,254085,1,0,0:0:0:0:
256,192,254166,12,0,255301,0:0:0:0:
304,144,255463,5,0,0:0:0:0:
304,144,255544,1,0,0:0:0:0:
304,144,255626,1,0,0:0:0:0:
260,348,255950,1,0,0:0:0:0:
184,240,256112,2,0,B|152:180|180:116|180:116|232:160,1,180
376,308,256976,6,0,L|404:280,1,30
412,276,257085,2,0,B|496:148|496:148|460:120|472:32|472:32|364:12|348:100|348:100|252:44|56:148|56:148|224:268|275:250|275:250|172:52|172:52|92:20|48:40|48:40|-56:100|8:264|8:264|64:244|64:244|140:292|140:292|156:368|220:368|220:368|304:368|348:316|348:316|360:276|329:216|329:216|336:176|368:168|368:168|440:216|440:216|504:276|504:276|484:360|432:376|432:376|400:376|408:340,1,2520
