osu file format v14

[General]
AudioFilename: audio.mp3
AudioLeadIn: 0
PreviewTime: 15040
Countdown: 1
SampleSet: Normal
StackLeniency: 0.7
Mode: 0
LetterboxInBreaks: 0
WidescreenStoryboard: 0

[Editor]
DistanceSpacing: 1
BeatDivisor: 12
GridSize: 4
TimelineZoom: 3.099999

[Metadata]
Title:Pee Pee Poo Poo
TitleUnicode:Pee Pee Poo Poo
Artist:BABY KATA
ArtistUnicode:BABY KATA
Creator:Khrono691
Version:pee pee
Source:
Tags:
BeatmapID:2098740
BeatmapSetID:1002689

[Difficulty]
HPDrainRate:4
CircleSize:4
OverallDifficulty:9
ApproachRate:9
SliderMultiplier:1.8
SliderTickRate:0.5

[Events]
//Background and Video events
Video,0,"BABY KATA - Pee Pee Poo Poo (english version).mp4"
//Break Periods
//Storyboard Layer 0 (Background)
//Storyboard Layer 1 (Fail)
//Storyboard Layer 2 (Pass)
//Storyboard Layer 3 (Foreground)
//Storyboard Layer 4 (Overlay)
//Storyboard Sound Samples

[TimingPoints]
502.458911704946,461.538461538462,4,1,0,75,1,0
5810,-50,4,1,0,75,0,0
7887,-62.5,4,1,0,75,0,0
13656,-100,4,1,0,75,0,0
15271,-45.4545454545455,4,1,0,75,0,0
30040,-40,4,1,0,75,0,0
44810,-37.037037037037,4,1,0,75,0,0
58656,-50,4,1,0,75,0,0
74348,-66.6666666666667,4,1,0,75,0,0
78040,-100,4,1,0,75,0,0
78271,-83.3333333333333,4,1,0,75,0,0
78502,-71.4285714285714,4,1,0,75,0,0
78733,-62.5,4,1,0,75,0,0
78963,-55.5555555555556,4,1,0,75,0,0
79194,-50,4,1,0,75,0,0
79425,-45.4545454545455,4,1,0,75,0,0
79656,-41.6666666666667,4,1,0,75,0,0
79887,-38.4615384615385,4,1,0,75,0,0
80117,-35.7142857142857,4,1,0,75,0,0
80348,-33.3333333333333,4,1,0,75,0,0
80579,-31.25,4,1,0,75,0,0
80810,-29.4117647058824,4,1,0,75,0,0
81040,-27.7777777777778,4,1,0,75,0,0
81271,-26.3157894736842,4,1,0,75,0,0
81502,-25,4,1,0,75,0,0
81733,-50,4,1,0,75,0,0
103425,15,4,1,0,75,1,0
103425,-25,4,1,0,75,0,0
103889,461.538461538462,4,1,0,75,1,0
104350,15,4,1,0,75,1,0
104350,-25,4,1,0,75,0,0
105274,461.538461538462,4,1,0,75,1,0
105274,-25,4,1,0,75,0,0

[HitObjects]
114,77,1425,5,0,0:0:0:0:
424,136,1656,1,0,0:0:0:0:
166,270,2810,1,0,0:0:0:0:
263,16,3041,1,0,0:0:0:0:
415,236,3272,1,0,0:0:0:0:
199,107,3502,1,0,0:0:0:0:
102,55,4887,5,0,0:0:0:0:
196,282,5117,1,0,0:0:0:0:
320,22,5463,1,0,0:0:0:0:
470,270,5810,6,0,P|356:318|479:170,1,540
150,248,6733,1,0,0:0:0:0:
201,32,6963,1,0,0:0:0:0:
318,155,7194,2,0,L|305:357,1,180
85,131,7887,6,0,P|173:97|249:97,1,144
437,198,8348,2,0,P|349:164|273:164,1,144
84,250,8810,6,0,P|172:216|248:216,1,144
436,317,9156,2,0,P|348:283|272:283,1,144
115,329,9502,6,0,L|83:167,1,144
292,85,9963,2,0,L|247:249,1,144
174,68,10656,5,0,0:0:0:0:
346,249,11002,1,0,0:0:0:0:
167,293,11348,1,0,0:0:0:0:
405,74,11579,1,0,0:0:0:0:
405,74,11810,6,0,L|413:182,1,72
223,248,12041,2,0,L|215:134,1,72
294,45,12271,1,0,0:0:0:0:
377,262,12502,1,0,0:0:0:0:
294,45,12733,1,0,0:0:0:0:
128,155,12963,1,0,0:0:0:0:
337,109,13194,1,0,0:0:0:0:
145,71,13425,1,0,0:0:0:0:
203,315,13656,6,0,B|258:344|313:320|313:320|375:293|439:327,1,225
444,337,14348,5,0,0:0:0:0:
337,0,14579,1,0,0:0:0:0:
203,315,14810,1,0,0:0:0:0:
438,193,15040,1,0,0:0:0:0:
438,193,15156,1,0,0:0:0:0:
438,193,15271,6,0,B|361:186|361:186|357:183|357:183|354:186|354:186|94:162,1,297.000009063721
194,258,15733,2,0,B|172:278|167:313|192:351|232:351|260:333|260:333|282:329|282:329|284:326|284:326|287:329|287:329|309:326|309:326|463:348,1,297.000009063721
377,120,16194,6,0,B|428:103|479:124|499:171|481:220|423:242|304:236,1,297.000009063721
308,144,16656,2,0,B|297:160|282:168|261:164|263:148|255:135|238:132|217:150|223:185|262:236|259:337|259:337|270:315|290:306,1,297.000009063721
436,278,17117,6,0,P|463:218|475:-63,1,297.000009063721
211,39,17579,2,0,P|184:99|172:380,1,297.000009063721
325,148,18040,1,0,0:0:0:0:
81,188,18271,1,0,0:0:0:0:
395,77,18502,1,0,0:0:0:0:
62,52,18733,1,0,0:0:0:0:
281,326,18963,5,0,0:0:0:0:
213,127,19310,1,0,0:0:0:0:
431,181,19656,1,0,0:0:0:0:
129,256,19887,1,0,0:0:0:0:
347,29,20233,1,0,0:0:0:0:
478,318,20579,1,0,0:0:0:0:
92,77,20810,5,0,0:0:0:0:
365,169,21040,1,0,0:0:0:0:
65,222,21271,1,0,0:0:0:0:
353,26,21502,1,0,0:0:0:0:
252,363,21733,1,0,0:0:0:0:
121,11,21963,1,0,0:0:0:0:
512,201,22194,1,0,0:0:0:0:
0,280,22425,1,0,0:0:0:0:
195,135,22656,5,0,0:0:0:0:
283,312,22887,1,0,0:0:0:0:
291,87,23117,1,0,0:0:0:0:
201,244,23348,1,0,0:0:0:0:
228,54,23579,1,0,0:0:0:0:
404,264,23810,1,0,0:0:0:0:
357,19,24040,1,0,0:0:0:0:
163,142,24502,5,0,0:0:0:0:
433,207,24733,1,0,0:0:0:0:
187,247,24963,1,0,0:0:0:0:
361,109,25194,1,0,0:0:0:0:
137,45,25425,1,0,0:0:0:0:
354,211,25656,1,0,0:0:0:0:
97,275,25887,1,0,0:0:0:0:
197,314,26348,5,0,0:0:0:0:
330,132,26579,1,0,0:0:0:0:
466,322,26810,1,0,0:0:0:0:
287,235,27040,1,0,0:0:0:0:
430,57,27271,1,0,0:0:0:0:
496,250,27502,1,0,0:0:0:0:
317,89,27733,1,0,0:0:0:0:
183,316,28194,5,0,0:0:0:0:
303,102,28425,1,0,0:0:0:0:
295,325,28656,1,0,0:0:0:0:
195,88,28887,1,0,0:0:0:0:
74,306,29117,1,0,0:0:0:0:
295,325,29348,1,0,0:0:0:0:
92,79,29579,1,0,0:0:0:0:
325,93,30040,6,0,P|468:71|346:203,1,337.5
252,162,30502,2,0,P|109:140|231:272,1,337.5
345,353,30963,2,0,P|396:249|350:-16,1,337.5
106,11,31425,2,0,P|162:184|345:295,1,337.5
423,33,31887,6,0,L|291:39,1,112.5
145,145,32117,2,0,L|284:140,1,112.5
390,356,32348,2,0,B|443:266|443:266|421:-2,1,337.5
80,155,32810,2,0,P|222:230|330:68,1,337.5
214,326,33271,1,0,0:0:0:0:
255,28,33733,6,0,B|323:82|337:159|337:159|342:162|342:162|338:164|338:164|323:249|229:310,1,337.5
139,347,34194,6,0,B|129:260|173:196|173:196|172:190|172:190|176:192|176:192|247:142|356:165,1,337.5
446,202,34656,6,0,B|391:270|315:284|315:284|312:289|312:289|310:285|310:285|225:270|164:176,1,337.5
131,32,35117,6,0,B|122:118|166:182|166:182|165:188|165:188|169:186|169:186|240:236|349:213,1,337.5
89,79,35579,6,0,P|83:120|42:193,1,112.5
201,158,35810,2,0,P|207:199|248:272,1,112.5
390,60,36040,1,0,0:0:0:0:
158,100,36271,1,0,0:0:0:0:
436,306,36502,1,0,0:0:0:0:
276,49,36733,1,0,0:0:0:0:
226,174,36963,5,0,0:0:0:0:
256,146,37079,1,0,0:0:0:0:
279,164,37194,1,0,0:0:0:0:
409,128,37425,1,0,0:0:0:0:
120,300,37887,5,0,0:0:0:0:
387,282,38117,1,0,0:0:0:0:
137,192,38348,1,0,0:0:0:0:
353,186,38579,1,0,0:0:0:0:
90,86,38810,1,0,0:0:0:0:
403,69,39040,1,0,0:0:0:0:
128,118,39271,6,0,P|94:229|159:311,1,225
235,366,39733,2,0,L|259:105,1,225
401,42,40194,5,0,0:0:0:0:
114,109,40540,1,0,0:0:0:0:
414,218,40887,1,0,0:0:0:0:
52,200,41117,6,0,P|202:231|203:69,1,337.5
426,38,41579,2,0,B|264:17|264:17|111:145,1,337.5
376,353,42040,2,0,P|349:242|413:89,1,225
251,72,42387,2,0,P|278:183|214:336,1,225
377,137,42733,1,0,0:0:0:0:
75,232,42963,5,0,0:0:0:0:
442,220,43310,1,0,0:0:0:0:
16,42,43540,2,0,L|452:77,1,337.5
173,326,44117,1,0,0:0:0:0:
287,27,44348,1,0,0:0:0:0:
463,278,44579,1,0,0:0:0:0:
291,295,44694,1,0,0:0:0:0:
169,86,44810,6,0,P|346:78|384:290,1,364.500001390457
51,328,45271,2,0,P|173:342|278:123,1,364.500001390457
244,18,45733,2,0,B|185:37|134:93|139:162|139:162|135:165|135:165|140:168|140:168|148:244|223:310|301:310,1,364.500001390457
480,170,46194,2,0,B|435:164|435:164|427:168|427:168|334:160|334:160|332:155|332:155|328:159|328:159|216:145|216:145|268:182|261:242,1,364.500001390457
395,355,46656,6,0,L|441:105,1,243.000000926971
234,311,47117,1,0,0:0:0:0:
234,311,47348,2,0,P|231:231|181:152,1,121.500000463486
352,39,47579,2,0,P|308:93|184:95,1,121.500000463486
101,23,47810,2,0,P|135:101|229:135,1,121.500000463486
334,217,48040,2,0,L|180:186,1,121.500000463486
349,16,48271,2,0,L|508:46,1,121.500000463486
455,380,48502,6,0,B|398:211|398:211|472:27,1,364.500001390457
352,54,48963,2,0,P|293:173|108:30,1,364.500001390457
133,267,49425,2,0,B|306:303|306:303|308:308|308:308|311:304|311:304|500:342,1,364.500001390457
422,158,49887,2,0,B|249:122|249:122|247:117|247:117|244:121|244:121|55:83,1,364.500001390457
273,215,50348,5,0,0:0:0:0:
114,306,50579,1,0,0:0:0:0:
250,50,50810,1,0,0:0:0:0:
435,345,51040,6,0,P|375:348|308:297,1,121.500000463486
88,354,51271,2,0,P|142:288|154:213,1,121.500000463486
408,248,51502,2,0,P|388:170|405:83,1,121.500000463486
91,210,51733,2,0,P|94:138|38:86,1,121.500000463486
404,72,51963,2,0,P|438:7|512:-21,1,121.500000463486
74,46,52194,6,0,P|233:92|317:309,1,364.500001390457
106,366,52656,2,0,L|121:111,1,243.000000926971
173,45,53117,2,0,P|311:83|474:191,1,243.000000926971
235,129,53463,2,0,P|97:167|-66:275,1,243.000000926971
271,197,53810,2,0,P|409:235|572:343,1,243.000000926971
39,254,54271,6,0,L|186:243,1,121.500000463486
399,144,54502,2,0,L|233:151,1,121.500000463486
112,45,54733,2,0,P|81:110|134:184,1,121.500000463486
339,344,54963,2,0,P|366:278|310:209,1,121.500000463486
151,336,55194,2,0,P|181:262|174:171,1,121.500000463486
334,29,55425,2,0,P|319:86|346:204,1,121.500000463486
253,188,55656,1,0,0:0:0:0:
445,63,55887,5,0,0:0:0:0:
123,88,56233,1,0,0:0:0:0:
381,146,56579,1,0,0:0:0:0:
85,197,56810,1,0,0:0:0:0:
467,246,57156,1,0,0:0:0:0:
35,332,57502,1,0,0:0:0:0:
203,77,57733,5,0,0:0:0:0:
337,281,57963,1,0,0:0:0:0:
297,31,58194,1,0,0:0:0:0:
171,295,58425,1,0,0:0:0:0:
389,158,58656,5,0,0:0:0:0:
421,52,58771,1,0,0:0:0:0:
493,133,58887,5,0,0:0:0:0:
479,239,59002,1,0,0:0:0:0:
343,300,59117,1,0,0:0:0:0:
241,288,59233,1,0,0:0:0:0:
186,108,59348,1,0,0:0:0:0:
296,127,59463,1,0,0:0:0:0:
421,52,59579,5,0,0:0:0:0:
264,225,59810,1,0,0:0:0:0:
460,287,60040,1,0,0:0:0:0:
315,122,60271,1,0,0:0:0:0:
354,356,60502,1,0,0:0:0:0:
407,55,60733,1,0,0:0:0:0:
272,253,60963,1,0,0:0:0:0:
203,163,61425,6,0,L|418:209,1,180
86,135,61887,1,0,0:0:0:0:
158,317,62117,1,0,0:0:0:0:
386,26,62348,2,0,P|356:104|383:211,1,180
475,281,62810,1,0,0:0:0:0:
219,93,63040,1,0,0:0:0:0:
218,107,63156,1,0,0:0:0:0:
217,122,63271,6,0,P|290:117|345:55,1,90
156,226,63502,2,0,P|229:231|284:293,1,90
80,16,63733,1,0,0:0:0:0:
294,158,63963,1,0,0:0:0:0:
41,162,64194,1,0,0:0:0:0:
237,7,64425,1,0,0:0:0:0:
171,250,64656,1,0,0:0:0:0:
310,87,65117,5,0,0:0:0:0:
400,87,65233,1,0,0:0:0:0:
424,173,65348,1,0,0:0:0:0:
351,225,65463,1,0,0:0:0:0:
283,164,65579,1,0,0:0:0:0:
461,294,65810,1,0,0:0:0:0:
128,250,66040,1,0,0:0:0:0:
354,147,66271,1,0,0:0:0:0:
137,76,66502,6,0,P|113:149|143:278,1,180
306,42,66963,6,0,P|423:126|286:168,1,270
206,342,67425,2,0,P|89:258|226:216,1,270
441,0,67887,2,0,L|409:292,1,270
78,384,68348,2,0,L|46:92,1,270
173,120,68810,2,0,B|280:200|280:200|336:382,1,270
476,38,69271,2,0,B|351:87|351:87|250:248,1,270
380,348,69733,2,0,L|415:109,1,180
189,254,70194,1,0,0:0:0:0:
489,223,70425,1,0,0:0:0:0:
79,151,70656,6,0,P|230:69|281:175,1,270
344,266,71117,2,0,P|179:217|218:106,1,270,0|0,3:0|3:0,3:0:0:0:
450,92,71579,2,0,B|466:184|466:184|441:298|441:298|441:238|388:229,1,270
347,185,72040,2,0,B|276:154|207:192|207:192|128:232|42:181,1,270
39,97,72502,5,0,0:0:0:0:
196,38,72733,2,0,P|256:44|328:82,1,90
39,188,72963,1,0,0:0:0:0:
210,32,73194,2,0,P|256:55|303:157,1,90
178,240,73425,5,0,0:0:0:0:
234,238,73540,1,0,0:0:0:0:
293,188,73656,1,0,0:0:0:0:
322,91,73771,1,0,0:0:0:0:
408,72,73887,1,0,0:0:0:0:
478,155,74002,1,0,0:0:0:0:
388,249,74117,1,0,0:0:0:0:
279,173,74233,1,0,0:0:0:0:
240,65,74348,6,0,L|375:79,1,135.000005149842
455,85,74810,1,0,0:0:0:0:
125,47,75040,1,0,0:0:0:0:
284,270,75271,2,0,P|310:201|272:113,1,135.000005149842
107,195,75617,2,0,P|197:216|264:172,1,135.000005149842
199,12,75963,2,0,P|168:78|196:172,1,135.000005149842
337,232,76425,5,0,0:0:0:0:
137,277,76656,1,0,0:0:0:0:
356,227,76887,1,0,0:0:0:0:
187,77,77117,2,0,L|199:228,1,135.000005149842
217,322,77463,1,0,0:0:0:0:
234,167,77810,1,0,0:0:0:0:
443,294,78040,6,0,P|404:286|374:288,1,45
377,195,78271,6,0,P|330:198|285:184,1,53.9999983520508
183,262,78502,6,0,P|168:298|165:366,1,62.9999980773926
234,167,78733,6,0,P|252:105|251:60,1,72
37,179,78963,6,0,P|108:174|161:151,1,80.9999975280763
250,17,79194,6,0,P|177:39|119:100,1,90
101,260,79425,6,0,P|166:206|188:109,1,99.0000030212403
137,10,79656,6,0,P|122:65|133:187,1,107.999996704102
448,222,79887,6,0,P|361:213|256:240,1,116.999994644165
132,337,80117,6,0,P|108:268|9:163,1,125.999996154785
274,85,80348,6,0,P|234:153|87:190,1,135.000005149842
413,357,80579,6,0,P|379:186|385:90,1,144
237,20,80810,6,0,P|225:115|86:226,1,153.000002918243
249,317,81040,6,0,P|352:258|478:255,1,161.999995056153
325,92,81271,6,0,P|224:95|77:-30,1,170.999995433807
217,296,81502,6,0,P|415:354|448:409,1,180
254,188,81733,5,0,0:0:0:0:
444,108,81963,2,0,L|427:308,1,180
166,343,82425,2,0,L|157:237,1,90
152,149,82656,1,0,0:0:0:0:
323,144,82887,2,0,L|283:268,1,90
248,328,83117,1,0,0:0:0:0:
89,308,83348,2,0,L|73:196,1,90
57,100,83579,1,0,0:0:0:0:
436,217,83810,1,0,0:0:0:0:
396,124,84040,1,0,0:0:0:0:
378,346,84271,5,0,0:0:0:0:
321,104,84502,1,0,0:0:0:0:
272,359,84733,1,0,0:0:0:0:
291,57,84963,1,0,0:0:0:0:
218,320,85194,1,0,0:0:0:0:
385,42,85425,6,0,P|332:88|388:242,1,180
370,359,85887,2,0,L|421:138,1,180
105,263,86348,2,0,L|131:362,1,90
224,318,86579,2,0,L|286:407,1,90
447,321,86810,1,0,0:0:0:0:
311,247,87040,1,0,0:0:0:0:
456,154,87271,5,0,0:0:0:0:
198,63,87502,1,0,0:0:0:0:
172,299,87733,1,0,0:0:0:0:
364,90,87963,1,0,0:0:0:0:
359,113,88079,1,0,0:0:0:0:
322,150,88194,1,0,0:0:0:0:
316,173,88310,1,0,0:0:0:0:
401,188,88425,1,0,0:0:0:0:
393,208,88540,1,0,0:0:0:0:
348,264,88656,1,0,0:0:0:0:
344,280,88771,1,0,0:0:0:0:
197,308,88887,1,0,0:0:0:0:
445,276,89117,5,0,0:0:0:0:
258,192,89348,1,0,0:0:0:0:
329,373,89579,1,0,0:0:0:0:
405,38,89810,1,0,0:0:0:0:
37,224,90040,2,0,L|263:232,1,180
163,194,90387,2,0,L|169:395,1,180
196,370,90733,1,0,0:0:0:0:
432,211,91194,5,0,0:0:0:0:
280,331,91425,1,0,0:0:0:0:
453,197,91656,1,0,0:0:0:0:
228,142,91887,1,0,0:0:0:0:
474,206,92117,1,0,0:0:0:0:
206,335,92348,1,0,0:0:0:0:
502,192,92579,1,0,0:0:0:0:
142,125,92810,6,0,L|156:335,1,180
233,254,93156,1,0,0:0:0:0:
289,196,93271,2,0,L|286:-7,1,180
372,52,93617,1,0,0:0:0:0:
437,98,93733,2,0,L|431:233,1,90
307,317,93963,2,0,L|332:211,1,90
315,98,94194,1,0,0:0:0:0:
211,273,94425,1,0,0:0:0:0:
461,256,94656,5,0,0:0:0:0:
375,343,94887,1,0,0:0:0:0:
480,132,95117,1,0,0:0:0:0:
198,182,95348,1,0,0:0:0:0:
494,32,95579,1,0,0:0:0:0:
106,46,95810,1,0,0:0:0:0:
469,117,96040,1,0,0:0:0:0:
227,193,96271,1,0,0:0:0:0:
486,308,96502,5,0,0:0:0:0:
480,209,96733,1,0,0:0:0:0:
409,129,96963,1,0,0:0:0:0:
324,158,97194,1,0,0:0:0:0:
249,107,97425,1,0,0:0:0:0:
161,191,97771,1,0,0:0:0:0:
237,124,98117,1,0,0:0:0:0:
217,34,98348,5,0,0:0:0:0:
197,158,98579,1,0,0:0:0:0:
244,231,98810,5,0,0:0:0:0:
244,345,99040,1,0,0:0:0:0:
413,290,99271,5,0,0:0:0:0:
308,158,99617,1,0,0:0:0:0:
459,97,99963,1,0,0:0:0:0:
117,155,100194,6,0,P|104:255|431:251,1,540
281,296,101117,1,0,0:0:0:0:
163,174,101348,1,0,0:0:0:0:
344,181,101579,1,0,0:0:0:0:
287,297,101810,1,0,0:0:0:0:
428,67,102040,6,0,P|405:93|311:102,1,90
166,64,102271,2,0,P|261:100|323:100,1,90
200,240,102502,1,0,0:0:0:0:
291,33,102733,1,0,0:0:0:0:
343,189,102963,2,0,L|379:374,1,180
53,341,103425,6,0,B|236:357|411:314|413:314|417:232|416:232|257:292|132:275|132:275|107:202|256:222|256:222|385:188|247:155|247:155|177:182|177:182|209:103|226:118|269:134|323:95|241:76|241:76|241:4,1,1260
93,352,104350,6,0,B|209:368|416:285|416:285|298:283|192:323|125:267|179:190|197:194|290:271|290:271|408:197|292:171|126:230|144:88|331:191|319:17|196:68,1,1080
73,333,104812,2,0,B|212:357|212:357|413:336|431:238|431:238|305:312|139:288|139:288|208:256|373:213|373:213|257:242|168:167|168:167|250:202|335:134|335:134|237:151|208:82|208:82|250:124|289:113|289:113|255:64|256:3,1,1710
316,14,105274,6,0,B|407:25|322:50|312:49|254:43|218:78|244:125|292:124|341:93|371:70|421:100|426:148|364:169|279:152|252:138|226:173|245:217|295:231|352:215|405:199|420:249|379:284|285:274|172:250|210:338|326:371|399:367|421:354|479:358,1,600
452,281,105735,5,0,0:0:0:0:
