osu file format v14

[General]
AudioFilename: audio.mp3
AudioLeadIn: 0
PreviewTime: 10666
Countdown: 0
SampleSet: Soft
StackLeniency: 0.7
Mode: 0
LetterboxInBreaks: 0
WidescreenStoryboard: 1

[Editor]
DistanceSpacing: 1
BeatDivisor: 4
GridSize: 8
TimelineZoom: 1.7

[Metadata]
Title:Benevolent Imp
TitleUnicode:Benevolent Imp
Artist:B100SCREEN;
ArtistUnicode:B100SCREEN;
Creator:Danimineiro
Version:Insane
Source:
Tags:Elektro 180_BPM Danimineiro Hermes_The_Looser
BeatmapID:1388187
BeatmapSetID:649774

[Difficulty]
HPDrainRate:7
CircleSize:5
OverallDifficulty:8.5
ApproachRate:8.5
SliderMultiplier:2.49999990463257
SliderTickRate:1

[Events]
//Background and Video events
0,0,"maxresdefault.jpg",0,0
//Break Periods
2,21365,25991
//Storyboard Layer 0 (Background)
//Storyboard Layer 1 (Fail)
//Storyboard Layer 2 (Pass)
//Storyboard Layer 3 (Foreground)
//Storyboard Sound Samples

[TimingPoints]
0,333.333333333333,4,2,1,50,1,0
10666,-100,4,2,1,50,0,0
15916,-100,4,2,1,5,0,0
15999,-100,4,2,1,50,0,0
19583,-100,4,2,1,5,0,0
19666,-100,4,2,1,50,0,0
19833,-133.333333333333,4,2,1,50,0,0
21249,-200,4,2,1,50,0,0
26666,-66.6666666666667,4,2,1,50,0,0
36999,-100,4,2,1,50,0,0
48083,-100,4,2,1,5,0,0
48166,-100,4,2,1,50,0,0
58666,-100,4,2,1,50,0,0
67833,-100,4,2,1,50,0,0
69333,-100,4,2,1,50,0,0
69916,-100,4,2,1,5,0,0
69999,-100,4,2,1,50,0,0
70583,-100,4,2,1,5,0,0
70666,-100,4,2,1,50,0,0
71249,-100,4,2,1,5,0,0
71333,-100,4,2,1,50,0,0
71916,-100,4,2,1,5,0,0
71999,-100,4,2,1,50,0,0
72583,-100,4,2,1,5,0,0
72666,-100,4,2,1,50,0,0
73249,-100,4,2,1,5,0,0
73333,-100,4,2,1,50,0,0
73916,-100,4,2,1,5,0,0
73999,-100,4,2,1,50,0,0
74583,-100,4,2,1,5,0,0
74666,-100,4,2,1,50,0,0
74916,-100,4,2,1,5,0,0
74999,-100,4,2,1,50,0,0
75249,-100,4,2,1,5,0,0
75333,-100,4,2,1,50,0,0
75583,-100,4,2,1,5,0,0
75666,-100,4,2,1,50,0,0
75916,-100,4,2,1,5,0,0
75999,-100,4,2,1,50,0,0
76249,-100,4,2,1,5,0,0
76333,-100,4,2,1,50,0,0
76583,-100,4,2,1,5,0,0
76666,-100,4,2,1,50,0,0
76916,-100,4,2,1,5,0,0
76999,-100,4,2,1,50,0,0
77249,-100,4,2,1,5,0,0
77333,-100,4,2,1,50,0,0
77416,-100,4,2,1,5,0,0
77499,-100,4,2,1,50,0,0
77583,-100,4,2,1,5,0,0
77666,-100,4,2,1,50,0,0
77749,-100,4,2,1,5,0,0
77833,-100,4,2,1,50,0,0
77916,-100,4,2,1,5,0,0
77999,-100,4,2,1,50,0,0
78083,-100,4,2,1,5,0,0
78166,-100,4,2,1,50,0,0
78249,-100,4,2,1,5,0,0
78333,-100,4,2,1,50,0,0
78416,-100,4,2,1,5,0,0
78499,-100,4,2,1,50,0,0
78583,-100,4,2,1,5,0,0
78666,-100,4,2,1,50,0,0
78749,-100,4,2,1,5,0,0
78833,-100,4,2,1,50,0,0
78916,-100,4,2,1,5,0,0
78999,-100,4,2,1,50,0,0
79083,-100,4,2,1,5,0,0
79166,-100,4,2,1,50,0,0
79249,-100,4,2,1,5,0,0
79333,-100,4,2,1,50,0,0
79416,-100,4,2,1,5,0,0
79499,-100,4,2,1,50,0,0
79583,-100,4,2,1,5,0,0
79666,-100,4,2,1,50,0,0
79749,-100,4,2,1,5,0,0
79833,-100,4,2,1,50,0,0
79916,-100,4,2,1,5,0,0
79999,-100,4,2,1,50,0,0
82333,-66.6666666666667,4,2,1,50,0,0
90665,-100,4,2,1,50,0,0
105583,-100,4,2,1,50,0,1
105683,-100,4,2,1,50,0,1
112249,-100,4,2,1,5,0,1
112333,-100,4,2,1,50,0,1
116249,-100,4,2,1,5,0,1
116333,-100,4,2,1,50,0,1
117583,-100,4,2,1,5,0,1
117666,-100,4,2,1,50,0,1
120249,-100,4,2,1,5,0,1
120333,-100,4,2,1,50,0,1
120916,-100,4,2,1,5,0,1
120999,-100,4,2,1,50,0,1
122333,-100,4,2,1,50,0,0
122666,-111.111111111111,4,2,1,50,0,0
133333,-111.111111111111,4,2,1,5,0,0

[Colours]
Combo1 : 64,0,128
Combo2 : 0,128,255
Combo3 : 128,0,255
Combo4 : 0,0,255

[HitObjects]
80,192,10666,6,0,L|181:294,1,124.999995231629
256,369,10999,1,8,0:0:0:0:
344,280,11165,1,0,0:0:0:0:
254,190,11333,2,0,L|166:101,1,124.999995231629
76,12,11666,2,0,L|164:100,1,124.999995231629,8|0,0:0|0:0,0:0:0:0:
254,13,11999,2,0,L|154:112,1,124.999995231629
76,188,12333,2,0,L|164:100,1,124.999995231629,8|0,0:0|0:0,0:0:0:0:
290,100,12666,2,0,P|400:18|330:166,1,374.999985694885
289,100,13333,6,0,L|153:100,1,124.999995231629
75,188,13666,1,8,0:0:0:0:
163,276,13832,1,0,0:0:0:0:
251,187,13999,2,0,L|376:187,1,124.999995231629
501,188,14333,2,0,L|348:188,1,124.999995231629,8|0,0:0|0:0,0:0:0:0:
376,312,14666,2,0,L|376:177,1,124.999995231629
376,63,14999,2,0,L|376:188,1,124.999995231629,8|0,0:0|0:0,0:0:0:0:
250,188,15333,2,0,L|114:188,1,124.999995231629
40,96,15666,2,0,P|24:192|48:304,1,187.499992847443,8|0,0:0|0:0,0:0:0:0:
82,324,15999,6,0,L|214:324,1,124.999995231629
296,234,16333,1,8,0:0:0:0:
384,322,16499,1,0,0:0:0:0:
472,233,16666,2,0,L|372:132,1,124.999995231629
509,144,16999,2,0,L|344:144,1,124.999995231629,8|0,0:0|0:0,0:0:0:0:
384,19,17333,2,0,L|384:143,1,124.999995231629
295,55,17666,2,0,L|384:144,1,124.999995231629,8|0,0:0|0:0,0:0:0:0:
258,143,17999,2,0,P|256:229|101:129,1,374.999985694886
176,49,18666,6,0,L|176:182,1,124.999995231629
248,72,18999,1,8,0:0:0:0:
248,196,19165,1,0,0:0:0:0:
337,285,19333,2,0,P|461:253|452:160,1,187.499992847443
468,149,19666,2,0,L|345:123,1,124.999995231629,8|0,0:0|0:0,0:0:0:0:
279,189,19999,2,0,B|279:2|279:2|90:2|90:2|91:190|91:190|158:122|158:122,1,656.250000000001
72,192,26666,5,0,0:0:0:0:
72,192,26999,1,8,0:0:0:0:
72,192,27333,1,0,0:0:0:0:
72,192,27666,1,8,0:0:0:0:
446,192,27999,5,0,0:0:0:0:
446,192,28333,1,8,0:0:0:0:
446,192,28666,1,0,0:0:0:0:
446,192,28999,1,8,0:0:0:0:
72,192,29332,5,0,0:0:0:0:
72,192,29665,1,8,0:0:0:0:
72,192,29999,1,0,0:0:0:0:
72,192,30332,1,8,0:0:0:0:
448,192,30666,5,0,0:0:0:0:
448,192,30999,1,8,0:0:0:0:
448,192,31332,1,0,0:0:0:0:
448,192,31666,1,8,0:0:0:0:
72,192,31999,5,0,0:0:0:0:
72,192,32333,1,8,0:0:0:0:
72,192,32666,1,0,0:0:0:0:
72,192,32999,1,8,0:0:0:0:
448,192,33333,5,0,0:0:0:0:
448,192,33666,1,8,0:0:0:0:
448,192,33999,1,0,0:0:0:0:
448,192,34332,1,8,0:0:0:0:
72,192,34665,5,0,0:0:0:0:
72,192,34999,1,8,0:0:0:0:
72,192,35332,1,0,0:0:0:0:
72,192,35666,1,8,0:0:0:0:
448,192,35999,5,0,0:0:0:0:
448,192,36332,1,8,0:0:0:0:
448,192,36666,1,0,0:0:0:0:
232,352,36999,6,0,L|88:272,1,124.999995231629,8|0,0:0|0:0,0:0:0:0:
10,227,37333,2,0,P|30:168|94:147,1,124.999995231629
173,57,37666,2,0,P|229:30|289:59,1,124.999995231629,8|0,0:0|0:0,0:0:0:0:
371,141,37999,2,0,P|429:161|450:225,1,124.999995231629
256,376,38499,1,0,0:0:0:0:
256,250,38666,1,0,0:0:0:0:
144,192,38833,5,0,0:0:0:0:
184,72,38999,1,8,0:0:0:0:
232,192,39166,1,0,0:0:0:0:
272,72,39333,1,0,0:0:0:0:
312,192,39499,1,0,0:0:0:0:
352,72,39666,1,8,0:0:0:0:
392,192,39833,2,0,P|393:309|346:275,1,249.999990463257
225,283,40333,6,0,P|152:289|91:266,1,124.999995231629,8|0,0:0|0:0,0:0:0:0:
216,224,40666,2,0,P|143:226|276:100,1,499.999980926514
151,111,41499,5,0,0:0:0:0:
259,172,41665,1,8,0:0:0:0:
384,172,41832,1,0,0:0:0:0:
472,260,41999,1,0,0:0:0:0:
346,260,42166,1,0,0:0:0:0:
221,260,42332,1,8,0:0:0:0:
241,134,42499,2,0,P|256:38|180:98,1,249.999990463257
142,217,42999,5,8,0:0:0:0:
17,217,43165,1,0,0:0:0:0:
17,342,43332,1,0,0:0:0:0:
142,342,43499,2,0,P|210:273|206:370,1,249.999990463257
457,370,44166,5,0,0:0:0:0:
416,248,44332,1,8,0:0:0:0:
368,368,44499,1,0,0:0:0:0:
320,248,44665,1,0,0:0:0:0:
272,368,44832,1,0,0:0:0:0:
224,248,44999,1,8,0:0:0:0:
176,368,45166,2,0,P|141:277|105:367,1,249.999990463257
56,248,45666,5,8,0:0:0:0:
178,207,45832,1,0,0:0:0:0:
56,168,45999,1,0,0:0:0:0:
176,120,46166,2,0,P|212:29|246:120,1,249.999990463257
398,319,46833,5,0,0:0:0:0:
462,213,47000,1,8,0:0:0:0:
338,211,47166,1,0,0:0:0:0:
212,211,47333,1,0,0:0:0:0:
275,103,47499,1,0,0:0:0:0:
381,36,47666,1,8,0:0:0:0:
444,144,47833,2,0,P|437:136|374:241,1,187.499992847443
392,180,48166,5,0,0:0:0:0:
267,170,48332,1,8,0:0:0:0:
267,295,48499,1,0,0:0:0:0:
142,285,48665,1,0,0:0:0:0:
142,159,48833,2,0,P|107:68|71:158,1,249.999990463257
299,56,49499,5,0,0:0:0:0:
416,104,49665,1,8,0:0:0:0:
304,160,49832,1,0,0:0:0:0:
416,200,49998,1,0,0:0:0:0:
304,256,50165,1,0,0:0:0:0:
416,296,50333,1,8,0:0:0:0:
304,352,50499,1,0,0:0:0:0:
481,174,50833,5,0,0:0:0:0:
432,56,50999,1,8,0:0:0:0:
384,176,51166,1,0,0:0:0:0:
336,56,51332,1,0,0:0:0:0:
288,176,51499,2,0,P|253:85|217:175,1,249.999990463257
40,352,52166,5,0,0:0:0:0:
80,232,52332,1,8,0:0:0:0:
128,352,52499,1,0,0:0:0:0:
175,232,52665,1,0,0:0:0:0:
224,352,52832,1,0,0:0:0:0:
272,232,52999,1,8,0:0:0:0:
320,352,53166,2,0,P|410:315|319:281,1,249.999990463257
230,370,53666,5,8,0:0:0:0:
192,248,53832,1,0,0:0:0:0:
144,368,53999,1,0,0:0:0:0:
96,248,54166,2,0,P|5:284|96:318,1,249.999990463257
347,318,54833,5,0,0:0:0:0:
228,369,55000,1,8,0:0:0:0:
280,253,55166,1,0,0:0:0:0:
164,304,55332,1,0,0:0:0:0:
215,185,55499,1,0,0:0:0:0:
96,236,55666,1,8,0:0:0:0:
160,125,55833,2,0,P|70:86|110:175,1,249.999990463257
225,126,56333,5,8,0:0:0:0:
263,248,56499,1,0,0:0:0:0:
311,128,56666,1,0,0:0:0:0:
359,248,56833,2,0,P|449:211|358:177,1,249.999990463257
152,40,57499,5,0,0:0:0:0:
276,40,57665,1,8,0:0:0:0:
364,128,57832,1,0,0:0:0:0:
364,253,57999,1,0,0:0:0:0:
275,341,58165,1,0,0:0:0:0:
212,341,58249,1,0,0:0:0:0:
149,341,58332,1,8,0:0:0:0:
60,252,58499,1,0,0:0:0:0:
60,126,58666,5,0,0:0:0:0:
264,269,58999,1,8,0:0:0:0:
189,166,59166,1,0,0:0:0:0:
310,206,59333,1,0,0:0:0:0:
189,245,59499,1,0,0:0:0:0:
264,142,59666,1,8,0:0:0:0:
505,78,59999,5,0,0:0:0:0:
304,228,60333,1,8,0:0:0:0:
179,214,60500,1,0,0:0:0:0:
288,152,60667,1,0,0:0:0:0:
237,266,60833,1,0,0:0:0:0:
211,143,61000,1,8,0:0:0:0:
264,30,61166,1,0,0:0:0:0:
388,30,61332,5,0,0:0:0:0:
265,248,61666,1,8,0:0:0:0:
382,201,61833,1,0,0:0:0:0:
316,307,62000,1,0,0:0:0:0:
307,183,62166,1,0,0:0:0:0:
387,279,62333,1,8,0:0:0:0:
492,345,62499,1,0,0:0:0:0:
492,220,62665,5,0,0:0:0:0:
243,185,62999,1,8,0:0:0:0:
317,286,63166,1,0,0:0:0:0:
198,247,63333,1,0,0:0:0:0:
317,209,63499,1,0,0:0:0:0:
243,310,63666,1,8,0:0:0:0:
125,351,63832,1,0,0:0:0:0:
37,263,63998,5,0,0:0:0:0:
283,212,64333,1,8,0:0:0:0:
209,110,64500,1,0,0:0:0:0:
328,150,64667,1,0,0:0:0:0:
209,188,64833,1,0,0:0:0:0:
283,87,65000,1,8,0:0:0:0:
406,68,65166,1,0,0:0:0:0:
500,149,65332,5,0,0:0:0:0:
249,137,65666,1,8,0:0:0:0:
229,261,65833,1,0,0:0:0:0:
172,148,66000,1,0,0:0:0:0:
284,205,66166,1,0,0:0:0:0:
160,225,66333,1,8,0:0:0:0:
37,201,66499,1,0,0:0:0:0:
18,77,66666,1,0,0:0:0:0:
215,229,66999,5,8,0:0:0:0:
251,109,67166,1,0,0:0:0:0:
292,228,67333,1,0,0:0:0:0:
190,156,67499,1,0,0:0:0:0:
314,154,67666,1,8,0:0:0:0:
441,368,67999,5,4,0:0:0:0:
190,368,68333,1,12,0:0:0:0:
101,279,68499,1,4,0:0:0:0:
101,153,68666,1,4,0:0:0:0:
189,64,68832,1,4,0:0:0:0:
252,64,68916,1,4,0:0:0:0:
314,64,68999,1,12,0:0:0:0:
416,136,69166,1,4,0:0:0:0:
314,64,69333,6,0,B|418:188|326:288|326:288|248:180|154:316,1,437.4999833107
139,342,69999,2,0,B|8:346|28:160|28:160|133:267|227:127,1,437.4999833107
233,124,70666,2,0,B|391:35|379:222|379:222|233:124|218:296,1,437.4999833107
194,296,71333,6,0,B|99:407|15:224|15:224|154:245|153:125,1,437.4999833107
165,79,71999,2,0,B|256:22|256:128|400:31|400:31|256:128|397:221,1,437.4999833107
398,225,72666,2,0,B|324:303|297:201|183:332|183:332|297:201|137:147,1,437.4999833107
140,134,73333,2,0,B|3:103|297:37|25:27|25:27|13:146|67:252,1,437.4999833107
87,260,73999,2,0,B|129:278|188:232|167:186|167:186|142:143|195:103|224:135|224:135|180:67|235:15|262:8|285:8|321:9,1,437.4999833107
366,2,74666,6,0,P|411:67|316:152,1,187.499992847443
300,172,74999,2,0,P|255:237|350:322,1,187.499992847443,8|0,0:0|0:0,0:0:0:0:
351,365,75333,2,0,P|396:300|301:215,1,187.499992847443
365,159,75666,2,0,P|410:94|315:9,1,187.499992847443,8|0,0:0|0:0,0:0:0:0:
294,16,75999,2,0,P|249:81|344:166,1,187.499992847443
266,216,76333,2,0,P|311:281|216:366,1,187.499992847443,8|0,0:0|0:0,0:0:0:0:
195,363,76666,2,0,P|150:298|245:213,1,187.499992847443
236,163,76999,2,0,P|292:107|392:186,1,187.499992847443,8|0,0:0|0:0,0:0:0:0:
435,180,77333,6,0,L|386:229,1,62.4999976158143
346,268,77499,2,0,L|297:317,1,62.4999976158143
257,356,77666,2,0,L|208:307,1,62.4999976158143,8|0,0:0|0:0,0:0:0:0:
168,267,77833,2,0,L|119:218,1,62.4999976158143
79,178,77999,2,0,L|128:129,1,62.4999976158143
167,89,78166,2,0,L|216:138,1,62.4999976158143
255,177,78333,2,0,L|304:128,1,62.4999976158143,8|0,0:0|0:0,0:0:0:0:
343,88,78499,2,0,L|392:137,1,62.4999976158143
434,179,78666,6,4,L|385:228,1,62.4999976158143
345,267,78833,2,4,L|296:218,1,62.4999976158143
255,177,78999,2,4,L|206:128,1,62.4999976158143,12|4,0:0|0:0,0:0:0:0:
167,89,79166,2,4,L|118:138,1,62.4999976158143
78,177,79333,2,4,L|127:226,1,62.4999976158143
166,265,79499,2,4,L|215:314,1,62.4999976158143
254,353,79666,2,4,L|303:304,1,62.4999976158143,12|4,0:0|0:0,0:0:0:0:
345,267,79833,2,4,L|296:218,1,62.4999976158143
256,178,79999,5,4,0:0:0:0:
5,178,80333,1,12,0:0:0:0:
93,89,80499,1,4,0:0:0:0:
216,88,80666,2,0,B|464:88|464:88|464:344|464:344|216:344|216:344|392:168|392:168,1,999.999961853028
391,168,82666,5,0,0:0:0:0:
16,168,82999,1,8,0:0:0:0:
183,250,83165,1,0,0:0:0:0:
310,112,83332,1,0,0:0:0:0:
12,341,83666,1,8,0:0:0:0:
386,324,83999,1,0,0:0:0:0:
195,1,84332,1,8,0:0:0:0:
125,370,84666,1,0,0:0:0:0:
436,162,84999,1,8,0:0:0:0:
75,55,85333,5,0,0:0:0:0:
285,364,85666,1,8,0:0:0:0:
368,196,85832,1,0,0:0:0:0:
185,150,85999,1,0,0:0:0:0:
502,351,86333,1,8,0:0:0:0:
127,357,86666,1,0,0:0:0:0:
474,215,86999,1,8,0:0:0:0:
138,46,87333,2,0,P|114:159|96:28,1,375,0|8,0:0|0:0,0:0:0:0:
467,66,87999,5,4,0:0:0:0:
92,94,88333,1,12,0:0:0:0:
249,194,88499,1,4,0:0:0:0:
315,18,88666,1,4,0:0:0:0:
43,275,88999,1,12,0:0:0:0:
256,192,89333,12,0,90499,0:0:0:0:
256,192,90666,5,0,0:0:0:0:
79,15,90999,1,8,0:0:0:0:
167,103,91166,1,0,0:0:0:0:
78,191,91333,1,0,0:0:0:0:
166,279,91499,1,0,0:0:0:0:
77,367,91666,1,8,0:0:0:0:
256,192,91999,5,0,0:0:0:0:
77,367,92333,1,8,0:0:0:0:
166,279,92499,1,0,0:0:0:0:
254,367,92666,1,0,0:0:0:0:
342,278,92833,1,0,0:0:0:0:
430,366,92999,1,8,0:0:0:0:
256,192,93333,5,0,0:0:0:0:
430,366,93666,1,8,0:0:0:0:
342,278,93833,1,0,0:0:0:0:
430,189,93999,1,0,0:0:0:0:
342,101,94166,1,0,0:0:0:0:
430,12,94333,1,8,0:0:0:0:
256,192,94666,5,0,0:0:0:0:
430,12,94999,1,8,0:0:0:0:
342,101,95166,1,0,0:0:0:0:
253,12,95333,1,0,0:0:0:0:
164,100,95499,1,0,0:0:0:0:
75,11,95666,1,8,0:0:0:0:
164,100,95833,1,0,0:0:0:0:
256,192,95999,5,0,0:0:0:0:
75,11,96333,1,8,0:0:0:0:
164,100,96499,1,0,0:0:0:0:
75,188,96666,1,0,0:0:0:0:
163,276,96833,1,0,0:0:0:0:
74,364,96999,1,8,0:0:0:0:
163,276,97166,1,0,0:0:0:0:
256,192,97333,5,0,0:0:0:0:
74,364,97666,1,8,0:0:0:0:
163,276,97833,1,0,0:0:0:0:
255,367,97999,1,0,0:0:0:0:
343,278,98166,1,0,0:0:0:0:
431,366,98333,1,8,0:0:0:0:
343,278,98499,1,0,0:0:0:0:
256,192,98666,5,4,0:0:0:0:
431,366,98999,1,12,0:0:0:0:
343,278,99166,1,4,0:0:0:0:
431,189,99333,1,4,0:0:0:0:
342,100,99499,1,4,0:0:0:0:
430,11,99666,1,12,0:0:0:0:
256,192,99999,12,0,101166,0:0:0:0:
256,192,101333,6,0,L|152:88,1,124.999995231629
79,15,101666,1,8,0:0:0:0:
79,140,101833,1,0,0:0:0:0:
167,228,101999,2,0,L|255:316,1,124.999995231629
381,316,102333,1,8,0:0:0:0:
204,139,102666,6,0,L|100:35,1,124.999995231629
240,50,102999,1,8,0:0:0:0:
328,138,103166,1,0,0:0:0:0:
239,226,103332,2,0,L|327:314,1,124.999995231629
453,314,103666,1,8,0:0:0:0:
453,64,103999,6,0,L|304:64,1,124.999995231629
202,64,104333,1,8,0:0:0:0:
113,152,104499,1,0,0:0:0:0:
113,277,104666,2,0,L|244:277,1,124.999995231629
326,188,104999,1,8,0:0:0:0:
408,93,105166,1,0,0:0:0:0:
408,218,105333,2,0,P|417:223|446:104,1,187.499992847443
443,167,105666,1,8,0:0:0:0:
334,113,105833,1,0,0:0:0:0:
209,113,105999,2,0,P|152:135|133:192,1,124.999995231629
258,192,106332,2,0,P|235:248|262:302,1,124.999995231629,8|0,0:0|0:0,0:0:0:0:
350,211,106666,6,0,P|373:266|430:285,1,124.999995231629
510,187,106999,1,8,0:0:0:0:
386,163,107166,1,0,0:0:0:0:
431,284,107333,2,0,P|373:265|350:209,1,124.999995231629
210,218,107666,2,0,P|183:163|205:107,1,124.999995231629,8|0,0:0|0:0,0:0:0:0:
81,108,107999,6,0,P|100:50|156:28,1,124.999995231629
282,28,108333,1,8,0:0:0:0:
281,152,108499,1,0,0:0:0:0:
390,90,108666,2,0,P|446:112|465:169,1,124.999995231629
340,168,108999,2,0,P|362:224|335:278,1,124.999995231629,8|0,0:0|0:0,0:0:0:0:
212,279,109332,6,0,P|188:334|131:353,1,124.999995231629
40,263,109666,1,8,0:0:0:0:
54,138,109833,1,0,0:0:0:0:
176,112,109999,2,0,L|318:112,1,124.999995231629
413,171,110333,5,8,0:0:0:0:
377,49,110499,1,0,0:0:0:0:
329,169,110666,1,0,0:0:0:0:
281,49,110833,1,0,0:0:0:0:
232,168,110999,1,8,0:0:0:0:
191,49,111166,1,0,0:0:0:0:
144,168,111333,2,0,P|180:251|386:156,1,374.999985694885
276,223,111999,6,0,P|217:199|256:101,1,187.499992847443
268,162,112332,1,8,0:0:0:0:
142,162,112499,1,0,0:0:0:0:
103,281,112666,2,0,P|160:262|183:206,1,124.999995231629
308,207,112999,2,0,P|334:152|312:96,1,124.999995231629,8|0,0:0|0:0,0:0:0:0:
437,97,113332,6,0,P|417:39|361:17,1,124.999995231629
235,17,113666,1,8,0:0:0:0:
146,105,113833,1,0,0:0:0:0:
146,229,113999,2,0,L|238:137,1,124.999995231629
234,266,114333,1,8,0:0:0:0:
235,17,114666,6,0,L|143:109,1,124.999995231629
58,16,114999,1,8,0:0:0:0:
58,140,115165,1,0,0:0:0:0:
147,229,115333,2,0,L|246:130,1,124.999995231629
234,266,115666,1,8,0:0:0:0:
322,177,115832,1,0,0:0:0:0:
410,88,115999,2,0,P|470:70|498:171,1,187.499992847443
454,129,116332,1,8,0:0:0:0:
365,40,116499,1,0,0:0:0:0:
276,128,116666,2,0,L|175:229,1,124.999995231629
99,304,116999,1,8,0:0:0:0:
316,179,117333,6,0,P|400:170|395:85,1,187.499992847443
352,129,117666,1,8,0:0:0:0:
440,217,117832,1,0,0:0:0:0:
351,305,117999,2,0,L|261:215,1,124.999995231629
262,90,118333,1,8,0:0:0:0:
85,266,118666,6,0,L|186:165,1,124.999995231629
298,177,118999,1,8,0:0:0:0:
386,88,119165,1,0,0:0:0:0:
262,90,119333,2,0,L|170:182,1,124.999995231629
85,89,119666,1,8,0:0:0:0:
289,232,119999,6,0,P|302:293|199:316,1,187.499992847443
242,272,120332,1,8,0:0:0:0:
298,383,120499,1,0,0:0:0:0:
195,312,120666,2,0,P|181:250|284:227,1,187.499992847443
242,272,120999,1,8,0:0:0:0:
183,162,121165,1,0,0:0:0:0:
236,47,121333,2,0,P|293:66|316:122,1,124.999995231629
371,9,121666,2,0,P|397:64|375:120,1,124.999995231629,8|0,0:0|0:0,0:0:0:0:
494,81,121999,2,0,P|474:139|418:161,1,124.999995231629
418,160,122249,1,0,0:0:0:0:
418,160,122333,1,8,0:0:0:0:
294,173,122499,1,0,0:0:0:0:
181,173,122666,6,0,L|279:271,1,112.499992275238
147,252,122999,1,8,0:0:0:0:
67,172,123166,1,0,0:0:0:0:
146,92,123333,1,0,0:0:0:0:
370,92,123666,1,8,0:0:0:0:
370,316,123999,1,0,0:0:0:0:
144,316,124333,1,8,0:0:0:0:
144,91,124666,2,0,P|166:313|154:312,1,337.499976825715
160,204,125333,5,0,0:0:0:0:
318,45,125666,1,8,0:0:0:0:
318,157,125833,1,0,0:0:0:0:
430,157,125999,1,0,0:0:0:0:
270,316,126333,1,8,0:0:0:0:
494,316,126666,1,0,0:0:0:0:
335,157,126999,1,8,0:0:0:0:
109,157,127333,1,0,0:0:0:0:
270,316,127666,1,8,0:0:0:0:
428,157,127999,5,0,0:0:0:0:
202,157,128333,1,8,0:0:0:0:
122,77,128499,1,0,0:0:0:0:
234,77,128666,1,0,0:0:0:0:
392,235,128999,1,8,0:0:0:0:
166,235,129333,1,0,0:0:0:0:
324,76,129666,1,8,0:0:0:0:
324,300,129999,1,0,0:0:0:0:
324,300,130666,5,4,0:0:0:0:
101,334,130999,1,12,0:0:0:0:
163,240,131166,1,4,0:0:0:0:
57,280,131333,1,4,0:0:0:0:
203,109,131666,1,12,0:0:0:0:
256,192,131999,12,0,133166,0:0:0:0:
