osu file format v14

[General]
AudioFilename: audio.mp3
AudioLeadIn: 0
PreviewTime: 41940
Countdown: 0
SampleSet: Soft
StackLeniency: 0.7
Mode: 0
LetterboxInBreaks: 0
WidescreenStoryboard: 0

[Editor]
DistanceSpacing: 0.1
BeatDivisor: 4
GridSize: 4
TimelineZoom: 1.1

[Metadata]
Title:Airplanes (Feint Drum and Bass Remix)
TitleUnicode:Airplanes (Feint Drum and Bass Remix)
Artist:B.o.B feat. Hayley Williams
ArtistUnicode:B.o.B feat. Hayley Williams
Creator:Dayno
Version:Wish
Source:
Tags:dnb drum & and bass d&b d'n'b electronic english rap bob
BeatmapID:3164902
BeatmapSetID:1548941

[Difficulty]
HPDrainRate:5
CircleSize:4.5
OverallDifficulty:8.3
ApproachRate:9
SliderMultiplier:1.4
SliderTickRate:1

[Events]
//Background and Video events
0,0,"shooting star wow.jpg",0,0
//Break Periods
//Storyboard Layer 0 (Background)
//Storyboard Layer 1 (Fail)
//Storyboard Layer 2 (Pass)
//Storyboard Layer 3 (Foreground)
//Storyboard Layer 4 (Overlay)
//Storyboard Sound Samples

[TimingPoints]
58,337.078651685393,4,2,1,30,1,0
58,-200,4,2,1,30,0,0
20956,-166.666666666667,4,2,1,30,0,0
21293,-133.333333333333,4,2,1,40,0,0
21546,-133.333333333333,4,2,1,5,0,0
21631,-100,4,2,1,40,0,0
31743,-166.666666666667,4,2,1,40,0,0
32080,-133.333333333333,4,2,1,40,0,0
32333,-133.333333333333,4,2,1,5,0,0
32417,-100,4,2,1,40,0,0
42529,-166.666666666667,4,2,1,40,0,0
42866,-133.333333333333,4,2,1,40,0,0
43119,-133.333333333333,4,2,1,5,0,0
43204,-76.9230769230769,4,2,1,70,0,1
45900,-76.9230769230769,4,2,1,70,0,1
53316,-100,4,2,1,70,0,1
53653,-86.9565217391304,4,2,1,70,0,1
53906,-86.9565217391304,4,2,1,5,0,1
53990,-76.9230769230769,4,2,1,70,0,1
64777,-76.9230769230769,4,2,1,70,0,0
107249,-100,4,2,1,70,0,0
107586,-86.9565217391304,4,2,1,70,0,0
107838,-86.9565217391304,4,2,1,5,0,0
107923,-100,4,2,1,40,0,0
118035,-166.666666666667,4,2,1,40,0,0
118372,-133.333333333333,4,2,1,40,0,0
118625,-133.333333333333,4,2,1,5,0,0
118709,-100,4,2,1,40,0,0
129496,-200,4,2,1,30,0,0
150984,-100,4,2,1,5,0,0
151069,-100,4,2,1,60,0,0
169945,-133.333333333333,4,2,1,60,0,0
172642,-76.9230769230769,4,2,1,70,0,0
193035,-100,4,2,1,50,0,0
193541,-166.666666666667,4,2,1,50,0,0
193878,-133.333333333333,4,2,1,70,0,0
194131,-133.333333333333,4,2,1,5,0,0
194215,-76.9230769230769,4,2,1,70,0,1
204327,-100,4,2,1,70,0,1
204664,-86.9565217391304,4,2,1,70,0,1
204917,-86.9565217391304,4,2,1,5,0,1
205001,-76.9230769230769,4,2,1,70,0,1
215788,-76.9230769230769,4,2,1,60,0,0
237361,-200,4,2,1,30,0,0

[Colours]
Combo1 : 156,195,191
Combo2 : 66,90,132
Combo3 : 230,196,189

[HitObjects]
478,79,58,6,0,L|467:3,1,70,2|0,0:0|0:0,0:0:0:0:
409,128,732,2,0,L|398:58,1,70,2|0,0:0|0:0,0:0:0:0:
429,201,1406,6,0,P|394:143|328:147,2,140,2|2|2,0:0|0:0|0:0,0:0:0:0:
378,253,3428,1,2,0:0:0:0:
378,253,3765,1,2,0:0:0:0:
424,333,4102,6,0,L|344:322,1,70,2|0,0:0|0:0,0:0:0:0:
378,253,4777,2,0,L|298:242,1,70,2|0,0:0|0:0,0:0:0:0:
245,341,5451,6,0,P|239:275|198:207,2,140,2|2|2,0:0|0:0|0:0,0:0:0:0:
245,341,7473,1,2,0:0:0:0:
149,319,7810,1,2,0:0:0:0:
10,364,8147,6,0,L|87:378,1,70,2|0,0:0|0:0,0:0:0:0:
148,318,8822,2,0,L|80:306,1,70,2|0,0:0|0:0,0:0:0:0:
6,218,9496,6,0,B|73:197|73:197|130:236,2,140,2|2|2,0:0|0:0|0:0,0:0:0:0:
6,218,11518,1,2,0:0:0:0:
6,218,11855,1,2,0:0:0:0:
102,133,12192,6,0,P|88:91|-9:84,1,140,2|2,0:0|0:0,0:0:0:0:
91,5,13204,1,2,0:0:0:0:
156,63,13541,6,0,P|223:67|263:14,2,140,2|2|2,0:0|0:0|0:0,0:0:0:0:
156,63,15563,1,2,0:0:0:0:
101,137,15900,1,2,0:0:0:0:
191,176,16237,6,0,L|272:156,1,70,2|0,0:0|0:0,0:0:0:0:
326,224,16911,2,0,L|258:240,1,70,2|0,0:0|0:0,0:0:0:0:
208,108,17586,6,0,L|191:175,1,70,2|0,0:0|0:0,0:0:0:0:
67,195,18260,1,2,0:0:0:0:
114,131,18597,1,2,0:0:0:0:
109,248,18934,6,0,P|174:240|191:176,2,140,2|2|2,0:0|0:0|0:0,0:0:0:0:
0,193,20451,5,2,0:0:0:0:
67,195,20619,1,2,0:0:0:0:
109,248,20788,1,2,0:0:0:0:
96,315,20956,2,0,L|38:304,1,41.9999987182618,2|0,0:0|0:0,0:0:0:0:
203,372,21293,2,0,L|280:359,1,78.7500030040742,8|0,0:0|0:0,0:0:0:0:
359,345,21631,6,0,P|284:337|270:255,1,140,2|8,3:2|0:0,0:0:0:0:
376,127,22136,2,0,P|374:193|314:224,1,140,2|0,0:0|3:2,0:0:0:0:
260,91,22642,1,10,0:0:0:0:
310,151,22810,1,2,0:0:0:0:
97,205,22979,6,0,P|104:130|187:116,1,140,2|8,3:2|0:0,0:0:0:0:
315,224,23484,2,0,P|248:222|217:162,1,140,2|0,0:0|3:2,0:0:0:0:
260,91,23990,1,10,0:0:0:0:
260,91,24327,5,2,3:2:0:0:
264,0,24496,2,0,P|297:7|334:44,1,70,2|8,0:0|0:0,0:0:0:0:
342,150,24833,2,0,P|373:90|440:89,1,140,2|0,0:0|3:2,0:0:0:0:
469,186,25338,2,0,P|448:213|414:220,1,70,10|0,0:0|0:0,0:0:0:0:
342,150,25675,1,2,3:2:0:0:
342,150,26013,5,10,0:0:0:0:
275,187,26181,1,2,0:0:0:0:
415,149,26350,1,2,0:0:0:0:
286,96,26518,1,2,3:2:0:0:
357,223,26687,1,10,0:0:0:0:
364,78,26855,1,2,0:0:0:0:
265,213,27024,6,0,L|195:201,1,70,2|0,3:2|0:0,0:0:0:0:
342,150,27361,2,0,L|272:138,1,70,10|0,0:0|0:0,0:0:0:0:
140,23,27698,2,0,P|195:60|194:128,1,140,2|8,0:0|0:0,0:0:0:0:
193,128,28204,1,0,0:0:0:0:
92,221,28372,6,0,P|120:201|154:194,1,70,2|0,3:2|0:0,0:0:0:0:
93,294,28709,2,0,P|58:287|30:267,1,70,10|0,0:0|0:0,0:0:0:0:
163,382,29046,2,0,P|161:314|216:276,1,140,2|8,0:0|0:0,0:0:0:0:
215,276,29552,1,0,0:0:0:0:
331,369,29720,6,0,L|309:294,1,70,2|0,3:2|0:0,0:0:0:0:
422,381,30057,2,0,L|400:306,1,70,10|0,0:0|0:0,0:0:0:0:
447,238,30395,1,2,0:0:0:0:
373,197,30563,1,2,3:2:0:0:
446,146,30732,2,0,P|407:112|325:120,1,105,10|0,0:0|0:0,0:0:0:0:
341,122,31069,1,2,3:2:0:0:
373,197,31237,5,2,0:0:0:0:
305,205,31406,1,10,0:0:0:0:
254,159,31574,1,2,0:0:0:0:
263,90,31743,2,0,P|273:58|287:40,1,41.9999987182618,2|0,0:0|3:2,0:0:0:0:
133,72,32080,2,0,P|150:98|161:143,1,78.7500030040742,10|0,0:0|0:0,0:0:0:0:
151,216,32417,6,0,P|184:162|267:165,1,140,2|8,3:2|0:0,0:0:0:0:
383,294,32923,2,0,P|315:292|278:236,1,140,2|0,0:0|3:2,0:0:0:0:
408,170,33428,1,10,0:0:0:0:
351,226,33597,1,2,0:0:0:0:
255,158,33765,6,0,P|292:101|359:100,1,140,2|8,3:2|0:0,0:0:0:0:
465,274,34271,2,0,P|408:236|407:169,1,140,2|0,0:0|3:2,0:0:0:0:
484,88,34777,1,10,0:0:0:0:
484,88,35114,5,2,3:2:0:0:
411,0,35282,2,0,P|383:21|372:54,1,70,2|8,0:0|0:0,0:0:0:0:
406,150,35619,2,0,P|375:101|272:102,1,140,2|0,0:0|3:2,0:0:0:0:
280,184,36125,2,0,P|302:205|354:209,1,70,10|0,0:0|0:0,0:0:0:0:
406,150,36462,1,2,3:2:0:0:
406,150,36799,5,10,0:0:0:0:
430,232,36968,1,2,0:0:0:0:
332,109,37136,1,2,0:0:0:0:
492,142,37305,1,2,3:2:0:0:
339,212,37473,1,10,0:0:0:0:
423,71,37642,1,2,0:0:0:0:
504,210,37810,6,0,L|492:142,1,70,2|0,3:2|0:0,0:0:0:0:
417,300,38147,2,0,L|430:231,1,70,10|0,0:0|0:0,0:0:0:0:
356,351,38484,2,0,P|294:355|245:281,1,140,2|8,0:0|0:0,0:0:0:0:
246,299,38990,1,0,0:0:0:0:
135,229,39159,6,0,P|161:266|166:308,1,70,2|0,3:2|0:0,0:0:0:0:
234,209,39496,2,0,P|243:175|265:148,1,70,10|0,0:0|0:0,0:0:0:0:
91,148,39833,2,0,P|152:140|186:58,1,140,2|8,0:0|0:0,0:0:0:0:
188,76,40338,1,0,0:0:0:0:
123,0,40507,6,0,L|106:76,1,70,2|0,3:2|0:0,0:0:0:0:
27,31,40844,2,0,L|10:107,1,70,10|0,0:0|0:0,0:0:0:0:
71,152,41181,1,2,0:0:0:0:
44,233,41350,1,2,3:2:0:0:
133,292,41518,2,0,L|116:216,1,70,10|0,0:0|0:0,0:0:0:0:
27,368,41855,1,0,3:2:0:0:
123,359,42024,5,2,0:0:0:0:
133,292,42192,1,2,0:0:0:0:
90,239,42361,1,2,0:0:0:0:
20,241,42529,2,0,P|10:269|11:297,1,41.9999987182618,2|0,0:0|0:0,0:0:0:0:
157,224,42866,2,0,P|156:192|135:144,1,78.7500030040742,2|0,0:0|0:0,0:0:0:0:
74,49,43204,6,0,P|117:124|207:122,1,181.999991668702,6|8,3:2|0:0,0:0:0:0:
371,9,43709,2,0,P|294:50|291:136,1,181.999991668702,2|0,0:0|3:2,0:0:0:0:
448,52,44215,1,10,0:0:0:0:
370,100,44383,1,2,0:0:0:0:
512,315,44552,6,0,P|464:242|375:248,1,181.999991668702,2|8,3:2|0:0,0:0:0:0:
217,342,45057,2,0,P|291:297|289:210,1,181.999991668702,2|0,0:0|3:2,0:0:0:0:
160,56,45563,1,10,0:0:0:0:
160,56,45900,5,2,3:2:0:0:
67,99,46069,2,0,P|95:142|145:156,1,90.9999958343508,2|8,0:0|0:0,0:0:0:0:
335,0,46406,2,0,P|261:45|263:132,1,181.999991668702,2|0,0:0|3:2,0:0:0:0:
77,3,46911,1,8,0:0:0:0:
160,56,47080,1,0,0:0:0:0:
124,260,47249,1,2,3:2:0:0:
124,260,47586,5,10,0:0:0:0:
216,222,47754,1,2,0:0:0:0:
37,208,47923,1,2,0:0:0:0:
169,340,48091,1,2,3:2:0:0:
134,157,48260,1,10,0:0:0:0:
37,311,48428,1,2,0:0:0:0:
216,222,48597,6,0,P|262:201|319:208,1,90.9999958343508,2|0,3:2|0:0,0:0:0:0:
512,318,48934,2,0,P|466:318|426:298,1,90.9999958343508,10|0,0:0|0:0,0:0:0:0:
325,104,49271,2,0,L|343:301,1,181.999991668702,2|8,0:0|0:0,0:0:0:0:
341,285,49777,1,0,0:0:0:0:
157,369,49945,6,0,P|179:328|183:284,1,90.9999958343508,2|0,3:2|0:0,0:0:0:0:
20,177,50282,2,0,P|28:221|54:258,1,90.9999958343508,10|0,0:0|0:0,0:0:0:0:
301,202,50619,2,0,P|260:179|120:180,1,181.999991668702,2|8,0:0|0:0,0:0:0:0:
128,176,51125,1,0,0:0:0:0:
283,12,51293,6,0,P|274:56|248:93,1,90.9999958343508,2|0,3:2|0:0,0:0:0:0:
419,212,51631,2,0,P|392:175|384:130,1,90.9999958343508,10|0,0:0|0:0,0:0:0:0:
244,358,51968,1,2,0:0:0:0:
301,202,52136,1,2,3:2:0:0:
244,358,52305,2,0,L|94:336,1,136.499993751526,10|0,0:0|0:0,0:0:0:0:
41,357,52642,1,2,3:2:0:0:
0,211,52810,5,2,0:0:0:0:
86,229,52979,1,10,0:0:0:0:
155,175,53147,1,2,0:0:0:0:
158,87,53316,2,0,L|60:71,1,70,2|0,0:0|3:2,0:0:0:0:
239,228,53653,2,0,L|360:205,1,120.750002303124,10|0,0:0|0:0,0:0:0:0:
394,324,53990,6,0,P|363:257|467:199,1,181.999991668702,6|8,3:2|0:0,0:0:0:0:
475,41,54496,2,0,P|423:108|342:80,1,181.999991668702,2|0,0:0|3:2,0:0:0:0:
228,0,55001,1,10,0:0:0:0:
261,70,55170,1,2,0:0:0:0:
33,21,55338,6,0,P|55:108|63:199,1,181.999991668702,2|8,3:2|0:0,0:0:0:0:
231,248,55844,2,0,P|238:157|261:69,1,181.999991668702,2|0,0:0|3:2,0:0:0:0:
136,287,56350,1,10,0:0:0:0:
136,287,56687,5,2,3:2:0:0:
0,164,56855,2,0,P|42:127|79:126,1,90.9999958343508,2|8,0:0|0:0,0:0:0:0:
282,211,57192,2,0,P|233:183|239:59,1,181.999991668702,2|0,0:0|3:2,0:0:0:0:
396,149,57698,1,8,0:0:0:0:
302,123,57866,1,0,0:0:0:0:
436,313,58035,1,2,3:2:0:0:
436,313,58372,5,10,0:0:0:0:
371,260,58540,1,2,0:0:0:0:
512,289,58709,1,2,0:0:0:0:
366,348,58877,1,2,3:2:0:0:
455,223,59046,1,10,0:0:0:0:
488,375,59215,1,2,0:0:0:0:
371,260,59383,6,0,L|280:241,1,90.9999958343508,2|0,3:2|0:0,0:0:0:0:
328,17,59720,2,0,L|371:97,1,90.9999958343508,10|0,0:0|0:0,0:0:0:0:
179,260,60057,2,0,L|263:92,1,181.999991668702,2|8,0:0|0:0,0:0:0:0:
260,97,60563,1,0,0:0:0:0:
242,302,60732,6,0,P|203:333|132:328,1,90.9999958343508,2|0,3:2|0:0,0:0:0:0:
78,108,61069,2,0,P|122:115|156:144,1,90.9999958343508,10|0,0:0|0:0,0:0:0:0:
7,348,61406,2,0,P|13:257|120:213,1,181.999991668702,2|8,0:0|0:0,0:0:0:0:
84,211,61911,1,0,0:0:0:0:
241,300,62080,6,0,L|237:242,3,45.4999979171754,2|0|0|0,3:2|3:2|3:2|3:2,0:0:0:0:
370,176,62417,2,0,L|337:207,3,45.4999979171754,10|0|2|0,3:2|3:2|3:2|3:2,0:0:0:0:
221,104,62754,2,0,L|253:135,1,45.4999979171754,2|0,3:2|3:2,0:0:0:0:
120,56,62923,2,0,L|124:11,1,45.4999979171754,2|0,3:2|3:2,0:0:0:0:
136,175,63091,2,0,L|104:207,1,45.4999979171754,10|0,3:2|3:2,0:0:0:0:
43,290,63260,1,0,3:2:0:0:
43,290,63344,1,0,3:2:0:0:
43,290,63428,5,2,3:2:0:0:
54,257,63512,1,0,3:2:0:0:
82,237,63596,1,0,3:2:0:0:
116,235,63680,1,0,3:2:0:0:
147,251,63765,1,10,3:2:0:0:
178,268,63850,1,0,3:2:0:0:
211,267,63934,1,0,3:2:0:0:
240,246,64018,1,0,3:2:0:0:
253,214,64102,1,0,3:2:0:0:
272,184,64186,1,0,3:2:0:0:
301,167,64270,1,0,3:2:0:0:
335,165,64354,1,0,3:2:0:0:
365,182,64440,1,8,3:2:0:0:
382,211,64524,1,0,3:2:0:0:
375,244,64608,1,0,3:2:0:0:
347,263,64692,1,0,3:2:0:0:
313,257,64777,5,6,3:2:0:0:
468,186,64945,1,2,0:0:0:0:
367,98,65114,1,10,0:0:0:0:
451,261,65282,1,2,0:0:0:0:
367,98,65451,2,0,P|316:71|281:74,1,90.9999958343508,2|0,0:0|3:2,0:0:0:0:
191,207,65788,1,10,0:0:0:0:
91,43,65956,1,2,0:0:0:0:
106,203,66125,6,0,L|134:95,1,90.9999958343508,2|2,3:2|0:0,0:0:0:0:
0,317,66462,2,0,P|37:292|82:292,1,90.9999958343508,10|2,0:0|0:0,0:0:0:0:
319,296,66799,2,0,P|247:349|159:343,1,181.999991668702,2|8,0:0|0:0,0:0:0:0:
106,203,67305,1,2,0:0:0:0:
0,317,67473,5,2,3:2:0:0:
153,269,67642,1,2,0:0:0:0:
35,164,67810,1,10,0:0:0:0:
83,352,67979,1,2,0:0:0:0:
35,164,68147,2,0,P|114:121|144:123,1,90.9999958343508,2|0,0:0|3:2,0:0:0:0:
241,0,68484,2,0,P|211:34|198:77,1,90.9999958343508,10|0,0:0|0:0,0:0:0:0:
229,232,68822,5,2,3:2:0:0:
338,140,68990,1,2,0:0:0:0:
389,226,69159,2,0,L|272:208,1,90.9999958343508,10|2,0:0|0:0,0:0:0:0:
79,328,69496,2,0,L|265:303,1,181.999991668702,2|10,0:0|0:0,0:0:0:0:
387,379,70001,1,2,0:0:0:0:
454,195,70170,5,2,3:2:0:0:
337,319,70338,1,2,0:0:0:0:
463,358,70507,1,10,0:0:0:0:
299,212,70675,1,2,0:0:0:0:
463,358,70844,2,0,L|440:252,1,90.9999958343508,2|2,0:0|3:2,0:0:0:0:
395,113,71181,2,0,L|372:219,1,90.9999958343508,10|2,0:0|0:0,0:0:0:0:
205,61,71518,6,0,P|270:68|317:22,1,136.499993751526,2|0,3:2|0:0,0:0:0:0:
313,11,71855,1,10,0:0:0:0:
148,6,72024,1,2,0:0:0:0:
165,157,72192,2,0,P|117:110|52:118,1,136.499993751526,2|0,0:0|0:0,0:0:0:0:
39,128,72529,2,0,P|31:172|46:224,1,90.9999958343508,10|0,0:0|0:0,0:0:0:0:
167,323,72866,6,0,L|51:305,1,90.9999958343508,2|0,3:2|0:0,0:0:0:0:
205,232,73204,1,10,0:0:0:0:
251,364,73372,1,2,0:0:0:0:
205,232,73541,2,0,L|294:218,1,90.9999958343508,2|0,0:0|3:2,0:0:0:0:
472,338,73878,1,10,0:0:0:0:
350,260,74046,1,2,0:0:0:0:
499,192,74215,6,0,L|409:178,1,90.9999958343508,2|0,3:2|0:0,0:0:0:0:
463,343,74552,1,10,0:0:0:0:
341,265,74720,1,2,0:0:0:0:
490,197,74889,2,0,L|400:183,1,90.9999958343508,2|0,0:0|3:2,0:0:0:0:
297,13,75226,2,0,L|310:102,1,90.9999958343508,10|0,0:0|0:0,0:0:0:0:
506,46,75563,6,0,P|458:18|400:21,1,90.9999958343508,2|0,3:2|0:0,0:0:0:0:
310,102,75900,1,10,0:0:0:0:
400,183,76069,1,2,0:0:0:0:
310,102,76237,2,0,P|291:120|296:211,1,90.9999958343508,2|2,0:0|3:2,0:0:0:0:
371,344,76574,2,0,P|368:299|340:264,1,90.9999958343508,10|2,0:0|0:0,0:0:0:0:
144,344,76911,5,2,3:2:0:0:
264,271,77080,1,2,0:0:0:0:
145,237,77249,1,10,0:0:0:0:
234,381,77418,1,2,0:0:0:0:
145,237,77586,2,0,L|170:118,1,90.9999958343508,2|0,0:0|3:2,0:0:0:0:
5,205,77923,2,0,L|40:379,1,136.499993751526,10|0,0:0|0:0,0:0:0:0:
38,359,78260,6,0,P|82:357|121:308,1,90.9999958343508,2|2,3:2|0:0,0:0:0:0:
83,177,78597,1,10,0:0:0:0:
83,177,78765,1,2,0:0:0:0:
222,269,78934,2,0,P|177:266|144:236,1,90.9999958343508,2|0,0:0|3:2,0:0:0:0:
179,104,79271,1,10,0:0:0:0:
209,188,79440,1,2,0:0:0:0:
8,113,79608,6,0,L|100:98,1,90.9999958343508,2|0,3:2|0:0,0:0:0:0:
231,30,79945,1,10,0:0:0:0:
182,107,80114,1,2,0:0:0:0:
231,30,80282,2,0,L|323:45,1,90.9999958343508,2|0,0:0|3:2,0:0:0:0:
500,0,80619,2,0,P|467:48|440:158,1,136.499993751526,10|0,0:0|0:0,0:0:0:0:
428,137,80956,6,0,P|430:205|451:255,1,90.9999958343508,2|2,3:2|0:0,0:0:0:0:
301,384,81293,2,0,P|311:339|309:294,1,90.9999958343508,10|2,0:0|0:0,0:0:0:0:
249,167,81631,1,2,0:0:0:0:
218,247,81799,1,2,3:2:0:0:
213,98,81968,1,10,0:0:0:0:
326,195,82136,1,2,0:0:0:0:
45,220,82305,6,0,P|127:207|150:134,1,136.499993751526,2|0,3:2|0:0,0:0:0:0:
154,145,82642,1,10,0:0:0:0:
154,145,82811,1,2,0:0:0:0:
30,28,82979,2,0,P|14:78|12:136,1,90.9999958343508,2|0,0:0|3:2,0:0:0:0:
45,220,83316,1,10,0:0:0:0:
0,339,83484,1,2,0:0:0:0:
45,220,83653,5,2,3:2:0:0:
130,358,83822,1,2,0:0:0:0:
190,169,83990,1,10,0:0:0:0:
160,274,84159,1,2,0:0:0:0:
244,232,84327,1,2,0:0:0:0:
311,379,84496,1,2,3:2:0:0:
371,189,84664,1,10,0:0:0:0:
341,295,84833,1,2,0:0:0:0:
497,303,85001,6,0,P|453:293|422:260,1,90.9999958343508,2|0,3:2|0:0,0:0:0:0:
290,167,85338,2,0,P|299:123|332:92,1,90.9999958343508,10|0,0:0|0:0,0:0:0:0:
459,138,85675,1,2,0:0:0:0:
380,162,85844,1,0,3:2:0:0:
283,15,86013,2,0,L|416:43,1,136.499993751526,8|0,0:0|0:0,0:0:0:0:
438,49,86350,6,0,L|463:159,1,90.9999958343508,2|0,3:2|0:0,0:0:0:0:
350,277,86687,2,0,L|371:189,1,90.9999958343508,8|2,0:0|0:0,0:0:0:0:
484,334,87024,1,2,0:0:0:0:
462,255,87192,1,2,3:2:0:0:
358,362,87361,2,0,P|299:340|273:299,1,90.9999958343508,10|2,0:0|0:0,0:0:0:0:
295,196,87698,5,2,3:2:0:0:
295,196,87866,1,2,0:0:0:0:
178,285,88035,2,0,L|163:195,1,90.9999958343508,10|0,0:0|0:0,0:0:0:0:
46,135,88372,2,0,L|60:224,1,90.9999958343508,2|0,0:0|3:2,0:0:0:0:
108,53,88709,2,0,P|59:29|14:37,1,90.9999958343508,8|0,0:0|0:0,0:0:0:0:
196,8,89046,5,2,3:2:0:0:
122,135,89215,1,2,0:0:0:0:
300,0,89383,1,10,0:0:0:0:
108,53,89552,1,2,0:0:0:0:
195,184,89720,2,0,P|254:173|273:135,1,90.9999958343508,2|0,0:0|3:2,0:0:0:0:
300,0,90057,2,0,P|267:30|266:74,1,90.9999958343508,10|0,0:0|0:0,0:0:0:0:
351,91,90395,5,2,3:2:0:0:
351,91,90563,1,2,0:0:0:0:
512,53,90732,2,0,L|396:24,1,90.9999958343508,10|0,0:0|0:0,0:0:0:0:
300,0,91069,2,0,B|332:51|332:51|285:179,1,181.999991668702,2|8,0:0|0:0,0:0:0:0:
212,195,91574,1,0,0:0:0:0:
106,124,91743,6,0,P|146:78|210:77,1,90.9999958343508,2|2,3:2|0:0,0:0:0:0:
65,222,92080,1,10,0:0:0:0:
31,101,92249,1,2,0:0:0:0:
65,222,92417,2,0,L|41:337,1,90.9999958343508,2|0,0:0|3:2,0:0:0:0:
192,368,92754,2,0,L|168:253,1,90.9999958343508,10|0,0:0|0:0,0:0:0:0:
314,192,93091,5,2,3:2:0:0:
387,309,93260,1,2,0:0:0:0:
255,247,93428,1,10,0:0:0:0:
417,202,93597,1,2,0:0:0:0:
255,247,93765,2,0,P|232:198|241:148,1,90.9999958343508,2|0,0:0|3:2,0:0:0:0:
372,114,94102,1,10,0:0:0:0:
316,191,94271,1,2,0:0:0:0:
168,54,94440,6,0,L|274:37,1,90.9999958343508,2|0,3:2|0:0,0:0:0:0:
161,159,94777,2,0,L|55:176,1,90.9999958343508,10|0,0:0|0:0,0:0:0:0:
260,206,95114,2,0,P|305:145|409:158,1,181.999991668702,2|10,0:0|0:0,0:0:0:0:
348,225,95619,1,2,0:0:0:0:
337,329,95788,6,0,P|294:315|264:281,1,90.9999958343508,2|0,3:2|0:0,0:0:0:0:
174,355,96125,2,0,P|152:315|157:271,1,90.9999958343508,10|0,0:0|0:0,0:0:0:0:
53,250,96462,2,0,P|65:206|99:177,1,90.9999958343508,2|0,0:0|3:2,0:0:0:0:
258,151,96799,1,8,0:0:0:0:
141,34,96968,1,2,0:0:0:0:
258,151,97136,6,0,L|278:62,1,90.9999958343508,2|0,3:2|0:0,0:0:0:0:
429,25,97473,2,0,L|408:113,1,90.9999958343508,10|0,0:0|0:0,0:0:0:0:
503,308,97810,2,0,L|482:219,1,90.9999958343508,2|0,0:0|3:2,0:0:0:0:
351,199,98147,2,0,L|371:287,1,90.9999958343508,10|0,0:0|0:0,0:0:0:0:
304,369,98484,5,2,3:2:0:0:
265,230,98653,1,2,0:0:0:0:
206,307,98822,2,0,P|145:279|65:281,1,136.499993751526,10|0,0:0|0:0,0:0:0:0:
53,297,99159,2,0,P|70:253|70:197,1,90.9999958343508,2|0,0:0|3:2,0:0:0:0:
7,85,99496,1,8,0:0:0:0:
92,132,99664,1,2,0:0:0:0:
165,56,99833,6,0,P|116:21|79:32,1,90.9999958343508,2|0,3:2|0:0,0:0:0:0:
245,138,100170,2,0,P|289:139|320:108,1,90.9999958343508,10|0,0:0|0:0,0:0:0:0:
358,0,100507,1,2,0:0:0:0:
408,74,100675,1,2,3:2:0:0:
512,3,100844,2,0,L|490:115,1,90.9999958343508,10|0,0:0|0:0,0:0:0:0:
388,154,101181,6,0,L|410:298,1,136.499993751526,2|0,3:2|0:0,0:0:0:0:
416,316,101518,2,0,L|313:291,1,90.9999958343508,10|0,0:0|0:0,0:0:0:0:
273,384,101855,2,0,P|305:337|216:256,1,181.999991668702,2|8,0:0|0:0,0:0:0:0:
160,282,102361,1,2,0:0:0:0:
100,369,102529,6,0,P|60:312|60:257,1,90.9999958343508,2|0,3:2|0:0,0:0:0:0:
162,123,102866,2,0,P|148:166|118:199,1,90.9999958343508,10|0,0:0|0:0,0:0:0:0:
90,40,103204,2,0,P|130:20|175:19,1,90.9999958343508,2|0,0:0|3:2,0:0:0:0:
307,118,103541,1,10,0:0:0:0:
219,80,103709,1,2,0:0:0:0:
262,192,103878,5,2,3:2:0:0:
395,60,104046,2,0,L|378:156,1,90.9999958343508,2|8,0:0|0:0,0:0:0:0:
512,295,104383,2,0,P|449:251|332:252,1,181.999991668702,2|2,0:0|3:2,0:0:0:0:
228,383,104889,1,10,0:0:0:0:
265,287,105057,1,2,0:0:0:0:
163,311,105226,5,2,3:2:0:0:
128,303,105310,1,0,3:2:0:0:
105,278,105394,1,0,3:2:0:0:
99,244,105478,1,0,3:2:0:0:
113,213,105563,1,10,3:2:0:0:
127,181,105647,1,0,3:2:0:0:
121,148,105731,1,0,3:2:0:0:
97,123,105815,1,0,3:2:0:0:
64,116,105900,1,2,3:2:0:0:
95,129,105984,1,0,3:2:0:0:
128,125,106068,1,2,3:2:0:0:
156,104,106152,1,0,3:2:0:0:
177,76,106237,1,10,3:2:0:0:
207,57,106321,1,0,3:2:0:0:
241,58,106405,1,2,3:2:0:0:
268,78,106489,1,0,3:2:0:0:
279,111,106574,2,0,L|267:157,1,45.4999979171754,2|0,3:2|3:2,0:0:0:0:
348,50,106743,6,0,L|426:71,1,45.4999979171754,2|0,3:2|3:2,0:0:0:0:
512,118,106911,2,0,L|468:129,1,45.4999979171754,10|0,3:2|3:2,0:0:0:0:
343,195,107080,2,0,L|386:206,1,45.4999979171754,2|0,3:2|3:2,0:0:0:0:
487,298,107249,2,0,P|478:267|433:232,1,70,2|0,3:2|3:2,0:0:0:0:
320,354,107586,2,0,P|366:341|395:279,1,120.750002303124,10|0,3:2|3:2,0:0:0:0:
387,206,107923,6,0,P|357:166|258:184,1,140,6|8,3:2|0:0,0:0:0:0:
225,260,108428,2,0,P|195:299|96:281,1,140,2|0,0:0|3:2,0:0:0:0:
138,148,108934,1,10,0:0:0:0:
138,148,109102,1,2,0:0:0:0:
200,95,109271,6,0,P|178:134|154:253,1,140,2|8,3:2|0:0,0:0:0:0:
228,259,109777,2,0,P|242:191|274:129,1,140,2|0,0:0|3:2,0:0:0:0:
377,59,110282,1,10,0:0:0:0:
377,59,110619,5,2,3:2:0:0:
447,142,110788,2,0,P|415:157|381:165,1,70,2|8,0:0|0:0,0:0:0:0:
292,209,111125,2,0,P|220:196|154:152,1,140,2|0,0:0|3:2,0:0:0:0:
236,81,111631,2,0,P|281:93|316:116,1,70,10|0,0:0|0:0,0:0:0:0:
381,165,111968,1,2,3:2:0:0:
381,165,112305,5,10,0:0:0:0:
305,196,112473,1,2,0:0:0:0:
415,98,112642,1,2,0:0:0:0:
408,241,112810,1,2,3:2:0:0:
334,101,112979,1,10,0:0:0:0:
461,172,113147,1,2,0:0:0:0:
305,196,113316,6,0,P|293:222|296:274,1,70,2|0,3:2|0:0,0:0:0:0:
420,307,113653,2,0,P|420:272|407:240,1,70,10|0,0:0|0:0,0:0:0:0:
512,168,113990,2,0,L|361:144,1,140,2|8,0:0|0:0,0:0:0:0:
373,146,114496,1,0,0:0:0:0:
289,59,114664,6,0,L|305:143,1,70,2|0,3:2|0:0,0:0:0:0:
183,73,115001,2,0,L|196:4,1,70,10|0,0:0|0:0,0:0:0:0:
25,77,115338,2,0,P|84:70|101:158,1,140,2|8,0:0|0:0,0:0:0:0:
113,134,115844,1,0,0:0:0:0:
168,197,116013,6,0,P|126:215|92:216,1,70,2|0,3:2|0:0,0:0:0:0:
110,313,116350,2,0,P|75:308|44:293,1,70,10|0,0:0|0:0,0:0:0:0:
175,384,116687,1,2,0:0:0:0:
237,316,116855,1,2,3:2:0:0:
311,377,117024,2,0,P|362:370|407:344,1,105,10|0,0:0|0:0,0:0:0:0:
408,324,117361,1,2,3:2:0:0:
512,251,117529,5,2,0:0:0:0:
444,257,117698,1,10,0:0:0:0:
390,216,117866,1,2,0:0:0:0:
370,148,118035,2,0,L|382:96,1,41.9999987182618,2|0,0:0|3:2,0:0:0:0:
249,7,118372,2,0,L|266:94,1,78.7500030040742,10|0,0:0|0:0,0:0:0:0:
302,141,118709,6,0,P|250:110|152:107,1,140,2|8,3:2|0:0,0:0:0:0:
107,41,119215,2,0,P|140:101|145:170,1,140,2|0,0:0|3:2,0:0:0:0:
76,214,119720,1,10,0:0:0:0:
76,214,119889,1,2,0:0:0:0:
30,286,120057,6,0,P|68:245|155:261,1,140,2|8,3:2|0:0,0:0:0:0:
213,316,120563,2,0,P|251:357|338:341,1,140,2|0,0:0|3:2,0:0:0:0:
408,289,121069,1,10,0:0:0:0:
408,289,121406,5,2,3:2:0:0:
496,276,121574,2,0,P|475:228|455:209,1,70,2|8,0:0|0:0,0:0:0:0:
512,115,121911,2,0,P|449:146|380:158,1,140,2|0,0:0|3:2,0:0:0:0:
339,90,122417,2,0,P|306:78|272:73,1,70,10|0,0:0|0:0,0:0:0:0:
214,117,122754,1,2,3:2:0:0:
214,117,123091,5,10,0:0:0:0:
139,146,123260,1,2,0:0:0:0:
271,72,123428,1,2,0:0:0:0:
216,194,123597,1,2,3:2:0:0:
176,50,123765,1,10,0:0:0:0:
286,153,123934,1,2,0:0:0:0:
358,21,124102,6,0,L|340:88,1,70,2|0,3:2|0:0,0:0:0:0:
216,194,124440,2,0,L|199:126,1,70,10|0,0:0|0:0,0:0:0:0:
160,44,124777,2,0,P|110:30|52:95,1,140,2|8,0:0|0:0,0:0:0:0:
52,86,125282,1,0,0:0:0:0:
0,161,125451,6,0,P|30:186|54:221,1,70,2|0,3:2|0:0,0:0:0:0:
139,177,125788,2,0,P|142:215|134:257,1,70,10|0,0:0|0:0,0:0:0:0:
28,377,126125,2,0,P|88:339|164:336,1,140,2|8,0:0|0:0,0:0:0:0:
155,334,126631,1,0,0:0:0:0:
297,322,126799,6,0,L|214:295,1,70,2|0,3:2|0:0,0:0:0:0:
344,196,127136,2,0,L|365:262,1,70,10|0,0:0|0:0,0:0:0:0:
212,219,127473,1,2,0:0:0:0:
274,163,127642,1,2,3:2:0:0:
216,84,127810,2,0,B|243:70|243:70|346:99,1,105,10|0,0:0|0:0,0:0:0:0:
326,103,128147,6,0,L|402:126,1,70,2|0,3:2|0:0,0:0:0:0:
489,112,128484,2,0,P|444:118|423:212,1,140,8|0,0:0|0:0,0:0:0:0:
384,270,128990,1,0,3:2:0:0:
453,317,129159,1,8,0:0:0:0:
156,335,129496,6,0,L|230:347,1,70,6|0,3:2|0:0,0:0:0:0:
181,257,130170,2,0,L|107:245,1,70,2|0,0:0|0:0,0:0:0:0:
35,197,130844,6,0,P|66:228|86:323,2,140,2|2|2,0:0|0:0|0:0,0:0:0:0:
35,197,132866,1,2,0:0:0:0:
35,197,133204,1,2,0:0:0:0:
135,110,133541,6,0,P|97:129|66:130,1,70,2|0,0:0|0:0,0:0:0:0:
125,31,134215,2,0,P|159:34|189:51,1,70,2|0,0:0|0:0,0:0:0:0:
215,138,134889,6,0,L|236:0,2,140,2|2|2,0:0|0:0|0:0,0:0:0:0:
215,138,136911,1,2,0:0:0:0:
307,87,137249,1,2,0:0:0:0:
382,172,137586,6,0,L|310:161,1,70,2|0,0:0|0:0,0:0:0:0:
244,227,138260,2,0,L|316:238,1,70,2|0,0:0|0:0,0:0:0:0:
408,384,138934,6,0,L|384:234,1,140,2|2,0:0|0:0,0:0:0:0:
315,316,139945,1,2,0:0:0:0:
257,370,140282,6,0,P|188:370|130:332,2,140,2|2|2,0:0|0:0|0:0,0:0:0:0:
257,370,142305,1,2,0:0:0:0:
257,370,142642,1,2,0:0:0:0:
253,273,142979,6,0,P|225:257|177:255,1,70,2|0,0:0|0:0,0:0:0:0:
133,187,143653,2,0,P|160:171|208:169,1,70,2|0,0:0|0:0,0:0:0:0:
279,176,144327,6,0,P|227:163|223:87,2,140,2|2|2,0:0|0:0|0:0,0:0:0:0:
279,176,146350,1,2,0:0:0:0:
278,176,146687,1,2,0:0:0:0:
359,81,147024,6,0,L|348:161,1,70,2|0,0:0|0:0,0:0:0:0:
397,232,147698,1,2,0:0:0:0:
461,160,148035,1,2,0:0:0:0:
349,150,148372,6,0,P|312:187|310:271,2,140,2|2|2,0:0|0:0|0:0,0:0:0:0:
256,192,149805,12,0,150984,0:0:0:0:
156,335,151069,5,0,3:2:0:0:
219,236,151237,1,2,0:0:0:0:
219,236,151406,2,0,L|236:315,1,70,2|2,0:0|0:0,0:0:0:0:
381,293,151743,2,0,P|330:275|303:278,1,70,10|0,0:0|0:0,0:0:0:0:
293,367,152080,2,0,P|324:382|358:383,1,70,2|0,0:0|0:0,0:0:0:0:
437,347,152417,5,2,0:0:0:0:
397,227,152586,1,0,3:2:0:0:
397,227,152754,2,0,P|381:258|380:292,1,70,2|2,3:2|0:0,0:0:0:0:
380,292,153091,1,10,0:0:0:0:
505,247,153260,2,0,P|503:212|456:129,1,105,0|0,3:2|0:0,0:0:0:0:
452,142,153597,1,2,0:0:0:0:
427,49,153765,6,0,L|509:67,1,70,2|0,3:2|0:0,0:0:0:0:
328,163,154102,1,2,0:0:0:0:
427,49,154271,1,2,3:2:0:0:
346,80,154440,2,0,L|202:118,1,140,10|0,0:0|0:0,0:0:0:0:
254,21,154945,1,2,0:0:0:0:
148,57,155114,6,0,P|126:107|129:134,1,70,2|2,0:0|0:0,0:0:0:0:
33,117,155451,2,0,P|36:151|54:181,1,70,2|0,3:2|0:0,0:0:0:0:
54,181,155788,1,10,0:0:0:0:
0,261,155956,2,0,P|58:261|104:306,1,105,0|0,3:2|0:0,0:0:0:0:
94,308,156293,1,2,0:0:0:0:
150,381,156462,5,2,3:2:0:0:
218,366,156631,1,2,0:0:0:0:
273,231,156799,1,2,0:0:0:0:
258,299,156968,1,2,0:0:0:0:
362,384,157136,2,0,L|274:353,1,70,10|2,0:0|0:0,0:0:0:0:
431,288,157473,1,2,0:0:0:0:
356,309,157642,1,2,0:0:0:0:
464,374,157810,5,2,0:0:0:0:
356,309,157979,1,2,3:2:0:0:
356,309,158147,2,0,B|341:282|341:282|365:184,1,105,2|0,3:2|0:0,0:0:0:0:
365,189,158484,1,10,0:0:0:0:
451,147,158653,2,0,L|470:70,1,70,0|0,3:2|0:0,0:0:0:0:
467,79,158990,1,2,0:0:0:0:
317,74,159159,6,0,P|350:55|389:48,1,70,2|2,3:2|0:0,0:0:0:0:
250,5,159496,1,2,0:0:0:0:
221,78,159664,1,2,3:2:0:0:
94,35,159833,2,0,L|169:18,1,70,10|2,0:0|0:0,0:0:0:0:
234,147,160170,1,2,0:0:0:0:
161,118,160338,1,2,0:0:0:0:
31,126,160507,6,0,P|62:144|83:172,1,70,2|2,0:0|0:0,0:0:0:0:
67,258,160844,2,0,L|53:340,1,70,2|0,3:2|0:0,0:0:0:0:
55,327,161181,1,10,0:0:0:0:
155,189,161350,2,0,L|179:321,1,105,0|0,3:2|0:0,0:0:0:0:
180,317,161687,1,2,0:0:0:0:
307,284,161855,6,0,P|273:267|219:267,1,70,2|2,3:2|0:0,0:0:0:0:
368,350,162192,2,0,P|402:345|433:329,1,70,2|2,0:0|0:0,0:0:0:0:
476,252,162529,1,10,0:0:0:0:
512,320,162698,1,2,0:0:0:0:
395,258,162866,1,2,0:0:0:0:
431,190,163035,1,2,0:0:0:0:
512,115,163204,5,2,0:0:0:0:
441,79,163372,1,2,3:2:0:0:
441,79,163541,2,0,L|357:105,1,70,2|0,3:2|0:0,0:0:0:0:
374,99,163878,1,8,0:0:0:0:
258,20,164046,1,2,3:2:0:0:
325,41,164215,1,2,0:0:0:0:
269,95,164383,1,2,0:0:0:0:
162,16,164552,6,0,P|180:49|189:88,1,70,2|0,3:2|0:0,0:0:0:0:
134,135,164889,1,2,0:0:0:0:
176,195,165057,1,2,3:2:0:0:
77,294,165226,1,10,0:0:0:0:
141,258,165394,1,2,0:0:0:0:
48,159,165563,2,0,L|30:245,1,70,2|0,0:0|0:0,0:0:0:0:
77,294,165900,5,2,0:0:0:0:
141,258,166069,1,2,0:0:0:0:
188,317,166237,2,0,L|272:295,1,70,2|0,3:2|0:0,0:0:0:0:
255,299,166574,1,8,0:0:0:0:
375,376,166743,1,2,3:2:0:0:
335,316,166911,1,2,0:0:0:0:
387,260,167080,1,2,0:0:0:0:
508,219,167249,6,0,L|422:199,1,70,2|2,3:2|0:0,0:0:0:0:
354,134,167586,2,0,L|422:118,1,70,2|2,0:0|0:0,0:0:0:0:
486,65,167923,1,10,0:0:0:0:
411,44,168091,1,2,0:0:0:0:
267,24,168260,1,2,0:0:0:0:
343,2,168428,1,2,0:0:0:0:
294,99,168597,5,2,0:0:0:0:
200,72,168765,1,2,3:2:0:0:
200,72,168934,2,0,P|186:105|183:154,1,70,2|0,3:2|0:0,0:0:0:0:
181,138,169271,1,10,0:0:0:0:
40,179,169440,2,0,P|82:178|136:268,1,140,2|2,3:2|0:0,0:0:0:0:
156,374,169945,6,0,P|156:348|223:290,2,105.000004005432,2|2|2,3:2|0:0|0:0,0:0:0:0:
287,309,170956,1,2,0:0:0:0:
287,309,171125,1,2,0:0:0:0:
227,360,171293,6,0,P|247:376|272:384,1,52.5000020027161,2|0,0:0|0:0,0:0:0:0:
287,309,171631,1,2,0:0:0:0:
287,309,171799,1,2,0:0:0:0:
391,384,171968,2,0,P|373:341|378:294,1,78.7500030040742,2|0,0:0|0:0,0:0:0:0:
366,297,172305,2,0,P|373:259|379:246,1,52.5000020027161,8|2,0:0|0:0,0:0:0:0:
460,207,172642,6,0,P|437:171|371:165,1,90.9999958343508,6|2,3:2|0:0,0:0:0:0:
306,190,172979,1,10,0:0:0:0:
366,297,173147,1,2,0:0:0:0:
306,190,173316,2,0,L|323:100,1,90.9999958343508,2|0,0:0|3:2,0:0:0:0:
345,2,173653,1,10,0:0:0:0:
201,124,173822,1,2,0:0:0:0:
118,5,173990,5,2,3:2:0:0:
247,58,174159,1,2,0:0:0:0:
0,105,174327,2,0,L|113:80,1,90.9999958343508,10|0,0:0|0:0,0:0:0:0:
129,246,174664,2,0,L|40:226,1,90.9999958343508,2|0,0:0|3:2,0:0:0:0:
201,124,175001,2,0,P|233:161|238:204,1,90.9999958343508,8|2,0:0|0:0,0:0:0:0:
168,363,175338,5,2,3:2:0:0:
244,279,175507,1,2,0:0:0:0:
337,365,175675,2,0,P|366:362|409:300,1,90.9999958343508,10|2,0:0|0:0,0:0:0:0:
360,154,176013,2,0,P|323:180|313:223,1,90.9999958343508,2|2,0:0|3:2,0:0:0:0:
485,310,176350,1,10,0:0:0:0:
386,223,176518,1,2,0:0:0:0:
450,93,176687,5,2,3:2:0:0:
471,223,176855,1,2,0:0:0:0:
450,93,177024,2,0,P|407:60|342:75,1,90.9999958343508,10|0,0:0|0:0,0:0:0:0:
198,11,177361,2,0,P|241:26|265:124,1,136.499993751526,2|0,0:0|0:0,0:0:0:0:
258,128,177698,1,8,0:0:0:0:
371,59,177866,1,2,0:0:0:0:
174,144,178035,6,0,P|132:100|136:57,1,90.9999958343508,2|2,3:2|0:0,0:0:0:0:
258,128,178372,1,10,0:0:0:0:
187,246,178541,1,2,0:0:0:0:
324,276,178709,1,2,0:0:0:0:
187,246,178878,1,2,3:2:0:0:
127,384,179046,2,0,L|237:357,1,90.9999958343508,10|0,0:0|0:0,0:0:0:0:
345,187,179383,6,0,L|323:275,1,90.9999958343508,2|0,3:2|0:0,0:0:0:0:
430,357,179720,2,0,L|451:268,1,90.9999958343508,10|0,0:0|0:0,0:0:0:0:
498,121,180057,2,0,P|466:148|408:145,1,90.9999958343508,2|0,0:0|3:2,0:0:0:0:
321,0,180395,2,0,P|348:32|345:90,1,90.9999958343508,10|2,0:0|0:0,0:0:0:0:
204,81,180732,5,2,3:2:0:0:
330,160,180900,1,2,0:0:0:0:
321,0,181069,1,10,0:0:0:0:
234,167,181237,1,2,0:0:0:0:
122,107,181406,2,0,B|76:101|76:101|42:131,1,90.9999958343508,2|2,0:0|3:2,0:0:0:0:
61,256,181743,2,0,B|132:257|132:257|184:204,1,136.499993751526,10|0,0:0|0:0,0:0:0:0:
204,81,182080,6,0,L|238:181,1,90.9999958343508,2|0,3:2|0:0,0:0:0:0:
381,166,182417,1,10,0:0:0:0:
277,288,182586,1,2,0:0:0:0:
381,166,182754,2,0,L|294:136,1,90.9999958343508,2|0,0:0|3:2,0:0:0:0:
353,333,183091,2,0,L|492:275,1,136.499993751526,8|0,0:0|0:0,0:0:0:0:
494,272,183428,6,0,P|501:343|481:367,1,90.9999958343508,2|2,3:2|0:0,0:0:0:0:
379,250,183765,2,0,P|372:179|392:155,1,90.9999958343508,10|2,0:0|0:0,0:0:0:0:
464,14,184102,2,0,P|449:70|316:49,1,181.999991668702,2|8,0:0|0:0,0:0:0:0:
208,7,184608,1,2,0:0:0:0:
312,174,184777,5,2,3:2:0:0:
389,27,184945,1,2,0:0:0:0:
216,99,185114,1,10,0:0:0:0:
298,16,185282,1,2,0:0:0:0:
312,174,185451,2,0,L|204:185,1,90.9999958343508,2|0,0:0|3:2,0:0:0:0:
208,7,185788,2,0,L|298:16,1,90.9999958343508,8|2,0:0|0:0,0:0:0:0:
141,97,186125,5,2,3:2:0:0:
102,24,186293,1,2,0:0:0:0:
216,99,186462,1,10,0:0:0:0:
78,146,186630,1,2,0:0:0:0:
226,284,186799,2,0,P|210:254|113:264,1,136.499993751526,2|0,0:0|0:0,0:0:0:0:
114,268,187136,2,0,L|136:372,1,90.9999958343508,10|2,0:0|0:0,0:0:0:0:
304,225,187473,5,2,3:2:0:0:
274,358,187642,1,2,0:0:0:0:
490,296,187810,2,0,L|385:325,1,90.9999958343508,10|0,0:0|0:0,0:0:0:0:
304,225,188147,2,0,L|409:196,1,90.9999958343508,2|0,0:0|3:2,0:0:0:0:
512,85,188484,1,8,0:0:0:0:
462,179,188653,1,2,0:0:0:0:
422,7,188822,5,2,3:2:0:0:
414,95,188990,2,0,P|341:48|334:21,1,90.9999958343508,2|8,0:0|0:0,0:0:0:0:
149,40,189327,2,0,P|213:41|290:152,1,181.999991668702,2|2,0:0|3:2,0:0:0:0:
258,237,189833,1,10,0:0:0:0:
148,207,190001,1,2,0:0:0:0:
127,352,190170,5,2,3:2:0:0:
25,217,190338,2,0,P|52:252|95:266,1,90.9999958343508,2|8,0:0|0:0,0:0:0:0:
287,124,190675,2,0,P|199:135|148:207,1,181.999991668702,2|0,0:0|3:2,0:0:0:0:
292,346,191181,2,0,P|333:329|359:292,1,90.9999958343508,8|2,0:0|0:0,0:0:0:0:
258,237,191518,5,2,3:2:0:0:
497,373,193035,5,2,0:0:0:0:
430,384,193204,1,2,0:0:0:0:
375,343,193372,1,2,0:0:0:0:
369,276,193541,2,0,P|391:262|417:260,1,41.9999987182618,2|0,0:0|0:0,0:0:0:0:
490,185,193878,2,0,P|456:183|424:142,1,78.7500030040742,10|0,0:0|0:0,0:0:0:0:
453,41,194215,6,0,P|397:146|318:135,1,181.999991668702,6|8,3:2|0:0,0:0:0:0:
153,0,194720,2,0,P|258:56|247:135,1,181.999991668702,2|0,0:0|3:2,0:0:0:0:
119,183,195226,1,10,0:0:0:0:
172,87,195395,1,2,0:0:0:0:
3,205,195563,6,0,P|49:336|53:406,1,181.999991668702,2|8,3:2|0:0,0:0:0:0:
260,106,196069,2,0,P|214:237|210:307,1,181.999991668702,2|0,0:0|3:2,0:0:0:0:
296,384,196574,1,8,0:0:0:0:
296,384,196911,5,2,3:2:0:0:
328,257,197080,2,0,P|374:266|405:305,1,90.9999958343508,2|8,0:0|0:0,0:0:0:0:
512,116,197417,2,0,P|463:187|359:163,1,181.999991668702,2|0,0:0|3:2,0:0:0:0:
310,0,197923,1,8,0:0:0:0:
411,63,198092,1,0,0:0:0:0:
343,261,198260,1,2,3:2:0:0:
343,261,198597,5,10,0:0:0:0:
380,347,198765,1,2,0:0:0:0:
375,179,198934,1,2,0:0:0:0:
271,308,199102,1,2,3:2:0:0:
437,268,199271,1,10,0:0:0:0:
269,196,199440,1,2,0:0:0:0:
232,369,199608,6,0,L|130:352,1,90.9999958343508,2|0,3:2|0:0,0:0:0:0:
7,223,199945,2,0,L|109:206,1,90.9999958343508,10|0,0:0|0:0,0:0:0:0:
245,2,200282,2,0,P|177:16|197:116,1,181.999991668702,2|8,0:0|0:0,0:0:0:0:
187,110,200788,1,0,0:0:0:0:
271,253,200956,6,0,P|322:205|330:171,1,90.9999958343508,2|0,3:2|0:0,0:0:0:0:
245,2,201293,2,0,P|265:42|301:68,1,90.9999958343508,10|0,0:0|0:0,0:0:0:0:
497,0,201631,2,0,L|454:203,1,181.999991668702,2|8,0:0|0:0,0:0:0:0:
459,178,202136,1,0,0:0:0:0:
443,376,202305,6,0,L|524:304,1,90.9999958343508,2|0,3:2|0:0,0:0:0:0:
309,237,202642,2,0,L|324:344,1,90.9999958343508,10|0,0:0|0:0,0:0:0:0:
477,183,202979,1,2,0:0:0:0:
294,137,203147,1,2,3:2:0:0:
477,183,203316,2,0,P|435:121|459:28,1,136.499993751526,10|0,0:0|0:0,0:0:0:0:
498,19,203653,1,2,3:2:0:0:
206,48,203822,5,2,0:0:0:0:
278,0,203990,1,10,0:0:0:0:
360,28,204159,1,2,0:0:0:0:
386,112,204327,2,0,P|347:142|297:138,1,70,2|0,0:0|3:2,0:0:0:0:
101,14,204664,2,0,P|152:8|209:54,1,120.750002303124,10|0,0:0|0:0,0:0:0:0:
325,68,205001,6,0,P|229:57|205:156,1,181.999991668702,6|8,3:2|0:0,0:0:0:0:
5,184,205507,2,0,P|88:166|134:238,1,181.999991668702,2|0,0:0|3:2,0:0:0:0:
76,360,206013,1,10,0:0:0:0:
41,279,206181,1,2,0:0:0:0:
206,368,206350,6,0,P|273:321|393:318,1,181.999991668702,2|8,3:2|0:0,0:0:0:0:
512,193,206855,2,0,P|422:186|346:136,1,181.999991668702,2|0,0:0|3:2,0:0:0:0:
255,29,207361,1,10,0:0:0:0:
255,29,207698,5,2,3:2:0:0:
137,78,207866,2,0,P|160:126|214:144,1,90.9999958343508,2|8,0:0|0:0,0:0:0:0:
419,34,208204,2,0,P|339:50|294:166,1,181.999991668702,2|0,0:0|3:2,0:0:0:0:
512,64,208709,1,8,0:0:0:0:
398,139,208878,1,0,0:0:0:0:
137,78,209046,1,2,3:2:0:0:
137,78,209383,5,10,0:0:0:0:
255,75,209552,1,2,0:0:0:0:
72,6,209720,1,2,0:0:0:0:
143,171,209889,1,2,3:2:0:0:
194,0,210057,1,10,0:0:0:0:
48,113,210226,1,2,0:0:0:0:
237,161,210395,6,0,P|278:184|335:179,1,90.9999958343508,2|0,3:2|0:0,0:0:0:0:
459,27,210732,2,0,P|413:27|374:49,1,90.9999958343508,10|0,0:0|0:0,0:0:0:0:
380,293,211069,2,0,P|391:203|440:127,1,181.999991668702,2|8,0:0|0:0,0:0:0:0:
439,127,211574,1,0,0:0:0:0:
281,85,211743,6,0,L|303:187,1,90.9999958343508,2|0,3:2|0:0,0:0:0:0:
105,104,212080,2,0,L|127:2,1,90.9999958343508,10|0,0:0|0:0,0:0:0:0:
241,227,212417,2,0,B|174:165|174:165|75:193,1,181.999991668702,2|8,0:0|0:0,0:0:0:0:
86,189,212923,1,0,0:0:0:0:
176,384,213091,6,0,L|154:275,1,90.9999958343508,2|0,3:2|0:0,0:0:0:0:
375,191,213428,2,0,L|318:262,1,90.9999958343508,10|0,0:0|0:0,0:0:0:0:
105,104,213765,1,2,0:0:0:0:
241,227,213934,1,2,3:2:0:0:
105,104,214102,2,0,P|165:72|258:85,1,136.499993751526,10|0,0:0|0:0,0:0:0:0:
282,125,214440,6,0,L|374:96,1,90.9999958343508,0|0,3:2|0:0,0:0:0:0:
512,14,214777,2,0,P|459:50|448:162,1,181.999991668702,8|0,0:0|0:0,0:0:0:0:
512,281,215282,1,0,3:2:0:0:
318,381,215451,2,0,L|345:294,1,90.9999958343508,8|0,0:0|0:0,0:0:0:0:
257,207,215788,6,0,P|287:174|331:168,1,90.9999958343508,6|0,3:2|0:0,0:0:0:0:
215,318,216125,2,0,P|170:311|140:279,1,90.9999958343508,10|0,0:0|0:0,0:0:0:0:
146,258,216378,1,0,0:0:0:0:
146,258,216462,1,2,0:0:0:0:
257,207,216631,1,0,3:2:0:0:
170,84,216799,2,0,L|186:190,1,90.9999958343508,10|0,0:0|0:0,0:0:0:0:
13,308,217136,6,0,L|31:172,1,136.499993751526,2|0,3:2|0:0,0:0:0:0:
35,152,217473,1,10,0:0:0:0:
0,13,217642,1,0,0:0:0:0:
12,44,217726,1,0,0:0:0:0:
38,65,217810,1,2,0:0:0:0:
72,69,217894,1,0,0:0:0:0:
103,55,217979,1,0,3:2:0:0:
242,78,218147,2,0,P|264:36|356:47,1,136.499993751526,10|0,0:0|0:0,0:0:0:0:
345,35,218484,6,0,L|326:137,1,90.9999958343508,2|0,3:2|0:0,0:0:0:0:
506,24,218822,1,10,0:0:0:0:
424,87,218990,1,0,0:0:0:0:
424,87,219074,1,0,0:0:0:0:
424,87,219159,1,0,0:0:0:0:
483,177,219327,1,0,3:2:0:0:
436,372,219496,2,0,L|411:225,1,136.499993751526,8|0,0:0|0:0,0:0:0:0:
409,215,219833,6,0,P|351:191|302:212,1,90.9999958343508,0|0,3:2|0:0,0:0:0:0:
275,373,220170,2,0,P|311:348|328:306,1,90.9999958343508,10|0,0:0|0:0,0:0:0:0:
193,186,220423,1,0,0:0:0:0:
193,186,220507,2,0,P|212:226|251:248,1,90.9999958343508,2|0,0:0|3:2,0:0:0:0:
88,373,220844,2,0,L|117:214,1,136.499993751526,10|0,0:0|0:0,0:0:0:0:
105,220,221181,6,0,L|123:121,1,90.9999958343508,2|0,3:2|0:0,0:0:0:0:
0,49,221518,2,0,L|89:31,1,90.9999958343508,10|0,0:0|0:0,0:0:0:0:
114,45,221771,1,0,0:0:0:0:
114,45,221855,1,2,0:0:0:0:
203,129,222024,1,0,3:2:0:0:
320,4,222192,2,0,P|284:44|283:97,1,90.9999958343508,10|0,0:0|0:0,0:0:0:0:
479,147,222529,6,0,P|453:100|354:75,1,136.499993751526,2|0,3:2|0:0,0:0:0:0:
368,79,222866,1,10,0:0:0:0:
263,213,223035,1,0,0:0:0:0:
263,213,223119,1,0,0:0:0:0:
263,213,223204,2,0,L|377:184,1,90.9999958343508,2|0,0:0|3:2,0:0:0:0:
429,349,223541,2,0,L|340:326,1,90.9999958343508,10|0,0:0|0:0,0:0:0:0:
194,384,223878,6,0,P|197:339|230:300,1,90.9999958343508,2|0,3:2|0:0,0:0:0:0:
114,163,224215,2,0,P|141:198|144:243,1,90.9999958343508,10|0,0:0|0:0,0:0:0:0:
135,260,224468,1,0,0:0:0:0:
113,252,224552,1,0,0:0:0:0:
92,244,224636,1,0,0:0:0:0:
72,236,224720,1,0,3:2:0:0:
44,105,224889,2,0,P|79:77|124:74,1,90.9999958343508,10|0,0:0|0:0,0:0:0:0:
222,6,225226,6,0,P|257:33|302:36,1,90.9999958343508,2|0,3:2|0:0,0:0:0:0:
444,0,225563,2,0,L|416:102,1,90.9999958343508,10|0,0:0|0:0,0:0:0:0:
329,215,225816,1,0,0:0:0:0:
329,215,225900,2,0,L|301:113,1,90.9999958343508,2|0,0:2|3:2,0:0:0:0:
474,209,226237,2,0,L|430:361,1,136.499993751526,10|0,0:0|0:0,0:0:0:0:
430,359,226574,6,0,P|390:320|333:322,1,90.9999958343508,2|0,3:2|0:0,0:0:0:0:
179,384,226911,2,0,P|230:362|250:309,1,90.9999958343508,10|0,0:0|0:0,0:0:0:0:
249,307,227164,1,0,0:0:0:0:
249,307,227249,1,2,0:0:0:0:
163,264,227417,1,0,3:2:0:0:
233,203,227586,2,0,P|188:176|123:183,1,90.9999958343508,10|0,0:0|0:0,0:0:0:0:
75,329,227923,6,0,P|58:279|80:217,1,90.9999958343508,2|0,3:2|0:0,0:0:0:0:
150,174,228260,1,10,0:0:0:0:
18,101,228428,1,0,0:0:0:0:
18,101,228513,1,0,0:0:0:0:
18,101,228597,2,0,L|-2:207,1,90.9999958343508,2|0,0:0|3:2,0:0:0:0:
134,97,228934,2,0,L|114:-9,1,90.9999958343508,10|0,0:0|0:0,0:0:0:0:
234,160,229271,6,0,P|292:144|317:102,1,90.9999958343508,2|0,3:2|0:0,0:0:0:0:
472,63,229608,2,0,P|440:31|395:24,1,90.9999958343508,10|0,0:0|0:0,0:0:0:0:
391,41,229861,1,0,0:0:0:0:
387,55,229945,1,2,0:0:0:0:
384,70,230029,1,0,0:0:0:0:
381,85,230113,1,0,3:2:0:0:
426,270,230282,2,0,P|449:229|441:182,1,90.9999958343508,10|0,0:0|0:0,0:0:0:0:
234,160,230619,6,0,L|335:133,1,90.9999958343508,2|0,3:2|0:0,0:0:0:0:
287,285,230956,1,10,0:0:0:0:
127,251,231125,1,0,0:0:0:0:
127,251,231209,1,0,0:0:0:0:
127,251,231293,1,2,0:0:0:0:
234,160,231462,1,0,3:2:0:0:
127,251,231631,2,0,L|39:227,1,90.9999958343508,10|0,0:0|0:0,0:0:0:0:
0,113,231968,6,0,P|53:87|92:95,1,90.9999958343508,2|0,3:2|0:0,0:0:0:0:
149,171,232305,1,10,0:0:0:0:
200,255,232473,1,0,0:0:0:0:
233,249,232557,1,0,0:0:0:0:
267,244,232642,1,2,0:0:0:0:
301,239,232725,1,0,0:0:0:0:
334,234,232810,1,0,3:2:0:0:
512,378,232979,2,0,P|460:370|416:289,1,136.499993751526,10|0,0:0|0:0,0:0:0:0:
405,289,233316,6,0,P|418:240|449:215,1,90.9999958343508,2|0,3:2|0:0,0:0:0:0:
319,157,233653,1,8,0:0:0:0:
418,105,233822,1,0,0:0:0:0:
356,22,233990,2,0,L|245:10,1,90.9999958343508,2|0,0:0|3:2,0:0:0:0:
229,167,234327,2,0,L|340:155,1,90.9999958343508,10|0,0:0|0:0,0:0:0:0:
174,78,234664,6,0,L|116:68,3,45.4999979171754,2|0|0|0,3:2|3:2|3:2|3:2,0:0:0:0:
81,187,235001,2,0,L|73:142,3,45.4999979171754,10|0|0|0,3:2|3:2|3:2|3:2,0:0:0:0:
163,273,235338,2,0,L|170:228,3,45.4999979171754,2|0|0|0,3:2|3:2|3:2|3:2,0:0:0:0:
93,341,235675,2,0,L|48:348,3,45.4999979171754,10|0|0|0,3:2|3:2|3:2|3:2,0:0:0:0:
220,373,236013,5,2,3:2:0:0:
228,339,236097,1,0,3:2:0:0:
254,316,236181,1,0,3:2:0:0:
288,309,236265,1,0,3:2:0:0:
319,321,236349,1,10,3:2:0:0:
351,333,236434,1,0,3:2:0:0:
385,327,236518,1,0,3:2:0:0:
410,304,236602,1,0,3:2:0:0:
420,270,236687,2,0,L|413:224,1,45.4999979171754,2|0,3:2|3:2,0:0:0:0:
360,111,236855,2,0,L|353:156,1,45.4999979171754,0|0,3:2|3:2,0:0:0:0:
486,98,237024,1,10,3:2:0:0:
483,80,237109,1,0,3:2:0:0:
480,63,237193,1,0,3:2:0:0:
478,45,237277,1,0,3:2:0:0:
476,27,237361,6,0,P|445:26|404:48,1,70,6|0,3:2|0:0,0:0:0:0:
360,111,238035,2,0,P|329:95|295:96,1,70,2|0,0:0|0:0,0:0:0:0:
213,121,238709,6,0,P|269:93|259:24,2,140,2|2|2,0:0|0:0|0:0,0:0:0:0:
213,121,240732,1,2,0:0:0:0:
213,121,241069,1,2,0:0:0:0:
148,47,241406,6,0,L|128:193,1,140,2|2,0:0|0:0,0:0:0:0:
92,250,242417,1,2,0:0:0:0:
147,347,242754,6,0,L|215:332,1,70,2|0,0:0|0:0,0:0:0:0:
170,267,243428,2,0,L|238:252,1,70,2|0,0:0|0:0,0:0:0:0:
277,384,244102,6,0,L|291:315,1,70,2|0,0:0|0:0,0:0:0:0:
439,227,244777,1,2,0:0:0:0:
370,279,245114,1,2,0:0:0:0:
417,346,245451,6,0,P|380:320|277:308,2,140,2|2|2,0:0|0:0|0:0,0:0:0:0:
417,346,247473,1,2,0:0:0:0:
417,346,247810,1,2,0:0:0:0:
331,289,248147,6,0,P|315:257|314:212,1,70,2|0,0:0|0:0,0:0:0:0:
261,165,248822,2,0,P|264:130|279:99,1,70,2|0,0:0|0:0,0:0:0:0:
362,70,249496,6,0,B|325:87|325:87|232:51,2,140,2|2|2,0:0|0:0|0:0,0:0:0:0:
362,70,251518,1,2,0:0:0:0:
362,70,251855,1,2,0:0:0:0:
285,150,252192,6,0,L|217:122,1,70,2|0,0:0|0:0,0:0:0:0:
129,14,252866,2,0,L|155:78,1,70,2|0,0:0|0:0,0:0:0:0:
112,154,253541,6,0,P|98:127|-3:101,1,140,2|2,0:0|0:0,0:0:0:0:
31,185,254552,1,2,0:0:0:0:
15,272,254889,6,0,P|48:274|83:259,1,70,2|0,0:0|0:0,0:0:0:0:
112,154,255563,1,2,0:0:0:0:
188,229,255900,1,2,0:0:0:0:
142,329,256237,6,0,L|213:319,1,70,2|0,0:0|0:0,0:0:0:0:
278,356,256911,2,0,L|347:346,1,70,2|0,0:0|0:0,0:0:0:0:
294,256,257586,6,0,L|432:273,1,140,2|2,0:0|0:0,0:0:0:0:
432,273,258597,1,2,0:0:0:0:
347,346,258934,5,2,0:0:0:0:
