osu file format v14

[General]
AudioFilename: audio.mp3
AudioLeadIn: 0
PreviewTime: 41939
Countdown: 1
SampleSet: Soft
StackLeniency: 0.7
Mode: 0
LetterboxInBreaks: 0
WidescreenStoryboard: 1

[Editor]
Bookmarks: 20366,41939,43288
DistanceSpacing: 1
BeatDivisor: 4
GridSize: 32
TimelineZoom: 3.199999

[Metadata]
Title:Airplanes (Feint Remix)
TitleUnicode:Airplanes (Feint Remix)
Artist:B.O.B feat. Hayley Williams
ArtistUnicode:B.O.B feat. Hayley Williams
Creator:CubeCreator
Version:Insane
Source:
Tags:feint dnb airplanes remix short bob hayley williams
BeatmapID:1775724
BeatmapSetID:849155

[Difficulty]
HPDrainRate:5.5
CircleSize:4
OverallDifficulty:7.8
ApproachRate:8.7
SliderMultiplier:1.7
SliderTickRate:1

[Events]
//Background and Video events
0,0,"night sky.jpg",0,0
//Break Periods
//Storyboard Layer 0 (Background)
//Storyboard Layer 1 (Fail)
//Storyboard Layer 2 (Pass)
//Storyboard Layer 3 (Foreground)
//Storyboard Sound Samples

[TimingPoints]
114,337.078651685393,4,2,2,100,1,0
114,-128.205128205128,4,2,2,45,0,0
20338,-111.111111111111,4,2,2,51,0,0
21687,-93.4579439252336,4,2,2,58,0,0
24383,-86.9565217391304,4,2,2,58,0,0
26743,-93.4579439252336,4,2,2,58,0,0
27080,-106.382978723404,4,2,2,58,0,0
27417,-93.4579439252336,4,2,2,58,0,0
28428,-106.382978723404,4,2,2,58,0,0
28765,-93.4579439252336,4,2,2,58,0,0
29776,-106.382978723404,4,2,2,58,0,0
30113,-93.4579439252336,4,2,2,58,0,0
35170,-84.0336134453781,4,2,2,58,0,0
37866,-93.4579439252336,4,2,2,58,0,0
38203,-84.0336134453781,4,2,2,58,0,0
39215,-93.4579439252336,4,2,2,58,0,0
39552,-84.0336134453781,4,2,2,58,0,0
40563,-93.4579439252336,4,2,2,58,0,0
40900,-84.0336134453781,4,2,2,58,0,0
43260,-80.6451612903226,4,2,2,73,0,1
48653,-92.5925925925926,4,2,2,73,0,1
48990,-80.6451612903226,4,2,2,73,0,1
50001,-92.5925925925926,4,2,2,73,0,1
50338,-80.6451612903226,4,2,2,73,0,1
51349,-92.5925925925926,4,2,2,73,0,1
51687,-80.6451612903226,4,2,2,73,0,1
56743,-75.7575757575758,4,2,2,73,0,1
57248,-80.6451612903226,4,2,2,73,0,1
59439,-90.9090909090909,4,2,2,73,0,1
60788,-83.3333333333333,4,2,2,73,0,1
62136,-76.9230769230769,4,2,2,73,0,1
63484,-222.222222222222,4,2,2,73,0,1
64833,-71.4285714285714,4,1,0,73,0,0

[Colours]
Combo1 : 10,10,250
Combo2 : 0,128,192
Combo3 : 105,15,227
Combo4 : 236,222,128

[HitObjects]
125,150,114,5,2,0:0:0:0:
244,93,451,2,0,P|266:174|233:229,2,132.600004451294
376,93,1462,5,0,0:0:0:0:
431,213,1799,2,0,P|343:235|301:213,2,132.600004451294
340,116,2810,5,2,0:0:0:0:
224,50,3147,2,0,P|145:55|97:108,2,132.600004451294
187,177,4158,5,2,0:0:0:0:
297,250,4496,2,0,P|333:182|339:114,2,132.600004451294
220,141,5507,5,2,0:0:0:0:
331,69,5844,2,0,P|391:106|415:184,2,132.600004451294
289,194,6855,6,0,P|222:224|151:218,1,132.600004451294
56,144,7529,1,2,0:0:0:0:
49,276,7866,1,2,0:0:0:0:
172,325,8203,5,2,0:0:0:0:
211,198,8540,2,0,P|274:154|332:175,2,132.600004451294
141,84,9552,5,2,0:0:0:0:
273,80,9889,2,0,P|301:149|282:229,2,132.600004451294
169,162,10900,5,2,0:0:0:0:
224,282,11237,2,0,P|299:304|349:288,2,132.600004451294
282,163,12248,6,0,P|321:94|389:74,1,132.600004451294
354,204,12922,2,0,P|281:238|219:229,1,132.600004451294,2|0,0:0|0:0,0:0:0:0:
208,102,13597,6,0,P|136:120|137:193,1,132.600004451294,2|0,0:0|0:0,0:0:0:0:
255,196,14271,2,0,P|312:151|381:147,1,132.600004451294
261,68,14945,6,0,P|186:70|130:96,1,132.600004451294,2|0,0:0|0:0,0:0:0:0:
169,220,15619,1,2,0:0:0:0:
287,160,15956,1,2,0:0:0:0:
283,292,16293,5,2,0:0:0:0:
402,233,16630,2,0,P|423:162|411:103,2,132.600004451294
319,128,17642,6,0,P|232:95|170:104,1,132.600004451294
160,225,18316,1,2,0:0:0:0:
65,131,18653,1,2,0:0:0:0:
39,261,18990,5,2,0:0:0:0:
153,326,19327,2,0,P|224:340|290:330,2,132.600004451294
140,173,20338,5,0,0:0:0:0:
245,188,20507,1,0,0:0:0:0:
197,86,20675,1,0,0:0:0:0:
316,93,20844,1,0,0:0:0:0:
322,267,21012,2,0,P|356:212|359:169,1,76.4999976654053
427,105,21349,1,8,0:0:0:0:
104,215,21687,6,0,P|161:138|212:199,1,181.899994448853,0|8,0:0|0:0,0:0:0:0:
180,286,22192,2,0,P|278:257|320:188,1,181.899994448853
217,135,22698,1,8,0:0:0:0:
345,84,22866,1,0,0:0:0:0:
392,318,23035,6,0,P|417:224|387:133,1,181.899994448853,0|8,0:0|0:0,0:0:0:0:
266,55,23540,2,0,P|188:125|255:162,1,181.899994448853
261,305,24046,2,0,P|299:251|292:213,1,90.9499972244264,8|0,0:0|0:0,0:0:0:0:
150,177,24383,5,0,0:0:0:0:
302,130,24552,1,0,0:0:0:0:
194,76,24720,1,8,0:0:0:0:
260,200,24889,2,0,P|360:195|318:47,1,293.2500055933,0|8,0:0|0:0,0:0:0:0:
81,313,25731,5,0,0:0:0:0:
218,315,25900,1,0,0:0:0:0:
110,228,26069,1,8,0:0:0:0:
242,229,26237,1,0,0:0:0:0:
134,143,26406,1,0,0:0:0:0:
281,146,26574,1,0,0:0:0:0:
98,35,26743,2,0,P|93:97|121:133,1,90.9499972244264,8|0,0:0|0:0,0:0:0:0:
217,292,27080,6,0,L|205:160,1,119.849998171234
212,133,27417,2,0,P|270:122|293:170,1,90.9499972244264,8|0,0:0|0:0,0:0:0:0:
335,253,27754,2,0,P|432:273|408:206,1,181.899994448853,0|8,0:0|0:0,0:0:0:0:
140,74,28428,6,0,L|119:202,1,119.849998171234
126,220,28765,2,0,P|155:260|214:269,1,90.9499972244264,8|0,0:0|0:0,0:0:0:0:
269,155,29102,2,0,P|372:155|341:228,1,181.899994448853,0|8,0:0|0:0,0:0:0:0:
137,306,29776,6,0,L|263:291,1,119.849998171234
294,280,30113,2,0,P|273:218|283:185,1,90.9499972244264,8|0,0:0|0:0,0:0:0:0:
368,105,30451,1,0,0:0:0:0:
239,58,30619,2,0,B|186:62|205:104|125:100,1,90.9499972244264,0|8,0:0|0:0,0:0:0:0:
194,299,31125,5,0,0:0:0:0:
261,209,31293,1,0,0:0:0:0:
302,308,31462,1,8,0:0:0:0:
168,202,31630,1,0,0:0:0:0:
219,107,31799,1,0,0:0:0:0:
110,127,31967,1,0,0:0:0:0:
47,301,32136,2,0,P|75:250|94:192,1,90.9499972244264,8|0,0:0|0:0,0:0:0:0:
59,69,32473,6,0,P|155:55|194:123,1,181.899994448853,0|8,0:0|0:0,0:0:0:0:
117,202,32979,2,0,P|214:235|277:193,1,181.899994448853
368,93,33484,1,8,0:0:0:0:
220,66,33653,1,0,0:0:0:0:
240,270,33821,6,0,P|284:176|286:91,1,181.899994448853,0|8,0:0|0:0,0:0:0:0:
129,120,34327,2,0,P|222:72|305:120,1,181.899994448853
392,258,34833,2,0,P|423:211|428:175,1,90.9499972244264,8|0,0:0|0:0,0:0:0:0:
238,146,35170,5,0,0:0:0:0:
392,91,35338,1,0,0:0:0:0:
308,208,35507,1,8,0:0:0:0:
295,68,35675,2,0,P|148:164|220:248,1,303.449993980637,0|8,0:0|0:0,0:0:0:0:
310,287,36518,5,0,0:0:0:0:
262,173,36687,1,0,0:0:0:0:
383,188,36855,1,8,0:0:0:0:
211,253,37024,1,0,0:0:0:0:
334,106,37192,1,0,0:0:0:0:
399,278,37361,1,0,0:0:0:0:
209,130,37529,2,0,P|147:175|165:224,1,101.149997993546,8|0,0:0|0:0,0:0:0:0:
263,297,37866,6,0,L|303:167,1,136.42499583664
300,138,38203,2,0,P|334:84|392:66,1,101.149997993546,8|0,0:0|0:0,0:0:0:0:
464,115,38540,2,0,P|420:214|386:172,1,202.299995987091,0|8,0:0|0:0,0:0:0:0:
145,98,39215,6,0,L|160:238,1,136.42499583664
173,254,39552,2,0,P|225:238|262:202,1,101.149997993546,8|0,0:0|0:0,0:0:0:0:
350,75,39889,2,0,P|426:158|374:203,1,202.299995987091,0|8,0:0|0:0,0:0:0:0:
101,160,40563,6,0,L|243:150,1,136.42499583664
259,109,40900,2,0,P|301:164|280:215,1,101.149997993546,8|0,0:0|0:0,0:0:0:0:
200,305,41237,1,0,0:0:0:0:
330,289,41406,2,0,B|392:271|350:242|419:220,1,101.149997993546,0|8,0:0|0:0,0:0:0:0:
311,129,43260,6,0,P|201:91|220:162,1,210.799991636963,4|8,0:0|0:0,0:0:0:0:
144,230,43765,2,0,P|256:255|372:230,1,210.799991636963,0|4,0:0|0:0,0:0:0:0:
311,129,44271,1,8,0:0:0:0:
470,225,44439,1,0,0:0:0:0:
389,88,44608,6,0,P|258:71|227:150,1,210.799991636963,4|8,0:0|0:0,0:0:0:0:
302,231,45113,2,0,P|249:326|200:239,1,210.799991636963,0|4,0:0|0:0,0:0:0:0:
227,123,45619,2,0,P|164:118|111:151,1,105.399995818482,8|0,0:0|0:0,0:0:0:0:
279,216,45956,5,4,0:0:0:0:
89,264,46125,1,0,0:0:0:0:
268,313,46293,1,8,0:0:0:0:
202,168,46462,2,0,P|376:173|339:284,1,316.199987455445,0|8,0:0|0:0,0:0:0:0:
343,42,47305,5,4,0:0:0:0:
449,129,47473,1,0,0:0:0:0:
277,306,47642,1,8,0:0:0:0:
384,229,47810,1,0,0:0:0:0:
163,194,47979,1,0,0:0:0:0:
262,114,48147,1,4,0:0:0:0:
333,287,48316,2,0,P|381:242|381:193,1,105.399995818482,8|0,0:0|0:0,0:0:0:0:
164,105,48653,6,0,L|310:120,1,137.700003361816,4|0,0:0|0:0,0:0:0:0:
334,138,48990,2,0,P|296:201|241:214,1,105.399995818482,8|0,0:0|0:0,0:0:0:0:
111,234,49327,2,0,B|231:230|172:302|312:289,1,210.799991636963,0|8,0:0|0:0,0:0:0:0:
444,84,50001,6,0,L|294:94,1,137.700003361816,4|0,0:0|0:0,0:0:0:0:
274,125,50338,2,0,P|303:180|361:193,1,105.399995818482,8|0,0:0|0:0,0:0:0:0:
316,271,50675,2,0,B|186:234|273:199|122:150,1,210.799991636963,0|8,0:0|0:0,0:0:0:0:
379,68,51349,6,0,L|359:218,1,137.700003361816,4|0,0:0|0:0,0:0:0:0:
382,237,51687,2,0,P|314:264|259:249,1,105.399995818482,8|0,0:0|0:0,0:0:0:0:
155,146,52024,1,0,0:0:0:0:
105,291,52192,2,0,P|45:263|65:214,1,105.399995818482,4|8,0:0|0:0,0:0:0:0:
307,97,52698,5,4,0:0:0:0:
300,264,52866,1,0,0:0:0:0:
213,134,53035,1,8,0:0:0:0:
392,227,53203,1,0,0:0:0:0:
394,134,53372,1,0,0:0:0:0:
206,224,53540,1,4,0:0:0:0:
363,321,53709,2,0,P|300:345|234:323,1,105.399995818482,8|0,0:0|0:0,0:0:0:0:
121,197,54046,6,0,P|143:91|209:141,1,210.799991636963,4|8,0:0|0:0,0:0:0:0:
130,342,54552,2,0,P|226:291|193:194,1,210.799991636963,0|4,0:0|0:0,0:0:0:0:
68,84,55057,1,8,0:0:0:0:
254,147,55226,1,0,0:0:0:0:
182,54,55394,6,0,P|144:178|184:255,1,210.799991636963,4|8,0:0|0:0,0:0:0:0:
316,295,55900,2,0,P|363:194|328:84,1,210.799991636963,0|4,0:0|0:0,0:0:0:0:
131,228,56406,2,0,P|197:186|250:183,1,105.399995818482,8|0,0:0|0:0,0:0:0:0:
386,270,56743,5,4,0:0:0:0:
315,38,56911,1,0,0:0:0:0:
268,183,57080,1,8,0:0:0:0:
377,187,57248,2,0,P|442:348|337:345,1,316.199987455445,0|8,0:0|0:0,0:0:0:0:
242,100,58091,5,4,0:0:0:0:
91,153,58259,1,0,0:0:0:0:
252,182,58428,1,8,0:0:0:0:
106,232,58596,1,0,0:0:0:0:
263,262,58765,1,0,0:0:0:0:
80,73,58933,1,4,0:0:0:0:
46,306,59102,2,0,P|111:318|155:308,1,105.399995818482,8|0,0:0|0:0,0:0:0:0:
301,127,59439,6,0,L|319:175,15,46.7500014266968,4|0|0|0|8|0|0|0|0|0|4|0|8|0|0|0,0:0|0:0|0:0|0:0|0:0|0:0|0:0|0:0|0:0|0:0|0:0|0:0|0:0|0:0|0:0|0:0,0:0:0:0:
392,148,60788,6,0,L|408:94,15,50.9999984436036,4|0|0|0|8|0|0|0|0|0|4|0|8|0|0|0,0:0|0:0|0:0|0:0|0:0|0:0|0:0|0:0|0:0|0:0|0:0|0:0|0:0|0:0|0:0|0:0,0:0:0:0:
312,47,62136,6,0,L|228:68,15,55.2499974708558,4|0|0|0|8|0|0|0|0|0|4|0|8|0|0|0,0:0|0:0|0:0|0:0|0:0|0:0|0:0|0:0|0:0|0:0|0:0|0:0|0:0|0:0|0:0|0:0,0:0:0:0:
214,82,63484,5,4,0:0:0:0:
197,92,63568,1,0,0:0:0:0:
185,106,63652,1,0,0:0:0:0:
178,124,63736,1,0,0:0:0:0:
176,143,63821,1,8,0:0:0:0:
181,161,63905,1,0,0:0:0:0:
191,177,63989,1,0,0:0:0:0:
205,192,64074,1,0,0:0:0:0:
221,201,64158,1,0,0:0:0:0:
233,216,64242,1,0,0:0:0:0:
240,234,64326,1,4,0:0:0:0:
241,253,64411,1,0,0:0:0:0:
236,271,64495,1,8,0:0:0:0:
225,287,64579,1,0,0:0:0:0:
210,298,64663,1,0,0:0:0:0:
192,304,64748,1,0,0:0:0:0:
173,304,64833,5,4,0:0:0:0:
