osu file format v14

[General]
AudioFilename: audio.mp3
AudioLeadIn: 0
PreviewTime: 166909
Countdown: 0
SampleSet: Normal
StackLeniency: 0.7
Mode: 0
LetterboxInBreaks: 0
WidescreenStoryboard: 0

[Editor]
DistanceSpacing: 1
BeatDivisor: 4
GridSize: 16
TimelineZoom: 1.6

[Metadata]
Title:Stop It
TitleUnicode:Stop It
Artist:B.A.P
ArtistUnicode:B.A.P
Creator:-scy-
Version:Stop
Source:
Tags:bap stop it kpop
BeatmapID:1432577
BeatmapSetID:677376

[Difficulty]
HPDrainRate:6
CircleSize:4
OverallDifficulty:8
ApproachRate:8.5
SliderMultiplier:1.7
SliderTickRate:1

[Events]
//Background and Video events
0,0,"stop it.jpg",0,0
//Break Periods
2,79269,86074
//Storyboard Layer 0 (Background)
//Storyboard Layer 1 (Fail)
//Storyboard Layer 2 (Pass)
//Storyboard Layer 3 (Foreground)
//Storyboard Sound Samples

[TimingPoints]
349,480,4,1,0,50,1,0
2269,-83.3333333333333,4,1,0,75,0,0
9709,-100,4,1,0,50,0,0
9949,-100,4,1,0,60,0,0
11269,-66.6666666666667,4,1,0,60,0,0
12589,-83.3333333333333,4,1,0,60,0,0
12949,-66.6666666666667,4,1,0,60,0,0
13549,-83.3333333333333,4,1,0,60,0,0
15469,-66.6666666666667,4,1,0,80,0,0
16669,-50,4,1,0,80,0,0
17149,-66.6666666666667,4,1,0,75,0,0
18109,-83.3333333333333,4,1,0,50,0,0
21469,-133.333333333333,4,1,0,50,0,0
25309,-100,4,1,0,50,0,0
26749,-133.333333333333,4,1,0,50,0,0
30109,-100,4,1,0,50,0,0
44749,-100,4,1,0,65,0,0
46189,-100,4,1,0,75,0,0
47629,-125,4,1,0,80,0,0
48349,-71.4285714285714,4,1,0,100,0,1
57709,-55.5555555555556,4,1,0,100,0,1
59149,-71.4285714285714,4,1,0,100,0,1
59629,-55.5555555555556,4,1,0,100,0,1
61789,-71.4285714285714,4,1,0,100,0,1
63589,-71.4285714285714,4,1,0,100,0,0
63709,-71.4285714285714,4,1,0,100,0,1
79069,-83.3333333333333,4,1,0,60,0,0
86749,-83.3333333333333,4,1,0,70,0,0
90589,-100,4,1,0,70,0,0
99949,-133.333333333333,4,1,0,65,0,0
102469,-100,4,1,0,65,0,0
105949,-100,4,1,0,50,0,0
107389,-100,4,1,0,65,0,0
110749,-71.4285714285714,4,1,0,65,0,0
115549,-83.3333333333333,4,1,0,70,0,0
117469,-71.4285714285714,4,1,0,100,0,1
125149,-83.3333333333333,4,1,0,100,0,1
126829,-50,4,1,0,100,0,1
128269,-71.4285714285714,4,1,0,100,0,1
128749,-50,4,1,0,100,0,1
132589,-71.4285714285714,4,1,0,100,0,1
132709,-71.4285714285714,4,1,0,100,0,0
132829,-71.4285714285714,4,1,0,100,0,1
148189,-71.4285714285714,4,1,0,100,0,0
152029,-100,4,1,0,50,0,0
156589,-133.333333333333,4,1,0,50,0,0
157789,-100,4,1,0,50,0,0
159229,-83.3333333333333,4,1,0,50,0,0
160669,-100,4,1,0,50,0,0
167389,-71.4285714285714,4,1,0,100,0,1
176749,-50,4,1,0,100,0,1
180349,-71.4285714285714,4,1,0,100,0,1
182629,-71.4285714285714,4,1,0,100,0,0
182749,-71.4285714285714,4,1,0,100,0,1
192109,-50,4,1,0,100,0,1
198109,-50,4,1,0,100,0,0

[HitObjects]
256,192,349,12,0,1189,0:0:0:0:
224,192,1309,6,0,L|280:161,1,42.5
421,86,1549,2,0,L|364:116,1,42.5
270,40,1789,2,0,L|300:96,1,42.5
375,238,2029,1,0,0:0:0:0:
228,318,2269,6,0,P|167:304|138:275,1,101.999996887207
100,229,2629,1,0,0:0:0:0:
99,167,2749,2,0,P|124:113|160:83,1,101.999996887207
286,163,3229,6,0,P|311:225|304:280,1,101.999996887207
343,332,3589,2,0,P|292:338|231:272,1,101.999996887207
205,268,3949,1,0,0:0:0:0:
142,263,4069,1,0,0:0:0:0:
82,281,4189,6,0,L|48:221,1,50.9999984436036
0,82,4429,2,0,L|27:133,1,50.9999984436036
75,165,4669,1,0,0:0:0:0:
138,158,4789,1,0,0:0:0:0:
203,157,4909,2,0,P|267:162|308:179,1,101.999996887207
360,203,5269,6,0,L|416:238,1,50.9999984436036
470,353,5509,2,0,L|409:313,1,50.9999984436036
372,298,5749,1,0,0:0:0:0:
316,264,5869,1,0,0:0:0:0:
253,251,5989,1,0,0:0:0:0:
189,267,6109,6,0,P|130:294|66:291,1,101.999996887207
44,255,6469,1,0,0:0:0:0:
52,101,6589,2,0,L|97:164,1,50.9999984436036
126,188,6829,1,0,0:0:0:0:
189,177,6949,1,0,0:0:0:0:
211,117,7069,1,0,0:0:0:0:
211,52,7189,6,0,L|268:61,1,50.9999984436036
400,117,7429,2,0,L|309:105,1,50.9999984436036
298,147,7669,1,0,0:0:0:0:
256,195,7789,1,0,0:0:0:0:
251,259,7909,1,0,0:0:0:0:
301,293,8029,2,0,P|367:310|412:251,1,101.999996887207
420,233,8389,5,0,0:0:0:0:
422,169,8509,2,0,P|393:117|338:102,1,101.999996887207
296,84,8869,1,0,0:0:0:0:
234,67,8989,6,0,L|193:106,1,50.9999984436036
66,235,9229,2,0,L|109:191,1,50.9999984436036
73,83,9469,1,0,0:0:0:0:
177,262,9709,6,0,L|251:330,1,85
320,377,10189,1,0,0:0:0:0:
477,223,10429,1,0,0:0:0:0:
250,241,10669,1,0,0:0:0:0:
315,84,10909,6,0,P|252:66|199:80,1,85
134,106,11269,2,0,P|93:156|187:197,1,191.250007295609
292,134,11869,5,0,0:0:0:0:
241,346,12109,1,0,0:0:0:0:
76,182,12349,1,0,0:0:0:0:
138,267,12589,6,0,P|67:289|25:272,1,101.999996887207
3,216,12949,2,0,P|11:143|47:105,1,127.500004863739
124,110,13309,1,0,0:0:0:0:
241,195,13549,6,0,P|286:241|351:236,1,101.999996887207
471,219,14029,1,0,0:0:0:0:
236,117,14269,1,0,0:0:0:0:
423,19,14509,1,0,0:0:0:0:
286,44,14749,2,0,P|220:30|165:64,1,101.999996887207
63,114,15229,1,0,0:0:0:0:
61,187,15349,1,0,0:0:0:0:
66,259,15469,6,0,P|120:342|186:343,1,127.500004863739
376,343,15949,1,0,0:0:0:0:
159,175,16189,1,0,0:0:0:0:
449,225,16429,1,0,0:0:0:0:
248,108,16669,2,0,P|263:199|202:283,1,170
61,214,17149,6,0,P|70:97|194:74,1,255.000009727478
376,168,18109,6,0,P|358:233|303:256,1,101.999996887207
219,279,18589,1,0,0:0:0:0:
256,181,18829,1,0,0:0:0:0:
256,277,19069,1,0,0:0:0:0:
217,179,19309,1,0,0:0:0:0:
106,343,19549,6,0,L|106:217,1,101.999996887207
114,123,20029,1,0,0:0:0:0:
316,84,20269,2,0,P|384:114|301:140,1,203.999993774414
200,126,20989,6,0,P|231:179|227:227,1,101.999996887207
207,323,21469,2,0,P|242:349|290:356,1,63.7500024318696
336,317,21949,2,0,P|379:310|418:281,1,63.7500024318696
427,217,22429,2,0,P|455:193|468:158,1,63.7500024318696
436,51,22909,1,0,0:0:0:0:
316,123,23149,6,0,P|274:144|194:130,1,127.500004863739
127,61,23869,1,0,0:0:0:0:
66,198,24109,2,0,P|97:257|169:251,2,127.500004863739
268,212,25309,6,0,L|321:307,1,85
364,372,25789,1,0,0:0:0:0:
417,237,26029,1,0,0:0:0:0:
364,372,26269,1,0,0:0:0:0:
417,237,26509,1,0,0:0:0:0:
472,95,26749,6,0,P|428:84|388:94,1,63.7500024318696
285,92,27229,2,0,P|243:91|197:104,1,63.7500024318696
184,221,27709,1,0,0:0:0:0:
37,155,27949,2,0,P|64:95|140:70,1,127.500004863739
285,92,28669,5,0,0:0:0:0:
318,206,28909,1,0,0:0:0:0:
437,165,29149,2,0,P|445:220|436:246,1,63.7500024318696
356,288,29629,2,0,P|312:323|286:328,1,63.7500024318696
212,262,30109,2,0,P|150:231|110:132,1,170
236,135,30829,2,0,P|285:167|316:159,1,85
425,105,31309,5,0,0:0:0:0:
266,268,31549,2,0,P|197:250|150:165,2,170
256,159,32749,5,0,0:0:0:0:
141,226,32989,2,0,P|83:206|52:161,1,85
47,73,33469,1,0,0:0:0:0:
67,190,33709,2,0,P|73:271|136:346,1,170
265,346,34429,1,0,0:0:0:0:
213,217,34669,2,0,P|288:220|375:262,2,170
354,154,35869,5,0,0:0:0:0:
373,326,36109,1,0,0:0:0:0:
441,161,36349,1,0,0:0:0:0:
255,230,36589,2,0,P|232:170|247:113,1,85
274,47,37069,1,0,0:0:0:0:
171,45,37309,1,0,0:0:0:0:
88,133,37549,6,0,P|102:188|140:233,1,85
220,230,38029,1,0,0:0:0:0:
305,231,38269,1,0,0:0:0:0:
370,298,38509,1,0,0:0:0:0:
432,229,38749,6,0,P|408:118|365:105,1,170
226,105,39469,1,0,0:0:0:0:
412,33,39709,2,0,L|362:110,1,85
277,220,40189,1,0,0:0:0:0:
277,220,40429,6,0,B|230:255|158:233,1,85
91,66,41149,2,0,P|60:198|71:243,1,170
421,66,42109,2,0,P|452:198|441:243,1,170
172,302,43069,2,0,P|312:336|370:316,1,170
172,78,44029,2,0,P|312:44|370:64,1,170
475,192,44749,5,0,0:0:0:0:
372,223,44989,1,0,0:0:0:0:
399,110,45229,1,0,0:0:0:0:
288,139,45469,1,0,0:0:0:0:
396,284,45709,1,0,0:0:0:0:
185,289,45949,1,0,0:0:0:0:
74,180,46189,6,0,L|24:153,1,42.5
193,112,46429,2,0,L|186:180,1,42.5
319,94,46669,2,0,L|276:54,1,42.5
446,78,46909,5,0,0:0:0:0:
209,340,47149,1,0,0:0:0:0:
121,63,47389,1,0,0:0:0:0:
340,243,47629,6,0,L|427:281,1,68
120,293,48109,1,0,0:0:0:0:
477,193,48349,6,0,L|354:259,1,118.999996368408
175,260,48829,1,0,0:0:0:0:
241,288,48949,1,0,0:0:0:0:
307,312,49069,1,0,0:0:0:0:
96,51,49309,2,0,L|135:203,1,118.999996368408
224,36,49789,5,0,0:0:0:0:
273,83,49909,1,0,0:0:0:0:
259,148,50029,1,0,0:0:0:0:
56,241,50269,2,0,L|122:126,1,118.999996368408
471,170,50749,2,0,L|307:204,1,118.999996368408
151,343,51229,5,0,0:0:0:0:
387,43,51469,1,0,0:0:0:0:
110,52,51709,2,0,L|141:202,1,118.999996368408
358,329,52189,2,0,L|332:171,1,118.999996368408
26,176,52669,5,0,0:0:0:0:
106,187,52789,1,0,0:0:0:0:
179,155,52909,1,0,0:0:0:0:
448,87,53149,2,0,P|360:187|324:194,1,118.999996368408
55,345,53629,5,0,0:0:0:0:
86,60,53869,1,0,0:0:0:0:
204,351,54109,1,0,0:0:0:0:
261,51,54349,1,0,0:0:0:0:
403,341,54589,2,0,P|356:278|275:234,2,118.999996368408
467,155,55309,5,0,0:0:0:0:
395,114,55429,1,0,0:0:0:0:
304,124,55549,1,0,0:0:0:0:
187,163,55789,6,0,P|132:197|100:266,1,118.999996368408
411,254,56269,2,0,P|297:232|246:242,1,118.999996368408
63,58,56749,6,0,P|77:142|123:179,1,118.999996368408
282,78,57229,2,0,P|264:163|226:220,1,118.999996368408
53,340,57709,6,0,B|128:301|128:301|119:325|119:325|168:300|168:300|153:324|153:324|195:301|195:301|291:230|207:129|115:147,1,458.999985992432
41,50,58669,5,0,0:0:0:0:
124,54,58789,1,0,0:0:0:0:
209,58,58909,1,0,0:0:0:0:
384,64,59149,2,0,P|426:127|401:217,1,118.999996368408
186,351,59629,6,0,B|281:305|290:365|290:365|346:301|381:365|381:365|407:288|467:324|467:324|443:233|492:259|492:259|450:146|340:219|352:261,1,611.999981323243
42,270,60829,1,0,0:0:0:0:
470,182,61069,1,0,0:0:0:0:
54,150,61309,1,0,0:0:0:0:
476,82,61549,1,0,0:0:0:0:
185,49,61789,6,0,P|177:138|196:204,1,118.999996368408
206,354,62269,2,0,P|185:252|190:221,1,118.999996368408
9,201,62749,2,0,P|104:184|149:199,1,118.999996368408
350,178,63229,2,0,P|266:201|218:182,1,118.999996368408
443,36,63709,5,0,0:0:0:0:
434,121,63829,1,0,0:0:0:0:
460,206,63949,1,0,0:0:0:0:
484,344,64189,2,0,L|339:315,1,118.999996368408
55,84,64669,2,0,L|204:35,1,118.999996368408
62,170,65149,5,0,0:0:0:0:
100,202,65269,1,0,0:0:0:0:
141,234,65389,1,0,0:0:0:0:
455,259,65629,1,0,0:0:0:0:
417,227,65749,1,0,0:0:0:0:
376,195,65869,1,0,0:0:0:0:
176,38,66109,6,0,P|171:109|203:163,1,118.999996368408
309,345,66589,2,0,P|306:274|271:205,1,118.999996368408
39,68,67069,6,0,P|34:165|53:189,1,118.999996368408
446,101,67549,2,0,L|274:112,1,118.999996368408
80,265,68029,1,0,0:0:0:0:
352,328,68269,1,0,0:0:0:0:
146,94,68509,1,0,0:0:0:0:
422,208,68749,1,0,0:0:0:0:
207,338,68989,6,0,L|243:243,1,59.4999981842042
266,173,69229,1,0,0:0:0:0:
52,41,69469,2,0,P|71:133|104:164,1,118.999996368408
444,36,69949,2,0,P|438:103|405:147,1,118.999996368408
226,65,70429,5,0,0:0:0:0:
147,269,70669,1,0,0:0:0:0:
321,195,70909,2,0,P|376:243|401:291,1,118.999996368408
136,176,71389,6,0,P|54:155|27:126,1,118.999996368408
377,80,71869,2,0,P|447:128|457:175,1,118.999996368408
230,332,72349,2,0,P|227:261|275:220,1,118.999996368408
287,62,72829,2,0,P|375:87|395:131,1,118.999996368408
393,138,73189,1,0,0:0:0:0:
390,171,73309,1,0,0:0:0:0:
370,198,73429,1,0,0:0:0:0:
320,211,73549,1,0,0:0:0:0:
264,198,73669,1,0,0:0:0:0:
205,162,73789,1,0,0:0:0:0:
76,82,74029,6,0,P|180:130|190:148,1,118.999996368408
353,344,74509,2,0,P|423:293|493:288,1,118.999996368408
256,192,74989,12,0,79069,0:0:0:0:
174,102,86749,6,0,P|234:134|270:138,1,101.999996887207
402,98,87229,1,0,0:0:0:0:
362,309,87469,1,0,0:0:0:0:
214,249,87709,2,0,L|122:302,1,101.999996887207
72,88,88189,5,0,0:0:0:0:
72,88,88429,1,0,0:0:0:0:
72,88,88669,1,0,0:0:0:0:
180,198,88909,1,0,0:0:0:0:
293,73,89149,2,0,P|339:120|340:197,1,101.999996887207
347,259,89629,5,0,0:0:0:0:
144,335,89869,1,0,0:0:0:0:
181,205,90109,2,0,P|137:175|124:121,1,101.999996887207
260,90,90589,6,0,L|362:97,1,85
443,235,91069,2,0,L|451:330,1,85
108,266,91549,2,0,L|45:347,1,85
163,92,92029,2,0,L|71:56,1,85
255,123,92509,1,0,0:0:0:0:
56,265,92749,1,0,0:0:0:0:
251,329,92989,5,0,0:0:0:0:
274,331,93109,1,0,0:0:0:0:
300,334,93229,2,0,P|359:276|304:181,2,170
405,55,94429,5,0,0:0:0:0:
109,96,94669,2,0,P|100:159|109:198,2,85
260,251,95389,2,0,P|211:314|104:328,1,170
286,103,96109,1,0,0:0:0:0:
437,273,96349,2,0,L|384:364,1,85
433,153,96829,2,0,L|458:244,1,85
429,19,97309,2,0,L|410:125,1,85
47,77,97789,5,0,0:0:0:0:
271,156,98029,1,0,0:0:0:0:
44,297,98269,2,0,L|142:329,1,85
474,286,98749,2,0,L|488:191,1,85
246,29,99229,2,0,L|128:61,1,85
454,77,99709,1,0,0:0:0:0:
35,196,99949,6,0,B|124:248|177:230,1,127.500004863739
346,158,100669,2,0,P|366:220|339:289,2,127.500004863739
179,104,101869,1,0,0:0:0:0:
110,303,102109,5,0,0:0:0:0:
159,314,102229,1,0,0:0:0:0:
203,311,102349,1,0,0:0:0:0:
237,277,102469,2,0,P|287:260|367:303,1,127.5
373,311,102949,5,0,0:0:0:0:
407,326,103069,1,0,0:0:0:0:
440,313,103189,1,0,0:0:0:0:
451,274,103309,1,0,0:0:0:0:
437,243,103429,2,0,P|398:208|323:179,1,127.5
43,129,104029,6,0,P|102:113|143:128,1,85
168,128,104389,1,0,0:0:0:0:
203,147,104509,1,0,0:0:0:0:
222,188,104629,1,0,0:0:0:0:
235,229,104749,1,0,0:0:0:0:
266,260,104869,1,0,0:0:0:0:
316,260,104989,1,0,0:0:0:0:
406,160,105229,5,0,0:0:0:0:
433,274,105349,2,0,P|410:320|315:345,1,127.5
37,334,105949,5,0,0:0:0:0:
37,37,106189,1,0,0:0:0:0:
342,195,106429,1,0,0:0:0:0:
29,182,106669,1,0,0:0:0:0:
374,317,106909,2,0,P|420:292|460:185,1,170
449,41,107629,5,0,0:0:0:0:
40,50,107869,1,0,0:0:0:0:
136,181,108109,1,0,0:0:0:0:
134,187,108229,1,0,0:0:0:0:
132,195,108349,1,0,0:0:0:0:
132,204,108469,1,0,0:0:0:0:
134,214,108589,5,0,0:0:0:0:
142,223,108709,1,0,0:0:0:0:
157,234,108829,1,0,0:0:0:0:
172,240,108949,1,0,0:0:0:0:
196,240,109069,1,0,0:0:0:0:
224,231,109189,2,0,P|284:191|349:189,1,127.5
358,189,109669,5,0,0:0:0:0:
380,206,109789,1,0,0:0:0:0:
393,231,109909,1,0,0:0:0:0:
388,264,110029,1,0,0:0:0:0:
359,289,110149,2,0,L|300:295,1,42.5
259,58,110509,1,0,0:0:0:0:
235,279,110749,2,0,P|106:274|39:354,2,237.999992736817
268,295,111829,5,0,0:0:0:0:
305,285,111949,1,0,0:0:0:0:
328,241,112069,1,0,0:0:0:0:
319,194,112189,1,0,0:0:0:0:
278,171,112309,1,0,0:0:0:0:
243,161,112429,2,0,L|72:170,2,118.999996368408
460,45,113149,2,0,P|481:125|480:181,2,118.999996368408
70,60,113869,6,0,L|186:120,1,118.999996368408
66,328,114349,2,0,L|208:278,1,118.999996368408
434,39,114829,2,0,L|316:111,1,118.999996368408
468,313,115309,2,0,L|312:230,1,118.999996368408
138,93,115789,5,0,0:0:0:0:
129,147,115909,1,0,0:0:0:0:
132,210,116029,1,0,0:0:0:0:
171,262,116149,1,0,0:0:0:0:
229,304,116269,1,0,0:0:0:0:
304,312,116389,1,0,0:0:0:0:
369,263,116509,2,0,P|438:279|481:336,1,101.999996887207
456,68,116989,6,0,L|329:114,1,101.999996887207
72,54,117469,6,0,P|58:147|83:214,1,118.999996368408
424,220,117949,1,0,0:0:0:0:
373,279,118069,1,0,0:0:0:0:
302,315,118189,1,0,0:0:0:0:
213,27,118429,2,0,P|279:73|442:25,1,237.999992736817
53,147,119149,5,0,0:0:0:0:
466,201,119389,1,0,0:0:0:0:
40,304,119629,1,0,0:0:0:0:
478,359,119869,1,0,0:0:0:0:
188,38,120109,2,0,P|130:145|206:242,1,237.999992736817
47,49,120829,5,0,0:0:0:0:
468,91,121069,1,0,0:0:0:0:
35,184,121309,1,0,0:0:0:0:
96,234,121429,1,0,0:0:0:0:
169,268,121549,1,0,0:0:0:0:
372,23,121789,5,0,0:0:0:0:
152,353,122029,1,0,0:0:0:0:
475,348,122269,1,0,0:0:0:0:
418,296,122389,1,0,0:0:0:0:
437,219,122509,1,0,0:0:0:0:
37,32,122749,6,0,L|104:51,1,59.4999981842042
218,70,122989,1,0,0:0:0:0:
24,197,123229,6,0,L|153:186,1,118.999996368408
427,60,123709,2,0,L|391:189,1,118.999996368408
252,351,124189,2,0,L|261:216,1,118.999996368408
65,54,124669,2,0,L|145:163,1,118.999996368408
34,258,125149,6,0,L|151:270,1,101.999996887207
326,261,125629,2,0,L|429:200,1,101.999996887207
479,46,126109,1,0,0:0:0:0:
46,119,126349,1,0,0:0:0:0:
252,354,126589,1,0,0:0:0:0:
272,22,126829,6,0,B|216:70|216:70|276:73|276:73|230:109|230:109|268:124|268:124|237:158|237:158|258:167|258:167|205:234|240:277|257:319|350:311,1,510
357,40,127789,1,0,0:0:0:0:
409,97,127909,1,0,0:0:0:0:
414,174,128029,1,0,0:0:0:0:
61,203,128269,2,0,P|53:296|93:331,1,118.999996368408
364,334,128749,6,0,B|317:266|254:326|254:326|258:228|258:228|163:274|151:160|193:102|193:102|267:184|339:128|339:128|334:255|429:262|473:230|497:156,1,850
468,28,130189,1,0,0:0:0:0:
72,91,130429,1,0,0:0:0:0:
204,326,130669,1,0,0:0:0:0:
301,55,130909,5,0,0:0:0:0:
34,230,131149,1,0,0:0:0:0:
471,290,131389,1,0,0:0:0:0:
11,349,131629,1,0,0:0:0:0:
492,157,131869,1,0,0:0:0:0:
15,72,132109,1,0,0:0:0:0:
399,346,132349,1,0,0:0:0:0:
165,43,132589,6,0,L|122:118,1,59.4999981842042
63,198,132829,1,0,0:0:0:0:
64,274,132949,1,0,0:0:0:0:
111,334,133069,1,0,0:0:0:0:
445,286,133309,6,0,L|371:226,1,59.4999981842042
329,193,133549,1,0,0:0:0:0:
309,122,133669,1,0,0:0:0:0:
340,52,133789,1,0,0:0:0:0:
12,51,134029,6,0,L|140:108,1,118.999996368408
488,94,134509,2,0,L|325:155,1,118.999996368408
22,249,134989,2,0,L|170:311,1,118.999996368408
360,355,135469,2,0,B|447:274|257:209|372:119,1,237.999992736817
17,23,136189,5,0,0:0:0:0:
164,347,136429,1,0,0:0:0:0:
453,49,136669,2,0,L|321:118,1,118.999996368408
19,235,137149,5,0,0:0:0:0:
481,334,137389,1,0,0:0:0:0:
151,61,137629,2,0,L|175:208,1,118.999996368408
394,58,138109,6,0,L|372:200,1,118.999996368408
22,291,138589,1,0,0:0:0:0:
418,311,138829,1,0,0:0:0:0:
70,85,139069,1,0,0:0:0:0:
269,353,139309,1,0,0:0:0:0:
351,34,139549,1,0,0:0:0:0:
59,261,139789,1,0,0:0:0:0:
180,44,140029,6,0,P|200:135|248:172,1,118.999996368408
327,357,140509,2,0,P|305:251|269:203,1,118.999996368408
55,56,140989,2,0,L|58:126,1,59.4999981842042
152,146,141229,2,0,P|122:221|206:349,1,237.999992736817
354,47,141949,5,0,0:0:0:0:
433,59,142069,1,0,0:0:0:0:
495,109,142189,1,0,0:0:0:0:
512,184,142309,1,0,0:0:0:0:
509,263,142429,1,0,0:0:0:0:
457,324,142549,1,0,0:0:0:0:
381,351,142669,1,0,0:0:0:0:
303,335,142789,1,0,0:0:0:0:
243,281,142909,1,0,0:0:0:0:
218,205,143029,1,0,0:0:0:0:
236,127,143149,1,0,0:0:0:0:
291,68,143269,1,0,0:0:0:0:
291,68,143329,5,0,0:0:0:0:
291,68,143389,1,0,0:0:0:0:
128,49,143629,2,0,P|71:80|59:148,1,118.999996368408
256,192,144109,12,0,148189,0:0:0:0:
242,119,152029,6,0,L|328:139,1,85
443,151,152509,1,0,0:0:0:0:
389,257,152749,1,0,0:0:0:0:
274,287,152989,1,0,0:0:0:0:
161,226,153229,6,0,P|111:262|93:316,1,85
96,135,153709,2,0,P|102:86|67:47,1,85
218,41,154189,2,0,L|310:56,1,85
421,116,154669,2,0,L|393:232,1,85
368,302,155149,1,0,0:0:0:0:
159,222,155389,1,0,0:0:0:0:
159,222,155629,1,0,0:0:0:0:
159,222,155869,5,0,0:0:0:0:
314,187,156109,2,0,P|365:205|402:234,1,85
283,302,156589,2,0,L|140:304,1,127.500004863739
32,250,157309,1,0,0:0:0:0:
45,131,157549,1,0,0:0:0:0:
162,45,157789,6,0,P|200:71|219:116,2,85
297,51,158509,2,0,L|397:115,1,85
420,130,158869,1,0,0:0:0:0:
462,179,158989,1,0,0:0:0:0:
398,278,159229,6,0,L|274:283,1,101.999996887207
103,288,159709,1,0,0:0:0:0:
195,161,159949,1,0,0:0:0:0:
188,308,160189,1,0,0:0:0:0:
188,308,160429,1,0,0:0:0:0:
35,231,160669,6,0,P|29:181|62:129,1,85
129,50,161149,1,0,0:0:0:0:
229,69,161389,2,0,L|339:86,1,85
363,177,161869,2,0,L|453:198,1,85
310,299,162349,2,0,L|131:312,1,170
19,160,163069,5,0,0:0:0:0:
35,333,163309,1,0,0:0:0:0:
129,154,163549,2,0,P|122:92|85:55,1,85
223,50,164029,5,0,0:0:0:0:
336,85,164269,1,0,0:0:0:0:
405,175,164509,1,0,0:0:0:0:
400,297,164749,1,0,0:0:0:0:
48,252,164989,1,0,0:0:0:0:
29,63,165229,5,0,0:0:0:0:
74,65,165349,1,0,0:0:0:0:
119,73,165469,1,0,0:0:0:0:
161,90,165589,1,0,0:0:0:0:
195,119,165709,1,0,0:0:0:0:
217,159,165829,1,0,0:0:0:0:
230,203,165949,1,0,0:0:0:0:
242,247,166069,5,0,0:0:0:0:
263,287,166189,1,0,0:0:0:0:
297,317,166309,1,0,0:0:0:0:
340,331,166429,1,0,0:0:0:0:
385,331,166549,1,0,0:0:0:0:
429,319,166669,1,0,0:0:0:0:
467,294,166789,1,0,0:0:0:0:
493,258,166909,5,0,0:0:0:0:
379,32,167149,1,0,0:0:0:0:
18,179,167389,2,0,P|41:248|132:266,1,118.999996368408
481,189,167869,5,0,0:0:0:0:
400,186,167989,1,0,0:0:0:0:
319,181,168109,1,0,0:0:0:0:
56,342,168349,2,0,L|195:282,1,118.999996368408
54,39,168829,5,0,0:0:0:0:
52,344,169069,1,0,0:0:0:0:
273,44,169309,1,0,0:0:0:0:
248,355,169549,1,0,0:0:0:0:
434,55,169789,1,0,0:0:0:0:
374,349,170029,2,0,P|294:264|70:302,1,356.999989105225
41,49,170989,5,0,0:0:0:0:
457,62,171229,2,0,P|399:104|299:120,1,118.999996368408
19,129,171709,5,0,0:0:0:0:
60,210,171829,1,0,0:0:0:0:
60,303,171949,1,0,0:0:0:0:
484,351,172189,2,0,L|327:330,1,118.999996368408
116,51,172669,5,0,0:0:0:0:
166,119,172789,1,0,0:0:0:0:
181,199,172909,1,0,0:0:0:0:
489,99,173149,5,0,0:0:0:0:
415,141,173269,1,0,0:0:0:0:
397,223,173389,1,0,0:0:0:0:
33,318,173629,5,0,0:0:0:0:
123,301,173749,1,0,0:0:0:0:
216,284,173869,1,0,0:0:0:0:
465,32,174109,5,0,0:0:0:0:
378,58,174229,1,0,0:0:0:0:
289,83,174349,1,0,0:0:0:0:
69,60,174589,6,0,P|65:160|94:209,1,118.999996368408
454,311,175069,2,0,P|420:245|336:209,1,118.999996368408
13,209,175549,1,0,0:0:0:0:
484,73,175789,1,0,0:0:0:0:
110,354,176029,1,0,0:0:0:0:
497,202,176269,1,0,0:0:0:0:
29,54,176509,1,0,0:0:0:0:
444,361,176749,6,0,B|351:276|229:346|229:346|145:204|6:212|6:212|151:155|97:22,1,680
122,48,177829,1,0,0:0:0:0:
180,21,177949,1,0,0:0:0:0:
244,27,178069,1,0,0:0:0:0:
294,70,178189,1,0,0:0:0:0:
292,343,178429,5,0,0:0:0:0:
433,37,178669,6,0,B|425:131|425:131|250:93|382:252|382:252|171:148|270:341|270:341|71:262|145:132|145:132|256:132|256:132|294:34,1,1020
71,40,180349,2,0,P|43:103|54:155,1,118.999996368408
32,325,180829,1,0,0:0:0:0:
224,73,181069,5,0,0:0:0:0:
496,134,181309,1,0,0:0:0:0:
11,188,181549,5,0,0:0:0:0:
490,338,181789,1,0,0:0:0:0:
498,32,182029,5,0,0:0:0:0:
18,353,182269,1,0,0:0:0:0:
503,190,182509,1,0,0:0:0:0:
50,45,182749,6,0,L|82:118,1,59.4999981842042
123,203,182989,1,0,0:0:0:0:
498,313,183229,5,0,0:0:0:0:
16,288,183469,1,0,0:0:0:0:
369,47,183709,6,0,L|331:120,1,59.4999981842042
258,216,183949,1,0,0:0:0:0:
16,72,184189,6,0,P|85:111|163:113,1,118.999996368408
446,96,184669,2,0,P|371:123|311:114,1,118.999996368408
13,273,185149,2,0,P|91:269|128:229,1,118.999996368408
132,84,185629,1,0,0:0:0:0:
275,277,185869,1,0,0:0:0:0:
14,208,186109,6,0,L|114:203,1,59.4999981842042
203,192,186349,1,0,0:0:0:0:
411,47,186589,2,0,P|443:108|425:196,1,118.999996368408
131,346,187069,5,0,0:0:0:0:
88,266,187189,1,0,0:0:0:0:
36,180,187309,1,0,0:0:0:0:
419,323,187549,2,0,L|338:183,1,118.999996368408
287,111,188029,5,0,0:0:0:0:
83,330,188269,1,0,0:0:0:0:
39,79,188509,5,0,0:0:0:0:
501,293,188749,1,0,0:0:0:0:
33,241,188989,5,0,0:0:0:0:
499,68,189229,1,0,0:0:0:0:
21,20,189469,5,0,0:0:0:0:
494,256,189709,1,0,0:0:0:0:
25,125,189949,6,0,P|105:173|162:175,1,118.999996368408
241,48,190429,2,0,L|229:179,1,118.999996368408
363,39,190909,2,0,L|405:172,1,118.999996368408
30,354,191389,2,0,L|168:263,1,118.999996368408
460,322,191869,1,0,0:0:0:0:
46,91,192109,6,0,B|104:176|104:176|136:143|136:143|146:191|213:250|213:250|229:206|229:206|259:249|323:188|323:188|347:220|347:220|407:160|437:174,1,510
23,201,193069,5,0,0:0:0:0:
85,259,193189,1,0,0:0:0:0:
69,343,193309,1,0,0:0:0:0:
50,49,193549,5,0,0:0:0:0:
142,71,193669,1,0,0:0:0:0:
210,135,193789,1,0,0:0:0:0:
214,229,193909,1,0,0:0:0:0:
286,282,194029,1,0,0:0:0:0:
256,192,194149,12,0,198109,0:0:0:0:
