osu file format v14

[General]
AudioFilename: audio.mp3
AudioLeadIn: 0
PreviewTime: 165848
Countdown: 0
SampleSet: Soft
StackLeniency: 0.2
Mode: 0
LetterboxInBreaks: 0
WidescreenStoryboard: 1

[Editor]
Bookmarks: 137818,150618
DistanceSpacing: 1.6
BeatDivisor: 4
GridSize: 32
TimelineZoom: 3.399999

[Metadata]
Title:Nisemono Chuuihou
TitleUnicode:ニセモノ注意報
Artist:B-ko (Cv:Touyama Nao)
ArtistUnicode:B子(Cv:東山奈央)
Creator:bite you death
Version:insain
Source:終焉ノ栞プロジェクト
Tags:byd doppelganger
BeatmapID:1951623
BeatmapSetID:916784

[Difficulty]
HPDrainRate:4.8
CircleSize:3.8
OverallDifficulty:8
ApproachRate:9
SliderMultiplier:1.38
SliderTickRate:2

[Events]
//Background and Video events
0,0,"dop.jpg",0,0
//Break Periods
//Storyboard Layer 0 (Background)
//Storyboard Layer 1 (Fail)
//Storyboard Layer 2 (Pass)
//Storyboard Layer 3 (Foreground)
//Storyboard Layer 4 (Overlay)
//Storyboard Sound Samples

[TimingPoints]
9600,230.769230769231,4,2,2,60,1,0
23446,-100,4,2,2,60,0,0
25638,-100,4,2,2,40,0,0
26215,-133.333333333333,4,2,2,50,0,0
40061,-117.647058823529,4,2,2,60,0,0
40984,-454.545454545455,4,2,2,30,0,0
47446,-227.272727272727,4,2,2,30,0,0
47676,-151.515151515152,4,2,2,40,0,0
47907,-113.636363636364,4,2,2,50,0,0
48138,-90.0900900900901,4,2,2,60,0,0
48542,-90.0900900900901,4,2,2,5,0,0
48600,-90.0900900900901,4,2,2,60,0,0
49465,-90.0900900900901,4,2,2,5,0,0
49523,-90.0900900900901,4,2,2,60,0,0
50388,-90.0900900900901,4,2,2,5,0,0
50446,-90.0900900900901,4,2,2,60,0,0
51311,-90.0900900900901,4,2,2,5,0,0
51369,-90.0900900900901,4,2,2,60,0,0
54830,-142.857142857143,4,2,2,45,0,0
55234,-142.857142857143,4,2,2,5,0,0
55292,-125,4,2,2,60,0,0
55753,222.222222222222,4,2,2,60,1,0
55753,-83.3333333333333,4,2,2,70,0,1
58586,-83.3333333333333,4,2,2,5,0,1
58641,-83.3333333333333,4,2,2,70,0,1
58808,-83.3333333333333,4,2,2,5,0,1
58864,-83.3333333333333,4,2,2,70,0,1
65475,-83.3333333333333,4,2,2,5,0,1
65530,-83.3333333333333,4,2,2,70,0,1
68364,-83.3333333333333,4,2,2,5,0,1
68419,-83.3333333333333,4,2,2,70,0,1
68697,-83.3333333333333,4,2,2,5,0,1
68752,-83.3333333333333,4,2,2,70,0,1
69030,-83.3333333333333,4,2,2,5,0,1
69086,-74.0740740740741,4,2,2,70,0,1
69919,-74.0740740740741,4,2,2,5,0,1
69975,-83.3333333333333,4,2,2,70,0,0
75308,-111.111111111111,4,2,2,60,0,0
76141,-111.111111111111,4,2,2,5,0,0
76197,-111.111111111111,4,2,2,60,0,0
84197,-100,4,2,2,60,0,0
90419,-125,4,2,2,40,0,0
91086,-100,4,2,2,50,0,0
91252,-100,4,2,2,5,0,0
91308,206.896551724138,4,2,2,45,1,0
91308,-142.857142857143,4,2,2,45,0,0
94618,-100,4,2,2,60,0,0
94825,-142.857142857143,4,2,2,45,0,0
96273,-111.111111111111,4,2,2,60,0,0
104549,-285.714285714286,4,2,2,30,0,0
110342,-200,4,2,2,40,0,0
110549,-153.846153846154,4,2,2,50,0,0
111170,-95.2380952380953,4,2,2,60,0,0
111325,-95.2380952380953,4,2,2,5,0,0
111376,-95.2380952380953,4,2,2,60,0,0
112152,-95.2380952380953,4,2,2,5,0,0
112204,-95.2380952380953,4,2,2,60,0,0
112980,-95.2380952380953,4,2,2,5,0,0
113032,-95.2380952380953,4,2,2,60,0,0
113808,-95.2380952380953,4,2,2,5,0,0
113859,-95.2380952380953,4,2,2,60,0,0
116963,-200,4,2,2,45,0,0
117273,-200,4,2,2,5,0,0
117376,-100,4,2,2,60,0,0
117842,-100,4,2,2,5,0,0
117894,-100,4,2,2,60,0,0
117945,-100,4,2,2,5,0,0
117997,-100,4,2,2,60,0,0
118049,-100,4,2,2,5,0,0
118101,-100,4,2,2,60,0,0
118152,-100,4,2,2,5,0,0
118204,-100,4,2,2,60,0,0
118618,200,4,2,2,70,1,0
118618,-83.3333333333333,4,2,2,70,0,1
131218,-76.9230769230769,4,2,2,70,0,1
131368,-76.9230769230769,4,2,2,5,0,1
131418,-90.9090909090909,4,2,2,70,0,0
136218,-111.111111111111,4,2,2,60,0,0
137818,-100,4,2,2,50,0,0
142168,-100,4,2,2,5,0,0
142218,-100,4,2,2,50,0,0
144368,-100,4,2,2,5,0,0
144418,-100,4,2,2,50,0,0
150618,461.538461538462,4,2,2,60,1,0
165848,461.538461538462,4,2,2,60,1,0
167578,-100,4,2,2,5,0,0
167694,187.5,4,2,2,70,1,0
167694,-83.3333333333333,4,2,2,70,0,1
179084,-83.3333333333333,4,2,2,5,0,1
179131,-83.3333333333333,4,2,2,70,0,1
179272,-83.3333333333333,4,2,2,5,0,1
179319,-83.3333333333333,4,2,2,70,0,1
179647,-83.3333333333333,4,2,2,70,0,0
179694,-83.3333333333333,4,2,2,70,0,1
191694,-83.3333333333333,4,2,2,70,0,0
197694,-90.9090909090909,4,2,2,70,0,0
203694,375,4,2,2,60,1,0
205194,272.727272727273,4,2,2,60,1,0
206284,222.222222222222,4,2,2,60,1,0
207172,187.5,4,2,2,60,1,0
207922,162.162162162162,4,2,2,60,1,0
208043,-100,4,2,2,5,0,0
208084,-100,4,2,2,60,0,0
208570,150,4,2,2,60,1,0
209170,146.341463414634,4,2,2,60,1,0
209755,153.846153846154,4,2,2,60,1,0
210370,148.148148148148,4,2,2,60,1,0
210962,142.857142857143,4,2,2,60,1,0
211676,769.230769230769,4,2,2,60,1,0
217829,-100,4,2,2,5,0,0

[Colours]
Combo1 : 55,111,111
Combo2 : 181,181,219
Combo3 : 255,132,132
Combo4 : 215,255,215
Combo5 : 255,219,202
Combo6 : 128,0,64
SliderBorder : 255,255,255
SliderTrackOverride : 0,0,0

[HitObjects]
182,183,9599,6,0,P|249:180|304:252,1,138
329,303,9946,1,0,0:0:0:0:
386,243,10061,2,0,L|458:260,1,69
484,181,10292,2,0,L|412:164,1,69
381,89,10523,6,0,P|343:118|335:151,2,69
250,106,10869,6,0,P|294:124|326:114,2,69
331,211,11215,6,0,P|324:163|300:140,1,69
218,94,11446,5,0,0:0:0:0:
218,94,11561,2,0,L|65:116,1,138
60,194,11907,2,0,L|213:172,1,138
265,220,12253,1,0,0:0:0:0:
265,220,12369,5,0,0:0:0:0:
322,279,12484,2,0,P|361:277|385:259,2,69
264,219,12830,2,0,P|276:285|288:374,1,138
296,376,13292,6,0,P|226:377|174:310,1,138
193,249,13638,1,0,0:0:0:0:
115,278,13753,2,0,L|23:262,1,69
59,183,13984,2,0,L|151:199,1,69
192,143,14215,6,0,P|213:111|209:77,2,69
307,73,14561,6,0,P|268:70|241:91,2,69
189,9,14907,6,0,P|206:43|237:56,1,69
365,23,15138,5,0,0:0:0:0:
365,23,15253,2,0,B|332:62|332:62|346:155,1,138
269,183,15600,2,0,L|248:29,1,138
168,30,15946,1,0,0:0:0:0:
168,30,16061,6,0,L|179:106,1,69
69,223,16522,2,0,L|80:147,1,69
167,278,16869,1,0,0:0:0:0:
167,278,16984,6,0,P|217:296|287:236,1,138
315,172,17330,1,0,0:0:0:0:
365,238,17446,2,0,P|407:232|433:220,1,69
451,141,17676,2,0,P|419:127|384:124,1,69
311,84,17907,6,0,P|264:103|245:122,2,69
177,53,18253,6,0,P|216:84|242:91,2,69
218,185,18600,6,0,P|225:134|218:108,1,69
149,35,18830,5,0,0:0:0:0:
149,35,18946,2,0,P|118:110|102:172,1,138
35,117,19292,2,0,P|65:192|82:254,1,138
63,328,19638,1,0,0:0:0:0:
63,328,19753,5,0,0:0:0:0:
138,362,19869,2,0,P|171:349|219:339,1,69
260,280,20100,1,0,0:0:0:0:
260,280,20215,2,0,P|310:302|331:386,1,138
343,384,20676,6,0,P|356:313|376:247,1,138
434,191,21023,1,0,0:0:0:0:
356,161,21138,2,0,L|281:176,1,69
252,99,21369,2,0,L|327:84,1,69
361,13,21600,6,0,P|394:51|401:76,2,69
490,42,21946,6,0,P|440:51|415:45,2,69
400,139,22292,6,0,P|416:91|434:72,1,69
464,193,22523,5,0,0:0:0:0:
464,193,22638,2,0,L|315:170,1,138
297,94,22984,2,0,L|148:117,1,138
92,67,23330,1,0,0:0:0:0:
92,67,23446,6,0,P|116:132|130:206,1,138
162,275,23792,2,0,P|174:207|199:142,1,138
255,81,24138,2,0,B|333:64|312:120|395:103,1,138
450,51,24484,2,0,P|430:116|411:205,1,138
447,260,24830,2,0,P|404:260|369:281,1,69
315,322,25061,2,0,P|272:322|237:301,1,69
195,250,25638,6,0,L|204:195,2,34.5
141,313,25869,1,0,0:0:0:0:
105,238,25984,2,0,L|120:146,1,69
79,95,26215,6,0,P|114:86|177:114,1,103.500003948212
232,169,26561,2,0,L|343:146,1,103.500003948212
