osu file format v14

[General]
AudioFilename: audio.mp3
AudioLeadIn: 0
PreviewTime: 165848
Countdown: 0
SampleSet: Soft
StackLeniency: 0.3
Mode: 0
LetterboxInBreaks: 0
WidescreenStoryboard: 0

[Editor]
Bookmarks: 137818,150618
DistanceSpacing: 0.75
BeatDivisor: 8
GridSize: 32
TimelineZoom: 3.399999

[Metadata]
Title:Nisemono Chuuihou
TitleUnicode:ニセモノ注意報
Artist:B-ko (Cv:Touyama Nao)
ArtistUnicode:B子(Cv:東山奈央)
Creator:bite you death
Version:Illusive Extra
Source:終焉ノ栞プロジェクト
Tags:byd doppelganger
BeatmapID:1914713
BeatmapSetID:916784

[Difficulty]
HPDrainRate:4.8
CircleSize:4
OverallDifficulty:9.6
ApproachRate:10
SliderMultiplier:1.63
SliderTickRate:2

[Events]
//Background and Video events
0,0,"dop.jpg",0,0
//Break Periods
2,77286,82858
2,150818,165398
//Storyboard Layer 0 (Background)
//Storyboard Layer 1 (Fail)
//Storyboard Layer 2 (Pass)
//Storyboard Layer 3 (Foreground)
//Storyboard Layer 4 (Overlay)
//Storyboard Sound Samples

[TimingPoints]
9600,230.769230769231,4,2,2,60,1,0
23446,-76.9230769230769,4,2,2,60,0,0
25638,-100,4,2,2,40,0,0
26215,-142.857142857143,4,2,2,50,0,0
40061,-117.647058823529,4,2,2,60,0,0
40984,-454.545454545455,4,2,2,30,0,0
47446,-227.272727272727,4,2,2,30,0,0
47676,-151.515151515152,4,2,2,40,0,0
47907,-113.636363636364,4,2,2,50,0,0
48138,-90.0900900900901,4,2,2,60,0,0
48542,-90.0900900900901,4,2,2,5,0,0
48600,-90.0900900900901,4,2,2,60,0,0
49465,-90.0900900900901,4,2,2,5,0,0
49523,-90.0900900900901,4,2,2,60,0,0
50388,-90.0900900900901,4,2,2,5,0,0
50446,-90.0900900900901,4,2,2,60,0,0
51311,-90.0900900900901,4,2,2,5,0,0
51369,-90.0900900900901,4,2,2,60,0,0
54830,-142.857142857143,4,2,2,45,0,0
55234,-142.857142857143,4,2,2,5,0,0
55292,-125,4,2,2,60,0,0
55753,222.222222222222,4,2,2,60,1,0
55753,-83.3333333333333,4,2,2,70,0,1
58586,-83.3333333333333,4,2,2,5,0,1
58641,-83.3333333333333,4,2,2,70,0,1
58808,-83.3333333333333,4,2,2,5,0,1
58864,-83.3333333333333,4,2,2,70,0,1
65475,-83.3333333333333,4,2,2,5,0,1
65530,-83.3333333333333,4,2,2,70,0,1
68364,-83.3333333333333,4,2,2,5,0,1
68419,-83.3333333333333,4,2,2,70,0,1
68697,-83.3333333333333,4,2,2,5,0,1
68752,-83.3333333333333,4,2,2,70,0,1
69030,-83.3333333333333,4,2,2,5,0,1
69086,-74.0740740740741,4,2,2,70,0,1
69919,-74.0740740740741,4,2,2,5,0,1
69975,-83.3333333333333,4,2,2,70,0,0
75308,-111.111111111111,4,2,2,60,0,0
76141,-111.111111111111,4,2,2,5,0,0
76197,-111.111111111111,4,2,2,60,0,0
84197,-100,4,2,2,60,0,0
90419,-125,4,2,2,40,0,0
91086,-100,4,2,2,50,0,0
91252,-100,4,2,2,5,0,0
91308,206.896551724138,4,2,2,45,1,0
91308,-142.857142857143,4,2,2,45,0,0
94618,-100,4,2,2,60,0,0
94825,-142.857142857143,4,2,2,45,0,0
96273,-111.111111111111,4,2,2,60,0,0
104549,-285.714285714286,4,2,2,30,0,0
110342,-200,4,2,2,40,0,0
110549,-153.846153846154,4,2,2,50,0,0
111170,-95.2380952380953,4,2,2,60,0,0
111325,-95.2380952380953,4,2,2,5,0,0
111376,-95.2380952380953,4,2,2,60,0,0
112152,-95.2380952380953,4,2,2,5,0,0
112204,-95.2380952380953,4,2,2,60,0,0
112980,-95.2380952380953,4,2,2,5,0,0
113032,-95.2380952380953,4,2,2,60,0,0
113808,-95.2380952380953,4,2,2,5,0,0
113859,-95.2380952380953,4,2,2,60,0,0
116963,-200,4,2,2,45,0,0
117273,-200,4,2,2,5,0,0
117376,-100,4,2,2,60,0,0
117842,-100,4,2,2,5,0,0
117894,-100,4,2,2,60,0,0
117945,-100,4,2,2,5,0,0
117997,-100,4,2,2,60,0,0
118049,-100,4,2,2,5,0,0
118101,-100,4,2,2,60,0,0
118152,-100,4,2,2,5,0,0
118204,-100,4,2,2,60,0,0
118618,200,4,2,2,70,1,0
118618,-83.3333333333333,4,2,2,70,0,1
131218,-76.9230769230769,4,2,2,70,0,1
131368,-76.9230769230769,4,2,2,5,0,1
131418,-90.9090909090909,4,2,2,70,0,0
136218,-111.111111111111,4,2,2,60,0,0
137818,-100,4,2,2,60,0,0
142168,-100,4,2,2,5,0,0
142218,-100,4,2,2,60,0,0
144368,-100,4,2,2,5,0,0
144418,-100,4,2,2,60,0,0
150618,461.538461538462,4,2,2,60,1,0
165848,461.538461538462,4,2,2,60,1,0
167578,-100,4,2,2,5,0,0
167694,187.5,4,2,2,70,1,0
167694,-83.3333333333333,4,2,2,70,0,1
179084,-83.3333333333333,4,2,2,5,0,1
179131,-83.3333333333333,4,2,2,70,0,1
179272,-83.3333333333333,4,2,2,5,0,1
179319,-83.3333333333333,4,2,2,70,0,1
179647,-83.3333333333333,4,2,2,70,0,0
179694,-83.3333333333333,4,2,2,70,0,1
191694,-83.3333333333333,4,2,2,70,0,0
197694,-90.9090909090909,4,2,2,70,0,0
203694,375,4,2,2,60,1,0
205194,272.727272727273,4,2,2,60,1,0
206284,222.222222222222,4,2,2,60,1,0
207172,187.5,4,2,2,60,1,0
207922,162.162162162162,4,2,2,60,1,0
208043,-100,4,2,2,5,0,0
208084,-100,4,2,2,60,0,0
208570,150,4,2,2,60,1,0
209170,146.341463414634,4,2,2,60,1,0
209755,153.846153846154,4,2,2,60,1,0
210370,148.148148148148,4,2,2,60,1,0
210962,142.857142857143,4,2,2,60,1,0
211676,769.230769230769,4,2,2,60,1,0
217829,-100,4,2,2,5,0,0

[Colours]
Combo1 : 55,111,111
Combo2 : 181,181,219
Combo3 : 255,132,132
Combo4 : 215,255,215
Combo5 : 255,219,202
Combo6 : 128,0,64
SliderBorder : 255,255,255
SliderTrackOverride : 0,0,0

[HitObjects]
389,146,9599,6,0,B|341:102|271:139|242:193,1,163,6|8,3:2|0:0,0:0:0:0:
210,281,9946,1,0,0:0:0:0:
165,146,10061,1,0,3:0:0:0:
165,146,10176,1,8,0:0:0:0:
313,287,10292,2,0,P|351:284|402:268,1,81.5,0|8,0:0|0:0,0:0:0:0:
482,137,10523,5,0,3:0:0:0:
462,218,10638,1,0,0:0:0:0:
482,137,10753,1,8,0:0:0:0:
364,44,10869,5,0,3:0:0:0:
389,146,10984,1,0,0:0:0:0:
364,44,11099,1,8,0:0:0:0:
242,262,11216,5,0,3:0:0:0:
273,134,11331,1,8,0:0:0:0:
326,326,11445,5,2,3:2:0:0:
243,361,11560,2,0,P|201:350|167:325,1,81.5,2|8,0:0|0:0,0:0:0:0:
74,102,11792,5,2,0:2:0:0:
146,156,11907,2,0,P|159:197|154:239,1,81.5,2|8,3:2|0:0,0:0:0:0:
242,47,12138,5,2,0:0:0:0:
330,205,12253,1,10,0:0:0:0:
330,205,12311,1,8,0:0:0:0:
330,205,12369,6,0,P|390:210|457:117,1,163,2|8,3:2|0:0,0:0:0:0:
426,52,12715,1,0,0:0:0:0:
484,174,12830,2,0,P|483:221|468:267,1,81.5,2|0,3:2|3:0,0:0:0:0:
253,127,13061,2,0,P|243:87|243:46,1,81.5,10|8,0:0|0:0,0:0:0:0:
379,321,13292,6,0,P|342:295|207:289,1,163,6|8,3:2|0:0,0:0:0:0:
102,381,13638,1,0,0:0:0:0:
222,313,13753,1,0,3:0:0:0:
222,313,13869,1,8,0:0:0:0:
57,207,13984,2,0,B|33:244|33:244|52:283,1,81.5,0|8,0:0|0:0,0:0:0:0:
260,207,14215,5,0,3:0:0:0:
131,248,14330,1,0,0:0:0:0:
260,207,14446,1,8,0:0:0:0:
50,114,14561,5,0,3:0:0:0:
179,155,14676,1,0,0:0:0:0:
50,114,14792,1,8,0:0:0:0:
260,21,14908,5,0,3:0:0:0:
131,62,15023,1,8,0:0:0:0:
345,153,15138,5,2,3:2:0:0:
251,51,15253,2,0,L|266:143,1,81.5,10|0,0:0|0:0,0:0:0:0:
437,145,15484,6,0,L|445:98,1,40.75,2|0,3:2|0:0,0:0:0:0:
343,43,15599,2,0,L|358:135,1,81.5,10|0,0:0|0:0,0:0:0:0:
458,23,15830,1,8,0:0:0:0:
458,23,15888,1,8,0:0:0:0:
458,23,15946,1,8,0:0:0:0:
497,252,16061,6,0,P|456:239|384:228,1,81.5,2|2,3:2|3:2,0:0:0:0:
415,253,16523,6,0,P|374:265|302:277,1,81.5,2|2,3:2|3:2,0:0:0:0:
333,252,16868,5,0,3:2:0:0:
196,367,16984,6,0,B|183:312|183:312|188:286|188:286|173:265|173:265|157:197,1,163,6|8,3:2|0:0,0:0:0:0:
126,96,17330,1,0,0:0:0:0:
89,308,17446,1,0,3:0:0:0:
89,308,17561,1,8,0:0:0:0:
212,141,17676,2,0,P|263:152|288:166,1,81.5,0|8,0:0|0:0,0:0:0:0:
418,294,17907,5,0,3:0:0:0:
431,165,18023,1,0,0:0:0:0:
418,294,18138,1,8,0:0:0:0:
318,111,18253,5,0,3:0:0:0:
333,252,18369,1,0,0:0:0:0:
318,111,18484,1,8,0:0:0:0:
208,312,18600,5,0,3:0:0:0:
225,157,18716,1,8,0:0:0:0:
265,377,18830,5,2,3:2:0:0:
208,312,18946,2,0,P|167:303|122:313,1,81.5,2|8,0:0|0:0,0:0:0:0:
8,128,19176,5,2,0:0:0:0:
65,193,19292,2,0,P|106:202|151:192,1,81.5,2|8,3:2|0:0,0:0:0:0:
234,79,19523,5,2,0:0:0:0:
313,217,19638,1,8,0:0:0:0:
313,217,19696,1,8,0:0:0:0:
313,217,19753,6,0,P|275:197|227:186,1,81.5,2|0,3:2|0:0,0:0:0:0:
461,100,19984,1,10,0:0:0:0:
344,216,20100,1,2,3:2:0:0:
211,48,20215,2,0,P|142:43|106:133,1,163,2|8,3:2|0:0,0:0:0:0:
89,115,20676,6,0,B|186:100|152:165|249:143,1,163,6|8,3:2|0:0,0:0:0:0:
386,91,21023,1,0,0:0:0:0:
282,223,21138,1,0,3:0:0:0:
282,223,21253,1,8,0:0:0:0:
329,19,21369,2,0,P|371:4|422:0,1,81.5,0|8,0:0|0:0,0:0:0:0:
499,131,21600,5,0,3:0:0:0:
386,91,21715,1,0,0:0:0:0:
499,131,21830,1,8,0:0:0:0:
329,19,21946,5,0,3:0:0:0:
216,59,22061,1,0,0:0:0:0:
329,19,22176,1,8,0:0:0:0:
159,131,22293,5,0,3:0:0:0:
46,91,22408,1,8,0:0:0:0:
272,143,22523,5,2,3:2:0:0:
211,212,22638,2,0,P|173:225|112:215,1,81.5,2|8,0:0|0:0,0:0:0:0:
225,39,22869,5,2,0:0:0:0:
316,57,22984,2,0,P|348:84|369:140,1,81.5,2|8,3:2|0:0,0:0:0:0:
302,254,23215,5,10,0:0:0:0:
329,257,23272,1,8,0:0:0:0:
354,249,23330,1,8,0:0:0:0:
373,229,23388,1,8,0:0:0:0:
380,204,23446,6,0,B|412:195|434:174|434:174|403:361,1,211.899990299988,6|0,3:2|0:0,0:0:0:0:
264,159,23792,6,0,B|137:133|185:220|44:180,1,211.899990299988,6|0,3:2|0:0,0:0:0:0:
267,28,24138,6,0,B|321:20|321:20|404:73|404:73|463:65,1,211.899990299988,6|0,3:2|0:0,0:0:0:0:
307,250,24484,6,0,B|286:178|286:178|264:158|264:158|273:135|273:135|247:47,1,211.899990299988,6|0,3:2|0:0,0:0:0:0:
126,318,24830,6,0,P|193:331|246:305,1,105.949995149994,6|0,3:2|0:0,0:0:0:0:
454,131,25061,2,0,P|404:117|353:132,1,105.949995149994,6|0,3:2|0:0,0:0:0:0:
329,151,25638,5,8,0:0:0:0:
329,151,25696,1,8,0:0:0:0:
329,151,25753,1,8,0:3:0:0:
169,152,25868,1,8,0:3:0:0:
311,137,25984,5,8,0:3:0:0:
187,166,26100,1,8,0:3:0:0:
334,278,26215,6,0,P|387:257|455:237,1,114.099996517944,2|0,3:2|0:0,0:0:0:0:
484,370,26561,1,2,3:2:0:0:
473,357,26676,2,0,P|447:346|413:336,2,57.0499982589722,8|2|0,0:0|0:0|0:0,0:0:0:0:
321,292,27023,1,2,3:2:0:0:
409,180,27138,6,0,P|404:210|388:254,1,57.0499982589722,2|8,0:0|0:0,0:0:0:0:
236,341,27369,2,0,P|228:313|224:285,1,57.0499982589722,2|0,0:0|0:0,0:0:0:0:
298,145,27600,1,10,0:0:0:0:
285,134,27715,2,0,P|240:127|180:185,1,114.099996517944,2|2,0:0|0:0,0:0:0:0:
119,256,28061,6,0,P|105:200|88:145,1,114.099996517944,2|0,3:2|0:0,0:0:0:0:
184,57,28407,2,0,P|177:84|169:112,1,57.0499982589722,2|8,3:2|0:0,0:0:0:0:
71,0,28638,1,2,0:0:0:0:
68,10,28753,2,0,P|83:34|97:60,1,57.0499982589722,2|0,0:0|0:0,0:0:0:0:
235,177,28984,6,0,B|304:181|277:140|362:143,1,114.099996517944,2|0,3:2|3:0,0:0:0:0:
401,237,29330,2,0,B|367:239|367:239|329:216,1,57.0499982589722,10|0,0:0|0:0,0:0:0:0:
404,87,29561,1,2,3:2:0:0:
404,87,29676,2,0,B|423:115|423:115|422:159,1,57.0499982589722,10|8,0:3|0:3,0:0:0:0:
471,307,29907,6,0,P|489:273|502:179,1,114.099996517944,2|2,3:2|0:0,0:0:0:0:
264,142,30253,1,2,3:2:0:0:
259,153,30291,1,0,3:0:0:0:
255,165,30330,1,0,3:0:0:0:
252,178,30369,2,0,P|224:165|194:161,1,57.0499982589722,12|2,0:0|0:0,0:0:0:0:
124,97,30600,2,0,P|148:80|174:71,1,57.0499982589722,2|2,0:0|3:2,0:0:0:0:
125,224,30830,6,0,B|85:215|85:215|70:203|70:203|48:209|48:209|-3:198,2,114.099996517944,2|2|10,0:0|3:2|0:0,0:0:0:0:
197,291,31407,2,0,P|231:280|263:273,1,57.0499982589722,2|0,0:0|0:0,0:0:0:0:
380,326,31638,1,8,0:0:0:0:
364,311,31753,6,0,P|377:250|396:183,1,114.099996517944,2|0,3:2|0:0,0:0:0:0:
481,203,32100,2,0,P|475:172|466:139,1,57.0499982589722,10|0,0:0|0:0,0:0:0:0:
349,56,32330,1,0,3:0:0:0:
349,56,32446,2,0,P|342:83|337:111,1,57.0499982589722,10|0,0:0|0:0,0:0:0:0:
287,210,32676,5,2,3:2:0:0:
262,221,32733,1,0,0:0:0:0:
233,223,32791,1,0,0:0:0:0:
207,213,32849,1,0,0:0:0:0:
186,194,32908,5,10,0:0:0:0:
161,174,32966,1,0,0:0:0:0:
131,163,33023,1,0,0:0:0:0:
99,163,33081,1,0,0:0:0:0:
69,174,33139,5,2,3:2:0:0:
45,195,33196,1,0,0:0:0:0:
29,223,33254,1,10,0:0:0:0:
24,255,33312,1,0,0:0:0:0:
30,286,33369,6,0,P|36:303|42:318,3,28.5249991294861,10|0|0|0,0:0|0:0|0:0|0:0,0:0:0:0:
106,363,33600,6,0,P|163:342|236:330,1,114.099996517944,6|0,3:2|0:0,0:0:0:0:
300,279,33946,2,0,P|329:289|366:295,1,57.0499982589722,2|8,3:2|0:0,0:0:0:0:
487,211,34176,1,0,0:0:0:0:
470,217,34292,2,0,P|453:241|438:275,1,57.0499982589722,2|0,0:0|0:0,0:0:0:0:
299,185,34523,6,0,P|250:197|209:263,2,114.099996517944,2|2|8,3:2|0:0|0:0,0:0:0:0:
407,104,35100,2,0,P|388:160|377:224,1,114.099996517944,2|2,0:0|0:0,0:0:0:0:
316,45,35446,6,0,B|275:24|275:24|197:54,1,114.099996517944,2|0,3:2|0:0,0:0:0:0:
147,162,35792,1,2,3:2:0:0:
162,165,35907,2,0,P|193:147|217:113,1,57.0499982589722,8|2,0:2|0:0,0:0:0:0:
128,39,36138,2,0,P|103:52|84:72,1,57.0499982589722,0|0,0:2|0:0,0:0:0:0:
130,248,36369,6,0,B|171:254|171:254|187:249|187:249|202:260|202:260|247:269,1,114.099996517944,2|8,3:2|0:0,0:0:0:0:
399,173,36715,2,0,P|364:163|298:218,1,114.099996517944,2|2,3:2|3:2,0:0:0:0:
404,265,37061,2,0,P|433:261|465:241,1,57.0499982589722,10|0,0:0|0:0,0:0:0:0:
426,35,37292,6,0,P|403:92|387:163,1,114.099996517944,2|2,3:2|0:0,0:0:0:0:
309,261,37638,1,0,3:0:0:0:
295,248,37676,1,0,3:0:0:0:
278,240,37714,1,0,3:0:0:0:
260,234,37753,2,0,P|225:241|192:253,1,57.0499982589722,12|2,0:0|0:0,0:0:0:0:
145,178,37984,2,0,P|129:201|116:226,1,57.0499982589722,2|2,0:0|3:2,0:0:0:0:
58,124,38215,6,0,P|40:55|16:11,2,114.099996517944,2|2|10,0:0|0:0|0:0,0:0:0:0:
130,54,38792,2,0,P|141:13|156:-13,1,57.0499982589722,2|0,0:0|0:0,0:0:0:0:
277,89,39023,1,2,0:0:0:0:
261,99,39138,6,0,L|138:79,1,114.099996517944,2|0,3:2|0:0,0:0:0:0:
97,197,39484,2,0,L|159:187,1,57.0499982589722,10|0,0:0|0:0,0:0:0:0:
187,63,39715,1,0,3:0:0:0:
187,63,39830,2,0,L|126:53,1,57.0499982589722,10|0,0:0|0:0,0:0:0:0:
341,244,40061,6,0,P|370:214|384:159,1,69.2750013213158,2|0,3:2|0:0,0:0:0:0:
228,149,40292,2,0,P|266:167|323:163,1,69.2750013213158,10|0,0:0|0:0,0:0:0:0:
283,12,40523,2,0,P|278:53|299:106,1,69.2750013213158,2|0,3:2|3:0,0:0:0:0:
430,22,40753,2,0,P|389:29|346:65,1,69.2750013213158,10|0,0:0|0:0,0:0:0:0:
466,165,40984,6,0,P|451:134|421:107,1,71.7200021887208,2|2,3:2|1:2,0:0:0:0:
344,77,41907,2,0,P|310:74|272:86,1,71.7200021887208,2|2,3:2|1:2,0:0:0:0:
207,138,42600,1,2,0:0:0:0:
207,138,42830,2,0,P|188:166|180:205,1,71.7200021887208,2|2,3:2|1:2,0:0:0:0:
192,287,43753,2,0,P|207:318|237:345,1,71.7200021887208,2|2,3:2|1:2,0:0:0:0:
314,375,44676,6,0,P|327:339|332:299,1,71.7200021887208,2|2,3:2|1:2,0:0:0:0:
146,199,45599,2,0,P|152:234|164:268,1,71.7200021887208,2|2,3:2|1:2,0:0:0:0:
315,161,46292,1,2,0:0:0:0:
315,161,46523,2,0,P|325:133|329:102,2,53.7900016415406,2|2|2,3:2|0:0|0:0,0:0:0:0:
251,219,47446,6,0,L|225:211,3,17.9300005471802,2|0|0|0,3:2|0:0|0:0|0:0,0:0:0:0:
164,170,47676,6,0,L|138:178,3,26.894999917923,2|0|0|0,3:2|0:0|0:0|0:0,0:0:0:0:
126,261,47907,5,2,3:2:0:0:
104,255,47964,1,0,0:0:0:0:
84,243,48022,1,0,0:0:0:0:
67,226,48080,1,0,0:0:0:0:
56,205,48137,5,2,3:2:0:0:
52,182,48195,1,0,0:0:0:0:
53,159,48253,1,0,0:0:0:0:
61,137,48310,1,0,0:0:0:0:
75,117,48369,6,0,P|126:75|198:79,1,135.697503312927,6|0,3:2|0:0,0:0:0:0:
228,105,48600,1,2,3:2:0:0:
437,20,48715,2,0,B|378:-16|378:-16|265:25,1,180.930004417236,2|0,0:0|0:0,0:0:0:0:
417,114,49061,2,0,P|484:104|514:76,1,90.4650022086182,2|0,3:2|0:0,0:0:0:0:
289,34,49292,6,0,P|310:104|325:188,1,135.697503312927,2|0,3:2|0:0,0:0:0:0:
307,208,49523,1,2,3:2:0:0:
413,314,49638,2,0,P|483:301|499:198,1,180.930004417236,2|0,0:0|0:0,0:0:0:0:
319,250,49984,2,0,P|302:298|307:357,1,90.4650022086182,2|0,3:2|0:0,0:0:0:0:
217,168,50215,6,0,B|133:170|167:216|59:210,1,135.697503312927,2|0,3:2|0:0,0:0:0:0:
48,196,50446,1,2,3:2:0:0:
60,48,50561,2,0,P|86:85|96:135,1,90.4650022086182,2|0,0:0|3:0,0:0:0:0:
217,168,50792,1,2,0:0:0:0:
217,168,50907,2,0,P|237:127|275:93,1,90.4650022086182,2|0,3:2|0:0,0:0:0:0:
486,205,51138,6,0,L|344:184,1,135.697503312927,2|0,3:2|0:0,0:0:0:0:
307,178,51369,1,2,3:2:0:0:
380,318,51484,2,0,P|433:312|471:288,1,90.4650022086182,2|0,0:0|3:0,0:0:0:0:
373,103,51715,1,2,0:0:0:0:
373,103,51830,2,0,P|334:82|289:78,1,90.4650022086182,2|0,3:2|0:0,0:0:0:0:
138,211,52061,6,0,B|202:198|202:198|225:208|225:208|244:190|244:190|315:176,7,180.930004417236,2|2|2|2|2|2|2|2,3:2|3:2|3:2|3:2|3:2|3:2|3:2|3:2,0:0:0:0:
427,152,53792,1,0,0:0:0:0:
382,8,53907,6,0,P|357:47|354:102,1,90.4650022086182,2|2,3:2|3:2,0:0:0:0:
502,213,54138,1,2,3:2:0:0:
345,353,54253,2,0,P|354:303|366:251,1,90.4650022086182,2|0,3:2|3:0,0:0:0:0:
185,29,54484,2,0,P|194:78|206:131,1,90.4650022086182,2|0,3:2|3:0,0:0:0:0:
35,363,54715,1,2,3:2:0:0:
25,353,54830,6,0,P|34:303|177:284,1,199.674993906403,2|0,3:2|0:0,0:0:0:0:
242,330,55292,6,0,P|332:309|375:270,1,130.4,2|2,0:0|0:0,0:0:0:0:
415,212,55638,1,2,0:0:0:0:
221,11,55753,6,0,B|179:29|167:68|167:68|170:133|231:194,1,195.599994030762,6|2,3:2|3:2,0:0:0:0:
361,286,56086,2,0,P|393:232|392:182,1,97.799997015381,2|0,0:0|3:0,0:0:0:0:
359,51,56308,5,2,0:0:0:0:
294,209,56419,1,2,3:2:0:0:
354,34,56530,1,0,0:0:0:0:
483,238,56641,6,0,P|444:212|380:197,1,97.799997015381,2|0,3:2|0:0,0:0:0:0:
197,46,56864,1,2,3:2:0:0:
272,90,56974,2,0,P|319:76|360:50,1,97.799997015381,2|0,0:0|3:0,0:0:0:0:
122,2,57197,5,2,0:0:0:0:
170,183,57308,1,2,3:2:0:0:
109,0,57419,1,2,0:0:0:0:
10,267,57530,6,0,P|60:256|125:231,1,97.799997015381,2|0,3:2|0:0,0:0:0:0:
326,328,57753,1,2,3:2:0:0:
251,373,57863,2,0,P|202:362|136:337,1,97.799997015381,2|0,0:0|3:0,0:0:0:0:
336,149,58086,5,2,0:0:0:0:
405,365,58197,1,2,3:2:0:0:
343,135,58308,1,2,0:0:0:0:
484,327,58419,6,0,P|447:284|352:293,1,146.699995523071,2|0,3:2|0:0,0:0:0:0:
251,373,58641,2,0,B|168:381|195:328|101:345,1,146.699995523071,2|0,3:2|0:0,0:0:0:0:
21,377,58864,5,2,3:2:0:0:
277,282,58975,1,2,0:0:0:0:
46,177,59086,1,2,3:2:0:0:
251,373,59197,1,2,0:0:0:0:
396,109,59308,6,0,B|343:87|343:87|274:132|274:132|186:109,1,195.599994030762,6|2,3:2|3:2,0:0:0:0:
81,5,59641,2,0,P|106:44|121:99,1,97.799997015381,2|0,0:0|3:0,0:0:0:0:
60,231,59864,5,2,0:0:0:0:
216,150,59975,1,2,3:2:0:0:
47,226,60086,1,2,0:0:0:0:
237,324,60197,6,0,P|286:305|335:292,1,97.799997015381,2|0,3:2|0:0,0:0:0:0:
504,139,60419,1,2,3:2:0:0:
433,196,60530,2,0,P|386:183|341:165,1,97.799997015381,2|0,0:0|3:0,0:0:0:0:
194,25,60752,1,0,0:0:0:0:
265,82,60864,2,0,P|313:69|358:51,1,97.799997015381,2|0,3:2|0:0,0:0:0:0:
218,214,61086,6,0,P|134:180|24:156,1,195.599994030762,2|2,3:2|3:2,0:0:0:0:
200,343,61419,2,0,P|248:332|294:314,1,97.799997015381,2|0,0:0|3:0,0:0:0:0:
417,186,61641,5,2,0:0:0:0:
465,367,61752,1,2,3:2:0:0:
402,177,61864,1,2,0:0:0:0:
288,378,61975,5,2,3:2:0:0:
371,97,62085,1,2,3:2:0:0:
363,84,62419,5,2,3:2:0:0:
165,303,62530,2,0,B|275:281|235:363|365:334,1,195.599994030762,2|0,3:2|3:0,0:0:0:0:
421,276,62808,1,0,3:0:0:0:
421,276,62864,6,0,P|439:314|436:379,1,97.799997015381,6|0,3:2|0:0,0:0:0:0:
79,337,63086,2,0,P|78:288|98:244,1,97.799997015381,2|2,3:2|0:0,0:0:0:0:
285,105,63308,1,2,3:2:0:0:
165,303,63419,1,2,0:0:0:0:
136,61,63530,1,0,3:0:0:0:
256,357,63641,6,0,P|310:351|369:327,1,97.799997015381,2|0,0:0|3:0,0:0:0:0:
486,142,63864,1,0,0:0:0:0:
410,209,63974,6,0,P|357:203|297:179,1,97.799997015381,2|0,3:2|0:0,0:0:0:0:
160,37,64197,2,0,P|207:21|255:16,1,97.799997015381,2|0,3:2|0:0,0:0:0:0:
99,209,64419,2,0,P|51:204|5:188,1,97.799997015381,2|0,3:2|0:0,0:0:0:0:
233,116,64641,6,0,P|220:162|204:232,1,97.799997015381,2|0,3:2|0:0,0:0:0:0:
246,306,64864,1,2,3:2:0:0:
74,114,64975,2,0,P|88:160|103:230,1,97.799997015381,2|0,0:0|3:0,0:0:0:0:
61,303,65197,1,2,0:0:0:0:
190,35,65308,2,0,P|247:27|318:78,1,146.699995523071,2|0,3:2|0:0,0:0:0:0:
334,111,65530,5,2,3:2:0:0:
233,338,65641,1,2,0:0:0:0:
348,94,65752,2,0,P|414:79|448:84,1,97.799997015381,2|0,3:2|0:0,0:0:0:0:
273,250,65975,5,2,3:2:0:0:
184,18,66086,1,2,0:0:0:0:
276,271,66197,2,0,P|210:286|176:281,1,97.799997015381,2|0,3:2|0:0,0:0:0:0:
38,106,66419,5,6,3:2:0:0:
218,176,66530,1,2,0:0:0:0:
18,121,66641,1,2,3:2:0:0:
272,0,66752,6,0,P|291:45|295:94,1,97.799997015381,2|0,0:0|3:0,0:0:0:0:
130,247,66975,1,2,0:0:0:0:
241,269,67086,2,0,P|238:220|219:175,1,97.799997015381,2|0,3:2|0:0,0:0:0:0:
121,28,67308,5,2,3:2:0:0:
42,262,67419,1,2,0:0:0:0:
102,18,67530,1,2,3:2:0:0:
263,291,67641,6,0,P|320:283|363:243,1,97.799997015381,2|0,0:0|3:0,0:0:0:0:
457,71,67864,1,2,0:0:0:0:
388,127,67974,2,0,P|340:123|300:95,1,97.799997015381,2|0,3:2|0:0,0:0:0:0:
85,0,68197,6,0,L|119:167,1,146.699995523071,2|0,3:2|0:0,0:0:0:0:
124,182,68419,1,2,3:2:0:0:
248,25,68530,6,0,P|302:6|381:83,1,146.699995523071,2|0,3:2|0:0,0:0:0:0:
386,88,68752,1,2,3:2:0:0:
313,309,68864,6,0,B|235:308|260:258|160:273,1,146.699995523071,2|0,3:2|0:0,0:0:0:0:
139,285,69086,5,6,3:2:0:0:
301,94,69197,1,0,0:0:0:0:
328,339,69308,1,0,0:0:0:0:
224,57,69419,5,6,3:2:0:0:
313,309,69530,1,0,0:0:0:0:
386,88,69641,1,0,0:0:0:0:
86,377,69752,6,0,P|36:360|31:233,1,165.037500629568,6|0,3:2|0:0,0:0:0:0:
79,186,69975,6,0,B|191:161|148:250|303:214,2,195.599994030762,6|8|0,3:2|0:0|3:0,0:0:0:0:
190,12,70530,1,10,0:0:0:0:
203,19,70641,2,0,P|222:64|234:116,1,97.799997015381,2|10,0:0|0:0,0:0:0:0:
294,316,70864,6,0,P|320:211|360:111,1,195.599994030762,2|10,3:2|0:0,0:0:0:0:
425,0,71197,2,0,P|451:48|458:97,1,97.799997015381,2|0,3:2|0:0,0:0:0:0:
327,18,71419,1,2,3:2:0:0:
418,190,71530,2,0,P|464:176|528:162,1,97.799997015381,10|0,0:0|0:0,0:0:0:0:
277,92,71752,6,0,P|229:70|115:154,1,195.599994030762,2|8,3:2|0:0,0:0:0:0:
158,305,72086,1,0,0:0:0:0:
213,169,72197,1,2,3:2:0:0:
322,374,72308,2,0,P|280:351|214:343,1,97.799997015381,8|0,0:0|0:0,0:0:0:0:
94,221,72531,1,8,0:0:0:0:
104,227,72586,1,8,0:0:0:0:
114,231,72641,6,0,P|162:222|205:199,1,97.799997015381,2|0,3:2|0:0,0:0:0:0:
463,337,72864,1,0,3:0:0:0:
419,262,72974,2,0,P|377:239|329:230,1,97.799997015381,10|0,0:2|0:0,0:0:0:0:
510,55,73197,1,0,3:0:0:0:
424,55,73307,2,0,P|383:80|351:117,1,97.799997015381,10|0,0:2|0:0,0:0:0:0:
256,316,73530,6,0,P|196:236|103:203,2,195.599994030762,6|8|0,3:2|0:0|3:0,0:0:0:0:
332,212,74086,1,8,0:0:0:0:
360,373,74197,2,0,P|314:370|252:332,1,97.799997015381,2|8,0:0|0:0,0:0:0:0:
440,177,74419,6,0,L|472:292,1,97.799997015381,2|0,3:2|0:0,0:0:0:0:
495,84,74641,1,8,0:0:0:0:
351,238,74752,2,0,P|304:232|248:209,1,97.799997015381,0|0,3:0|0:0,0:0:0:0:
58,57,74975,1,0,3:0:0:0:
129,109,75085,2,0,P|175:91|223:85,1,97.799997015381,8|0,0:0|0:0,0:0:0:0:
400,172,75308,6,0,B|370:202|287:198|266:127|292:63|339:34|429:21|481:48|514:97|525:147|515:230|515:230|505:197|478:176,1,550.124983211518,6|0,3:2|0:0,0:0:0:0:
427,254,76197,5,0,3:0:0:0:
421,280,76252,1,0,3:0:0:0:
423,307,76308,1,0,3:0:0:0:
435,332,76363,1,0,3:0:0:0:
456,357,76419,2,0,L|495:347,3,36.6749988807679,0|0|0|0,3:0|3:0|3:0|3:0,0:0:0:0:
341,266,76641,5,8,0:0:0:0:
309,249,76696,1,8,0:0:0:0:
272,248,76752,1,8,0:0:0:0:
239,261,76807,1,8,0:0:0:0:
213,286,76864,1,8,0:0:0:0:
187,312,76920,1,8,0:0:0:0:
153,325,76975,1,8,0:0:0:0:
116,323,77031,1,8,0:0:0:0:
84,307,77086,5,6,3:2:0:0:
307,312,83308,6,0,P|321:268|346:224,1,48.8999985076905,2|0,3:2|0:0,0:0:0:0:
122,177,83456,2,0,P|153:210|178:254,1,48.8999985076905,2|0,3:2|0:0,0:0:0:0:
330,84,83604,2,0,P|286:93|236:93,1,48.8999985076905,2|0,3:2|0:0,0:0:0:0:
118,39,83752,5,2,3:2:0:0:
256,192,83901,1,2,3:2:0:0:
54,234,84049,1,2,3:2:0:0:
316,3,84197,6,0,B|408:-5|374:69|485:53,1,163,6|8,3:2|0:0,0:0:0:0:
321,108,84530,1,0,0:0:0:0:
487,36,84641,1,0,3:0:0:0:
487,36,84752,1,8,0:0:0:0:
287,17,84864,2,0,P|243:31|187:39,1,81.5
43,73,85086,5,0,3:2:0:0:
173,113,85197,1,0,0:0:0:0:
43,73,85308,1,8,0:0:0:0:
267,171,85419,5,0,3:0:0:0:
125,215,85530,1,0,0:0:0:0:
267,171,85641,1,8,0:0:0:0:
21,278,85753,5,0,3:0:0:0:
177,327,85864,1,8,0:0:0:0:
69,154,85975,5,2,3:2:0:0:
125,215,86086,2,0,L|96:315,1,81.5,2|8,0:0|0:0,0:0:0:0:
323,110,86308,5,2,0:0:0:0:
267,171,86419,2,0,L|296:271,1,81.5,2|8,3:2|0:0,0:0:0:0:
173,113,86641,5,2,0:0:0:0:
361,190,86752,1,10,0:0:0:0:
361,190,86808,1,8,0:0:0:0:
361,190,86864,6,0,P|398:185|444:165,1,81.5,2|2,3:2|0:0,0:0:0:0:
512,317,87086,2,0,P|475:301|435:295,1,81.5,10|2,0:0|3:2,0:0:0:0:
280,355,87308,2,0,P|202:330|106:311,1,163,2|10,3:2|0:0,0:0:0:0:
106,318,87752,6,0,P|142:261|80:169,1,163,6|8,3:2|0:0,0:0:0:0:
10,133,88086,1,0,0:0:0:0:
207,184,88197,1,0,3:0:0:0:
207,184,88308,1,8,0:0:0:0:
89,11,88419,2,0,P|98:59|117:117,1,81.5,0|8,0:0|0:0,0:0:0:0:
312,143,88641,5,0,3:0:0:0:
197,92,88752,1,0,0:0:0:0:
312,143,88864,1,8,0:0:0:0:
92,235,88975,5,0,3:0:0:0:
207,184,89086,1,0,0:0:0:0:
92,235,89198,1,8,0:0:0:0:
312,327,89309,5,0,3:0:0:0:
197,276,89420,1,8,0:0:0:0:
372,218,89530,5,2,3:2:0:0:
443,274,89641,2,0,P|463:318|461:360,1,81.5,2|8,0:0|0:0,0:0:0:0:
207,184,89864,5,2,0:0:0:0:
278,241,89975,2,0,P|297:277|299:317,1,81.5,2|8,3:2|0:0,0:0:0:0:
423,152,90197,1,8,0:0:0:0:
423,152,90252,1,8,0:0:0:0:
423,152,90308,1,8,0:0:0:0:
294,51,90419,6,0,L|310:137,3,65.2,2|2|2|2,0:0|0:0|0:0|0:0,0:0:0:0:
207,184,90864,2,0,L|223:98,1,65.2,2|2,0:0|0:0,0:0:0:0:
152,39,91086,6,0,P|105:29|52:90,1,122.25,2|0,0:1|0:0,0:0:0:0:
25,59,91308,6,0,P|42:118|54:186,1,114.099996517944,2|2,3:2|0:0,0:0:0:0:
126,213,91618,2,0,P|110:272|97:340,2,114.099996517944,2|2|2,0:0|0:0|0:0,0:0:0:0:
186,132,92135,6,0,P|204:161|208:192,1,57.0499982589722,2|0,0:0|0:0,0:0:0:0:
291,186,92342,2,0,P|283:218|265:243,1,57.0499982589722,2|0,0:0|0:0,0:0:0:0:
328,298,92549,1,2,0:0:0:0:
328,298,92652,2,0,P|299:315|268:320,1,57.0499982589722,2|0,0:0|0:0,0:0:0:0:
388,191,92858,1,2,0:0:0:0:
388,191,92963,6,0,B|454:187|432:227|501:226,1,114.099996517944,2|0,0:0|0:0,0:0:0:0:
449,61,93273,2,0,P|416:86|334:106,1,114.099996517944,2|2,0:0|0:0,0:0:0:0:
269,66,93583,1,2,0:0:0:0:
259,52,93790,6,0,B|248:99|248:99|253:115|253:115|242:170,1,114.099996517944,2|0,0:0|0:0,0:0:0:0:
266,239,94101,2,0,P|230:243|201:230,1,57.0499982589722,2|0,0:0|0:0,0:0:0:0:
167,306,94308,1,2,0:0:0:0:
167,306,94411,2,0,P|139:283|128:253,1,57.0499982589722,2|0,0:0|0:0,0:0:0:0:
30,96,94618,6,0,B|-6:132|-6:132|35:249,1,163,10|2,3:2|0:0,0:0:0:0:
59,328,94928,2,0,B|129:335|97:294|179:307,1,114.099996517944,2|2,0:0|0:0,0:0:0:0:
231,366,95239,1,2,0:0:0:0:
231,366,95342,1,2,0:0:0:0:
302,317,95445,6,0,P|361:334|420:344,1,114.099996517944,2|2,0:0|0:0,0:0:0:0:
494,203,95859,1,2,0:0:0:0:
494,203,95963,2,0,P|442:196|394:244,1,114.099996517944,2|0,0:0|0:0,0:0:0:0:
320,301,96273,6,0,P|309:249|271:164,1,146.699995523071,2|0,3:2|0:0,0:0:0:0:
391,59,96583,2,0,P|386:85|367:127,1,73.3499977615357,10|0,0:0|0:0,0:0:0:0:
264,7,96790,1,0,3:0:0:0:
264,7,96894,2,0,P|279:29|296:72,1,73.3499977615357,10|0,0:0|0:0,0:0:0:0:
213,206,97101,6,0,B|163:196|163:196|145:181|145:181|124:189|124:189|67:181,1,146.699995523071,2|8,3:2|0:0,0:0:0:0:
208,304,97411,2,0,P|244:296|289:274,1,73.3499977615357,0|0,0:0|3:0,0:0:0:0:
417,110,97618,2,0,P|387:175|370:261,1,146.699995523071,8|0,0:0|0:0,0:0:0:0:
270,79,97928,6,0,B|181:62|217:128|108:105,1,146.699995523071,2|2,3:2|0:0,0:0:0:0:
30,5,98239,2,0,P|43:40|52:82,1,73.3499977615357,2|8,3:2|0:0,0:0:0:0:
133,221,98445,1,2,0:0:0:0:
150,212,98548,2,0,P|159:176|171:141,1,73.3499977615357,2|10,0:0|0:0,0:0:0:0:
48,323,98756,6,0,P|104:308|192:293,1,146.699995523071,2|2,3:2|0:0,0:0:0:0:
323,213,99066,2,0,P|296:205|252:198,1,73.3499977615357,0|10,3:0|0:0,0:0:0:0:
412,347,99273,2,0,P|454:310|434:224,1,146.699995523071,2|0,0:0|0:0,0:0:0:0:
336,71,99583,6,0,B|366:147|300:136|329:228,1,146.699995523071,2|0,3:2|0:0,0:0:0:0:
233,79,99894,2,0,P|239:42|258:-5,1,73.3499977615357,2|8,3:2|0:0,0:0:0:0:
122,179,100101,1,2,0:0:0:0:
132,167,100203,2,0,P|127:130|107:83,1,73.3499977615357,2|0,0:0|0:0,0:0:0:0:
241,293,100411,6,0,B|189:281|189:281|172:270|172:270|154:275|154:275|96:263,1,146.699995523071,2|0,3:2|0:0,0:0:0:0:
302,384,100721,2,0,P|363:356|408:279,1,146.699995523071,2|2,3:2|3:2,0:0:0:0:
308,147,101032,2,0,P|313:186|341:240,1,73.3499977615357,10|0,0:0|0:0,0:0:0:0:
467,43,101239,6,0,B|386:23|399:93|305:56,1,146.699995523071,2|0,3:2|0:0,0:0:0:0:
176,19,101549,1,2,3:2:0:0:
191,28,101583,1,0,3:0:0:0:
205,39,101617,1,0,3:0:0:0:
216,53,101652,2,0,L|201:149,1,73.3499977615357,12|0,0:0|0:0,0:0:0:0:
87,208,101859,2,0,L|73:112,1,73.3499977615357,2|10,0:0|0:0,0:0:0:0:
217,292,102066,6,0,P|280:281|326:216,1,146.699995523071,2|0,3:2|0:0,0:0:0:0:
310,115,102376,1,0,0:0:0:0:
391,152,102480,2,0,P|432:150|475:122,1,73.3499977615357,8|0,0:0|3:0,0:0:0:0:
363,41,102687,2,0,P|330:25|294:24,1,73.3499977615357,0|8,0:0|0:0,0:0:0:0:
149,167,102894,6,0,P|214:132|283:108,1,146.699995523071,2|0,3:2|0:0,0:0:0:0:
370,221,103205,2,0,P|338:203|304:191,1,73.3499977615357,8|0,0:0|0:0,0:0:0:0:
460,13,103411,1,0,3:0:0:0:
452,31,103514,2,0,P|420:48|386:60,1,73.3499977615357,8|0,0:0|0:0,0:0:0:0:
203,17,103721,6,0,P|227:48|234:90,1,73.3499977615357,2|0,3:2|0:0,0:0:0:0:
83,222,103928,2,0,P|92:186|114:157,1,73.3499977615357,10|0,0:0|0:0,0:0:0:0:
305,289,104135,5,0,3:0:0:0:
134,347,104239,1,0,3:0:0:0:
304,191,104342,2,0,P|346:199|392:219,1,73.3499977615357,8|0,0:0|0:0,0:0:0:0:
440,344,104549,6,0,P|449:312|466:283,1,57.0499982589722,2|0,0:0|0:0,0:0:0:0:
397,228,104963,2,0,P|425:211|459:203,1,57.0499982589722,2|0,2:0|2:0,2:0:0:0:
449,115,105376,2,0,P|481:123|510:141,1,57.0499982589722,2|0,2:0|2:0,2:0:0:0:
366,52,105790,2,0,P|341:65|314:72,1,57.0499982589722,2|0,2:0|2:0,2:0:0:0:
231,9,106204,5,2,0:0:0:0:
161,100,106410,1,2,0:0:0:0:
161,100,106514,2,0,L|101:88,1,57.0499982589722,2|2,0:0|0:0,0:0:0:0:
21,70,106825,1,2,0:0:0:0:
153,185,107032,2,0,P|183:183|213:169,1,57.0499982589722,2|0,0:0|0:0,0:0:0:0:
261,238,107445,2,0,P|281:215|293:184,1,57.0499982589722,2|0,0:0|0:0,0:0:0:0:
375,199,107859,6,0,P|373:168|318:106,1,114.099996517944,2|2,0:0|0:0,0:0:0:0:
209,310,108687,2,0,P|236:323|319:307,1,114.099996517944,2|2,0:0|0:0,0:0:0:0:
379,240,109308,1,0,0:0:0:0:
424,333,109514,6,0,P|449:318|472:288,1,57.0499982589722,2|2,0:0|0:0,0:0:0:0:
483,313,109825,2,0,P|491:285|485:248,1,57.0499982589722,2|2,0:0|0:0,0:0:0:0:
511,257,110135,1,2,0:0:0:0:
400,87,110342,6,0,P|387:103|380:119,3,20.375,2|0|0|0,3:2|0:0|0:0|0:0,0:0:0:0:
305,101,110549,6,0,P|308:121|317:141,3,26.4874987874985,2|0|0|0,3:2|0:0|0:0|0:0,0:0:0:0:
342,206,110756,5,2,3:2:0:0:
317,213,110807,1,0,0:0:0:0:
291,211,110859,1,0,0:0:0:0:
267,201,110911,1,0,0:0:0:0:
247,183,110963,5,2,3:2:0:0:
228,165,111015,1,0,0:0:0:0:
204,155,111067,1,0,0:0:0:0:
177,154,111119,1,0,0:0:0:0:
152,161,111170,6,0,L|129:318,1,128.362496082688,6|0,3:2|0:0,0:0:0:0:
147,319,111376,1,2,3:2:0:0:
50,197,111480,2,0,L|32:71,1,85.5749973884583,2|0,0:0|3:0,0:0:0:0:
216,249,111687,1,2,0:0:0:0:
216,249,111790,2,0,L|235:123,1,85.5749973884583,2|0,3:2|0:0,0:0:0:0:
114,0,111997,6,0,P|135:37|221:41,1,128.362496082688,2|0,3:2|0:0,0:0:0:0:
241,25,112204,1,2,3:2:0:0:
440,136,112308,2,0,B|339:156|386:78|249:108,1,171.149994776917,2|0,0:0|0:0,0:0:0:0:
428,28,112618,2,0,P|474:37|524:59,1,85.5749973884583,2|0,3:2|0:0,0:0:0:0:
458,238,112825,6,0,B|426:260|426:260|436:157,1,128.362496082688,2|0,3:2|0:0,0:0:0:0:
440,136,113032,1,2,3:2:0:0:
329,250,113135,2,0,P|343:298|362:340,1,85.5749973884583,2|0,0:0|3:0,0:0:0:0:
202,174,113342,1,2,0:0:0:0:
202,174,113445,2,0,P|189:222|169:264,1,85.5749973884583,2|0,3:2|0:0,0:0:0:0:
350,69,113652,6,0,P|291:64|219:32,1,128.362496082688,2|0,3:2|0:0,0:0:0:0:
197,54,113860,1,2,3:2:0:0:
360,164,113963,2,0,P|403:147|453:133,1,85.5749973884583,2|0,0:0|3:0,0:0:0:0:
252,287,114170,1,2,0:0:0:0:
329,250,114273,2,0,P|370:262|410:278,1,85.5749973884583,2|0,3:2|0:0,0:0:0:0:
126,106,114480,6,0,P|111:145|104:202,1,85.5749973884583,2|0,3:2|0:0,0:0:0:0:
352,331,114687,2,0,P|346:288|330:249,1,85.5749973884583,2|0,3:2|0:0,0:0:0:0:
115,94,114894,6,0,P|98:138|91:200,1,85.5749973884583,2|0,3:2|0:0,0:0:0:0:
364,342,115101,2,0,P|357:295|340:252,1,85.5749973884583,2|0,3:2|0:0,0:0:0:0:
110,312,115308,6,0,P|150:327|206:334,1,85.5749973884583,2|0,3:2|0:0,0:0:0:0:
335,86,115515,2,0,P|293:92|254:108,1,85.5749973884583,2|0,3:2|0:0,0:0:0:0:
99,323,115722,6,0,P|143:340|205:347,1,85.5749973884583,2|0,3:2|0:0,0:0:0:0:
347,74,115929,2,0,P|301:80|257:98,1,85.5749973884583,2|0,3:2|0:0,0:0:0:0:
123,231,116135,5,2,3:2:0:0:
331,176,116239,1,0,3:0:0:0:
109,223,116342,1,2,3:2:0:0:
327,308,116445,6,0,P|370:304|418:281,1,85.5749973884583,2|0,3:2|3:0,0:0:0:0:
347,24,116652,1,2,3:2:0:0:
268,67,116756,2,0,P|250:105|246:159,1,85.5749973884583,2|0,3:2|3:0,0:0:0:0:
506,137,116963,6,0,P|464:87|398:64,1,122.25,2|0,3:2|0:0,0:0:0:0:
421,54,117376,5,2,3:2:0:0:
430,43,117790,6,0,L|475:53,1,40.75,2|0,0:0|0:0,0:0:0:0:
237,136,117894,6,0,L|192:146,1,40.75,2|0,0:0|0:0,0:0:0:0:
439,32,117997,6,0,L|484:42,1,40.75,2|0,0:0|0:0,0:0:0:0:
246,147,118101,6,0,L|201:157,1,40.75,2|0,0:0|0:0,0:0:0:0:
407,199,118204,6,0,B|365:278|428:274|391:368,1,163,2|2,0:0|0:0,0:0:0:0:
490,252,118514,1,2,0:0:0:0:
315,366,118618,6,0,B|250:372|250:372|198:331|198:331|124:338,1,195.599994030762,6|2,3:2|3:2,0:0:0:0:
44,213,118918,2,0,L|146:222,1,97.799997015381,2|0,0:0|3:0,0:0:0:0:
290,149,119118,5,2,0:0:0:0:
210,298,119218,1,2,3:2:0:0:
297,133,119318,1,2,0:0:0:0:
419,356,119418,6,0,P|370:344|305:335,1,97.799997015381,2|0,3:2|0:0,0:0:0:0:
115,125,119618,1,2,3:2:0:0:
187,184,119718,2,0,P|236:176|283:165,1,97.799997015381,2|0,0:0|3:0,0:0:0:0:
429,30,119918,5,2,0:0:0:0:
391,197,120018,1,2,3:2:0:0:
440,20,120118,1,2,0:0:0:0:
488,263,120218,6,0,P|449:243|392:227,1,97.799997015381,2|0,3:2|0:0,0:0:0:0:
133,86,120418,1,2,3:2:0:0:
215,128,120518,2,0,P|262:114|306:93,1,97.799997015381,2|0,0:0|3:0,0:0:0:0:
82,10,120718,5,2,0:0:0:0:
138,178,120818,1,2,3:2:0:0:
91,0,120918,1,2,0:0:0:0:
18,202,121018,6,0,P|75:198|112:166,1,97.799997015381,2|0,3:2|0:0,0:0:0:0:
300,327,121218,2,0,P|243:323|206:291,1,97.799997015381,2|0,3:2|0:0,0:0:0:0:
222,98,121418,5,2,3:2:0:0:
280,240,121518,1,2,0:0:0:0:
290,39,121618,1,2,3:2:0:0:
212,299,121718,1,2,0:0:0:0:
154,39,121818,6,0,P|89:24|24:129,1,195.599994030762,6|0,3:2|3:0,0:0:0:0:
173,215,122118,2,0,P|234:200|274:154,1,97.799997015381,2|0,0:0|3:2,0:0:0:0:
320,50,122318,5,2,0:0:0:0:
388,202,122418,1,2,3:2:0:0:
331,32,122518,1,2,0:0:0:0:
288,262,122618,6,0,P|335:245|392:236,1,97.799997015381,2|0,3:2|0:0,0:0:0:0:
478,48,122818,1,2,3:2:0:0:
404,93,122918,2,0,P|356:84|310:67,1,97.799997015381,2|0,0:0|3:0,0:0:0:0:
195,16,123118,5,2,0:0:0:0:
268,147,123218,1,2,3:2:0:0:
182,2,123318,1,2,0:0:0:0:
119,209,123418,6,0,B|227:187|190:268|312:240,1,195.599994030762,2|2,3:2|3:2,0:0:0:0:
427,130,123718,2,0,P|404:178|392:230,1,97.799997015381,2|0,0:0|3:0,0:0:0:0:
279,65,123918,5,2,0:0:0:0:
424,6,124018,1,2,3:2:0:0:
261,55,124118,1,2,0:0:0:0:
512,169,124218,5,2,3:2:0:0:
250,272,124318,1,2,3:2:0:0:
238,261,124618,5,2,3:2:0:0:
502,379,124718,2,0,P|473:312|349:310,1,195.599994030762,2|0,3:2|3:0,0:0:0:0:
287,368,124968,1,0,3:0:0:0:
287,368,125018,6,0,P|236:364|176:347,1,97.799997015381,6|0,3:2|0:0,0:0:0:0:
28,145,125218,1,2,3:2:0:0:
226,250,125318,1,2,0:0:0:0:
0,238,125418,1,2,3:2:0:0:
254,157,125518,2,0,L|368:129,1,97.799997015381,2|0,0:0|3:0,0:0:0:0:
118,9,125718,6,0,P|131:56|146:102,1,97.799997015381,2|0,0:0|3:0,0:0:0:0:
54,304,125918,1,2,0:0:0:0:
0,238,126018,6,0,P|12:191|37:122,1,97.799997015381,2|0,3:2|0:0,0:0:0:0:
210,13,126218,2,0,P|222:60|247:129,1,97.799997015381,2|0,3:2|0:0,0:0:0:0:
420,238,126418,2,0,P|432:191|457:122,1,97.799997015381,2|0,3:2|0:0,0:0:0:0:
294,307,126618,6,0,B|179:313|229:233|94:248,1,195.599994030762,2|2,3:2|3:2,0:0:0:0:
256,89,126918,2,0,B|308:68|308:68|273:219,1,195.599994030762,2|0,0:0|0:0,0:0:0:0:
136,375,127218,2,0,P|125:318|97:264,1,97.799997015381,2|0,3:2|0:0,0:0:0:0:
124,86,127418,5,2,3:2:0:0:
217,290,127518,1,2,0:0:0:0:
108,71,127618,2,0,P|58:77|-5:89,1,97.799997015381,2|0,3:2|0:0,0:0:0:0:
229,171,127818,5,2,3:2:0:0:
136,375,127918,1,2,0:0:0:0:
245,156,128018,2,0,P|296:162|358:174,1,97.799997015381,2|2,3:2|0:0,0:0:0:0:
512,7,128218,5,6,3:2:0:0:
450,59,128318,2,0,P|424:114|424:178,1,97.799997015381,2|0,0:0|3:0,0:0:0:0:
279,370,128518,2,0,P|273:321|249:279,1,97.799997015381,2|0,0:0|3:0,0:0:0:0:
80,92,128718,1,2,0:0:0:0:
152,142,128818,2,0,L|262:118,1,97.799997015381,2|0,3:2|0:0,0:0:0:0:
487,222,129018,5,2,3:2:0:0:
315,182,129118,1,2,0:0:0:0:
506,214,129218,1,2,3:2:0:0:
342,296,129318,6,0,B|235:315|269:238|143:257,1,195.599994030762,2|2,0:0|0:0,0:0:0:0:
38,377,129618,2,0,P|61:331|80:273,1,97.799997015381,2|0,3:2|0:0,0:0:0:0:
29,107,129818,5,2,3:2:0:0:
158,255,129918,1,2,0:0:0:0:
36,92,130018,1,2,3:2:0:0:
151,270,130118,6,0,P|203:259|252:245,1,97.799997015381,2|0,0:0|3:0,0:0:0:0:
454,75,130318,1,0,0:0:0:0:
382,126,130418,2,0,P|331:115|281:101,1,97.799997015381,2|0,3:2|0:0,0:0:0:0:
110,19,130618,5,6,3:2:0:0:
235,224,130718,1,0,0:0:0:0:
198,0,130818,1,0,0:0:0:0:
144,283,130918,5,4,3:2:0:0:
173,81,131018,1,0,0:0:0:0:
267,307,131118,1,0,0:0:0:0:
288,12,131218,6,0,P|369:52|388:117,1,158.924992724991,6|0,3:2|0:0,0:0:0:0:
450,197,131418,6,0,P|367:155|282:145,2,179.300005471802,6|8|0,3:2|0:0|0:0,0:0:0:0:
497,277,131918,1,10,0:0:0:0:
436,168,132018,2,0,P|425:125|443:77,1,89.650002735901,2|8,3:2|0:0,0:0:0:0:
315,23,132218,6,0,B|207:7|251:75|126:53,1,179.300005471802,2|10,3:2|0:0,0:0:0:0:
32,0,132518,2,0,P|50:39|62:88,1,89.650002735901,2|0,3:2|0:0,0:0:0:0:
155,190,132718,1,2,3:2:0:0:
173,177,132818,2,0,P|185:133|203:92,1,89.650002735901,10|0,0:0|0:0,0:0:0:0:
35,283,133018,6,0,B|97:271|97:271|139:299|139:299|225:286,1,179.300005471802,2|8,3:2|0:0,0:0:0:0:
377,258,133318,1,0,0:0:0:0:
254,223,133418,1,2,3:2:0:0:
365,343,133518,2,0,L|471:322,1,89.650002735901,8|0,0:0|0:0,0:0:0:0:
493,132,133718,1,8,0:0:0:0:
493,132,133768,1,8,0:0:0:0:
493,132,133818,6,0,P|456:166|445:210,1,89.650002735901,2|0,3:2|0:0,0:0:0:0:
392,5,134018,1,10,0:0:0:0:
327,57,134118,2,0,P|325:107|349:146,1,89.650002735901,2|0,3:2|0:0,0:0:0:0:
166,38,134318,1,2,3:0:0:0:
157,121,134418,2,0,P|191:158|235:169,1,89.650002735901,10|0,0:0|0:0,0:0:0:0:
440,286,134618,6,0,B|387:274|308:293|259:340,2,179.300005471802,6|8|0,3:2|0:0|3:0,0:0:0:0:
382,179,135118,1,8,0:0:0:0:
512,340,135218,2,0,P|468:366|416:376,1,89.650002735901,2|0,0:0|0:0,0:0:0:0:
297,112,135418,6,0,P|341:123|378:147,1,89.650002735901,2|0,3:2|0:0,0:0:0:0:
174,113,135618,1,8,0:0:0:0:
219,39,135718,2,0,P|258:16|302:6,1,89.650002735901,2|0,3:2|0:0,0:0:0:0:
463,66,135918,5,0,3:0:0:0:
297,112,136018,1,8,0:0:0:0:
479,82,136118,1,0,0:0:0:0:
348,240,136218,6,0,B|207:219|247:325|93:304|47:235|53:178|85:143|152:113|191:195,1,440.099986569214,6|0,3:2|0:0,0:0:0:0:
286,329,137018,6,0,P|308:321|336:321,3,36.6749988807679,8|8|8|8,0:0|0:0|0:0|0:0,0:0:0:0:
348,240,137218,6,0,P|370:249|390:269,3,36.6749988807679,8|8|8|8,0:0|0:0|0:0|0:0,0:0:0:0:
455,347,137418,5,0,3:0:0:0:
460,319,137468,1,0,3:0:0:0:
464,292,137518,1,0,3:0:0:0:
469,265,137568,1,0,3:0:0:0:
487,245,137618,5,0,3:0:0:0:
483,217,137668,1,0,3:0:0:0:
478,190,137718,1,0,3:0:0:0:
474,163,137768,1,0,3:0:0:0:
452,137,137818,6,0,P|409:127|371:139,1,81.5,0|0,3:0|0:0,0:0:0:0:
344,55,138018,2,0,P|307:78|289:113,1,81.5,0|0,3:0|0:0,0:0:0:0:
258,229,138218,6,2,B|235:210|235:210|212:220|212:220|197:212|197:212|173:217|156:231|156:231|127:199|70:190|33:226,1,244.5,0|0,3:0|0:0,0:1:0:0:
62,360,138618,6,0,P|85:327|90:285,1,81.5,0|0,3:0|0:0,0:0:0:0:
176,292,138818,2,0,P|169:252|143:219,1,81.5,0|0,3:0|0:0,0:0:0:0:
209,163,139018,2,0,P|176:139|134:134,1,81.5,0|0,3:0|0:0,0:0:0:0:
142,48,139218,1,0,3:0:0:0:
286,207,139318,1,0,0:0:0:0:
286,207,139368,1,0,0:0:0:0:
286,207,139418,6,0,P|313:205|348:182,3,40.75,0|0|0|0,3:2|0:0|0:0|0:0,0:0:0:0:
378,259,139618,2,0,P|396:239|405:197,3,40.75,0|0|0|0,3:2|0:0|0:0|0:0,0:0:0:0:
406,123,139818,5,0,3:2:0:0:
446,129,139868,1,0,0:0:0:0:
479,153,139918,1,0,0:0:0:0:
498,189,139968,1,0,0:0:0:0:
498,229,140018,2,0,L|484:298,3,40.75,0|0|0|0,3:2|0:0|0:0|0:0,0:0:0:0:
512,367,140218,5,0,3:2:0:0:
483,372,140268,1,0,0:0:0:0:
453,368,140318,1,0,0:0:0:0:
426,353,140368,1,0,0:0:0:0:
406,331,140418,1,0,3:2:0:0:
386,308,140468,1,0,0:0:0:0:
359,293,140518,1,0,0:0:0:0:
329,289,140568,1,0,0:0:0:0:
300,295,140618,6,0,B|246:303|246:303|199:273|199:273|137:283,1,163,0|0,3:0|3:0,0:0:0:0:
52,299,140918,1,0,0:0:0:0:
102,128,141018,5,2,3:2:0:0:
138,120,141084,5,2,0:0:0:0:
173,127,141151,5,2,0:0:0:0:
202,148,141218,5,2,3:2:0:0:
238,155,141285,5,2,0:0:0:0:
273,148,141352,5,2,0:0:0:0:
302,127,141418,6,0,B|398:104|368:172|472:143,1,163,2|2,3:2|3:2,0:0:0:0:
335,214,141718,1,0,0:0:0:0:
431,60,141818,5,2,3:2:0:0:
407,47,141884,5,2,0:0:0:0:
382,38,141951,5,2,0:0:0:0:
355,32,142018,6,0,L|208:55,1,122.25,2|0,3:2|0:0,0:0:0:0:
209,68,142218,2,0,P|162:64|109:31,1,81.5,2|0,3:2|0:0,0:0:0:0:
21,7,142368,1,2,0:0:0:0:
28,8,142418,2,0,P|45:49|54:105,1,81.5,2|0,3:2|0:0,0:0:0:0:
27,246,142618,5,2,3:2:0:0:
75,219,142684,5,2,0:0:0:0:
128,218,142751,5,2,0:0:0:0:
177,241,142817,5,2,3:2:0:0:
225,267,142885,5,2,0:0:0:0:
278,268,142952,5,2,0:0:0:0:
327,245,143018,6,0,L|336:179,2,54.3333333333333,2|2|2,3:2|0:0|0:0,0:0:0:0:
423,121,143218,2,0,L|433:187,2,54.3333333333333,2|2|2,3:2|0:0|0:0,0:0:0:0:
333,45,143418,5,2,3:2:0:0:
285,22,143484,5,2,0:0:0:0:
231,27,143551,5,2,0:0:0:0:
188,58,143618,5,2,3:2:0:0:
125,92,143685,5,2,0:0:0:0:
56,76,143752,5,2,0:0:0:0:
14,19,143818,6,0,P|40:110|61:220,1,163,2|0,3:2|3:0,0:0:0:0:
125,7,144118,1,0,0:0:0:0:
260,205,144218,6,0,P|291:209|375:132,1,122.25,4|0,3:2|0:0,0:0:0:0:
379,135,144418,2,0,P|366:96|357:45,1,81.5,0|0,3:0|0:0,0:0:0:0:
473,180,144618,2,0,P|481:140|494:101,1,81.5,0|0,3:0|0:0,0:0:0:0:
369,137,144818,2,0,P|356:98|347:47,1,81.5,0|0,3:0|0:0,0:0:0:0:
494,258,145018,6,0,P|449:257|414:232,1,81.5,0|0,3:0|0:0,0:0:0:0:
401,221,145168,1,0,0:0:0:0:
401,221,145218,2,0,L|387:264,3,40.75,0|0|0|0,3:0|0:0|0:0|0:0,0:0:0:0:
420,338,145418,6,0,B|328:357|351:294|260:314,1,163,0|0,3:0|3:0,0:0:0:0:
150,363,145718,1,0,0:0:0:0:
270,291,145818,6,0,P|262:248|233:206,1,81.5,0|0,3:0|0:0,0:0:0:0:
315,154,146018,2,0,P|279:129|229:120,1,81.5,0|0,3:0|0:0,0:0:0:0:
121,45,146218,2,0,P|129:88|158:130,1,81.5,0|0,3:0|0:0,0:0:0:0:
76,182,146418,2,0,P|113:206|163:215,1,81.5,0|0,3:0|0:0,0:0:0:0:
270,43,146618,6,0,P|252:88|239:134,1,81.5,0|0,3:0|0:0,0:0:0:0:
425,197,146818,2,0,P|413:158|398:120,1,81.5,0|0,3:0|0:0,0:0:0:0:
270,198,147018,2,0,P|255:235|243:274,1,81.5,0|0,3:0|0:0,0:0:0:0:
425,353,147218,2,0,P|413:314|398:276,1,81.5,0|0,3:0|0:0,0:0:0:0:
279,359,147418,5,2,3:2:0:0:
240,364,147484,5,2,0:0:0:0:
201,353,147551,5,2,0:0:0:0:
170,327,147618,5,2,3:2:0:0:
130,321,147685,5,2,0:0:0:0:
92,332,147752,5,2,0:0:0:0:
61,358,147818,6,0,P|36:358|4:346,2,54.3333333333333,2|2|2,3:2|0:0|0:0,0:0:0:0:
160,243,148018,2,0,P|186:243|217:255,2,54.3333333333333,2|2|2,3:2|0:0|0:0,0:0:0:0:
29,209,148218,5,2,3:2:0:0:
36,173,148284,5,2,0:0:0:0:
42,137,148351,5,2,0:0:0:0:
73,107,148418,5,2,3:2:0:0:
67,71,148485,5,2,0:0:0:0:
61,35,148552,5,2,0:0:0:0:
26,7,148618,6,0,L|18:53,4,27.1666666666667,2|2|2|2|2,3:2|0:0|0:0|0:0|0:0,0:0:0:0:
152,72,148818,2,0,L|144:26,4,27.1666666666667,2|2|2|2|2,3:2|0:0|0:0|0:0|0:0,0:0:0:0:
271,0,149018,6,0,P|256:44|247:83,1,81.5,0|0,3:0|0:0,0:0:0:0:
388,201,149218,2,0,B|361:167|298:161|298:227|243:234|166:206|158:180|146:149,1,244.5,2|0,3:2|0:0,0:0:0:0:
89,85,149618,6,0,P|73:115|64:154,3,40.75,2|2|2|2,3:2|0:0|0:0|0:0,0:0:0:0:
0,247,149818,5,2,3:2:0:0:
24,220,149868,1,2,0:0:0:0:
55,203,149918,1,2,0:0:0:0:
90,200,149968,1,2,0:0:0:0:
124,210,150018,1,2,3:2:0:0:
152,231,150068,1,2,0:0:0:0:
170,262,150118,1,2,0:0:0:0:
175,297,150168,1,2,0:0:0:0:
175,338,150218,5,2,3:2:0:0:
215,344,150268,1,2,0:0:0:0:
254,334,150318,1,2,0:0:0:0:
287,310,150368,1,2,0:0:0:0:
307,275,150418,1,2,3:2:0:0:
327,240,150468,1,2,0:0:0:0:
360,214,150518,1,2,0:0:0:0:
399,205,150568,1,2,0:0:0:0:
439,212,150618,5,2,3:2:0:0:
256,192,165848,12,0,167578,0:0:0:0:
300,129,167694,6,0,B|182:97|223:197|104:159,1,195.599994030762,6|0,3:2|3:0,0:0:0:0:
278,231,167975,2,0,P|333:223|387:195,1,97.799997015381,0|0,0:0|3:0,0:0:0:0:
465,51,168162,5,2,0:0:0:0:
496,214,168256,1,2,3:2:0:0:
475,36,168350,1,2,0:0:0:0:
466,227,168444,6,0,P|417:214|351:205,1,97.799997015381,2|0,3:2|0:0,0:0:0:0:
153,70,168631,1,2,3:2:0:0:
221,122,168724,2,0,P|270:113|317:102,1,97.799997015381,2|0,0:0|3:0,0:0:0:0:
85,18,168912,5,2,0:0:0:0:
54,188,169006,1,2,3:2:0:0:
71,8,169100,1,2,0:0:0:0:
172,227,169194,6,0,B|238:213|238:213|293:248|293:248|382:225,1,195.599994030762,2|2,3:2|3:2,0:0:0:0:
487,100,169475,2,0,P|454:148|440:186,1,97.799997015381,2|0,0:0|3:0,0:0:0:0:
426,339,169662,5,2,0:0:0:0:
340,152,169756,1,2,3:2:0:0:
421,363,169850,1,2,0:0:0:0:
385,77,169944,6,0,P|332:64|272:94,1,97.799997015381,2|0,3:2|0:0,0:0:0:0:
124,304,170131,2,0,P|171:317|217:303,1,97.799997015381,2|0,3:2|0:0,0:0:0:0:
104,32,170319,5,2,3:2:0:0:
172,227,170412,1,2,0:0:0:0:
328,14,170506,1,2,3:2:0:0:
260,209,170599,1,2,0:0:0:0:
77,18,170694,6,0,B|16:43|16:43|39:173,1,195.599994030762,6|2,3:2|3:2,0:0:0:0:
138,347,170975,2,0,P|150:282|168:242,1,97.799997015381,2|0,0:0|3:0,0:0:0:0:
263,108,171162,5,2,0:0:0:0:
320,296,171256,1,2,3:2:0:0:
279,90,171350,1,2,0:0:0:0:
431,351,171444,6,0,P|384:333|324:322,1,97.799997015381,2|0,3:2|0:0,0:0:0:0:
80,104,171631,1,2,3:2:0:0:
153,154,171725,2,0,P|201:143|247:126,1,97.799997015381,2|0,0:0|3:0,0:0:0:0:
380,12,171912,5,2,0:0:0:0:
422,191,172006,1,2,3:2:0:0:
390,0,172100,1,2,0:0:0:0:
307,223,172194,6,0,B|348:226|348:226|368:212|368:212|422:216,1,97.799997015381,2|0,3:2|0:0,0:0:0:0:
248,0,172381,1,2,3:2:0:0:
183,60,172475,2,0,B|151:57|151:57|131:71|131:71|90:68,1,97.799997015381,2|0,0:0|3:0,0:0:0:0:
219,260,172662,5,2,0:0:0:0:
279,90,172756,1,2,3:2:0:0:
231,284,172850,1,2,0:0:0:0:
167,32,172944,5,2,3:2:0:0:
314,342,173037,1,2,3:2:0:0:
321,353,173318,5,2,3:2:0:0:
464,49,173412,2,0,B|347:33|394:111|268:87,1,195.599994030762,2|0,3:2|3:0,0:0:0:0:
181,36,173647,1,0,3:0:0:0:
181,36,173694,6,0,P|197:89|206:156,1,97.799997015381,6|0,3:2|0:0,0:0:0:0:
449,273,173881,2,0,P|465:219|474:153,1,97.799997015381,2|2,3:2|0:0,0:0:0:0:
218,314,174069,5,2,3:2:0:0:
334,143,174162,1,2,0:0:0:0:
151,238,174256,1,2,3:2:0:0:
410,361,174350,6,0,P|475:363|527:331,1,97.799997015381,2|0,0:0|3:0,0:0:0:0:
324,133,174537,1,2,0:0:0:0:
279,213,174631,6,0,L|293:322,1,97.799997015381,2|0,3:2|0:0,0:0:0:0:
45,129,174819,2,0,L|59:20,1,97.799997015381,2|0,3:2|0:0,0:0:0:0:
372,243,175006,2,0,L|386:352,1,97.799997015381,2|0,3:2|0:0,0:0:0:0:
126,196,175194,6,0,L|154:-18,1,195.599994030762,2|2,3:2|3:2,0:0:0:0:
279,213,175475,2,0,L|265:104,1,97.799997015381,2|0,0:0|3:0,0:0:0:0:
145,280,175662,1,2,0:0:0:0:
170,105,175756,2,0,L|184:-4,1,97.799997015381,2|0,3:2|0:0,0:0:0:0:
372,243,175944,5,2,3:2:0:0:
126,196,176037,1,2,0:0:0:0:
391,225,176131,1,2,3:2:0:0:
107,214,176225,5,2,0:0:0:0:
370,113,176319,6,0,P|425:123|475:140,1,97.799997015381,2|0,3:2|0:0,0:0:0:0:
165,305,176507,2,0,P|119:319|71:328,1,97.799997015381,2|0,3:2|0:0,0:0:0:0:
255,58,176694,5,6,3:2:0:0:
353,261,176787,1,2,0:0:0:0:
261,38,176881,1,2,3:2:0:0:
158,322,176975,6,0,P|112:311|66:294,1,97.799997015381,2|0,0:0|3:0,0:0:0:0:
313,185,177162,1,2,0:0:0:0:
238,151,177255,2,0,P|191:162|145:178,1,97.799997015381,2|0,3:2|0:0,0:0:0:0:
463,303,177444,5,2,3:2:0:0:
358,85,177537,1,2,0:0:0:0:
457,321,177631,1,2,3:2:0:0:
512,34,177725,6,0,P|466:14|405:37,1,97.799997015381,2|0,0:0|3:0,0:0:0:0:
134,176,177912,1,2,0:0:0:0:
200,227,178005,2,0,P|248:237|291:217,1,97.799997015381,2|0,3:2|0:0,0:0:0:0:
39,36,178194,5,2,3:2:0:0:
129,269,178287,1,2,0:0:0:0:
54,19,178381,1,2,3:2:0:0:
29,324,178475,6,0,P|77:309|141:296,1,97.799997015381,2|0,0:0|3:0,0:0:0:0:
323,75,178662,1,2,0:0:0:0:
254,130,178755,2,0,P|207:119|160:104,1,97.799997015381,2|0,3:2|0:0,0:0:0:0:
395,312,178944,6,0,P|422:247|373:181,1,146.699995523071,2|0,3:2|0:0,0:0:0:0:
201,227,179131,6,0,B|281:216|259:266|356:251,1,146.699995523071,2|0,3:2|0:0,0:0:0:0:
401,36,179319,5,0,3:0:0:0:
438,35,179365,1,0,3:0:0:0:
469,53,179412,1,0,3:0:0:0:
488,84,179459,1,0,3:0:0:0:
488,120,179506,6,0,P|483:150|471:186,1,48.8999985076905,0|0,3:0|3:0,0:0:0:0:
323,75,179600,2,0,P|317:51|313:27,1,48.8999985076905,0|0,3:0|3:0,0:0:0:0:
216,252,179694,6,0,P|122:222|-3:194,1,195.599994030762,6|2,3:2|3:2,0:0:0:0:
195,367,179975,2,0,P|243:355|290:340,1,97.799997015381,2|0,0:0|3:2,0:0:0:0:
441,249,180162,5,2,0:0:0:0:
282,150,180256,1,2,3:2:0:0:
457,248,180350,1,2,0:0:0:0:
301,58,180444,6,0,P|251:62|193:79,1,97.799997015381,2|0,3:2|0:0,0:0:0:0:
49,257,180631,1,2,3:2:0:0:
118,203,180725,2,0,P|167:207|214:219,1,97.799997015381,2|0,0:0|3:0,0:0:0:0:
391,356,180911,5,2,0:0:0:0:
310,171,181006,1,2,3:2:0:0:
406,373,181100,1,2,0:0:0:0:
471,117,181194,6,0,P|427:106|368:103,1,97.799997015381,2|0,3:2|0:0,0:0:0:0:
104,8,181381,1,2,3:2:0:0:
173,64,181475,2,0,P|222:60|270:49,1,97.799997015381,2|0,0:0|3:0,0:0:0:0:
38,105,181662,5,2,0:0:0:0:
213,198,181756,1,2,3:2:0:0:
24,92,181850,1,2,0:0:0:0:
182,302,181944,6,0,P|233:294|287:279,1,97.799997015381,2|0,3:2|0:0,0:0:0:0:
365,69,182131,2,0,P|318:56|270:49,1,97.799997015381,2|0,3:2|0:0,0:0:0:0:
356,302,182318,2,0,P|405:295|452:282,1,97.799997015381,2|0,3:2|0:0,0:0:0:0:
490,62,182506,5,2,3:2:0:0:
419,196,182600,1,2,0:0:0:0:
315,0,182694,6,0,B|190:-16|246:63|99:33,1,195.599994030762,6|2,3:2|3:2,0:0:0:0:
4,0,182975,2,0,P|28:43|41:94,1,97.799997015381,2|0,0:0|3:0,0:0:0:0:
192,287,183162,1,2,0:0:0:0:
159,209,183255,2,0,P|173:162|196:119,1,97.799997015381,2|0,3:2|0:0,0:0:0:0:
359,17,183444,6,0,P|385:111|407:222,1,195.599994030762,2|2,3:2|3:2,0:0:0:0:
276,293,183725,2,0,P|287:245|299:197,1,97.799997015381,2|0,0:0|3:0,0:0:0:0:
447,42,183912,2,0,P|460:89|470:137,1,97.799997015381,2|0,0:0|3:0,0:0:0:0:
209,8,184100,1,2,0:0:0:0:
274,58,184194,6,0,P|322:47|360:16,1,97.799997015381,2|0,3:2|0:0,0:0:0:0:
198,213,184381,1,2,3:2:0:0:
133,163,184475,2,0,P|86:173|48:204,1,97.799997015381,2|0,0:0|3:0,0:0:0:0:
267,383,184662,2,0,P|315:372|353:341,1,97.799997015381,2|0,0:0|3:0,0:0:0:0:
431,156,184850,1,0,0:0:0:0:
476,382,184944,5,2,3:2:0:0:
374,64,185037,1,2,3:2:0:0:
383,49,185319,5,2,3:2:0:0:
213,313,185412,2,0,P|118:309|75:204,1,195.599994030762,2|0,3:2|3:0,0:0:0:0:
137,78,185647,1,0,3:0:0:0:
137,78,185694,6,0,B|168:120|168:120|147:177,1,97.799997015381,6|0,3:2|0:0,0:0:0:0:
36,342,185881,5,2,3:2:0:0:
75,132,185975,1,2,0:0:0:0:
257,372,186069,1,2,3:2:0:0:
350,89,186162,2,0,L|230:111,1,97.799997015381,2|0,0:0|3:0,0:0:0:0:
470,310,186350,6,0,P|478:262|489:208,1,97.799997015381,2|0,0:0|3:0,0:0:0:0:
312,45,186537,1,2,0:0:0:0:
364,118,186631,2,0,P|416:124|472:101,1,97.799997015381,0|0,3:0|0:0,0:0:0:0:
169,21,186819,6,0,P|177:69|188:123,1,97.799997015381,2|0,3:2|0:0,0:0:0:0:
381,314,187006,2,0,P|389:266|400:212,1,97.799997015381,2|0,3:2|0:0,0:0:0:0:
185,356,187194,6,0,P|130:355|87:232,1,195.599994030762,2|2,3:2|3:2,0:0:0:0:
271,112,187475,2,0,P|264:162|238:215,1,97.799997015381,2|0,0:0|3:0,0:0:0:0:
45,5,187662,1,2,0:0:0:0:
121,46,187756,2,0,P|141:90|148:138,1,97.799997015381,2|0,3:2|0:0,0:0:0:0:
59,331,187944,5,2,3:2:0:0:
222,54,188037,1,0,0:0:0:0:
288,358,188131,2,0,L|168:338,1,97.799997015381,2|0,3:2|0:0,0:0:0:0:
482,85,188319,5,2,3:2:0:0:
319,362,188412,1,0,0:0:0:0:
253,58,188506,2,0,L|373:78,1,97.799997015381,2|0,3:2|0:0,0:0:0:0:
493,295,188694,5,6,3:2:0:0:
330,171,188787,1,2,0:0:0:0:
506,307,188881,1,2,3:2:0:0:
317,159,188975,6,0,P|268:167|210:190,1,97.799997015381,2|0,0:0|3:0,0:0:0:0:
25,0,189162,1,2,0:0:0:0:
80,72,189256,2,0,P|127:88|175:96,1,97.799997015381,2|0,3:2|0:0,0:0:0:0:
363,11,189444,5,2,3:2:0:0:
423,255,189537,1,2,0:0:0:0:
378,0,189631,1,2,3:2:0:0:
241,272,189725,6,0,P|196:259|144:251,1,97.799997015381,2|0,0:0|3:0,0:0:0:0:
425,72,189912,1,2,0:0:0:0:
348,22,190006,2,0,P|300:30|253:42,1,97.799997015381,2|0,3:2|0:0,0:0:0:0:
492,210,190194,5,2,3:2:0:0:
301,325,190287,1,2,0:0:0:0:
507,223,190381,1,2,3:2:0:0:
234,150,190475,6,0,P|248:201|263:255,1,97.799997015381,2|0,0:0|3:0,0:0:0:0:
496,349,190662,1,2,0:0:0:0:
425,308,190756,2,0,P|411:260|399:213,1,97.799997015381,2|0,3:2|0:0,0:0:0:0:
444,16,190944,5,6,3:2:0:0:
311,356,191037,1,0,0:0:0:0:
178,16,191131,1,0,0:0:0:0:
507,223,191225,5,6,3:2:0:0:
140,250,191319,1,0,0:0:0:0:
421,39,191412,1,0,0:0:0:0:
281,369,191506,6,0,P|230:363|161:335,1,97.799997015381,6|0,3:2|0:0,0:0:0:0:
77,60,191694,6,0,B|133:102|133:102|113:244,1,195.599994030762,6|8,3:2|0:0,0:0:0:0:
88,364,191975,1,0,0:0:0:0:
20,171,192069,1,0,3:0:0:0:
20,171,192162,1,8,0:0:0:0:
187,318,192256,2,0,P|237:311|289:289,1,97.799997015381,0|8,0:0|0:0,0:0:0:0:
314,87,192444,5,0,3:0:0:0:
289,187,192537,1,0,0:0:0:0:
314,87,192631,1,8,0:0:0:0:
408,275,192725,5,0,3:0:0:0:
381,164,192818,1,0,0:0:0:0:
408,275,192912,1,8,0:0:0:0:
512,68,193007,5,0,3:0:0:0:
482,190,193101,1,8,0:0:0:0:
380,25,193194,5,2,3:2:0:0:
314,87,193287,2,0,P|261:98|218:81,1,97.799997015381,0|8,0:0|0:0,0:0:0:0:
2,12,193475,5,2,0:0:0:0:
89,38,193569,2,0,P|126:78|132:124,1,97.799997015381,2|8,3:2|0:0,0:0:0:0:
180,345,193757,5,2,0:0:0:0:
209,178,193850,1,10,0:0:0:0:
209,178,193897,1,8,0:0:0:0:
209,178,193944,6,0,B|331:156|269:254|439:196,1,195.599994030762,2|8,3:2|0:0,0:0:0:0:
475,93,194225,1,0,0:0:0:0:
501,267,194319,2,0,P|466:251|391:232,1,97.799997015381,2|0,3:2|3:0,0:0:0:0:
233,73,194506,2,0,P|281:60|326:41,1,97.799997015381,8|8,0:0|0:0,0:0:0:0:
110,309,194694,6,0,B|95:250|95:250|121:184|121:184|105:118,1,195.599994030762,6|8,3:2|0:0,0:0:0:0:
75,27,194975,1,0,0:0:0:0:
209,178,195069,1,0,3:0:0:0:
209,178,195162,1,8,0:0:0:0:
193,23,195256,2,0,P|157:57|132:111,1,97.799997015381,0|8,0:0|0:0,0:0:0:0:
94,224,195444,5,0,3:0:0:0:
240,172,195537,1,0,0:0:0:0:
94,224,195631,1,8,0:0:0:0:
342,308,195725,5,0,3:0:0:0:
197,258,195818,1,0,0:0:0:0:
342,308,195912,1,8,0:0:0:0:
445,172,196007,5,0,3:0:0:0:
299,224,196101,1,8,0:0:0:0:
504,238,196194,5,2,3:2:0:0:
445,172,196287,2,0,P|401:147|326:148,1,97.799997015381,2|8,0:0|0:0,0:0:0:0:
126,20,196475,5,2,0:0:0:0:
185,86,196569,2,0,P|234:80|276:55,1,97.799997015381,2|8,3:2|0:0,0:0:0:0:
97,211,196756,5,0,0:0:0:0:
35,33,196850,1,8,0:0:0:0:
174,281,196944,5,2,3:2:0:0:
275,32,197037,1,2,3:2:0:0:
287,16,197318,5,2,3:2:0:0:
388,265,197411,1,2,3:2:0:0:
400,281,197601,5,2,3:2:0:0:
501,32,197694,6,0,B|393:23|443:108|311:84,1,179.300005471802,6|8,3:2|0:0,0:0:0:0:
212,35,197975,1,0,0:0:0:0:
348,120,198069,1,0,3:0:0:0:
348,120,198162,1,8,0:0:0:0:
175,167,198256,2,0,P|132:153|51:135,1,89.650002735901,0|8,0:0|0:0,0:0:0:0:
288,239,198444,5,0,3:0:0:0:
256,121,198537,1,0,0:0:0:0:
288,239,198631,1,8,0:0:0:0:
381,34,198725,5,0,3:0:0:0:
349,152,198818,1,0,0:0:0:0:
381,34,198912,1,8,0:0:0:0:
474,239,199007,5,0,3:0:0:0:
442,121,199101,1,8,0:0:0:0:
345,348,199194,5,2,3:2:0:0:
437,330,199287,2,0,L|539:311,1,89.650002735901,2|8,0:0|0:0,0:0:0:0:
294,204,199475,5,2,0:0:0:0:
386,222,199569,2,0,L|488:241,1,89.650002735901,2|8,3:2|0:0,0:0:0:0:
259,102,199756,5,2,0:0:0:0:
203,170,199850,2,0,P|198:222|217:265,1,89.650002735901,8|0,0:0|3:0,0:0:0:0:
355,54,200038,5,2,0:0:0:0:
294,204,200131,1,10,0:0:0:0:
345,39,200225,1,2,3:0:0:0:
304,219,200319,6,0,P|352:208|411:199,1,89.650002735901,2|0,3:2|0:0,0:0:0:0:
164,84,200506,2,0,P|120:76|77:66,1,89.650002735901,10|0,0:0|0:0,0:0:0:0:
73,275,200694,6,0,P|144:270|220:367,1,179.300005471802,6|8,3:2|0:0,0:0:0:0:
282,261,200975,1,0,0:0:0:0:
116,367,201069,1,0,3:0:0:0:
116,367,201162,1,8,0:0:0:0:
260,165,201256,2,0,P|309:175|365:194,1,89.650002735901,0|8,0:0|0:0,0:0:0:0:
468,333,201444,5,0,3:0:0:0:
431,234,201537,1,0,0:0:0:0:
468,333,201631,1,8,0:0:0:0:
347,187,201725,5,0,3:0:0:0:
310,286,201818,1,0,0:0:0:0:
347,187,201912,1,8,0:0:0:0:
230,342,202007,5,0,3:0:0:0:
186,224,202101,1,8,0:0:0:0:
142,384,202194,5,2,3:2:0:0:
88,320,202287,2,0,P|46:315|-12:342,1,89.650002735901,2|8,0:0|0:0,0:0:0:0:
247,161,202475,5,2,0:0:0:0:
169,132,202569,2,0,P|131:148|94:201,1,89.650002735901,2|8,3:2|0:0,0:0:0:0:
292,269,202756,5,2,0:0:0:0:
234,76,202850,1,10,0:0:0:0:
131,340,202944,6,0,P|178:326|235:320,1,89.650002735901,6|0,3:2|0:0,0:0:0:0:
478,153,203131,5,2,0:0:0:0:
411,208,203224,2,0,P|367:201|324:188,1,89.650002735901,6|0,3:2|0:0,0:0:0:0:
57,63,203412,5,2,0:0:0:0:
124,118,203506,2,0,P|169:111|212:98,1,89.650002735901,6|0,3:2|0:0,0:0:0:0:
355,0,203694,6,0,P|333:48|315:142,1,122.25,2|0,3:2|0:0,0:0:0:0:
288,107,204069,2,0,P|302:149|307:188,1,81.5,10|2,0:0|0:0,0:0:0:0:
161,299,204444,2,0,P|167:258|180:220,1,81.5,2|10,3:0|0:0,0:0:0:0:
368,89,204819,2,0,P|382:127|387:167,1,81.5,2|10,3:0|0:0,0:0:0:0:
447,331,205194,6,0,P|418:311|363:308,1,81.5,2|2,3:2|0:0,0:0:0:0:
286,347,205466,1,10,0:0:0:0:
374,226,205603,6,0,P|340:233|299:269,1,81.5,2|2,0:0|3:2,0:0:0:0:
272,351,205875,1,2,0:0:0:0:
249,203,206012,6,0,P|230:232|226:287,1,81.5,10|2,0:0|0:0,0:0:0:0:
265,363,206284,5,2,3:2:0:0:
159,328,206395,1,0,0:0:0:0:
227,183,206506,5,10,0:0:0:0:
128,233,206617,1,0,0:0:0:0:
73,82,206729,5,2,3:2:0:0:
39,187,206840,1,0,0:0:0:0:
205,86,206950,6,0,P|202:42|182:-6,1,81.5,8|0,0:0|0:0,0:0:0:0:
374,230,207172,5,10,0:0:0:0:
449,179,207265,1,10,0:0:0:0:
424,93,207359,1,10,0:0:0:0:
335,90,207453,1,10,0:0:0:0:
304,174,207547,6,0,P|261:189|221:189,1,81.5,2|8,3:2|0:0,0:0:0:0:
407,3,207734,2,0,P|448:3|486:18,1,81.5,10|8,0:0|0:0,0:0:0:0:
490,303,207922,6,0,P|431:273|344:261,1,122.25,6|0,3:2|0:0,0:0:0:0:
374,230,208084,2,0,P|331:252|267:260,1,81.5,2|2,3:2|3:2,0:0:0:0:
1,118,208246,1,2,3:2:0:0:
88,70,208327,1,2,3:2:0:0:
183,100,208408,1,2,3:2:0:0:
226,189,208489,1,2,3:2:0:0:
192,281,208570,6,0,P|149:277|104:265,1,81.5,2|2,3:2|3:2,0:0:0:0:
372,86,208720,2,0,P|416:89|460:102,1,81.5,2|2,3:2|3:2,0:0:0:0:
191,293,208870,6,0,P|148:289|103:277,1,81.5,2|2,3:2|3:2,0:0:0:0:
373,74,209020,2,0,P|417:77|461:90,1,81.5,2|2,3:2|3:2,0:0:0:0:
496,304,209170,5,2,3:2:0:0:
418,312,209242,1,0,3:0:0:0:
360,258,209315,1,0,3:0:0:0:
361,179,209388,1,0,3:0:0:0:
303,108,209462,5,0,3:0:0:0:
270,194,209535,1,0,3:0:0:0:
186,235,209608,1,0,3:0:0:0:
96,211,209681,1,0,3:0:0:0:
27,125,209755,6,0,P|35:79|47:8,1,81.5,6|0,3:2|0:0,0:0:0:0:
208,260,209908,1,2,3:2:0:0:
186,235,209985,2,0,P|179:189|166:118,1,81.5,2|0,3:2|0:0,0:0:0:0:
354,19,210139,1,2,3:2:0:0:
332,44,210216,2,0,P|325:89|312:161,1,81.5,2|0,3:2|0:0,0:0:0:0:
485,258,210370,6,0,P|441:224|403:217,1,81.5,6|0,3:2|0:0,0:0:0:0:
165,125,210518,1,2,3:2:0:0:
251,164,210592,2,0,P|290:150|320:123,1,81.5,2|0,3:2|0:0,0:0:0:0:
174,344,210740,1,2,3:2:0:0:
165,250,210814,2,0,P|135:223|96:210,1,81.5,2|0,3:2|0:0,0:0:0:0:
220,0,210962,6,0,P|235:41|240:83,1,81.5,6|0,3:2|0:0,0:0:0:0:
437,349,211104,1,2,3:2:0:0:
392,280,211175,2,0,P|398:239|412:201,1,81.5,2|0,3:2|0:0,0:0:0:0:
52,279,211319,1,2,3:2:0:0:
97,210,211390,2,0,P|92:169|78:131,1,81.5,2|0,3:2|0:0,0:0:0:0:
256,192,211676,5,4,3:0:0:0:
256,192,211772,12,0,217829,0:0:0:0:
