osu file format v14

[General]
AudioFilename: audio.mp3
AudioLeadIn: 0
PreviewTime: 167689
Countdown: 0
SampleSet: Normal
StackLeniency: 0.2
Mode: 1
LetterboxInBreaks: 0
WidescreenStoryboard: 1

[Editor]
Bookmarks: 9622,26238,41007,55776,77109,84220,91331,104572,118641,137841,150641,167717,203717,211699
DistanceSpacing: 0.8
BeatDivisor: 2
GridSize: 32
TimelineZoom: 3.3

[Metadata]
Title:Nisemono Chuuihou
TitleUnicode:ニセモノ注意報
Artist:B-ko (CV: Touyama Nao)
ArtistUnicode:B子 (CV: 東山奈央)
Creator:Genjuro
Version:Oni
Source:終焉ノ栞プロジェクト
Tags:Shuuen no Shiori Project Bookmark of Demise Project 終焉 -Re:act- 150P スズム Suzumu Impostor Advisory IA Kagamine Rin Vocaloid Japanese Electronic Synth Rock Toyama
BeatmapID:2421242
BeatmapSetID:1160473

[Difficulty]
HPDrainRate:5.5
CircleSize:2
OverallDifficulty:5.5
ApproachRate:10
SliderMultiplier:0.7
SliderTickRate:1

[Events]
//Background and Video events
0,0,"bg.jpg",0,-60
//Break Periods
2,150841,165421
//Storyboard Layer 0 (Background)
//Storyboard Layer 1 (Fail)
//Storyboard Layer 2 (Pass)
//Storyboard Layer 3 (Foreground)
//Storyboard Layer 4 (Overlay)
//Storyboard Sound Samples

[TimingPoints]
392,230.769230769231,4,1,0,25,1,0
9593,-100,4,1,0,100,0,0
25315,-100,4,1,0,75,0,0
33593,-100,4,1,0,100,0,0
40978,-100,4,1,0,50,0,0
48363,-100,4,1,0,100,0,0
55776,222.222222222222,4,1,0,100,1,1
75331,-100,4,1,0,100,0,0
77081,-100,4,1,0,50,0,0
83303,-100,4,1,0,100,0,0
91303,-100,4,1,0,50,0,0
91331,206.896551724138,4,1,0,50,1,0
94615,-100,4,1,0,75,0,0
97925,-100,4,1,0,100,0,0
104546,-100,4,1,0,50,0,0
111167,-100,4,1,0,100,0,0
117374,-100,4,1,0,50,0,0
118615,-100,4,1,0,100,0,0
118641,200,4,1,0,100,1,1
136241,-100,4,1,0,100,0,0
137841,-100,4,1,0,100,0,1
150641,461.538461538462,4,1,0,25,1,0
150641,-43.3333391111119,4,1,0,25,0,0
163564,461.538461538462,5,1,0,25,1,0
163564,-43.3333391111119,4,1,0,25,0,0
165756,-43.3333391111119,4,1,0,100,0,0
167717,187.5,4,1,0,100,1,1
203717,375,4,1,0,100,1,0
203717,-50,4,1,0,100,0,0
205217,272.727272727273,4,1,0,100,1,0
205217,-68.7502578134668,4,1,0,100,0,0
206307,222.222222222222,4,1,0,100,1,0
206307,-84.3810648890389,4,1,0,100,0,0
207195,187.5,4,1,0,100,1,0
207945,162.162162162162,4,1,0,100,1,0
207945,-115.625650394283,4,1,0,100,0,0
208593,150,4,1,0,100,1,0
208593,-125,4,1,0,100,0,0
209193,146.341463414634,4,1,0,100,1,0
209193,-128.126281262813,4,1,0,100,0,0
209778,153.846153846154,4,1,0,100,1,1
209778,-121.875418946753,4,1,0,100,0,1
210393,148.148148148148,4,1,0,100,1,1
210393,-126.562573168988,4,1,0,100,0,1
210985,142.857142857143,5,1,0,100,1,1
210985,-131.250820317627,5,1,0,100,0,1
211556,-131.250820317627,5,1,0,50,0,0

[HitObjects]
256,192,9622,5,4,0:0:0:0:
256,192,10084,1,8,0:0:0:0:
256,192,10315,1,8,0:0:0:0:
256,192,10545,1,0,0:0:0:0:
256,192,10776,1,0,0:0:0:0:
256,192,10892,1,0,0:0:0:0:
256,192,11122,1,0,0:0:0:0:
256,192,11353,1,8,0:0:0:0:
256,192,11468,1,8,0:0:0:0:
256,192,11699,1,8,0:0:0:0:
256,192,11930,1,0,0:0:0:0:
256,192,12045,1,0,0:0:0:0:
256,192,12161,1,8,0:0:0:0:
256,192,12392,1,0,0:0:0:0:
256,192,12622,1,8,0:0:0:0:
256,192,12738,1,8,0:0:0:0:
256,192,12853,1,0,0:0:0:0:
256,192,13084,1,8,0:0:0:0:
256,192,13315,1,4,0:0:0:0:
256,192,13776,1,8,0:0:0:0:
256,192,14007,1,8,0:0:0:0:
256,192,14238,1,0,0:0:0:0:
256,192,14468,1,0,0:0:0:0:
256,192,14584,1,0,0:0:0:0:
256,192,14815,1,0,0:0:0:0:
256,192,15045,1,8,0:0:0:0:
256,192,15161,1,8,0:0:0:0:
256,192,15392,1,8,0:0:0:0:
256,192,15622,1,0,0:0:0:0:
256,192,15738,1,8,0:0:0:0:
256,192,15853,1,0,0:0:0:0:
256,192,16084,1,8,0:0:0:0:
256,192,16199,1,8,0:0:0:0:
256,192,16545,1,8,0:0:0:0:
256,192,16661,1,8,0:0:0:0:
256,192,17007,1,4,0:0:0:0:
256,192,17468,1,8,0:0:0:0:
256,192,17699,1,8,0:0:0:0:
256,192,17930,1,0,0:0:0:0:
256,192,18161,1,0,0:0:0:0:
256,192,18276,1,0,0:0:0:0:
256,192,18507,1,0,0:0:0:0:
256,192,18738,1,8,0:0:0:0:
256,192,18853,1,8,0:0:0:0:
256,192,19084,1,8,0:0:0:0:
256,192,19315,1,0,0:0:0:0:
256,192,19430,1,0,0:0:0:0:
256,192,19545,1,8,0:0:0:0:
256,192,19776,1,0,0:0:0:0:
256,192,20007,1,8,0:0:0:0:
256,192,20122,1,8,0:0:0:0:
256,192,20238,1,0,0:0:0:0:
256,192,20468,1,8,0:0:0:0:
256,192,20699,1,4,0:0:0:0:
256,192,21161,1,8,0:0:0:0:
256,192,21392,1,8,0:0:0:0:
256,192,21622,1,0,0:0:0:0:
256,192,21853,1,0,0:0:0:0:
256,192,21968,1,0,0:0:0:0:
256,192,22199,1,0,0:0:0:0:
256,192,22430,1,8,0:0:0:0:
256,192,22545,1,8,0:0:0:0:
256,192,22776,1,8,0:0:0:0:
256,192,23007,1,0,0:0:0:0:
256,192,23122,1,8,0:0:0:0:
256,192,23238,1,0,0:0:0:0:
256,192,23468,1,12,0:0:0:0:
256,192,23815,1,12,0:0:0:0:
256,192,24161,1,12,0:0:0:0:
256,192,24507,1,12,0:0:0:0:
256,192,24853,1,12,0:0:0:0:
256,192,25084,1,12,0:0:0:0:
256,192,25661,1,8,0:0:0:0:
256,192,25776,1,8,0:0:0:0:
256,192,25892,1,0,0:0:0:0:
256,192,26007,1,0,0:0:0:0:
256,192,26238,1,4,0:0:0:0:
256,192,26699,1,8,0:0:0:0:
256,192,27045,1,0,0:0:0:0:
256,192,27276,1,0,0:0:0:0:
256,192,27392,1,0,0:0:0:0:
256,192,27622,1,8,0:0:0:0:
256,192,28084,1,0,0:0:0:0:
256,192,28430,1,0,0:0:0:0:
256,192,29007,1,8,0:0:0:0:
256,192,29353,1,8,0:0:0:0:
256,192,29930,1,0,0:0:0:0:
256,192,30276,1,0,0:0:0:0:
256,192,30392,1,8,0:0:0:0:
256,192,30738,1,0,0:0:0:0:
256,192,30968,1,0,0:0:0:0:
256,192,31084,1,0,0:0:0:0:
256,192,31315,1,8,0:0:0:0:
256,192,31776,1,0,0:0:0:0:
256,192,32122,1,0,0:0:0:0:
256,192,32699,1,8,0:0:0:0:
256,192,32930,1,8,0:0:0:0:
256,192,33045,1,8,0:0:0:0:
256,192,33276,1,8,0:0:0:0:
256,192,33392,1,8,0:0:0:0:
256,192,33622,1,4,0:0:0:0:
256,192,34084,1,8,0:0:0:0:
256,192,34199,1,0,0:0:0:0:
256,192,34430,1,8,0:0:0:0:
256,192,34661,1,0,0:0:0:0:
256,192,34776,1,0,0:0:0:0:
256,192,35007,1,8,0:0:0:0:
256,192,35468,1,0,0:0:0:0:
256,192,35815,1,0,0:0:0:0:
256,192,36045,1,0,0:0:0:0:
256,192,36161,1,0,0:0:0:0:
256,192,36392,1,8,0:0:0:0:
256,192,36738,1,8,0:0:0:0:
256,192,36968,1,8,0:0:0:0:
256,192,37084,1,8,0:0:0:0:
256,192,37315,1,0,0:0:0:0:
256,192,37661,1,0,0:0:0:0:
256,192,37776,1,8,0:0:0:0:
256,192,38122,1,0,0:0:0:0:
256,192,38353,1,0,0:0:0:0:
256,192,38468,1,0,0:0:0:0:
256,192,38699,1,8,0:0:0:0:
256,192,39161,1,0,0:0:0:0:
256,192,39507,1,0,0:0:0:0:
256,192,39738,1,0,0:0:0:0:
256,192,39853,1,0,0:0:0:0:
256,192,40084,1,8,0:0:0:0:
256,192,40315,1,8,0:0:0:0:
256,192,40430,1,8,0:0:0:0:
256,192,40545,1,8,0:0:0:0:
256,192,40776,1,8,0:0:0:0:
256,192,41007,1,0,0:0:0:0:
256,192,41468,1,0,0:0:0:0:
256,192,41930,1,8,0:0:0:0:
256,192,42853,1,8,0:0:0:0:
256,192,43315,1,8,0:0:0:0:
256,192,43776,1,0,0:0:0:0:
256,192,44238,1,8,0:0:0:0:
256,192,44699,1,8,0:0:0:0:
256,192,45622,1,8,0:0:0:0:
256,192,46545,1,0,0:0:0:0:
256,192,47007,1,0,0:0:0:0:
256,192,47468,1,8,0:0:0:0:
256,192,48392,1,0,0:0:0:0:
256,192,48622,1,0,0:0:0:0:
256,192,48853,1,0,0:0:0:0:
256,192,49084,1,0,0:0:0:0:
256,192,49315,1,8,0:0:0:0:
256,192,49545,1,8,0:0:0:0:
256,192,49776,1,8,0:0:0:0:
256,192,50007,1,8,0:0:0:0:
256,192,50238,1,0,0:0:0:0:
256,192,50468,1,0,0:0:0:0:
256,192,50699,1,0,0:0:0:0:
256,192,50930,1,0,0:0:0:0:
256,192,51161,1,8,0:0:0:0:
256,192,51392,1,8,0:0:0:0:
256,192,51622,1,0,0:0:0:0:
256,192,51853,1,0,0:0:0:0:
256,192,52084,1,8,0:0:0:0:
256,192,52315,1,0,0:0:0:0:
256,192,52430,1,8,0:0:0:0:
256,192,52545,1,0,0:0:0:0:
256,192,52776,1,8,0:0:0:0:
256,192,53007,1,0,0:0:0:0:
256,192,53122,1,8,0:0:0:0:
256,192,53238,1,0,0:0:0:0:
256,192,53468,1,8,0:0:0:0:
256,192,53699,1,8,0:0:0:0:
256,192,53930,1,0,0:0:0:0:
256,192,54045,1,0,0:0:0:0:
256,192,54161,1,0,0:0:0:0:
256,192,54276,1,8,0:0:0:0:
256,192,54507,1,8,0:0:0:0:
256,192,54622,1,8,0:0:0:0:
256,192,54738,1,8,0:0:0:0:
256,192,55776,1,12,0:0:0:0:
256,192,56220,1,0,0:0:0:0:
256,192,56331,1,8,0:0:0:0:
256,192,56442,1,0,0:0:0:0:
256,192,56664,1,8,0:0:0:0:
256,192,56887,1,0,0:0:0:0:
256,192,56998,1,8,0:0:0:0:
256,192,57220,1,8,0:0:0:0:
256,192,57331,1,0,0:0:0:0:
256,192,57553,1,8,0:0:0:0:
256,192,57776,1,0,0:0:0:0:
256,192,57887,1,8,0:0:0:0:
256,192,58109,1,8,0:0:0:0:
256,192,58220,1,0,0:0:0:0:
256,192,58331,1,0,0:0:0:0:
256,192,58442,1,8,0:0:0:0:
256,192,58664,1,0,0:0:0:0:
256,192,58887,1,8,0:0:0:0:
256,192,58998,1,8,0:0:0:0:
256,192,59109,1,0,0:0:0:0:
256,192,59331,1,8,0:0:0:0:
256,192,59553,1,0,0:0:0:0:
256,192,59664,1,8,0:0:0:0:
256,192,59887,1,8,0:0:0:0:
256,192,59998,1,0,0:0:0:0:
256,192,60220,1,8,0:0:0:0:
256,192,60442,1,0,0:0:0:0:
256,192,60553,1,8,0:0:0:0:
256,192,60775,1,8,0:0:0:0:
256,192,60887,1,8,0:0:0:0:
256,192,60998,1,0,0:0:0:0:
256,192,61109,1,8,0:0:0:0:
256,192,61331,1,0,0:0:0:0:
256,192,61442,1,8,0:0:0:0:
256,192,61775,1,0,0:0:0:0:
256,192,61998,1,8,0:0:0:0:
256,192,62109,1,8,0:0:0:0:
256,192,62442,1,8,0:0:0:0:
256,192,62553,1,8,0:0:0:0:
256,192,62887,1,4,0:0:0:0:
256,192,63331,1,8,0:0:0:0:
256,192,63442,1,0,0:0:0:0:
256,192,63664,1,8,0:0:0:0:
256,192,63887,1,0,0:0:0:0:
256,192,63998,1,8,0:0:0:0:
256,192,64220,1,0,0:0:0:0:
256,192,64442,1,0,0:0:0:0:
256,192,64664,1,8,0:0:0:0:
256,192,64887,1,0,0:0:0:0:
256,192,64998,1,8,0:0:0:0:
256,192,65220,1,8,0:0:0:0:
256,192,65331,1,0,0:0:0:0:
256,192,65553,1,0,0:0:0:0:
256,192,65664,1,0,0:0:0:0:
256,192,65775,1,8,0:0:0:0:
256,192,65998,1,8,0:0:0:0:
256,192,66109,1,0,0:0:0:0:
256,192,66220,1,8,0:0:0:0:
256,192,66442,1,8,0:0:0:0:
256,192,66664,1,0,0:0:0:0:
256,192,66775,1,8,0:0:0:0:
256,192,66887,1,0,0:0:0:0:
256,192,66998,1,0,0:0:0:0:
256,192,67109,1,8,0:0:0:0:
256,192,67331,1,8,0:0:0:0:
256,192,67553,1,0,0:0:0:0:
256,192,67664,1,8,0:0:0:0:
256,192,67775,1,0,0:0:0:0:
256,192,67887,1,8,0:0:0:0:
256,192,67998,1,8,0:0:0:0:
256,192,68220,1,8,0:0:0:0:
256,192,68442,1,0,0:0:0:0:
256,192,68553,1,8,0:0:0:0:
256,192,68775,1,8,0:0:0:0:
256,192,68887,1,0,0:0:0:0:
256,192,69109,1,12,0:0:0:0:
256,192,69442,1,12,0:0:0:0:
256,192,69775,1,12,0:0:0:0:
256,192,69998,1,4,0:0:0:0:
256,192,70442,1,8,0:0:0:0:
256,192,70553,1,0,0:0:0:0:
256,192,70664,1,0,0:0:0:0:
256,192,70887,1,8,0:0:0:0:
256,192,71109,1,8,0:0:0:0:
256,192,71220,1,0,0:0:0:0:
256,192,71442,1,0,0:0:0:0:
256,192,71553,1,8,0:0:0:0:
256,192,71775,1,8,0:0:0:0:
256,192,71998,1,0,0:0:0:0:
256,192,72220,1,8,0:0:0:0:
256,192,72331,1,8,0:0:0:0:
256,192,72442,1,0,0:0:0:0:
256,192,72664,1,8,0:0:0:0:
256,192,72887,1,0,0:0:0:0:
256,192,72998,1,8,0:0:0:0:
256,192,73220,1,8,0:0:0:0:
256,192,73331,1,0,0:0:0:0:
256,192,73553,1,8,0:0:0:0:
256,192,73775,1,0,0:0:0:0:
256,192,73887,1,0,0:0:0:0:
256,192,73998,1,8,0:0:0:0:
256,192,74109,1,8,0:0:0:0:
256,192,74220,1,0,0:0:0:0:
256,192,74442,1,8,0:0:0:0:
256,192,74664,1,0,0:0:0:0:
256,192,74775,1,8,0:0:0:0:
256,192,75109,1,0,0:0:0:0:
256,192,75331,1,12,0:0:0:0:
256,192,76220,1,0,0:0:0:0:
256,192,76331,1,0,0:0:0:0:
256,192,76442,1,0,0:0:0:0:
256,192,76664,1,8,0:0:0:0:
256,192,76775,1,8,0:0:0:0:
256,192,76887,1,8,0:0:0:0:
256,192,77109,1,4,0:0:0:0:
256,192,77998,1,8,0:0:0:0:
256,192,78442,1,8,0:0:0:0:
256,192,78887,1,0,0:0:0:0:
256,192,79775,1,8,0:0:0:0:
256,192,80664,1,4,0:0:0:0:
256,192,81553,1,8,0:0:0:0:
256,192,81998,1,8,0:0:0:0:
256,192,82442,1,0,0:0:0:0:
256,192,83331,1,8,0:0:0:0:
256,192,83627,1,8,0:0:0:0:
256,192,83775,1,8,0:0:0:0:
256,192,83924,1,8,0:0:0:0:
256,192,84220,1,4,0:0:0:0:
256,192,84664,1,8,0:0:0:0:
256,192,84887,1,8,0:0:0:0:
256,192,85109,1,0,0:0:0:0:
256,192,85331,1,0,0:0:0:0:
256,192,85442,1,0,0:0:0:0:
256,192,85664,1,0,0:0:0:0:
256,192,85887,1,8,0:0:0:0:
256,192,85998,1,8,0:0:0:0:
256,192,86220,1,8,0:0:0:0:
256,192,86442,1,0,0:0:0:0:
256,192,86553,1,0,0:0:0:0:
256,192,86664,1,8,0:0:0:0:
256,192,86887,1,0,0:0:0:0:
256,192,87109,1,8,0:0:0:0:
256,192,87220,1,8,0:0:0:0:
256,192,87331,1,0,0:0:0:0:
256,192,87553,1,8,0:0:0:0:
256,192,87775,1,4,0:0:0:0:
256,192,88220,1,8,0:0:0:0:
256,192,88442,1,8,0:0:0:0:
256,192,88664,1,0,0:0:0:0:
256,192,88887,1,0,0:0:0:0:
256,192,88998,1,0,0:0:0:0:
256,192,89220,1,0,0:0:0:0:
256,192,89442,1,8,0:0:0:0:
256,192,89553,1,8,0:0:0:0:
256,192,89775,1,8,0:0:0:0:
256,192,89998,1,0,0:0:0:0:
256,192,90109,1,0,0:0:0:0:
256,192,90220,1,8,0:0:0:0:
256,192,90442,1,0,0:0:0:0:
256,192,91331,1,8,0:0:0:0:
256,192,92055,1,8,0:0:0:0:
256,192,92986,1,0,0:0:0:0:
256,192,93296,1,0,0:0:0:0:
256,192,93813,1,8,0:0:0:0:
256,192,94124,1,8,0:0:0:0:
256,192,94641,1,4,0:0:0:0:
256,192,96296,1,8,0:0:0:0:
256,192,96606,1,8,0:0:0:0:
256,192,96813,1,0,0:0:0:0:
256,192,97124,1,8,0:0:0:0:
256,192,97434,1,8,0:0:0:0:
256,192,97641,1,8,0:0:0:0:
256,192,97951,1,4,0:0:0:0:
256,192,98365,1,8,0:0:0:0:
256,192,98468,1,0,0:0:0:0:
256,192,98675,1,8,0:0:0:0:
256,192,98882,1,0,0:0:0:0:
256,192,98986,1,0,0:0:0:0:
256,192,99193,1,8,0:0:0:0:
256,192,99606,1,0,0:0:0:0:
256,192,99917,1,0,0:0:0:0:
256,192,100124,1,0,0:0:0:0:
256,192,100227,1,0,0:0:0:0:
256,192,100434,1,8,0:0:0:0:
256,192,100744,1,8,0:0:0:0:
256,192,100951,1,8,0:0:0:0:
256,192,101055,1,8,0:0:0:0:
256,192,101262,1,0,0:0:0:0:
256,192,101572,1,0,0:0:0:0:
256,192,101675,1,8,0:0:0:0:
256,192,101986,1,0,0:0:0:0:
256,192,102193,1,0,0:0:0:0:
256,192,102296,1,0,0:0:0:0:
256,192,102503,1,8,0:0:0:0:
256,192,102917,1,0,0:0:0:0:
256,192,103227,1,0,0:0:0:0:
256,192,103434,1,0,0:0:0:0:
256,192,103537,1,0,0:0:0:0:
256,192,103744,1,8,0:0:0:0:
256,192,103951,1,8,0:0:0:0:
256,192,104055,1,8,0:0:0:0:
256,192,104158,1,8,0:0:0:0:
256,192,104365,1,8,0:0:0:0:
256,192,104572,1,0,0:0:0:0:
256,192,105399,1,8,0:0:0:0:
256,192,106227,1,0,0:0:0:0:
256,192,106641,1,0,0:0:0:0:
256,192,107055,1,8,0:0:0:0:
256,192,107882,1,8,0:0:0:0:
256,192,108710,1,8,0:0:0:0:
256,192,109537,1,8,0:0:0:0:
256,192,109951,1,0,0:0:0:0:
256,192,110365,1,8,0:0:0:0:
256,192,111193,1,0,0:0:0:0:
256,192,111399,1,0,0:0:0:0:
256,192,111606,1,0,0:0:0:0:
256,192,111813,1,0,0:0:0:0:
256,192,112020,1,8,0:0:0:0:
256,192,112227,1,8,0:0:0:0:
256,192,112434,1,8,0:0:0:0:
256,192,112641,1,8,0:0:0:0:
256,192,112848,1,0,0:0:0:0:
256,192,113055,1,0,0:0:0:0:
256,192,113262,1,0,0:0:0:0:
256,192,113468,1,0,0:0:0:0:
256,192,113675,1,8,0:0:0:0:
256,192,113882,1,8,0:0:0:0:
256,192,114089,1,0,0:0:0:0:
256,192,114296,1,0,0:0:0:0:
256,192,114503,1,8,0:0:0:0:
256,192,114710,1,0,0:0:0:0:
256,192,114813,1,8,0:0:0:0:
256,192,114917,1,0,0:0:0:0:
256,192,115124,1,8,0:0:0:0:
256,192,115331,1,0,0:0:0:0:
256,192,115434,1,8,0:0:0:0:
256,192,115537,1,0,0:0:0:0:
256,192,115744,1,8,0:0:0:0:
256,192,115951,1,8,0:0:0:0:
256,192,116158,1,0,0:0:0:0:
256,192,116262,1,0,0:0:0:0:
256,192,116365,1,0,0:0:0:0:
256,192,116468,1,8,0:0:0:0:
256,192,116675,1,8,0:0:0:0:
256,192,116779,1,8,0:0:0:0:
256,192,116882,1,8,0:0:0:0:
256,192,116986,1,0,0:0:0:0:
256,192,118227,1,8,0:0:0:0:
256,192,118641,1,12,0:0:0:0:
256,192,119041,1,0,0:0:0:0:
256,192,119141,1,8,0:0:0:0:
256,192,119241,1,0,0:0:0:0:
256,192,119441,1,8,0:0:0:0:
256,192,119641,1,0,0:0:0:0:
256,192,119741,1,8,0:0:0:0:
256,192,119941,1,8,0:0:0:0:
256,192,120041,1,0,0:0:0:0:
256,192,120241,1,8,0:0:0:0:
256,192,120441,1,0,0:0:0:0:
256,192,120541,1,8,0:0:0:0:
256,192,120741,1,8,0:0:0:0:
256,192,120841,1,0,0:0:0:0:
256,192,120941,1,0,0:0:0:0:
256,192,121041,1,8,0:0:0:0:
256,192,121241,1,0,0:0:0:0:
256,192,121441,1,8,0:0:0:0:
256,192,121541,1,8,0:0:0:0:
256,192,121641,1,0,0:0:0:0:
256,192,121841,1,8,0:0:0:0:
256,192,122041,1,0,0:0:0:0:
256,192,122141,1,8,0:0:0:0:
256,192,122341,1,8,0:0:0:0:
256,192,122441,1,0,0:0:0:0:
256,192,122641,1,8,0:0:0:0:
256,192,122841,1,0,0:0:0:0:
256,192,122941,1,8,0:0:0:0:
256,192,123141,1,8,0:0:0:0:
256,192,123241,1,8,0:0:0:0:
256,192,123341,1,0,0:0:0:0:
256,192,123441,1,8,0:0:0:0:
256,192,123641,1,8,0:0:0:0:
256,192,123741,1,0,0:0:0:0:
256,192,123941,1,8,0:0:0:0:
256,192,124141,1,0,0:0:0:0:
256,192,124241,1,8,0:0:0:0:
256,192,124341,1,8,0:0:0:0:
256,192,124641,1,8,0:0:0:0:
256,192,124741,1,8,0:0:0:0:
256,192,125041,1,4,0:0:0:0:
256,192,125441,1,8,0:0:0:0:
256,192,125541,1,0,0:0:0:0:
256,192,125741,1,8,0:0:0:0:
256,192,125941,1,0,0:0:0:0:
256,192,126041,1,8,0:0:0:0:
256,192,126241,1,0,0:0:0:0:
256,192,126341,1,0,0:0:0:0:
256,192,126441,1,0,0:0:0:0:
256,192,126641,1,8,0:0:0:0:
256,192,126841,1,0,0:0:0:0:
256,192,126941,1,8,0:0:0:0:
256,192,127141,1,8,0:0:0:0:
256,192,127241,1,0,0:0:0:0:
256,192,127441,1,0,0:0:0:0:
256,192,127541,1,0,0:0:0:0:
256,192,127641,1,8,0:0:0:0:
256,192,127841,1,8,0:0:0:0:
256,192,127941,1,8,0:0:0:0:
256,192,128041,1,0,0:0:0:0:
256,192,128241,1,8,0:0:0:0:
256,192,128441,1,0,0:0:0:0:
256,192,128541,1,8,0:0:0:0:
256,192,128641,1,0,0:0:0:0:
256,192,128741,1,0,0:0:0:0:
256,192,128841,1,8,0:0:0:0:
256,192,129041,1,8,0:0:0:0:
256,192,129241,1,0,0:0:0:0:
256,192,129341,1,8,0:0:0:0:
256,192,129441,1,0,0:0:0:0:
256,192,129541,1,8,0:0:0:0:
256,192,129641,1,8,0:0:0:0:
256,192,129841,1,8,0:0:0:0:
256,192,130041,1,0,0:0:0:0:
256,192,130141,1,8,0:0:0:0:
256,192,130341,1,8,0:0:0:0:
256,192,130441,1,0,0:0:0:0:
256,192,130641,1,12,0:0:0:0:
256,192,130941,1,12,0:0:0:0:
256,192,131241,1,12,0:0:0:0:
256,192,131441,1,4,0:0:0:0:
256,192,131841,1,8,0:0:0:0:
256,192,131941,1,0,0:0:0:0:
256,192,132041,1,0,0:0:0:0:
256,192,132241,1,8,0:0:0:0:
256,192,132441,1,8,0:0:0:0:
256,192,132541,1,0,0:0:0:0:
256,192,132741,1,0,0:0:0:0:
256,192,132841,1,8,0:0:0:0:
256,192,133041,1,8,0:0:0:0:
256,192,133241,1,0,0:0:0:0:
256,192,133441,1,8,0:0:0:0:
256,192,133541,1,8,0:0:0:0:
256,192,133641,1,0,0:0:0:0:
256,192,133841,1,8,0:0:0:0:
256,192,134041,1,0,0:0:0:0:
256,192,134141,1,8,0:0:0:0:
256,192,134341,1,8,0:0:0:0:
256,192,134441,1,0,0:0:0:0:
256,192,134641,1,8,0:0:0:0:
256,192,134841,1,0,0:0:0:0:
256,192,134941,1,0,0:0:0:0:
256,192,135041,1,8,0:0:0:0:
256,192,135141,1,8,0:0:0:0:
256,192,135241,1,0,0:0:0:0:
256,192,135441,1,8,0:0:0:0:
256,192,135641,1,0,0:0:0:0:
256,192,135741,1,8,0:0:0:0:
256,192,136041,1,0,0:0:0:0:
256,192,136241,1,12,0:0:0:0:
256,192,137041,1,0,0:0:0:0:
256,192,137141,1,0,0:0:0:0:
256,192,137241,1,0,0:0:0:0:
256,192,137441,1,8,0:0:0:0:
256,192,137541,1,8,0:0:0:0:
256,192,137641,1,8,0:0:0:0:
256,192,137841,1,0,0:0:0:0:
256,192,138241,1,8,0:0:0:0:
256,192,138341,1,8,0:0:0:0:
256,192,138441,1,0,0:0:0:0:
256,192,138641,1,8,0:0:0:0:
256,192,138841,1,0,0:0:0:0:
256,192,139041,1,0,0:0:0:0:
256,192,139241,1,8,0:0:0:0:
256,192,139341,1,0,0:0:0:0:
256,192,139441,1,8,0:0:0:0:
256,192,139641,1,0,0:0:0:0:
256,192,139741,1,0,0:0:0:0:
256,192,139841,1,8,0:0:0:0:
256,192,140041,1,0,0:0:0:0:
256,192,140241,1,8,0:0:0:0:
256,192,140341,1,0,0:0:0:0:
256,192,140441,1,0,0:0:0:0:
256,192,140541,1,0,0:0:0:0:
256,192,140641,1,8,0:0:0:0:
256,192,140841,1,0,0:0:0:0:
256,192,141041,1,8,0:0:0:0:
256,192,141141,1,8,0:0:0:0:
256,192,141241,1,0,0:0:0:0:
256,192,141441,1,8,0:0:0:0:
256,192,141641,1,8,0:0:0:0:
256,192,141841,1,0,0:0:0:0:
256,192,141941,1,8,0:0:0:0:
256,192,142041,1,0,0:0:0:0:
256,192,142241,1,8,0:0:0:0:
256,192,142441,1,8,0:0:0:0:
256,192,142641,1,8,0:0:0:0:
256,192,142741,1,8,0:0:0:0:
256,192,142841,1,0,0:0:0:0:
256,192,142941,1,0,0:0:0:0:
256,192,143041,1,8,0:0:0:0:
256,192,143141,1,8,0:0:0:0:
256,192,143241,1,0,0:0:0:0:
256,192,143341,1,0,0:0:0:0:
256,192,143441,1,8,0:0:0:0:
256,192,143641,1,0,0:0:0:0:
256,192,143841,1,8,0:0:0:0:
256,192,143941,1,0,0:0:0:0:
256,192,144041,1,8,0:0:0:0:
256,192,144241,1,4,0:0:0:0:
256,192,144641,1,8,0:0:0:0:
256,192,144741,1,8,0:0:0:0:
256,192,144841,1,8,0:0:0:0:
256,192,145041,1,0,0:0:0:0:
256,192,145241,1,8,0:0:0:0:
256,192,145441,1,0,0:0:0:0:
256,192,145541,1,0,0:0:0:0:
256,192,145641,1,0,0:0:0:0:
256,192,145841,1,8,0:0:0:0:
256,192,146041,1,0,0:0:0:0:
256,192,146241,1,8,0:0:0:0:
256,192,146341,1,8,0:0:0:0:
256,192,146441,1,8,0:0:0:0:
256,192,146641,1,0,0:0:0:0:
256,192,146741,1,0,0:0:0:0:
256,192,146841,1,0,0:0:0:0:
256,192,147041,1,8,0:0:0:0:
256,192,147241,1,0,0:0:0:0:
256,192,147441,1,8,0:0:0:0:
256,192,147541,1,0,0:0:0:0:
256,192,147741,1,0,0:0:0:0:
256,192,147841,1,8,0:0:0:0:
256,192,147941,1,0,0:0:0:0:
256,192,148141,1,8,0:0:0:0:
256,192,148241,1,0,0:0:0:0:
256,192,148341,1,8,0:0:0:0:
256,192,148441,1,8,0:0:0:0:
256,192,148541,1,0,0:0:0:0:
256,192,148741,1,8,0:0:0:0:
256,192,148841,1,8,0:0:0:0:
256,192,149041,1,0,0:0:0:0:
256,192,149241,1,8,0:0:0:0:
256,192,149341,1,8,0:0:0:0:
256,192,149441,1,0,0:0:0:0:
256,192,149641,1,8,0:0:0:0:
256,192,149841,8,0,150641,0:0:0:0:
256,192,165871,12,0,167256,0:0:0:0:
256,192,167717,5,12,0:0:0:0:
256,192,168092,1,0,0:0:0:0:
256,192,168185,1,8,0:0:0:0:
256,192,168279,1,0,0:0:0:0:
256,192,168467,1,8,0:0:0:0:
256,192,168654,1,0,0:0:0:0:
256,192,168748,1,8,0:0:0:0:
256,192,168935,1,8,0:0:0:0:
256,192,169029,1,0,0:0:0:0:
256,192,169217,1,8,0:0:0:0:
256,192,169404,1,0,0:0:0:0:
256,192,169498,1,8,0:0:0:0:
256,192,169685,1,8,0:0:0:0:
256,192,169779,1,0,0:0:0:0:
256,192,169873,1,0,0:0:0:0:
256,192,169967,1,8,0:0:0:0:
256,192,170154,1,0,0:0:0:0:
256,192,170342,1,8,0:0:0:0:
256,192,170435,1,8,0:0:0:0:
256,192,170529,1,0,0:0:0:0:
256,192,170717,1,8,0:0:0:0:
256,192,170904,1,0,0:0:0:0:
256,192,170998,1,8,0:0:0:0:
256,192,171185,1,8,0:0:0:0:
256,192,171279,1,0,0:0:0:0:
256,192,171467,1,8,0:0:0:0:
256,192,171654,1,0,0:0:0:0:
256,192,171748,1,8,0:0:0:0:
256,192,171935,1,8,0:0:0:0:
256,192,172029,1,8,0:0:0:0:
256,192,172123,1,0,0:0:0:0:
256,192,172217,1,8,0:0:0:0:
256,192,172404,1,0,0:0:0:0:
256,192,172498,1,8,0:0:0:0:
256,192,172779,1,0,0:0:0:0:
256,192,172967,1,8,0:0:0:0:
256,192,173060,1,8,0:0:0:0:
256,192,173342,1,8,0:0:0:0:
256,192,173435,1,8,0:0:0:0:
256,192,173717,1,4,0:0:0:0:
256,192,174092,1,8,0:0:0:0:
256,192,174185,1,0,0:0:0:0:
256,192,174373,1,8,0:0:0:0:
256,192,174560,1,0,0:0:0:0:
256,192,174654,1,8,0:0:0:0:
256,192,174842,1,0,0:0:0:0:
256,192,174935,1,0,0:0:0:0:
256,192,175029,1,0,0:0:0:0:
256,192,175217,1,8,0:0:0:0:
256,192,175404,1,0,0:0:0:0:
256,192,175498,1,8,0:0:0:0:
256,192,175685,1,8,0:0:0:0:
256,192,175779,1,0,0:0:0:0:
256,192,175967,1,8,0:0:0:0:
256,192,176154,1,0,0:0:0:0:
256,192,176248,1,8,0:0:0:0:
256,192,176342,1,0,0:0:0:0:
256,192,176529,1,8,0:0:0:0:
256,192,176717,1,8,0:0:0:0:
256,192,176904,1,0,0:0:0:0:
256,192,176998,1,8,0:0:0:0:
256,192,177092,1,0,0:0:0:0:
256,192,177185,1,0,0:0:0:0:
256,192,177279,1,8,0:0:0:0:
256,192,177467,1,8,0:0:0:0:
256,192,177654,1,0,0:0:0:0:
256,192,177748,1,8,0:0:0:0:
256,192,177842,1,0,0:0:0:0:
256,192,177935,1,8,0:0:0:0:
256,192,178029,1,8,0:0:0:0:
256,192,178217,1,8,0:0:0:0:
256,192,178404,1,0,0:0:0:0:
256,192,178498,1,8,0:0:0:0:
256,192,178685,1,8,0:0:0:0:
256,192,178779,1,0,0:0:0:0:
256,192,178967,1,12,0:0:0:0:
256,192,179248,1,12,0:0:0:0:
256,192,179529,1,4,0:0:0:0:
256,192,179717,1,12,0:0:0:0:
256,192,180092,1,0,0:0:0:0:
256,192,180185,1,8,0:0:0:0:
256,192,180279,1,0,0:0:0:0:
256,192,180467,1,8,0:0:0:0:
256,192,180654,1,0,0:0:0:0:
256,192,180748,1,8,0:0:0:0:
256,192,180935,1,8,0:0:0:0:
256,192,181029,1,0,0:0:0:0:
256,192,181123,1,0,0:0:0:0:
256,192,181217,1,8,0:0:0:0:
256,192,181404,1,0,0:0:0:0:
256,192,181498,1,8,0:0:0:0:
256,192,181685,1,8,0:0:0:0:
256,192,181779,1,8,0:0:0:0:
256,192,181873,1,0,0:0:0:0:
256,192,181967,1,8,0:0:0:0:
256,192,182154,1,0,0:0:0:0:
256,192,182342,1,8,0:0:0:0:
256,192,182435,1,8,0:0:0:0:
256,192,182529,1,0,0:0:0:0:
256,192,182717,1,8,0:0:0:0:
256,192,182904,1,0,0:0:0:0:
256,192,182998,1,8,0:0:0:0:
256,192,183185,1,8,0:0:0:0:
256,192,183279,1,0,0:0:0:0:
256,192,183373,1,0,0:0:0:0:
256,192,183467,1,8,0:0:0:0:
256,192,183654,1,0,0:0:0:0:
256,192,183748,1,8,0:0:0:0:
256,192,183935,1,0,0:0:0:0:
256,192,184123,1,8,0:0:0:0:
256,192,184217,1,8,0:0:0:0:
256,192,184404,1,0,0:0:0:0:
256,192,184498,1,8,0:0:0:0:
256,192,184685,1,8,0:0:0:0:
256,192,184873,1,0,0:0:0:0:
256,192,184967,1,8,0:0:0:0:
256,192,185060,1,8,0:0:0:0:
256,192,185342,1,8,0:0:0:0:
256,192,185435,1,8,0:0:0:0:
256,192,185717,1,4,0:0:0:0:
256,192,186092,1,8,0:0:0:0:
256,192,186185,1,0,0:0:0:0:
256,192,186373,1,8,0:0:0:0:
256,192,186560,1,0,0:0:0:0:
256,192,186654,1,8,0:0:0:0:
256,192,186842,1,8,0:0:0:0:
256,192,186935,1,8,0:0:0:0:
256,192,187029,1,0,0:0:0:0:
256,192,187217,1,8,0:0:0:0:
256,192,187404,1,0,0:0:0:0:
256,192,187498,1,8,0:0:0:0:
256,192,187685,1,8,0:0:0:0:
256,192,187779,1,0,0:0:0:0:
256,192,187967,1,0,0:0:0:0:
256,192,188060,1,0,0:0:0:0:
256,192,188154,1,8,0:0:0:0:
256,192,188342,1,8,0:0:0:0:
256,192,188435,1,0,0:0:0:0:
256,192,188529,1,8,0:0:0:0:
256,192,188717,1,8,0:0:0:0:
256,192,188904,1,0,0:0:0:0:
256,192,188998,1,8,0:0:0:0:
256,192,189092,1,0,0:0:0:0:
256,192,189185,1,0,0:0:0:0:
256,192,189279,1,8,0:0:0:0:
256,192,189467,1,8,0:0:0:0:
256,192,189654,1,0,0:0:0:0:
256,192,189748,1,8,0:0:0:0:
256,192,189842,1,0,0:0:0:0:
256,192,189935,1,8,0:0:0:0:
256,192,190029,1,8,0:0:0:0:
256,192,190217,1,8,0:0:0:0:
256,192,190404,1,0,0:0:0:0:
256,192,190498,1,8,0:0:0:0:
256,192,190685,1,8,0:0:0:0:
256,192,190779,1,0,0:0:0:0:
256,192,190967,1,12,0:0:0:0:
256,192,191248,1,12,0:0:0:0:
256,192,191529,1,12,0:0:0:0:
256,192,191717,1,4,0:0:0:0:
256,192,192092,1,8,0:0:0:0:
256,192,192279,1,8,0:0:0:0:
256,192,192467,1,0,0:0:0:0:
256,192,192654,1,0,0:0:0:0:
256,192,192748,1,0,0:0:0:0:
256,192,192935,1,0,0:0:0:0:
256,192,193123,1,8,0:0:0:0:
256,192,193217,1,8,0:0:0:0:
256,192,193404,1,8,0:0:0:0:
256,192,193592,1,0,0:0:0:0:
256,192,193685,1,0,0:0:0:0:
256,192,193779,1,8,0:0:0:0:
256,192,193967,1,0,0:0:0:0:
256,192,194154,1,8,0:0:0:0:
256,192,194248,1,8,0:0:0:0:
256,192,194342,1,0,0:0:0:0:
256,192,194435,1,0,0:0:0:0:
256,192,194529,1,8,0:0:0:0:
256,192,194717,1,4,0:0:0:0:
256,192,195092,1,8,0:0:0:0:
256,192,195279,1,8,0:0:0:0:
256,192,195467,1,0,0:0:0:0:
256,192,195654,1,0,0:0:0:0:
256,192,195748,1,0,0:0:0:0:
256,192,195935,1,0,0:0:0:0:
256,192,196123,1,8,0:0:0:0:
256,192,196217,1,8,0:0:0:0:
256,192,196404,1,8,0:0:0:0:
256,192,196592,1,0,0:0:0:0:
256,192,196685,1,8,0:0:0:0:
256,192,196779,1,0,0:0:0:0:
256,192,196967,1,8,0:0:0:0:
256,192,197060,1,8,0:0:0:0:
256,192,197342,1,8,0:0:0:0:
256,192,197435,1,8,0:0:0:0:
256,192,197717,1,4,0:0:0:0:
256,192,198092,1,8,0:0:0:0:
256,192,198279,1,8,0:0:0:0:
256,192,198467,1,0,0:0:0:0:
256,192,198654,1,0,0:0:0:0:
256,192,198748,1,0,0:0:0:0:
256,192,198935,1,0,0:0:0:0:
256,192,199123,1,8,0:0:0:0:
256,192,199217,1,8,0:0:0:0:
256,192,199404,1,8,0:0:0:0:
256,192,199592,1,0,0:0:0:0:
256,192,199685,1,0,0:0:0:0:
256,192,199779,1,8,0:0:0:0:
256,192,199967,1,0,0:0:0:0:
256,192,200154,1,8,0:0:0:0:
256,192,200248,1,8,0:0:0:0:
256,192,200342,1,0,0:0:0:0:
256,192,200529,1,8,0:0:0:0:
256,192,200717,1,4,0:0:0:0:
256,192,201092,1,8,0:0:0:0:
256,192,201279,1,8,0:0:0:0:
256,192,201467,1,0,0:0:0:0:
256,192,201654,1,0,0:0:0:0:
256,192,201748,1,0,0:0:0:0:
256,192,201935,1,0,0:0:0:0:
256,192,202123,1,8,0:0:0:0:
256,192,202217,1,8,0:0:0:0:
256,192,202404,1,8,0:0:0:0:
256,192,202592,1,0,0:0:0:0:
256,192,202685,1,8,0:0:0:0:
256,192,202779,1,0,0:0:0:0:
256,192,202967,1,12,0:0:0:0:
256,192,203248,1,12,0:0:0:0:
256,192,203529,1,12,0:0:0:0:
256,192,203717,1,4,0:0:0:0:
256,192,204092,1,8,0:0:0:0:
256,192,204467,1,0,0:0:0:0:
256,192,204654,1,8,0:0:0:0:
256,192,205029,1,8,0:0:0:0:
256,192,205217,1,0,0:0:0:0:
256,192,205489,1,8,0:0:0:0:
256,192,205762,1,0,0:0:0:0:
256,192,206035,1,8,0:0:0:0:
256,192,206307,1,0,0:0:0:0:
256,192,206751,1,8,0:0:0:0:
256,192,207195,1,0,0:0:0:0:
256,192,207288,1,0,0:0:0:0:
256,192,207382,1,0,0:0:0:0:
256,192,207570,1,8,0:0:0:0:
256,192,207663,1,8,0:0:0:0:
256,192,207757,1,8,0:0:0:0:
256,192,207945,1,0,0:0:0:0:
256,192,208269,1,8,0:0:0:0:
256,192,208431,1,8,0:0:0:0:
256,192,208593,1,0,0:0:0:0:
256,192,208743,1,8,0:0:0:0:
256,192,208893,1,0,0:0:0:0:
256,192,209043,1,0,0:0:0:0:
256,192,209193,1,8,0:0:0:0:
256,192,209485,1,0,0:0:0:0:
256,192,209778,1,12,0:0:0:0:
256,192,210008,1,0,0:0:0:0:
256,192,210239,1,0,0:0:0:0:
256,192,210393,1,12,0:0:0:0:
256,192,210615,1,8,0:0:0:0:
256,192,210837,1,0,0:0:0:0:
256,192,210985,1,12,0:0:0:0:
256,192,211199,1,12,0:0:0:0:
256,192,211413,1,12,0:0:0:0:
256,192,211699,1,4,0:0:0:0:
