osu file format v14

[General]
AudioFilename: audio.mp3
AudioLeadIn: 0
PreviewTime: 52263
Countdown: 0
SampleSet: Soft
StackLeniency: 0.5
Mode: 0
LetterboxInBreaks: 0
WidescreenStoryboard: 0

[Editor]
Bookmarks: 8377,19349,30320,41291,52263,63234,74206,82434
DistanceSpacing: 0.3
BeatDivisor: 4
GridSize: 4
TimelineZoom: 1.6

[Metadata]
Title:Sign wa B -Ai Solo Ver.- (TV Size)
TitleUnicode:サインはB -アイ Solo Ver.- (TV Size)
Artist:B-Komachi Ai (CV: Takahashi Rie)
ArtistUnicode:B小町 アイ(CV:高橋李依)
Creator:achyoo
Version:gayge
Source:【推しの子】
Tags:ayucchi shirahane suou 錦木 千束 Nishikigi Chisato 井ノ上 たきな Inoue Takina chisataki 【Oshi no Ko】 星野アイ Hoshino Ai anime jpop idol j-pop japanese pop 大石昌良 Masayoshi Oishi ZMCZ-16721 Character Song キャラクターソング CD Vol.1
BeatmapID:4538000
BeatmapSetID:2153650

[Difficulty]
HPDrainRate:5
CircleSize:4
OverallDifficulty:8
ApproachRate:9
SliderMultiplier:1.9
SliderTickRate:1

[Events]
//Background and Video events
0,0,"idol.jpg",0,0
//Break Periods
//Storyboard Layer 0 (Background)
//Storyboard Layer 1 (Fail)
//Storyboard Layer 2 (Pass)
//Storyboard Layer 3 (Foreground)
//Storyboard Layer 4 (Overlay)
//Storyboard Sound Samples

[TimingPoints]
149,342.857142857143,4,2,1,40,1,0
2891,-100,4,2,1,55,0,0
4949,-133.333333333333,4,2,1,55,0,0
6834,-100,4,2,1,55,0,0
8377,342.857142857143,4,2,1,60,1,0
16262,-66.6666666666667,4,2,1,60,0,0
16605,-100,4,2,1,55,0,0
19348,-133.333333333333,4,2,1,50,0,0
35805,-100,4,2,1,50,0,0
41291,-133.333333333333,4,2,1,45,0,0
52262,-90.9090909090909,4,2,1,70,0,1
61691,-76.9230769230769,4,2,1,70,0,1
63234,-90.9090909090909,4,2,1,70,0,1
68719,-133.333333333333,4,2,1,70,0,1
71462,-90.9090909090909,4,2,1,70,0,1
76948,-133.333333333333,4,2,1,70,0,1
82091,-200,4,2,1,70,0,1
82434,-100,4,2,1,60,0,0
92034,-500,4,2,1,60,0,0

[Colours]
Combo1 : 136,169,255
Combo2 : 245,109,109
Combo3 : 143,143,143
Combo4 : 249,234,128

[HitObjects]
256,192,149,12,0,2720,0:0:0:0:
385,157,2891,5,0,0:0:0:0:
385,157,3234,2,0,L|231:125,1,142.5
174,156,3577,1,0,0:0:0:0:
328,59,3749,1,0,0:0:0:0:
328,59,4091,2,0,L|232:39,1,95
124,91,4434,1,0,0:0:0:0:
236,208,4606,1,0,0:0:0:0:
236,208,4949,6,0,P|218:254|214:307,1,71.2500027179719
422,348,5291,2,0,P|440:302|444:249,1,71.2500027179719
331,115,5634,6,0,P|338:187|403:192,1,142.500005435944
424,110,6149,1,0,0:0:0:0:
241,92,6320,1,0,0:0:0:0:
300,30,6491,2,0,P|338:64|331:114,1,106.875004076958
292,198,6834,6,0,P|269:190|246:185,1,47.5,0|0,0:3|0:3,0:3:0:0:
147,84,7006,1,0,0:0:0:0:
137,117,7091,1,0,0:0:0:0:
112,142,7177,1,0,0:0:0:0:
78,152,7263,1,0,0:0:0:0:
43,145,7348,1,0,0:0:0:0:
25,127,7434,1,0,0:0:0:0:
16,108,7520,1,0,0:0:0:0:
17,92,7606,1,0,0:0:0:0:
21,81,7691,2,0,L|91:66,1,47.5
158,228,7863,5,0,0:0:0:0:
155,236,7949,1,0,0:0:0:0:
152,245,8034,1,0,0:0:0:0:
152,245,8377,6,0,P|87:269|45:290,1,95
54,105,8719,2,0,P|138:133|227:189,1,190
394,151,9234,1,0,0:0:0:0:
283,35,9405,2,0,B|243:65|243:65|260:134,1,95
278,248,9662,1,0,0:0:0:0:
287,259,9748,6,0,P|308:204|314:169,1,95
506,369,10091,2,0,P|475:304|364:293,1,190
456,186,10605,1,0,0:0:0:0:
287,259,10777,1,0,0:0:0:0:
417,372,10948,5,0,0:0:0:0:
417,372,11034,1,0,0:0:0:0:
417,372,11119,2,0,P|338:381|299:387,1,95
117,224,11462,2,0,B|67:340|67:340|133:405,1,190
287,259,11977,1,0,0:0:0:0:
169,316,12148,2,0,P|233:324|279:337,1,95
106,140,12491,6,0,P|59:150|12:155,1,95
277,7,12834,2,0,P|346:67|319:170,1,190
86,54,13348,1,0,0:0:0:0:
169,236,13519,2,0,P|182:163|191:118,1,95
260,100,13862,5,0,0:0:0:0:
332,157,14205,5,0,0:0:0:0:
395,101,14548,5,0,0:0:0:0:
251,190,14719,1,0,0:0:0:0:
401,271,14891,1,0,0:0:0:0:
401,271,15234,5,0,0:0:0:0:
327,61,15405,1,0,0:0:0:0:
404,282,15577,5,0,0:0:0:0:
324,50,15748,1,0,0:0:0:0:
324,50,16091,5,0,0:0:0:0:
92,153,16262,2,0,B|200:160|172:233|285:249,1,213.750008153916
344,200,16605,5,0,0:0:0:0:
277,247,16948,5,0,0:0:0:0:
210,294,17291,5,0,0:0:0:0:
344,200,17462,1,0,0:0:0:0:
196,131,17634,1,0,0:0:0:0:
196,131,17977,5,0,0:0:0:0:
440,67,18148,1,0,0:0:0:0:
185,137,18319,5,0,0:0:0:0:
451,61,18491,1,0,0:0:0:0:
359,26,18662,1,0,0:0:0:0:
356,35,18748,1,0,0:0:0:0:
353,44,18834,1,0,0:0:0:0:
350,53,18919,1,0,0:0:0:0:
347,62,19005,2,0,L|362:129,1,47.5
279,134,19177,2,0,L|294:201,1,47.5
371,237,19348,5,0,0:0:0:0:
206,204,19519,1,0,0:0:0:0:
202,213,19605,1,0,0:0:0:0:
198,220,19691,2,0,L|218:313,1,71.2500027179719
293,327,20034,1,0,0:0:0:0:
112,270,20205,2,0,P|44:279|30:360,1,142.500005435944
114,167,20719,6,0,P|118:132|103:100,1,71.2500027179719
27,157,21062,1,0,0:0:0:0:
197,231,21234,2,0,P|265:222|279:141,1,142.500005435944
445,43,21748,5,0,0:0:0:0:
345,0,21919,2,0,P|362:69|372:139,1,142.500005435944
356,243,22434,1,0,0:0:0:0:
456,200,22605,2,0,P|438:269|428:339,1,142.500005435944
273,185,23119,2,0,P|267:221|259:255,1,71.2500027179719
109,315,23462,5,0,0:0:0:0:
193,352,23634,1,0,0:0:0:0:
201,349,23719,1,0,0:0:0:0:
210,346,23805,1,0,0:0:0:0:
113,220,23977,1,0,0:0:0:0:
29,379,24148,2,0,P|22:343|13:309,1,71.2500027179719
57,144,24491,1,0,0:0:0:0:
57,144,24662,1,0,0:0:0:0:
206,250,24834,6,0,P|274:231|345:219,1,142.500005435944
389,88,25348,1,0,0:0:0:0:
426,165,25519,1,0,0:0:0:0:
312,125,25691,1,0,0:0:0:0:
466,51,25862,1,0,0:0:0:0:
352,11,26034,1,0,0:0:0:0:
220,145,26205,6,0,P|162:133|92:190,2,142.500005435944
287,217,27062,1,0,0:0:0:0:
158,296,27234,2,0,P|168:262|175:227,1,71.2500027179719
399,341,27577,6,0,P|328:318|256:304,1,142.500005435944
371,147,28091,1,0,0:0:0:0:
425,253,28262,2,0,P|354:230|282:216,1,142.500005435944
105,24,28777,1,0,0:0:0:0:
105,24,29291,5,0,0:0:0:0:
69,111,29462,1,0,0:0:0:0:
105,24,29634,2,0,P|159:55|160:140,1,142.500005435944
165,129,30319,6,0,P|217:143|267:155,1,71.2500027179719
349,105,30662,2,0,P|363:53|375:3,1,71.2500027179719
312,184,31005,1,0,0:0:0:0:
447,106,31177,1,0,0:0:0:0:
462,260,31348,1,0,0:0:0:0:
402,191,31519,1,0,0:0:0:0:
282,290,31691,6,0,P|339:265|378:255,1,71.2500027179719
404,325,32034,1,0,0:0:0:0:
247,366,32205,2,0,P|203:317|221:239,1,142.500005435944
78,85,32719,6,0,P|96:145|101:171,1,71.2500027179719
35,317,33062,1,0,0:0:0:0:
137,227,33234,1,0,0:0:0:0:
29,195,33405,1,0,0:0:0:0:
98,372,33577,2,0,P|117:327|103:287,1,71.2500027179719
97,153,33919,5,0,0:0:0:0:
206,117,34091,1,0,0:0:0:0:
65,42,34262,1,0,0:0:0:0:
215,127,34434,6,0,P|256:115|296:109,1,71.2500027179719
346,35,34777,1,0,0:0:0:0:
346,35,34948,1,0,0:0:0:0:
257,220,35119,5,0,0:0:0:0:
173,39,35291,1,0,0:0:0:0:
262,228,35462,5,0,0:0:0:0:
168,31,35634,1,0,0:0:0:0:
373,139,35805,6,0,P|306:113|264:108,1,95
227,308,36148,2,0,P|294:334|336:339,1,95
103,342,36491,1,0,0:0:0:0:
189,190,36662,1,0,0:0:0:0:
305,353,36834,1,0,0:0:0:0:
400,170,37005,6,0,P|328:205|301:233,1,95
403,334,37348,1,0,0:0:0:0:
498,159,37519,2,0,P|432:92|322:50,1,190
199,144,38034,2,0,P|208:178|225:262,1,95
246,37,38377,1,0,0:0:0:0:
8,75,38548,6,0,P|65:87|105:98,1,95
194,149,38891,1,0,0:0:0:0:
133,18,39062,1,0,0:0:0:0:
27,184,39234,6,0,P|84:196|124:207,1,95
273,166,39577,1,0,0:0:0:0:
46,293,39748,6,0,P|103:305|143:316,1,95
301,375,40091,1,0,0:0:0:0:
394,209,40262,1,0,0:0:0:0:
235,218,40434,1,0,0:0:0:0:
424,347,40605,5,0,0:0:0:0:
424,347,40691,1,0,0:0:0:0:
424,347,40777,2,0,L|361:318,1,47.5
255,152,40948,2,0,L|232:217,1,47.5
383,212,41120,2,0,L|319:239,1,47.5
170,281,41291,5,0,0:0:0:0:
266,303,41462,1,0,0:0:0:0:
144,370,41634,1,0,0:0:0:0:
77,248,41806,1,0,0:0:0:0:
147,186,41977,2,0,P|130:116|118:46,1,142.500005435944
309,182,42491,6,0,P|273:188|239:196,1,71.2500027179719
365,88,42834,1,0,0:0:0:0:
405,178,43005,2,0,P|411:213|419:247,1,71.2500027179719
250,98,43348,2,0,P|234:49|306:17,1,142.500005435944
365,88,43862,1,0,0:0:0:0:
160,145,44034,6,0,P|125:134|90:128,1,71.2500027179719
0,23,44377,2,0,P|34:33|69:39,1,71.2500027179719
113,228,44719,6,0,P|123:262|129:297,1,71.2500027179719
254,148,45062,2,0,P|243:113|237:78,1,71.2500027179719
344,222,45405,5,0,0:0:0:0:
433,249,45577,1,0,0:0:0:0:
460,160,45748,1,0,0:0:0:0:
371,133,45920,1,0,0:0:0:0:
281,300,46091,5,0,0:0:0:0:
192,327,46262,1,0,0:0:0:0:
254,211,46434,1,0,0:0:0:0:
165,238,46605,1,0,0:0:0:0:
165,238,46777,6,0,P|125:228|90:223,1,71.2500027179719
122,46,47119,2,0,P|162:56|197:61,1,71.2500027179719
203,152,47462,2,0,L|42:122,1,142.500005435944
265,11,47977,5,0,0:0:0:0:
265,11,48319,2,0,P|275:48|286:95,1,71.2500027179719
428,226,48662,1,0,0:0:0:0:
472,126,48834,2,0,P|396:145|322:161,1,142.500005435944
233,357,49348,5,0,0:0:0:0:
233,357,49434,1,0,0:0:0:0:
233,357,49519,1,0,0:0:0:0:
192,265,49691,1,0,0:0:0:0:
127,378,49862,5,0,0:0:0:0:
327,273,50034,1,0,0:0:0:0:
131,150,50205,5,0,0:0:0:0:
233,357,50377,1,0,0:0:0:0:
254,140,50548,5,0,0:0:0:0:
54,245,50720,1,0,0:0:0:0:
0,156,50891,5,0,0:0:0:0:
3,109,50976,1,0,0:0:0:0:
36,77,51062,1,0,0:0:0:0:
82,75,51148,1,0,0:0:0:0:
98,53,51234,5,0,0:0:0:0:
126,54,51319,1,0,0:0:0:0:
145,74,51405,1,0,0:0:0:0:
146,102,51491,1,0,0:0:0:0:
168,130,51577,5,0,0:0:0:0:
166,138,51662,1,0,0:0:0:0:
165,147,51748,1,0,0:0:0:0:
164,156,51834,1,0,0:0:0:0:
162,165,51919,1,0,0:0:0:0:
397,369,52262,6,0,P|376:310|360:243,1,104.500003189087
431,211,52519,1,0,0:0:0:0:
442,218,52605,2,0,B|459:244|459:244|451:270,1,52.2500015945435
314,136,52777,1,0,0:0:0:0:
330,105,52862,1,0,0:0:0:0:
361,104,52948,5,0,0:0:0:0:
279,266,53119,1,0,0:0:0:0:
471,134,53291,1,0,0:0:0:0:
252,34,53462,1,0,0:0:0:0:
453,13,53634,5,0,0:0:0:0:
314,136,53805,2,0,P|263:133|190:125,1,104.500003189087
38,18,54148,2,0,P|71:83|82:140,1,104.500003189087
231,304,54491,6,0,B|222:328|222:328|173:342,1,52.2500015945435
3,305,54662,2,0,P|18:220|93:197,1,156.750004783631
129,259,55005,6,0,B|191:243|168:225|249:209,1,104.500003189087
308,234,55262,1,0,0:0:0:0:
328,211,55348,1,0,0:0:0:0:
140,76,55519,2,0,L|132:136,1,52.2500015945435
223,215,55691,5,0,0:0:0:0:
127,346,55862,1,0,0:0:0:0:
83,343,55948,1,0,0:0:0:0:
59,308,56034,1,0,0:0:0:0:
14,142,56205,1,0,0:0:0:0:
245,308,56377,5,0,0:0:0:0:
92,193,56548,2,0,P|43:220|-1:242,1,104.500003189087
124,384,56805,1,0,0:0:0:0:
137,374,56891,2,0,P|151:317|169:252,1,104.500003189087
263,28,57148,6,0,P|284:40|294:82,1,52.2500015945435
178,197,57405,2,0,P|244:164|368:142,1,156.750004783631
395,183,57748,6,0,P|425:122|402:70,1,104.500003189087
220,93,58091,1,0,0:0:0:0:
390,195,58262,2,0,P|442:230|438:333,1,156.750004783631
380,365,58605,1,0,0:0:0:0:
238,241,58777,2,0,L|264:154,1,52.2500015945435
325,142,58948,1,0,0:0:0:0:
214,333,59119,6,0,P|297:308|353:304,1,104.500003189087
390,195,59462,1,0,0:0:0:0:
147,114,59634,2,0,P|217:119|252:191,1,156.750004783631
203,252,59977,1,0,0:0:0:0:
25,153,60148,2,0,P|67:160|104:169,1,52.2500015945435
8,368,60319,6,0,P|16:291|128:237,1,209.000006378174
252,104,60834,1,0,0:0:0:0:
49,69,61005,1,0,0:0:0:0:
97,328,61177,5,0,0:0:0:0:
155,67,61348,1,0,0:0:0:0:
403,111,61519,1,0,0:0:0:0:
278,334,61691,6,0,B|195:305|216:258|118:235,1,185.249991519928
47,261,62034,6,0,P|42:228|58:192,1,61.7499971733095
119,20,62205,2,0,P|148:36|166:71,1,61.7499971733095
8,118,62377,2,0,P|35:99|74:97,1,61.7499971733095
247,32,62548,5,0,0:0:0:0:
402,85,62719,1,0,0:0:0:0:
252,166,62891,1,0,0:0:0:0:
486,118,63062,1,0,0:0:0:0:
236,270,63234,5,0,0:0:0:0:
236,270,63405,1,0,0:0:0:0:
483,375,63577,2,0,P|456:288|366:285,1,156.750004783631
321,317,63919,5,0,0:0:0:0:
130,215,64091,1,0,0:0:0:0:
337,111,64262,1,0,0:0:0:0:
200,19,64434,1,0,0:0:0:0:
288,217,64605,5,0,0:0:0:0:
457,121,64777,2,0,L|481:-1,1,104.500003189087
381,205,65119,2,0,L|405:327,1,104.500003189087
276,103,65462,6,0,B|297:117|297:117|359:107,1,52.2500015945435
185,286,65634,2,0,P|119:276|78:368,1,156.750004783631
192,281,65977,6,0,P|228:232|206:182,1,104.500003189087
156,142,66234,1,0,0:0:0:0:
145,150,66319,1,0,0:0:0:0:
319,261,66491,2,0,L|386:280,1,52.2500015945435
401,144,66662,5,0,0:0:0:0:
217,194,66834,1,0,0:0:0:0:
267,378,67006,1,0,0:0:0:0:
406,137,67177,5,0,0:0:0:0:
259,384,67519,5,0,0:0:0:0:
12,237,67862,5,0,0:0:0:0:
163,0,68205,5,0,0:0:0:0:
267,165,68377,2,0,L|237:291,1,104.500003189087
50,134,68719,6,0,L|200:94,1,142.500005435944
269,42,69234,1,0,0:0:0:0:
366,224,69405,1,0,0:0:0:0:
271,169,69577,1,0,0:0:0:0:
445,70,69748,2,0,P|495:85|488:137,1,106.875004076958
354,104,70091,6,0,L|510:136,1,142.500005435944
512,231,70605,1,0,0:0:0:0:
343,334,70777,1,0,0:0:0:0:
468,384,70948,1,0,0:0:0:0:
468,384,71034,1,0,0:0:0:0:
468,384,71119,2,0,L|438:297,1,71.2500027179719
271,169,71462,6,0,B|210:150|210:150|160:212|67:202,1,209.000006378174
226,259,71977,1,0,0:0:0:0:
106,110,72148,1,0,0:0:0:0:
25,288,72319,1,0,0:0:0:0:
139,339,72491,5,0,0:0:0:0:
81,203,72662,1,0,0:0:0:0:
261,374,72834,6,0,L|398:344,1,104.500003189087
509,182,73177,2,0,P|433:192|377:141,1,156.750004783631
370,59,73519,2,0,P|405:111|385:147,1,104.500003189087
161,205,73862,2,0,P|189:134|261:111,1,156.750004783631
264,101,74205,6,0,P|204:80|142:56,1,104.500003189087
52,284,74548,2,0,P|105:259|258:208,1,209.000006378174
379,267,75062,1,0,0:0:0:0:
199,342,75234,1,0,0:0:0:0:
119,152,75405,1,0,0:0:0:0:
9,356,75577,5,0,0:0:0:0:
257,215,75748,1,0,0:0:0:0:
14,78,75919,1,0,0:0:0:0:
331,16,76091,1,0,0:0:0:0:
20,203,76262,5,0,0:0:0:0:
61,179,76348,1,0,0:0:0:0:
108,178,76434,1,0,0:0:0:0:
146,204,76519,1,0,0:0:0:0:
175,240,76605,1,0,0:0:0:0:
213,267,76691,1,0,0:0:0:0:
258,278,76777,1,0,0:0:0:0:
303,266,76862,1,0,0:0:0:0:
342,239,76948,6,0,P|350:155|368:82,2,142.500005435944
163,27,77805,1,0,0:0:0:0:
174,33,78148,6,0,P|227:33|317:28,1,142.500005435944
435,64,78662,1,0,0:0:0:0:
293,270,79005,6,0,B|289:205|234:216|237:135,2,142.500005435944
293,270,80034,2,0,P|259:284|223:301,1,71.2500027179719
128,285,80377,1,0,0:0:0:0:
58,356,80548,1,0,0:0:0:0:
3,79,80891,5,0,0:0:0:0:
102,68,81062,1,0,0:0:0:0:
99,58,81148,1,0,0:0:0:0:
96,48,81234,1,0,0:0:0:0:
93,38,81319,1,0,0:0:0:0:
90,28,81405,1,0,0:0:0:0:
199,118,81577,1,0,0:0:0:0:
271,45,81748,1,0,0:0:0:0:
377,73,81919,1,0,0:0:0:0:
377,73,82005,1,0,0:0:0:0:
377,73,82091,2,0,P|412:86|453:100,1,71.25
510,176,82434,6,0,P|462:186|406:203,1,95
289,350,82777,2,0,B|348:274|348:274|296:177,1,190
146,82,83291,1,0,0:0:0:0:
292,10,83462,2,0,P|256:46|265:107,1,95
393,166,83719,1,0,0:0:0:0:
398,161,83805,6,0,P|384:111|327:89,1,95
187,188,84148,2,0,P|94:209|3:238,1,190
37,125,84662,1,0,0:0:0:0:
193,290,84834,1,0,0:0:0:0:
296,117,85005,5,0,0:0:0:0:
296,117,85091,1,0,0:0:0:0:
296,117,85177,2,0,P|279:53|276:13,1,95
138,200,85519,2,0,P|225:193|298:284,1,190
193,290,86034,1,0,0:0:0:0:
407,384,86205,2,0,P|395:337|389:290,1,95
512,130,86548,6,0,P|477:162|440:191,1,95
249,28,86891,2,0,B|284:41|315:42|315:42|334:88|334:88|368:87|423:107,1,190
414,0,87405,1,0,0:0:0:0:
263,129,87577,1,0,0:0:0:0:
390,286,87748,1,0,0:0:0:0:
390,286,87919,6,0,L|511:254,1,95
287,359,88262,2,0,P|206:370|119:278,1,190
233,133,88777,1,0,0:0:0:0:
34,179,88948,1,0,0:0:0:0:
232,266,89119,1,0,0:0:0:0:
100,94,89291,6,0,L|79:2,1,95
331,71,89634,2,0,L|378:280,1,190
458,140,90148,1,0,0:0:0:0:
326,368,90319,1,0,0:0:0:0:
206,128,90491,1,0,0:0:0:0:
206,128,91005,6,0,P|271:126|352:16,1,190
150,241,91519,6,0,P|115:185|-19:170,1,190
255,231,92034,6,0,B|225:339|283:409|375:408|433:340|386:274|337:285,1,342
