osu file format v14

[General]
AudioFilename: audio.mp3
AudioLeadIn: 0
PreviewTime:52264
Countdown: 0
SampleSet: Drum
StackLeniency: 0.7
Mode: 3
LetterboxInBreaks: 0
WidescreenStoryboard: 1
SpecialStyle: 0

[Editor]
Bookmarks: 2892,8377,19349,30320,41292,52264,63234,76950,82435
DistanceSpacing: 0.4
BeatDivisor: 4
GridSize: 32
TimelineZoom: 1.7

[Metadata]
Title:Sign wa B -Ai Solo Ver.-
TitleUnicode:サインはB -アイ Solo Ver.-
Artist:B-Komachi Ai (CV: Takahashi Rie)
ArtistUnicode:B小町 アイ(CV:高橋李依)
Creator:Drum-Hitnormal
Version:Uso wa Ai
Source:【推しの子】
Tags:【Oshi no Ko】 星野アイ Hoshino Ai anime jpop idol j-pop japanese pop insert dudehacker Amiichii Muse Dash Hidden is fun 大石昌良 Masayoshi Oishi ZMCZ-16721 Character Song キャラクターソング CD Vol.1
BeatmapID:4112514
BeatmapSetID:1979887

[Difficulty]
HPDrainRate:8
CircleSize:4
OverallDifficulty:8
ApproachRate:5
SliderMultiplier:1.4
SliderTickRate:1

[Events]
//Background and Video events
Video,0,"video.mp4"
0,0,"bg.jpg",0,0
//Break Periods
//Storyboard Layer 0 (Background)
//Storyboard Layer 1 (Fail)
//Storyboard Layer 2 (Pass)
//Storyboard Layer 3 (Foreground)
//Storyboard Layer 4 (Overlay)
//Storyboard Sound Samples

[TimingPoints]
2892,342.857142857143,4,3,1,70,1,0
63234,-200.0,4,3,1,70,0,0
63406,-100.0,4,3,1,70,0,0
63492,-50.0,4,3,1,70,0,0
63577,-100.0,4,3,1,70,0,0

[HitObjects]
64,192,149,128,0,1063:0:0:0:0:
192,192,1063,128,0,1291:0:0:0:0:
320,192,1291,128,0,1520:0:0:0:0:
448,192,1520,128,0,1749:0:0:0:0:
320,192,1749,128,0,1977:0:0:0:0:
192,192,1977,128,0,2434:0:0:0:0:
448,192,2206,128,0,2663:0:0:0:0:
64,192,2434,128,0,2777:0:0:0:0:
320,192,2663,128,0,2891:0:0:0:0:
64,192,2891,1,2,0:0:0:0:
192,192,2891,1,4,0:0:0:0:
448,192,2891,128,0,3149:0:0:0:0:
192,192,3234,1,0,0:0:0:0:
448,192,3234,128,0,3491:0:0:0:0:
64,192,3577,1,2,0:0:0:0:
320,192,3577,1,4,0:0:0:0:
448,192,3577,1,0,0:0:0:0:
320,192,3749,1,2,0:0:0:0:
448,192,3749,1,4,0:0:0:0:
64,192,3920,128,0,4006:0:0:0:0:
64,192,4091,128,4,4349:0:0:0:0:
192,192,4091,1,2,0:0:0:0:
448,192,4091,1,0,0:0:0:0:
64,192,4434,1,4,0:0:0:0:
192,192,4434,1,2,0:0:0:0:
448,192,4434,1,0,0:0:0:0:
192,192,4606,128,0,4863:0:0:0:0:
192,192,4949,1,4,0:0:0:0:
320,192,4949,128,2,5549:0:0:0:0:
448,192,4949,1,0,0:0:0:0:
64,192,5292,1,2,0:0:0:0:
192,192,5292,1,4,0:0:0:0:
64,192,5634,1,4,0:0:0:0:
192,192,5634,1,2,0:0:0:0:
320,192,5634,1,0,0:0:0:0:
320,192,5977,128,0,6063:0:0:0:0:
320,192,6149,128,0,6234:0:0:0:0:
64,192,6320,1,2,0:0:0:0:
192,192,6320,1,4,0:0:0:0:
448,192,6320,1,0,0:0:0:0:
64,192,6492,128,0,6749:0:0:0:0:
64,192,6834,1,4,0:0:0:0:
320,192,6834,1,2,0:0:0:0:
448,192,6834,1,0,0:0:0:0:
192,192,7006,1,8,0:0:0:0:
64,192,7092,1,8,0:0:0:0:
320,192,7177,1,8,0:0:0:0:
192,192,7263,1,8,0:0:0:0:
448,192,7349,1,0,0:0:0:70:LR_Tom Hit.wav
320,192,7434,1,0,0:0:0:70:LR_Tom Hit.wav
192,192,7520,1,0,0:0:0:70:LR_Tom Hit 2.wav
64,192,7606,1,0,0:0:0:70:LR_Tom Hit 2.wav
320,192,7692,1,0,0:0:0:70:LR_Tom Hit 3.wav
192,192,7777,1,0,0:0:0:70:LR_Tom Hit 3.wav
448,192,7863,1,0,0:0:0:70:LR_Tom Hit 2.wav
320,192,7949,1,0,0:0:0:70:LR_Tom Hit 2.wav
64,192,8034,1,0,0:0:0:70:LR_Clap Fast Low.wav
192,192,8034,1,0,0:0:0:0:
448,192,8034,128,0,8292:0:0:0:0:
64,192,8377,128,4,8463:0:0:0:0:
320,192,8377,128,2,8634:0:0:0:0:
448,192,8377,1,0,0:0:0:0:
64,192,8549,128,0,8720:0:0:0:0:
192,192,8720,128,8,8892:0:0:0:0:
320,192,8720,1,0,0:0:0:0:
448,192,8892,128,0,9063:0:0:0:0:
64,192,9063,128,2,9149:0:0:0:0:
192,192,9063,128,0,9320:0:0:0:0:
64,192,9234,128,0,9406:0:0:0:0:
192,192,9406,1,8,0:0:0:0:
448,192,9406,128,0,9577:0:0:0:0:
64,192,9577,128,0,9749:0:0:0:0:
192,192,9749,128,2,10006:0:0:0:0:
448,192,9749,128,0,9834:0:0:0:0:
448,192,9920,128,0,10092:0:0:0:0:
192,192,10092,1,8,0:0:0:0:
320,192,10092,128,0,10263:0:0:0:0:
64,192,10263,128,0,10434:0:0:0:0:
320,192,10434,128,2,10692:0:0:0:0:
448,192,10434,128,0,10520:0:0:0:0:
448,192,10606,128,0,10777:0:0:0:0:
64,192,10777,128,8,10949:0:0:0:0:
320,192,10777,1,0,0:0:0:0:
448,192,10949,128,0,11120:0:0:0:0:
64,192,11120,128,2,11377:0:0:0:0:
320,192,11120,128,4,11206:0:0:0:0:
320,192,11292,128,0,11463:0:0:0:0:
64,192,11463,1,8,0:0:0:0:
192,192,11463,128,0,11634:0:0:0:0:
448,192,11634,128,0,11806:0:0:0:0:
64,192,11806,128,2,12063:0:0:0:0:
192,192,11806,128,0,11892:0:0:0:0:
192,192,11977,128,0,12149:0:0:0:0:
64,192,12149,1,8,0:0:0:0:
448,192,12149,128,0,12320:0:0:0:0:
64,192,12320,128,0,12492:0:0:0:0:
192,192,12492,128,2,12577:0:0:0:0:
448,192,12492,128,0,12749:0:0:0:0:
192,192,12663,128,0,12834:0:0:0:0:
320,192,12834,128,8,13006:0:0:0:0:
448,192,12834,1,0,0:0:0:0:
64,192,13006,128,0,13177:0:0:0:0:
320,192,13177,128,2,13263:0:0:0:0:
448,192,13177,128,0,13434:0:0:0:0:
64,192,13349,1,8,0:0:0:0:
320,192,13349,128,0,13520:0:0:0:0:
64,192,13520,128,8,13777:0:0:0:0:
192,192,13520,1,0,0:0:0:0:
448,192,13520,128,0,13777:0:0:0:0:
64,192,13863,1,4,0:0:0:0:
320,192,13863,1,0,0:0:0:70:LR_Clap Fast Low.wav
448,192,13863,1,0,0:0:0:0:
64,192,14206,1,0,0:0:0:70:LR_Clap Fast Low.wav
320,192,14206,1,0,0:0:0:0:
448,192,14206,1,0,0:0:0:0:
64,192,14549,1,0,0:0:0:70:LR_Clap Fast Low.wav
192,192,14549,1,0,0:0:0:0:
448,192,14549,1,0,0:0:0:0:
64,192,14720,1,0,0:0:0:70:LR_Clap Fast Low.wav
192,192,14720,1,0,0:0:0:0:
448,192,14720,1,0,0:0:0:0:
64,192,14892,1,0,0:0:0:70:LR_Clap Fast Low.wav
192,192,14892,1,0,0:0:0:0:
448,192,14892,1,0,0:0:0:0:
64,192,15234,1,0,0:0:0:70:LR_Clap Fast Low.wav
192,192,15234,1,0,0:0:0:0:
320,192,15234,1,0,0:0:0:0:
64,192,15406,1,0,0:0:0:70:LR_Clap Fast Low.wav
192,192,15406,1,0,0:0:0:0:
320,192,15406,1,0,0:0:0:0:
64,192,15577,1,0,0:0:0:70:LR_Clap Fast Low.wav
192,192,15577,1,0,0:0:0:0:
448,192,15577,1,0,0:0:0:0:
64,192,15749,1,0,0:0:0:70:LR_Clap Fast Low.wav
320,192,15749,1,0,0:0:0:0:
448,192,15749,1,0,0:0:0:0:
192,192,16092,1,4,0:0:0:0:
320,192,16092,1,0,0:0:0:70:LR_Clap Fast Low.wav
448,192,16092,1,0,0:0:0:0:
192,192,16263,1,0,0:0:0:70:LR_Clap Fast Low.wav
320,192,16263,1,0,0:0:0:0:
448,192,16263,1,0,0:0:0:0:
64,192,16434,1,0,0:0:0:70:LR_Clap Fast Low.wav
320,192,16434,1,0,0:0:0:0:
64,192,16606,1,4,0:0:0:0:
192,192,16606,1,0,0:0:0:70:LR_Clap Fast Low.wav
448,192,16606,1,0,0:0:0:0:
64,192,16949,1,0,0:0:0:70:LR_Clap Fast Low.wav
192,192,16949,1,0,0:0:0:0:
448,192,16949,1,0,0:0:0:0:
64,192,17292,1,0,0:0:0:70:LR_Clap Fast Low.wav
320,192,17292,1,0,0:0:0:0:
448,192,17292,1,0,0:0:0:0:
64,192,17463,1,0,0:0:0:70:LR_Clap Fast Low.wav
320,192,17463,1,0,0:0:0:0:
448,192,17463,1,0,0:0:0:0:
64,192,17634,1,0,0:0:0:70:LR_Clap Fast Low.wav
320,192,17634,1,0,0:0:0:0:
448,192,17634,1,0,0:0:0:0:
64,192,17977,1,0,0:0:0:70:LR_Clap Fast Low.wav
192,192,17977,1,0,0:0:0:0:
320,192,17977,1,0,0:0:0:0:
64,192,18149,1,0,0:0:0:70:LR_Clap Fast Low.wav
192,192,18149,1,0,0:0:0:0:
320,192,18149,1,0,0:0:0:0:
64,192,18320,1,0,0:0:0:70:LR_Clap Fast Low.wav
192,192,18320,1,0,0:0:0:0:
448,192,18320,1,0,0:0:0:0:
64,192,18492,1,0,0:0:0:70:LR_Clap Fast Low.wav
320,192,18492,1,0,0:0:0:0:
448,192,18492,1,0,0:0:0:0:
192,192,18663,1,0,0:0:0:0:
320,192,18749,1,0,0:0:0:0:
64,192,18834,1,0,0:0:0:0:
192,192,18920,1,0,0:0:0:0:
448,192,19006,1,0,0:0:0:0:
320,192,19092,1,0,0:0:0:0:
64,192,19177,1,0,0:0:0:70:LR_Tom Hit 2.wav
192,192,19263,1,0,0:0:0:70:LR_Tom Hit 3.wav
64,192,19349,1,2,0:0:0:0:
320,192,19349,1,4,0:0:0:0:
448,192,19349,128,0,19606:0:0:0:0:
192,192,19520,128,0,19606:0:0:0:0:
320,192,19606,128,0,19692:0:0:0:0:
64,192,19692,128,8,19949:0:0:0:0:
448,192,19692,1,0,0:0:0:0:
192,192,19863,128,0,19949:0:0:0:0:
192,192,20034,128,0,20292:0:0:0:0:
320,192,20206,1,2,0:0:0:0:
448,192,20206,128,0,20377:0:0:0:0:
64,192,20377,1,8,0:0:0:0:
192,192,20377,1,0,0:0:0:0:
320,192,20549,128,0,20806:0:0:0:0:
448,192,20720,128,0,20806:0:0:0:0:
192,192,20892,128,2,20977:0:0:0:0:
320,192,20892,1,0,0:0:0:0:
64,192,21063,1,8,0:0:0:0:
192,192,21063,128,0,21320:0:0:0:0:
448,192,21234,128,0,21406:0:0:0:0:
192,192,21406,1,0,0:0:0:0:
320,192,21577,128,2,21663:0:0:0:0:
448,192,21577,1,0,0:0:0:0:
64,192,21749,1,8,0:0:0:0:
320,192,21749,128,0,22006:0:0:0:0:
64,192,21920,128,0,22092:0:0:0:0:
192,192,22092,1,2,0:0:0:0:
320,192,22092,1,4,0:0:0:0:
448,192,22263,128,0,22349:0:0:0:0:
64,192,22434,1,8,0:0:0:0:
448,192,22434,128,0,22692:0:0:0:0:
192,192,22606,128,0,22777:0:0:0:0:
448,192,22777,1,0,0:0:0:0:
192,192,22949,1,2,0:0:0:0:
320,192,22949,128,0,23034:0:0:0:0:
320,192,23120,128,8,23377:0:0:0:0:
448,192,23120,1,0,0:0:0:0:
64,192,23292,128,0,23377:0:0:0:0:
192,192,23463,128,0,23549:0:0:0:0:
192,192,23634,1,2,0:0:0:0:
320,192,23634,128,0,23720:0:0:0:0:
64,192,23720,128,0,23806:0:0:0:0:
320,192,23806,1,8,0:0:0:0:
448,192,23806,128,0,23977:0:0:0:0:
192,192,23977,128,0,24149:0:0:0:0:
320,192,24149,128,2,24320:0:0:0:0:
448,192,24149,1,0,0:0:0:0:
64,192,24320,1,8,0:0:0:0:
192,192,24320,1,0,0:0:0:0:
64,192,24492,1,8,0:0:0:0:
320,192,24492,1,0,0:0:0:0:
448,192,24492,128,0,24577:0:0:0:0:
448,192,24663,128,0,24749:0:0:0:0:
64,192,24834,128,2,25092:0:0:0:0:
192,192,24834,1,4,0:0:0:0:
448,192,24834,1,0,0:0:0:0:
320,192,25006,128,0,25092:0:0:0:0:
192,192,25177,128,2,25263:0:0:0:0:
320,192,25177,1,0,0:0:0:0:
448,192,25349,128,0,25434:0:0:0:0:
64,192,25520,128,2,25606:0:0:0:0:
448,192,25520,1,0,0:0:0:0:
192,192,25692,128,0,25777:0:0:0:0:
192,192,25863,1,2,0:0:0:0:
320,192,25863,128,8,26034:0:0:0:0:
64,192,26034,128,0,26120:0:0:0:0:
64,192,26206,1,2,0:0:0:0:
448,192,26206,128,0,26292:0:0:0:0:
192,192,26377,128,0,26463:0:0:0:0:
192,192,26549,1,2,0:0:0:0:
320,192,26549,128,0,26634:0:0:0:0:
64,192,26720,128,0,26806:0:0:0:0:
64,192,26892,1,2,0:0:0:0:
448,192,26892,128,0,26977:0:0:0:0:
320,192,27063,128,0,27149:0:0:0:0:
192,192,27234,128,2,27406:0:0:0:0:
320,192,27234,1,8,0:0:0:0:
64,192,27406,128,0,27492:0:0:0:0:
64,192,27577,1,4,0:0:0:0:
320,192,27577,1,2,0:0:0:0:
448,192,27577,128,0,27834:0:0:0:0:
192,192,27749,1,0,0:0:0:0:
64,192,27920,1,8,0:0:0:0:
320,192,27920,1,0,0:0:0:0:
448,192,27920,1,0,0:0:0:0:
192,192,28092,128,0,28177:0:0:0:0:
64,192,28263,128,8,28520:0:0:0:0:
192,192,28263,1,0,0:0:0:0:
448,192,28263,1,0,0:0:0:0:
320,192,28434,1,2,0:0:0:0:
448,192,28434,1,0,0:0:0:0:
64,192,28606,1,8,0:0:0:0:
192,192,28606,1,0,0:0:0:0:
320,192,28606,1,0,0:0:0:0:
64,192,28777,1,2,0:0:0:0:
448,192,28777,1,0,0:0:0:0:
192,192,29120,128,0,29292:0:0:0:0:
320,192,29292,128,0,29463:0:0:0:0:
192,192,29377,128,0,29549:0:0:0:0:
64,192,29463,128,0,29634:0:0:0:0:
448,192,29634,128,0,29772:0:0:0:0:
192,192,29772,1,0,0:0:0:0:
320,192,29840,1,0,0:0:0:0:
448,192,29909,1,0,0:0:0:0:
64,192,29977,1,0,0:0:0:0:
192,192,29977,1,0,0:0:0:0:
64,192,30320,1,4,0:0:0:0:
192,192,30320,128,2,30577:0:0:0:0:
448,192,30320,1,0,0:0:0:0:
320,192,30492,128,0,30663:0:0:0:0:
64,192,30663,128,8,30920:0:0:0:0:
192,192,30663,1,0,0:0:0:0:
320,192,30834,128,2,30920:0:0:0:0:
448,192,30834,1,0,0:0:0:0:
192,192,30920,128,0,31006:0:0:0:0:
448,192,31006,128,0,31263:0:0:0:0:
64,192,31177,1,2,0:0:0:0:
192,192,31177,128,0,31349:0:0:0:0:
320,192,31349,1,8,0:0:0:0:
448,192,31349,1,0,0:0:0:0:
64,192,31520,128,0,31777:0:0:0:0:
192,192,31692,128,2,31777:0:0:0:0:
448,192,31692,1,0,0:0:0:0:
320,192,31863,128,0,31949:0:0:0:0:
320,192,32034,128,8,32292:0:0:0:0:
448,192,32034,1,0,0:0:0:0:
64,192,32206,128,2,32377:0:0:0:0:
192,192,32206,1,0,0:0:0:0:
320,192,32377,1,0,0:0:0:0:
64,192,32549,1,2,0:0:0:0:
192,192,32549,128,0,32634:0:0:0:0:
192,192,32720,128,8,32977:0:0:0:0:
448,192,32720,1,0,0:0:0:0:
448,192,32892,128,0,33063:0:0:0:0:
192,192,33063,1,2,0:0:0:0:
320,192,33063,1,0,0:0:0:0:
64,192,33234,128,0,33320:0:0:0:0:
64,192,33406,128,8,33663:0:0:0:0:
448,192,33406,1,0,0:0:0:0:
192,192,33577,1,2,0:0:0:0:
320,192,33577,128,0,33749:0:0:0:0:
64,192,33749,1,0,0:0:0:0:
320,192,33920,1,2,0:0:0:0:
448,192,33920,128,0,34092:0:0:0:0:
64,192,34092,128,8,34349:0:0:0:0:
192,192,34092,1,0,0:0:0:0:
320,192,34263,128,0,34349:0:0:0:0:
64,192,34434,1,2,0:0:0:0:
320,192,34434,128,0,34606:0:0:0:0:
192,192,34606,1,0,0:0:0:0:
320,192,34777,1,8,0:0:0:0:
448,192,34777,128,0,34863:0:0:0:0:
448,192,34949,128,0,35034:0:0:0:0:
64,192,35120,128,2,35292:0:0:0:0:
192,192,35120,1,0,0:0:0:0:
320,192,35292,1,8,0:0:0:0:
448,192,35292,1,0,0:0:0:0:
64,192,35463,1,8,0:0:0:0:
192,192,35463,128,0,35549:0:0:0:0:
448,192,35463,1,0,0:0:0:0:
192,192,35634,128,0,35720:0:0:0:0:
64,192,35806,1,4,0:0:0:0:
320,192,35806,1,2,0:0:0:0:
448,192,35806,128,0,36063:0:0:0:0:
192,192,35977,128,0,36063:0:0:0:0:
64,192,36149,1,8,0:0:0:0:
320,192,36149,128,0,36234:0:0:0:0:
64,192,36320,128,0,36406:0:0:0:0:
192,192,36492,1,2,0:0:0:0:
448,192,36492,128,0,36577:0:0:0:0:
192,192,36663,128,0,36749:0:0:0:0:
64,192,36834,128,8,37006:0:0:0:0:
448,192,36834,1,0,0:0:0:0:
448,192,37006,128,0,37092:0:0:0:0:
192,192,37177,1,2,0:0:0:0:
320,192,37177,128,0,37263:0:0:0:0:
64,192,37349,128,0,37434:0:0:0:0:
320,192,37520,1,8,0:0:0:0:
448,192,37520,128,0,37692:0:0:0:0:
192,192,37692,128,0,37777:0:0:0:0:
64,192,37863,1,2,0:0:0:0:
320,192,37863,128,0,37949:0:0:0:0:
64,192,38034,128,0,38120:0:0:0:0:
320,192,38206,1,8,0:0:0:0:
448,192,38206,128,0,38463:0:0:0:0:
192,192,38377,128,0,38463:0:0:0:0:
64,192,38549,128,2,38806:0:0:0:0:
192,192,38549,1,4,0:0:0:0:
448,192,38549,1,0,0:0:0:0:
320,192,38720,128,0,38977:0:0:0:0:
64,192,38892,1,8,0:0:0:0:
192,192,38892,128,0,38977:0:0:0:0:
320,192,39063,128,0,39149:0:0:0:0:
64,192,39234,1,2,0:0:0:0:
320,192,39234,1,4,0:0:0:0:
448,192,39234,128,0,39492:0:0:0:0:
192,192,39406,128,0,39663:0:0:0:0:
64,192,39577,128,8,39663:0:0:0:0:
448,192,39577,1,0,0:0:0:0:
192,192,39749,128,0,39834:0:0:0:0:
192,192,39920,1,2,0:0:0:0:
320,192,39920,128,4,40092:0:0:0:0:
448,192,40092,128,0,40263:0:0:0:0:
64,192,40263,1,8,0:0:0:0:
192,192,40263,128,0,40434:0:0:0:0:
448,192,40434,128,0,40520:0:0:0:0:
192,192,40520,128,0,40606:0:0:0:0:
64,192,40606,128,2,40777:0:0:0:0:
320,192,40606,1,4,0:0:0:0:
192,192,40777,1,0,0:0:0:0:
448,192,40863,128,0,40949:0:0:0:0:
64,192,40949,1,8,0:0:0:0:
320,192,40949,128,0,41120:0:0:0:0:
64,192,41120,128,0,41206:0:0:0:0:
320,192,41206,128,0,41292:0:0:0:0:
64,192,41292,1,2,0:0:0:0:
192,192,41292,128,4,41377:0:0:0:0:
448,192,41292,1,0,0:0:0:0:
192,192,41463,128,0,41549:0:0:0:0:
192,192,41634,128,0,41720:0:0:0:0:
192,192,41806,128,2,41892:0:0:0:0:
320,192,41806,1,0,0:0:0:0:
192,192,41977,128,8,42234:0:0:0:0:
448,192,41977,1,0,0:0:0:0:
448,192,42320,128,0,42492:0:0:0:0:
320,192,42492,128,0,42663:0:0:0:0:
320,192,42834,128,2,42920:0:0:0:0:
448,192,42834,1,0,0:0:0:0:
320,192,43006,128,0,43092:0:0:0:0:
192,192,43177,1,2,0:0:0:0:
320,192,43177,128,0,43263:0:0:0:0:
64,192,43349,1,8,0:0:0:0:
320,192,43349,128,0,43606:0:0:0:0:
64,192,43692,128,0,43777:0:0:0:0:
448,192,43863,128,0,43949:0:0:0:0:
192,192,44034,128,2,44120:0:0:0:0:
448,192,44034,1,0,0:0:0:0:
192,192,44206,128,0,44292:0:0:0:0:
320,192,44377,128,0,44463:0:0:0:0:
320,192,44549,128,2,44634:0:0:0:0:
448,192,44549,1,0,0:0:0:0:
64,192,44720,128,8,44806:0:0:0:0:
320,192,44720,1,0,0:0:0:0:
64,192,44892,128,0,44977:0:0:0:0:
448,192,45063,128,0,45149:0:0:0:0:
448,192,45234,128,0,45320:0:0:0:0:
320,192,45406,128,0,45492:0:0:0:0:
64,192,45577,1,2,0:0:0:0:
320,192,45577,128,0,45663:0:0:0:0:
192,192,45749,128,0,45834:0:0:0:0:
192,192,45920,128,2,46006:0:0:0:0:
320,192,45920,1,0,0:0:0:0:
64,192,46092,128,8,46349:0:0:0:0:
192,192,46092,1,0,0:0:0:0:
192,192,46263,128,0,46520:0:0:0:0:
64,192,46434,128,4,46692:0:0:0:0:
192,192,46606,128,0,46777:0:0:0:0:
64,192,46777,1,2,0:0:0:0:
320,192,46777,1,4,0:0:0:0:
448,192,46777,1,0,0:0:0:0:
320,192,46949,128,0,47034:0:0:0:0:
320,192,47120,128,0,47206:0:0:0:0:
192,192,47292,1,2,0:0:0:0:
320,192,47292,128,0,47377:0:0:0:0:
64,192,47463,1,8,0:0:0:0:
320,192,47463,128,0,47720:0:0:0:0:
64,192,47806,128,0,47977:0:0:0:0:
192,192,47977,128,0,48149:0:0:0:0:
64,192,48320,1,2,0:0:0:0:
192,192,48320,128,0,48406:0:0:0:0:
192,192,48492,128,0,48577:0:0:0:0:
192,192,48663,128,2,48749:0:0:0:0:
320,192,48663,1,0,0:0:0:0:
192,192,48834,128,8,49092:0:0:0:0:
448,192,48834,1,0,0:0:0:0:
448,192,49177,128,0,49263:0:0:0:0:
448,192,49349,128,0,49434:0:0:0:0:
192,192,49434,128,0,49520:0:0:0:0:
64,192,49520,1,2,0:0:0:0:
320,192,49520,128,4,49606:0:0:0:0:
448,192,49520,1,0,0:0:0:0:
320,192,49692,128,0,49777:0:0:0:0:
64,192,49863,1,8,0:0:0:0:
192,192,49863,128,0,49949:0:0:0:0:
448,192,49863,1,0,0:0:0:0:
192,192,50034,128,2,50120:0:0:0:0:
64,192,50206,128,8,50292:0:0:0:0:
320,192,50206,1,0,0:0:0:0:
448,192,50206,1,0,0:0:0:0:
64,192,50377,128,2,50463:0:0:0:0:
320,192,50377,1,0,0:0:0:0:
64,192,50549,1,8,0:0:0:0:
192,192,50549,1,0,0:0:0:0:
448,192,50549,128,0,50720:0:0:0:0:
192,192,50720,128,2,50892:0:0:0:0:
320,192,50720,1,0,0:0:0:0:
64,192,50892,1,8,0:0:0:0:
320,192,50977,1,8,0:0:0:0:
192,192,51063,1,8,0:0:0:0:
448,192,51149,1,8,0:0:0:0:
64,192,51234,1,0,0:0:0:70:LR_Tom Hit.wav
192,192,51234,1,0,0:0:0:0:
320,192,51234,128,0,51406:0:0:0:0:
64,192,51577,1,0,0:0:0:70:LR_Tom Hit 3.wav
192,192,51577,1,0,0:0:0:0:
320,192,51577,128,0,51834:0:0:0:0:
64,192,51920,1,0,0:0:0:70:LR_Clap Fast Low.wav
192,192,51920,128,0,52177:0:0:0:0:
320,192,51920,128,0,52177:0:0:0:0:
64,192,52263,128,4,52520:0:0:0:0:
320,192,52263,128,2,52434:0:0:0:0:
448,192,52263,1,0,0:0:0:0:
448,192,52434,128,0,52606:0:0:0:0:
320,192,52520,128,0,52606:0:0:0:0:
64,192,52606,1,8,0:0:0:0:
192,192,52606,128,0,52777:0:0:0:0:
320,192,52692,128,0,52863:0:0:0:0:
64,192,52863,128,0,53034:0:0:0:0:
192,192,52949,128,2,53120:0:0:0:0:
448,192,52949,1,0,0:0:0:0:
320,192,53120,128,0,53206:0:0:0:0:
64,192,53292,1,8,0:0:0:0:
192,192,53292,128,0,53549:0:0:0:0:
448,192,53463,128,0,53549:0:0:0:0:
64,192,53634,128,2,53892:0:0:0:0:
320,192,53634,128,0,53720:0:0:0:0:
320,192,53806,128,0,53977:0:0:0:0:
64,192,53977,1,8,0:0:0:0:
448,192,53977,1,0,0:0:0:0:
192,192,54149,1,0,0:0:0:0:
448,192,54149,128,0,54492:0:0:0:0:
64,192,54320,1,2,0:0:0:0:
192,192,54320,128,0,54577:0:0:0:0:
320,192,54492,128,0,54577:0:0:0:0:
64,192,54663,128,8,54834:0:0:0:0:
320,192,54663,128,0,54834:0:0:0:0:
448,192,54834,1,0,0:0:0:0:
64,192,55006,1,2,0:0:0:0:
192,192,55006,128,0,55177:0:0:0:0:
448,192,55006,128,0,55263:0:0:0:0:
64,192,55177,128,0,55349:0:0:0:0:
192,192,55263,128,0,55349:0:0:0:0:
320,192,55349,128,8,55520:0:0:0:0:
448,192,55349,128,0,55434:0:0:0:0:
448,192,55520,128,0,55606:0:0:0:0:
64,192,55692,128,2,55863:0:0:0:0:
320,192,55692,128,0,55777:0:0:0:0:
320,192,55863,128,0,55949:0:0:0:0:
64,192,56034,128,8,56120:0:0:0:0:
192,192,56034,128,0,56206:0:0:0:0:
64,192,56206,128,0,56292:0:0:0:0:
192,192,56377,128,2,56463:0:0:0:0:
448,192,56377,128,0,56549:0:0:0:0:
192,192,56549,128,0,56720:0:0:0:0:
64,192,56720,1,8,0:0:0:0:
448,192,56720,128,0,56977:0:0:0:0:
64,192,56892,128,0,57234:0:0:0:0:
192,192,57063,1,2,0:0:0:0:
448,192,57063,1,0,0:0:0:0:
448,192,57234,128,0,57320:0:0:0:0:
192,192,57406,128,8,57577:0:0:0:0:
448,192,57406,128,0,57577:0:0:0:0:
64,192,57577,1,0,0:0:0:0:
64,192,57749,128,2,58092:0:0:0:0:
192,192,57749,128,4,57920:0:0:0:0:
448,192,57749,1,0,0:0:0:0:
320,192,57920,1,0,0:0:0:0:
192,192,58092,1,8,0:0:0:0:
448,192,58092,128,0,58434:0:0:0:0:
64,192,58263,1,2,0:0:0:0:
192,192,58263,128,0,58606:0:0:0:0:
320,192,58434,1,0,0:0:0:0:
320,192,58606,1,2,0:0:0:0:
448,192,58606,1,0,0:0:0:0:
64,192,58777,1,8,0:0:0:0:
192,192,58777,1,0,0:0:0:0:
448,192,58777,1,0,0:0:0:0:
192,192,58949,128,0,59120:0:0:0:0:
64,192,59120,1,2,0:0:0:0:
320,192,59120,128,0,59292:0:0:0:0:
448,192,59120,128,0,59463:0:0:0:0:
192,192,59292,1,0,0:0:0:0:
64,192,59463,128,8,59806:0:0:0:0:
320,192,59463,1,0,0:0:0:0:
320,192,59634,128,2,59977:0:0:0:0:
448,192,59634,1,0,0:0:0:0:
192,192,59806,1,0,0:0:0:0:
64,192,59977,1,2,0:0:0:0:
192,192,59977,1,0,0:0:0:0:
64,192,60149,1,8,0:0:0:0:
320,192,60149,1,0,0:0:0:0:
448,192,60149,1,0,0:0:0:0:
192,192,60320,1,2,0:0:0:0:
448,192,60320,128,4,60663:0:0:0:0:
192,192,60492,128,0,60834:0:0:0:0:
64,192,60663,1,2,0:0:0:0:
320,192,60663,128,0,60834:0:0:0:0:
64,192,60834,128,8,61006:0:0:0:0:
448,192,60834,1,0,0:0:0:0:
320,192,61006,128,0,61349:0:0:0:0:
64,192,61177,128,8,61520:0:0:0:0:
448,192,61177,1,0,0:0:0:0:
192,192,61349,1,2,0:0:0:0:
448,192,61349,128,0,61520:0:0:0:0:
192,192,61520,128,8,61692:0:0:0:0:
320,192,61520,1,0,0:0:0:0:
64,192,61692,1,4,0:0:0:0:
320,192,61692,128,2,62377:0:0:0:0:
448,192,61692,1,0,0:0:0:0:
64,192,61863,128,0,62034:0:0:0:0:
192,192,62034,1,2,0:0:0:0:
448,192,62034,1,0,0:0:0:0:
64,192,62206,1,8,0:0:0:0:
192,192,62206,128,0,62377:0:0:0:0:
448,192,62377,1,0,0:0:0:0:
192,192,62549,1,2,0:0:0:0:
320,192,62549,128,0,62720:0:0:0:0:
64,192,62720,1,0,0:0:0:0:
320,192,62892,1,8,0:0:0:0:
448,192,62892,128,0,63063:0:0:0:0:
192,192,63063,1,0,0:0:0:0:
64,192,63577,128,4,63834:0:0:0:0:
320,192,63577,1,8,0:0:0:0:
448,192,63577,128,0,63920:0:0:0:0:
320,192,63834,128,0,63920:0:0:0:0:
64,192,63920,1,2,0:0:0:0:
192,192,63920,128,0,64177:0:0:0:0:
448,192,64092,128,0,64263:0:0:0:0:
192,192,64263,1,8,0:0:0:0:
320,192,64263,128,0,64520:0:0:0:0:
64,192,64434,128,0,64606:0:0:0:0:
192,192,64606,128,2,64692:0:0:0:0:
448,192,64606,128,0,64863:0:0:0:0:
192,192,64777,128,0,64949:0:0:0:0:
64,192,64949,1,8,0:0:0:0:
448,192,64949,1,0,0:0:0:0:
64,192,65120,128,0,65463:0:0:0:0:
320,192,65120,1,0,0:0:0:0:
320,192,65292,128,2,65549:0:0:0:0:
448,192,65292,1,0,0:0:0:0:
192,192,65463,128,0,65549:0:0:0:0:
192,192,65634,128,8,65806:0:0:0:0:
448,192,65634,128,0,65806:0:0:0:0:
64,192,65806,1,0,0:0:0:0:
64,192,65977,128,2,66234:0:0:0:0:
320,192,65977,128,0,66149:0:0:0:0:
448,192,65977,1,0,0:0:0:0:
448,192,66149,128,0,66320:0:0:0:0:
320,192,66234,128,0,66320:0:0:0:0:
64,192,66320,1,8,0:0:0:0:
192,192,66320,128,0,66492:0:0:0:0:
320,192,66492,128,0,66663:0:0:0:0:
192,192,66577,128,0,66663:0:0:0:0:
64,192,66663,1,2,0:0:0:0:
448,192,66663,128,0,66749:0:0:0:0:
320,192,66834,128,0,67092:0:0:0:0:
64,192,67006,128,8,67177:0:0:0:0:
192,192,67006,1,0,0:0:0:0:
192,192,67177,128,2,67434:0:0:0:0:
320,192,67177,1,4,0:0:0:0:
448,192,67177,128,0,67434:0:0:0:0:
192,192,67520,128,2,67777:0:0:0:0:
320,192,67520,1,4,0:0:0:0:
448,192,67520,128,0,67777:0:0:0:0:
64,192,67863,128,2,68120:0:0:0:0:
192,192,67863,1,4,0:0:0:0:
320,192,67863,128,0,68120:0:0:0:0:
64,192,68206,128,4,68377:0:0:0:0:
192,192,68206,1,2,0:0:0:0:
320,192,68206,1,0,0:0:0:0:
192,192,68377,128,8,68549:0:0:0:0:
320,192,68377,1,0,0:0:0:0:
448,192,68377,1,0,0:0:0:0:
320,192,68549,128,0,68720:0:0:0:0:
64,192,68720,128,2,69234:0:0:0:0:
192,192,68720,1,4,0:0:0:0:
448,192,68720,128,0,69149:0:0:0:0:
192,192,69234,128,2,69577:0:0:0:0:
448,192,69234,1,0,0:0:0:0:
64,192,69406,1,8,0:0:0:0:
448,192,69406,128,0,69749:0:0:0:0:
320,192,69577,1,0,0:0:0:0:
320,192,69749,128,0,69920:0:0:0:0:
192,192,69920,1,0,0:0:0:0:
64,192,70092,128,2,70520:0:0:0:0:
192,192,70092,1,0,0:0:0:0:
448,192,70092,128,0,70606:0:0:0:0:
64,192,70606,1,2,0:0:0:0:
320,192,70606,128,0,70949:0:0:0:0:
64,192,70777,128,8,71120:0:0:0:0:
448,192,70777,1,0,0:0:0:0:
448,192,70949,128,0,71292:0:0:0:0:
192,192,71120,128,0,71292:0:0:0:0:
320,192,71292,128,0,71463:0:0:0:0:
64,192,71463,128,4,71977:0:0:0:0:
192,192,71463,128,2,71720:0:0:0:0:
448,192,71463,1,0,0:0:0:0:
192,192,71806,1,8,0:0:0:0:
448,192,71806,1,0,0:0:0:0:
320,192,71977,128,0,72063:0:0:0:0:
64,192,72149,1,2,0:0:0:0:
320,192,72149,128,0,72492:0:0:0:0:
64,192,72320,1,2,0:0:0:0:
192,192,72320,1,0,0:0:0:0:
192,192,72492,128,8,72663:0:0:0:0:
448,192,72492,1,0,0:0:0:0:
448,192,72663,128,0,72749:0:0:0:0:
448,192,72834,128,0,73177:0:0:0:0:
64,192,73006,1,2,0:0:0:0:
320,192,73006,1,0,0:0:0:0:
64,192,73177,1,8,0:0:0:0:
192,192,73177,128,0,73520:0:0:0:0:
448,192,73349,1,0,0:0:0:0:
320,192,73520,128,2,73863:0:0:0:0:
448,192,73520,1,0,0:0:0:0:
64,192,73692,1,2,0:0:0:0:
192,192,73692,1,0,0:0:0:0:
64,192,73863,128,8,74206:0:0:0:0:
448,192,73863,1,0,0:0:0:0:
320,192,74034,1,0,0:0:0:0:
192,192,74206,1,4,0:0:0:0:
320,192,74206,128,2,74463:0:0:0:0:
448,192,74206,128,0,74720:0:0:0:0:
64,192,74549,128,8,74720:0:0:0:0:
320,192,74549,1,0,0:0:0:0:
192,192,74720,128,0,74806:0:0:0:0:
192,192,74892,128,8,75406:0:0:0:0:
448,192,74892,128,0,75063:0:0:0:0:
64,192,75063,1,2,0:0:0:0:
320,192,75063,1,0,0:0:0:0:
320,192,75234,128,8,75406:0:0:0:0:
64,192,75406,1,2,0:0:0:0:
448,192,75406,1,0,0:0:0:0:
192,192,75577,128,8,75749:0:0:0:0:
320,192,75577,1,0,0:0:0:0:
64,192,75749,1,8,0:0:0:0:
448,192,75749,128,0,75920:0:0:0:0:
64,192,75920,128,8,76092:0:0:0:0:
320,192,75920,1,0,0:0:0:0:
192,192,76092,1,8,0:0:0:0:
320,192,76092,128,0,76263:0:0:0:0:
448,192,76263,1,8,0:0:0:0:
64,192,76349,1,8,0:0:0:0:
320,192,76434,1,8,0:0:0:0:
448,192,76520,1,8,0:0:0:0:
192,192,76606,1,8,0:0:0:0:
320,192,76692,1,8,0:0:0:0:
64,192,76777,1,8,0:0:0:0:
192,192,76863,1,8,0:0:0:0:
64,192,76949,128,2,77206:0:0:0:0:
320,192,76949,1,4,0:0:0:0:
448,192,76949,1,0,0:0:0:0:
64,192,77292,128,0,77549:0:0:0:0:
320,192,77292,1,0,0:0:0:0:
64,192,77634,1,2,0:0:0:0:
192,192,77634,1,4,0:0:0:0:
448,192,77634,1,0,0:0:0:0:
64,192,77806,1,4,0:0:0:0:
192,192,77806,1,2,0:0:0:0:
448,192,77977,128,0,78063:0:0:0:0:
64,192,78149,1,4,0:0:0:0:
320,192,78149,1,2,0:0:0:0:
448,192,78149,128,0,78406:0:0:0:0:
64,192,78492,1,2,0:0:0:0:
320,192,78492,1,4,0:0:0:0:
448,192,78492,1,0,0:0:0:0:
320,192,78663,128,0,78920:0:0:0:0:
64,192,79006,1,2,0:0:0:0:
192,192,79006,128,4,79606:0:0:0:0:
320,192,79006,1,0,0:0:0:0:
320,192,79349,1,2,0:0:0:0:
448,192,79349,1,4,0:0:0:0:
192,192,79692,1,2,0:0:0:0:
320,192,79692,1,4,0:0:0:0:
448,192,79692,1,0,0:0:0:0:
192,192,80034,128,0,80120:0:0:0:0:
192,192,80206,128,0,80292:0:0:0:0:
64,192,80377,1,2,0:0:0:0:
320,192,80377,1,4,0:0:0:0:
448,192,80377,1,0,0:0:0:0:
448,192,80549,128,0,80806:0:0:0:0:
64,192,80892,1,2,0:0:0:0:
192,192,80892,1,4,0:0:0:0:
448,192,80892,1,0,0:0:0:0:
320,192,81063,1,8,0:0:0:0:
448,192,81149,1,8,0:0:0:0:
192,192,81234,1,8,0:0:0:0:
320,192,81320,1,8,0:0:0:0:
64,192,81406,1,0,0:0:0:70:LR_Tom Hit.wav
192,192,81492,1,0,0:0:0:70:LR_Tom Hit.wav
320,192,81577,1,0,0:0:0:70:LR_Tom Hit 2.wav
448,192,81663,1,0,0:0:0:70:LR_Tom Hit 2.wav
192,192,81749,1,0,0:0:0:70:LR_Tom Hit 3.wav
320,192,81834,1,0,0:0:0:70:LR_Tom Hit 3.wav
64,192,81920,1,0,0:0:0:70:LR_Tom Hit 2.wav
192,192,82006,1,0,0:0:0:70:LR_Tom Hit 2.wav
64,192,82092,128,0,82349:0:0:0:70:LR_Clap Fast Low.wav
320,192,82092,1,0,0:0:0:0:
448,192,82092,1,0,0:0:0:0:
64,192,82434,1,2,0:0:0:0:
192,192,82434,128,4,82692:0:0:0:0:
448,192,82434,128,0,82520:0:0:0:0:
448,192,82606,128,0,82777:0:0:0:0:
192,192,82777,1,8,0:0:0:0:
320,192,82777,128,0,82949:0:0:0:0:
64,192,82949,128,0,83120:0:0:0:0:
320,192,83120,128,2,83377:0:0:0:0:
448,192,83120,128,0,83206:0:0:0:0:
448,192,83292,128,0,83463:0:0:0:0:
64,192,83463,128,8,83634:0:0:0:0:
320,192,83463,1,0,0:0:0:0:
448,192,83634,128,0,83806:0:0:0:0:
64,192,83806,128,2,83892:0:0:0:0:
320,192,83806,128,0,84063:0:0:0:0:
64,192,83977,128,0,84149:0:0:0:0:
192,192,84149,128,8,84320:0:0:0:0:
320,192,84149,1,0,0:0:0:0:
448,192,84320,128,0,84492:0:0:0:0:
64,192,84492,128,2,84577:0:0:0:0:
192,192,84492,128,0,84749:0:0:0:0:
64,192,84663,128,0,84834:0:0:0:0:
192,192,84834,1,8,0:0:0:0:
448,192,84834,128,0,85006:0:0:0:0:
64,192,85006,128,0,85177:0:0:0:0:
192,192,85177,128,4,85263:0:0:0:0:
448,192,85177,128,2,85434:0:0:0:0:
192,192,85349,128,0,85520:0:0:0:0:
320,192,85520,128,8,85692:0:0:0:0:
448,192,85520,1,0,0:0:0:0:
64,192,85692,128,0,85863:0:0:0:0:
320,192,85863,128,2,85949:0:0:0:0:
448,192,85863,128,0,86120:0:0:0:0:
320,192,86034,128,0,86206:0:0:0:0:
64,192,86206,128,8,86377:0:0:0:0:
448,192,86206,1,0,0:0:0:0:
448,192,86377,128,0,86549:0:0:0:0:
64,192,86549,128,2,86806:0:0:0:0:
320,192,86549,128,0,86634:0:0:0:0:
320,192,86720,128,0,86892:0:0:0:0:
64,192,86892,1,8,0:0:0:0:
192,192,86892,128,0,87063:0:0:0:0:
448,192,87063,128,0,87234:0:0:0:0:
64,192,87234,128,2,87492:0:0:0:0:
192,192,87234,128,0,87320:0:0:0:0:
192,192,87406,128,8,87577:0:0:0:0:
320,192,87406,1,0,0:0:0:0:
64,192,87577,1,8,0:0:0:0:
320,192,87577,128,0,87749:0:0:0:0:
448,192,87577,1,0,0:0:0:0:
64,192,87749,128,2,87920:0:0:0:0:
192,192,87749,1,4,0:0:0:0:
448,192,87920,128,0,88092:0:0:0:0:
192,192,88092,128,2,88177:0:0:0:0:
320,192,88092,128,0,88263:0:0:0:0:
64,192,88263,128,4,88349:0:0:0:0:
192,192,88263,128,8,88434:0:0:0:0:
448,192,88434,1,0,0:0:0:0:
320,192,88520,1,0,0:0:0:0:
64,192,88606,128,8,88777:0:0:0:0:
192,192,88606,128,4,88692:0:0:0:0:
192,192,88777,128,2,88949:0:0:0:0:
320,192,88777,128,0,88863:0:0:0:0:
320,192,88949,128,8,89120:0:0:0:0:
448,192,88949,128,4,89034:0:0:0:0:
64,192,89120,1,2,0:0:0:0:
192,192,89206,1,0,0:0:0:0:
320,192,89292,128,8,89377:0:0:0:0:
448,192,89292,128,4,89463:0:0:0:0:
192,192,89463,128,0,89549:0:0:0:0:
320,192,89463,128,0,89634:0:0:0:0:
64,192,89634,128,8,89720:0:0:0:0:
192,192,89634,128,4,89806:0:0:0:0:
64,192,89806,1,0,0:0:0:0:
320,192,89892,1,0,0:0:0:0:
64,192,89977,128,4,90149:0:0:0:0:
192,192,89977,128,8,90063:0:0:0:0:
192,192,90149,128,2,90320:0:0:0:0:
320,192,90149,128,0,90234:0:0:0:0:
320,192,90320,128,8,90492:0:0:0:0:
448,192,90320,128,4,90406:0:0:0:0:
64,192,90492,1,2,0:0:0:0:
448,192,90492,1,0,0:0:0:0:
64,192,91006,128,2,91263:0:0:0:0:
192,192,91006,128,4,91263:0:0:0:0:
448,192,91006,1,0,0:0:0:0:
64,192,91520,128,2,91777:0:0:0:0:
192,192,91520,128,4,91777:0:0:0:0:
448,192,91520,1,0,0:0:0:0:
64,192,92034,1,4,0:0:0:0:
320,192,92034,128,2,94949:0:0:0:0:
448,192,92034,128,0,94949:0:0:0:0:
