osu file format v14

[General]
AudioFilename: audio.mp3
AudioLeadIn: 0
PreviewTime: 52264
Countdown: 0
SampleSet: Drum
StackLeniency: 0.7
Mode: 3
LetterboxInBreaks: 0
SpecialStyle: 0
WidescreenStoryboard: 1

[Editor]
Bookmarks: 2892,8377,19349,30320,41292,52264,63234,76950,82435
DistanceSpacing: 0.4
BeatDivisor: 4
GridSize: 32
TimelineZoom: 1.3

[Metadata]
Title:Sign wa B -Ai Solo Ver.-
TitleUnicode:サインはB -アイ Solo Ver.-
Artist:B-Komachi Ai (CV: Takahashi Rie)
ArtistUnicode:B小町 アイ(CV:高橋李依)
Creator:Drum-Hitnormal
Version:Hard
Source:【推しの子】
Tags:【Oshi no Ko】 星野アイ Hoshino Ai anime jpop idol j-pop japanese pop insert dudehacker Amiichii Muse Dash Hidden is fun 大石昌良 Masayoshi Oishi ZMCZ-16721 Character Song キャラクターソング CD Vol.1
BeatmapID:4113429
BeatmapSetID:1979887

[Difficulty]
HPDrainRate:7.5
CircleSize:4
OverallDifficulty:7.5
ApproachRate:5
SliderMultiplier:1.4
SliderTickRate:1

[Events]
//Background and Video events
Video,0,"video.mp4"
0,0,"107207476_p0.jpg",0,0
//Break Periods
//Storyboard Layer 0 (Background)
//Storyboard Layer 1 (Fail)
//Storyboard Layer 2 (Pass)
//Storyboard Layer 3 (Foreground)
//Storyboard Layer 4 (Overlay)
//Storyboard Sound Samples

[TimingPoints]
2892,342.857142857143,4,3,1,70,1,0

[HitObjects]
64,192,149,128,0,1520:0:0:0:0:
320,192,1520,128,0,2891:0:0:0:0:
64,192,2891,1,2,0:0:0:0:
192,192,2891,1,4,0:0:0:0:
448,192,2891,128,0,3234:0:0:0:0:
192,192,3234,128,0,3577:0:0:0:0:
64,192,3577,1,2,0:0:0:0:
320,192,3577,1,4,0:0:0:0:
448,192,3577,1,0,0:0:0:0:
192,192,3749,1,2,0:0:0:0:
448,192,3749,1,4,0:0:0:0:
64,192,4091,1,4,0:0:0:0:
192,192,4091,1,2,0:0:0:0:
448,192,4091,1,0,0:0:0:0:
64,192,4434,1,4,0:0:0:0:
320,192,4434,1,2,0:0:0:0:
320,192,4606,128,0,4949:0:0:0:0:
64,192,4949,1,4,0:0:0:0:
192,192,4949,128,2,5292:0:0:0:0:
64,192,5292,128,2,5634:0:0:0:0:
448,192,5292,1,4,0:0:0:0:
192,192,5634,1,4,0:0:0:0:
320,192,5634,1,2,0:0:0:0:
448,192,5634,128,0,5977:0:0:0:0:
64,192,5977,1,0,0:0:0:0:
64,192,6149,1,0,0:0:0:0:
320,192,6320,1,2,0:0:0:0:
448,192,6320,1,4,0:0:0:0:
320,192,6492,128,0,6834:0:0:0:0:
64,192,6834,1,4,0:0:0:0:
192,192,6834,1,2,0:0:0:0:
448,192,6834,1,0,0:0:0:0:
192,192,7006,128,8,7349:0:0:0:0:
448,192,7349,1,0,0:0:0:70:LR_Tom Hit.wav
320,192,7434,1,0,0:0:0:70:LR_Tom Hit.wav
192,192,7520,1,0,0:0:0:70:LR_Tom Hit 2.wav
64,192,7606,1,0,0:0:0:70:LR_Tom Hit 2.wav
320,192,7692,1,0,0:0:0:70:LR_Tom Hit 3.wav
192,192,7777,1,0,0:0:0:70:LR_Tom Hit 3.wav
448,192,7863,1,0,0:0:0:70:LR_Tom Hit 2.wav
320,192,7949,1,0,0:0:0:70:LR_Tom Hit 2.wav
64,192,8034,1,0,0:0:0:70:LR_Clap Fast Low.wav
192,192,8034,1,0,0:0:0:0:
448,192,8034,128,0,8377:0:0:0:0:
192,192,8377,128,4,8549:0:0:0:0:
320,192,8377,1,2,0:0:0:0:
64,192,8549,128,0,8720:0:0:0:0:
320,192,8720,128,8,8892:0:0:0:0:
448,192,8720,1,0,0:0:0:0:
192,192,8892,1,0,0:0:0:0:
64,192,9063,1,2,0:0:0:0:
448,192,9063,128,0,9234:0:0:0:0:
320,192,9234,128,0,9406:0:0:0:0:
64,192,9406,1,8,0:0:0:0:
192,192,9406,128,0,9577:0:0:0:0:
320,192,9577,1,0,0:0:0:0:
64,192,9749,128,2,9920:0:0:0:0:
448,192,9749,1,0,0:0:0:0:
192,192,9920,128,0,10092:0:0:0:0:
320,192,10092,1,8,0:0:0:0:
448,192,10092,128,0,10263:0:0:0:0:
64,192,10263,1,0,0:0:0:0:
192,192,10434,1,2,0:0:0:0:
320,192,10434,128,0,10606:0:0:0:0:
448,192,10606,128,0,10777:0:0:0:0:
64,192,10777,128,8,10949:0:0:0:0:
192,192,10777,1,0,0:0:0:0:
448,192,10949,1,0,0:0:0:0:
192,192,11120,128,2,11292:0:0:0:0:
320,192,11120,1,4,0:0:0:0:
64,192,11292,128,0,11463:0:0:0:0:
320,192,11463,128,8,11634:0:0:0:0:
448,192,11463,1,0,0:0:0:0:
192,192,11634,1,0,0:0:0:0:
64,192,11806,1,2,0:0:0:0:
448,192,11806,128,0,11977:0:0:0:0:
320,192,11977,128,0,12149:0:0:0:0:
64,192,12149,1,8,0:0:0:0:
192,192,12149,128,0,12320:0:0:0:0:
320,192,12320,1,0,0:0:0:0:
64,192,12492,128,2,12663:0:0:0:0:
448,192,12492,1,0,0:0:0:0:
192,192,12663,128,0,12834:0:0:0:0:
320,192,12834,128,8,13006:0:0:0:0:
448,192,12834,1,0,0:0:0:0:
64,192,13006,1,0,0:0:0:0:
192,192,13177,128,2,13349:0:0:0:0:
448,192,13177,1,0,0:0:0:0:
320,192,13349,1,8,0:0:0:0:
448,192,13349,128,0,13520:0:0:0:0:
64,192,13520,128,8,13692:0:0:0:0:
192,192,13520,1,0,0:0:0:0:
64,192,13863,1,4,0:0:0:0:
192,192,13863,1,0,0:0:0:70:LR_Clap Fast Low.wav
448,192,13863,1,0,0:0:0:0:
64,192,14206,1,0,0:0:0:70:LR_Clap Fast Low.wav
192,192,14206,1,0,0:0:0:0:
64,192,14549,1,0,0:0:0:70:LR_Clap Fast Low.wav
192,192,14549,1,0,0:0:0:0:
64,192,14720,1,0,0:0:0:70:LR_Clap Fast Low.wav
192,192,14720,1,0,0:0:0:0:
64,192,14892,1,0,0:0:0:70:LR_Clap Fast Low.wav
192,192,14892,1,0,0:0:0:0:
64,192,15234,1,0,0:0:0:70:LR_Clap Fast Low.wav
320,192,15234,1,0,0:0:0:0:
448,192,15234,1,0,0:0:0:0:
320,192,15406,1,0,0:0:0:70:LR_Clap Fast Low.wav
448,192,15406,1,0,0:0:0:0:
64,192,15577,1,0,0:0:0:70:LR_Clap Fast Low.wav
192,192,15577,1,0,0:0:0:0:
64,192,15749,1,0,0:0:0:70:LR_Clap Fast Low.wav
192,192,15749,1,0,0:0:0:0:
192,192,16092,1,4,0:0:0:0:
448,192,16092,1,0,0:0:0:70:LR_Clap Fast Low.wav
192,192,16263,1,0,0:0:0:70:LR_Clap Fast Low.wav
448,192,16263,1,0,0:0:0:0:
64,192,16434,1,0,0:0:0:70:LR_Clap Fast Low.wav
64,192,16606,1,4,0:0:0:0:
320,192,16606,1,0,0:0:0:70:LR_Clap Fast Low.wav
448,192,16606,1,0,0:0:0:0:
320,192,16949,1,0,0:0:0:70:LR_Clap Fast Low.wav
448,192,16949,1,0,0:0:0:0:
320,192,17292,1,0,0:0:0:70:LR_Clap Fast Low.wav
448,192,17292,1,0,0:0:0:0:
320,192,17463,1,0,0:0:0:70:LR_Clap Fast Low.wav
448,192,17463,1,0,0:0:0:0:
320,192,17634,1,0,0:0:0:70:LR_Clap Fast Low.wav
448,192,17634,1,0,0:0:0:0:
64,192,17977,1,0,0:0:0:70:LR_Clap Fast Low.wav
192,192,17977,1,0,0:0:0:0:
448,192,17977,1,0,0:0:0:0:
64,192,18149,1,0,0:0:0:70:LR_Clap Fast Low.wav
192,192,18149,1,0,0:0:0:0:
320,192,18320,1,0,0:0:0:70:LR_Clap Fast Low.wav
448,192,18320,1,0,0:0:0:0:
320,192,18492,1,0,0:0:0:70:LR_Clap Fast Low.wav
448,192,18492,1,0,0:0:0:0:
192,192,18663,1,0,0:0:0:0:
320,192,18749,1,0,0:0:0:0:
64,192,18834,1,0,0:0:0:0:
192,192,18920,1,0,0:0:0:0:
448,192,19006,1,0,0:0:0:0:
320,192,19092,1,0,0:0:0:0:
192,192,19177,1,0,0:0:0:70:LR_Tom Hit 2.wav
320,192,19263,1,0,0:0:0:70:LR_Tom Hit 3.wav
64,192,19349,1,2,0:0:0:0:
192,192,19349,1,4,0:0:0:0:
448,192,19349,128,0,19520:0:0:0:0:
64,192,19520,1,0,0:0:0:0:
192,192,19606,1,0,0:0:0:0:
320,192,19692,1,8,0:0:0:0:
448,192,19692,128,0,19863:0:0:0:0:
192,192,19863,128,0,20034:0:0:0:0:
320,192,20034,128,0,20206:0:0:0:0:
64,192,20206,128,2,20377:0:0:0:0:
192,192,20206,1,0,0:0:0:0:
320,192,20377,1,8,0:0:0:0:
448,192,20377,1,0,0:0:0:0:
192,192,20549,128,0,20720:0:0:0:0:
320,192,20720,128,0,20892:0:0:0:0:
64,192,20892,128,2,21063:0:0:0:0:
192,192,20892,1,0,0:0:0:0:
320,192,21063,1,8,0:0:0:0:
448,192,21063,128,0,21234:0:0:0:0:
192,192,21234,128,0,21406:0:0:0:0:
448,192,21406,1,0,0:0:0:0:
64,192,21577,128,2,21749:0:0:0:0:
192,192,21577,1,0,0:0:0:0:
320,192,21749,1,8,0:0:0:0:
448,192,21749,128,0,21920:0:0:0:0:
192,192,21920,128,0,22092:0:0:0:0:
64,192,22092,1,2,0:0:0:0:
448,192,22092,1,4,0:0:0:0:
320,192,22263,128,0,22434:0:0:0:0:
64,192,22434,1,8,0:0:0:0:
192,192,22434,128,0,22606:0:0:0:0:
448,192,22606,128,0,22777:0:0:0:0:
192,192,22777,1,0,0:0:0:0:
64,192,22949,1,2,0:0:0:0:
320,192,22949,128,0,23120:0:0:0:0:
192,192,23120,128,8,23292:0:0:0:0:
448,192,23120,1,0,0:0:0:0:
64,192,23292,128,0,23463:0:0:0:0:
320,192,23463,128,0,23634:0:0:0:0:
64,192,23634,1,2,0:0:0:0:
448,192,23634,1,0,0:0:0:0:
192,192,23720,1,0,0:0:0:0:
320,192,23806,1,8,0:0:0:0:
448,192,23806,128,0,23977:0:0:0:0:
192,192,23977,128,0,24149:0:0:0:0:
64,192,24149,128,2,24320:0:0:0:0:
320,192,24149,1,0,0:0:0:0:
192,192,24320,1,8,0:0:0:0:
448,192,24320,1,0,0:0:0:0:
320,192,24492,1,8,0:0:0:0:
448,192,24492,128,0,24663:0:0:0:0:
192,192,24663,128,0,24834:0:0:0:0:
64,192,24834,128,2,25177:0:0:0:0:
448,192,24834,128,4,25006:0:0:0:0:
320,192,25006,128,0,25177:0:0:0:0:
192,192,25177,128,2,25349:0:0:0:0:
448,192,25177,1,0,0:0:0:0:
448,192,25349,128,0,25520:0:0:0:0:
64,192,25520,128,2,25692:0:0:0:0:
192,192,25520,1,0,0:0:0:0:
320,192,25692,128,0,25863:0:0:0:0:
192,192,25863,128,2,26034:0:0:0:0:
448,192,25863,1,8,0:0:0:0:
64,192,26034,128,0,26206:0:0:0:0:
320,192,26206,1,2,0:0:0:0:
448,192,26206,128,0,26377:0:0:0:0:
192,192,26377,128,0,26549:0:0:0:0:
64,192,26549,1,2,0:0:0:0:
320,192,26549,128,0,26720:0:0:0:0:
448,192,26720,128,0,26892:0:0:0:0:
64,192,26892,128,2,27063:0:0:0:0:
320,192,26892,1,0,0:0:0:0:
192,192,27063,128,0,27234:0:0:0:0:
320,192,27234,128,2,27406:0:0:0:0:
448,192,27234,1,8,0:0:0:0:
64,192,27406,128,0,27577:0:0:0:0:
192,192,27577,1,4,0:0:0:0:
320,192,27577,1,2,0:0:0:0:
448,192,27577,128,0,27920:0:0:0:0:
64,192,27920,1,8,0:0:0:0:
192,192,27920,1,0,0:0:0:0:
320,192,28092,1,0,0:0:0:0:
192,192,28263,128,8,28606:0:0:0:0:
448,192,28263,1,0,0:0:0:0:
448,192,28434,1,2,0:0:0:0:
64,192,28606,1,8,0:0:0:0:
320,192,28606,1,0,0:0:0:0:
64,192,28777,1,2,0:0:0:0:
192,192,28777,1,0,0:0:0:0:
448,192,29120,128,0,29292:0:0:0:0:
192,192,29292,128,0,29463:0:0:0:0:
64,192,29463,128,0,29634:0:0:0:0:
320,192,29634,128,0,29806:0:0:0:0:
192,192,29806,128,0,29977:0:0:0:0:
64,192,29977,1,0,0:0:0:0:
448,192,29977,1,0,0:0:0:0:
64,192,30320,1,4,0:0:0:0:
320,192,30320,1,2,0:0:0:0:
448,192,30320,128,0,30492:0:0:0:0:
192,192,30492,128,0,30663:0:0:0:0:
320,192,30663,128,8,30834:0:0:0:0:
448,192,30663,1,0,0:0:0:0:
64,192,30834,128,2,31006:0:0:0:0:
192,192,30834,1,0,0:0:0:0:
448,192,31006,128,0,31177:0:0:0:0:
64,192,31177,1,2,0:0:0:0:
192,192,31177,128,0,31349:0:0:0:0:
320,192,31349,1,8,0:0:0:0:
448,192,31349,1,0,0:0:0:0:
320,192,31520,128,0,31692:0:0:0:0:
64,192,31692,1,2,0:0:0:0:
448,192,31692,128,0,31863:0:0:0:0:
192,192,31863,128,0,32034:0:0:0:0:
320,192,32034,128,8,32206:0:0:0:0:
448,192,32034,1,0,0:0:0:0:
64,192,32206,128,2,32377:0:0:0:0:
192,192,32206,1,0,0:0:0:0:
192,192,32549,128,2,32720:0:0:0:0:
448,192,32549,1,0,0:0:0:0:
64,192,32720,1,8,0:0:0:0:
320,192,32720,128,0,32892:0:0:0:0:
448,192,32892,128,0,33063:0:0:0:0:
64,192,33063,1,2,0:0:0:0:
192,192,33063,1,0,0:0:0:0:
320,192,33234,128,0,33406:0:0:0:0:
192,192,33406,128,8,33577:0:0:0:0:
448,192,33406,1,0,0:0:0:0:
64,192,33577,128,2,33749:0:0:0:0:
320,192,33577,1,0,0:0:0:0:
320,192,33920,1,2,0:0:0:0:
448,192,33920,128,0,34092:0:0:0:0:
64,192,34092,128,8,34263:0:0:0:0:
192,192,34092,1,0,0:0:0:0:
320,192,34263,128,0,34434:0:0:0:0:
64,192,34434,1,2,0:0:0:0:
192,192,34434,128,0,34606:0:0:0:0:
64,192,34777,128,8,34949:0:0:0:0:
448,192,34777,1,0,0:0:0:0:
320,192,34949,128,0,35120:0:0:0:0:
64,192,35120,1,2,0:0:0:0:
448,192,35120,128,0,35292:0:0:0:0:
192,192,35292,1,8,0:0:0:0:
320,192,35292,1,0,0:0:0:0:
64,192,35463,1,8,0:0:0:0:
192,192,35463,128,0,35634:0:0:0:0:
320,192,35634,128,0,35806:0:0:0:0:
64,192,35806,128,4,35977:0:0:0:0:
448,192,35806,128,2,36149:0:0:0:0:
192,192,35977,128,0,36149:0:0:0:0:
64,192,36149,1,8,0:0:0:0:
320,192,36149,128,0,36320:0:0:0:0:
64,192,36320,128,0,36492:0:0:0:0:
320,192,36492,1,2,0:0:0:0:
448,192,36492,128,0,36663:0:0:0:0:
192,192,36663,128,0,36834:0:0:0:0:
64,192,36834,1,8,0:0:0:0:
320,192,36834,128,0,37006:0:0:0:0:
448,192,37006,128,0,37177:0:0:0:0:
64,192,37177,128,2,37349:0:0:0:0:
192,192,37177,1,0,0:0:0:0:
320,192,37349,128,0,37520:0:0:0:0:
192,192,37520,128,8,37692:0:0:0:0:
448,192,37520,1,0,0:0:0:0:
64,192,37692,128,0,37863:0:0:0:0:
192,192,37863,1,2,0:0:0:0:
448,192,37863,128,0,38034:0:0:0:0:
320,192,38034,128,0,38206:0:0:0:0:
64,192,38206,1,8,0:0:0:0:
192,192,38206,128,0,38377:0:0:0:0:
448,192,38377,128,0,38549:0:0:0:0:
64,192,38549,128,2,38892:0:0:0:0:
192,192,38549,1,4,0:0:0:0:
320,192,38549,1,0,0:0:0:0:
448,192,38720,1,0,0:0:0:0:
320,192,38892,1,8,0:0:0:0:
448,192,38892,128,0,39063:0:0:0:0:
192,192,39063,128,0,39234:0:0:0:0:
320,192,39234,128,2,39577:0:0:0:0:
448,192,39234,1,4,0:0:0:0:
64,192,39406,1,0,0:0:0:0:
64,192,39577,128,8,39749:0:0:0:0:
192,192,39577,1,0,0:0:0:0:
448,192,39749,128,0,39920:0:0:0:0:
192,192,39920,128,2,40092:0:0:0:0:
320,192,39920,1,4,0:0:0:0:
64,192,40092,1,0,0:0:0:0:
192,192,40263,128,8,40434:0:0:0:0:
448,192,40263,1,0,0:0:0:0:
448,192,40434,1,0,0:0:0:0:
192,192,40606,1,2,0:0:0:0:
320,192,40606,128,4,40777:0:0:0:0:
448,192,40777,1,0,0:0:0:0:
64,192,40949,1,8,0:0:0:0:
320,192,40949,128,0,41120:0:0:0:0:
64,192,41120,128,0,41292:0:0:0:0:
192,192,41292,1,2,0:0:0:0:
320,192,41292,1,4,0:0:0:0:
448,192,41292,1,0,0:0:0:0:
64,192,41463,1,0,0:0:0:0:
320,192,41634,1,0,0:0:0:0:
64,192,41806,1,2,0:0:0:0:
192,192,41806,1,0,0:0:0:0:
320,192,41977,128,8,42320:0:0:0:0:
448,192,41977,1,0,0:0:0:0:
192,192,42320,1,0,0:0:0:0:
64,192,42492,128,0,42834:0:0:0:0:
320,192,42834,1,2,0:0:0:0:
448,192,42834,1,0,0:0:0:0:
192,192,43006,1,0,0:0:0:0:
320,192,43177,1,2,0:0:0:0:
448,192,43177,1,0,0:0:0:0:
64,192,43349,1,8,0:0:0:0:
192,192,43349,128,0,43692:0:0:0:0:
320,192,43692,1,0,0:0:0:0:
448,192,43863,1,0,0:0:0:0:
64,192,44034,128,2,44206:0:0:0:0:
192,192,44034,1,0,0:0:0:0:
320,192,44206,128,0,44377:0:0:0:0:
192,192,44377,128,0,44549:0:0:0:0:
320,192,44549,1,2,0:0:0:0:
448,192,44549,128,0,44720:0:0:0:0:
64,192,44720,128,8,44892:0:0:0:0:
192,192,44720,1,0,0:0:0:0:
320,192,44892,128,0,45063:0:0:0:0:
192,192,45063,128,0,45234:0:0:0:0:
64,192,45234,128,0,45406:0:0:0:0:
448,192,45406,128,0,45577:0:0:0:0:
64,192,45577,1,2,0:0:0:0:
320,192,45577,128,0,45749:0:0:0:0:
192,192,45749,128,0,45920:0:0:0:0:
320,192,45920,1,2,0:0:0:0:
448,192,45920,128,0,46092:0:0:0:0:
64,192,46092,128,8,46263:0:0:0:0:
192,192,46092,1,0,0:0:0:0:
320,192,46263,128,0,46434:0:0:0:0:
64,192,46434,128,4,46606:0:0:0:0:
320,192,46606,128,0,46777:0:0:0:0:
64,192,46777,1,2,0:0:0:0:
192,192,46777,1,4,0:0:0:0:
448,192,46777,1,0,0:0:0:0:
320,192,46949,1,0,0:0:0:0:
192,192,47120,1,0,0:0:0:0:
320,192,47292,1,2,0:0:0:0:
448,192,47292,1,0,0:0:0:0:
64,192,47463,1,8,0:0:0:0:
192,192,47463,128,0,47806:0:0:0:0:
320,192,47806,1,0,0:0:0:0:
448,192,47977,128,0,48320:0:0:0:0:
64,192,48320,1,2,0:0:0:0:
192,192,48320,1,0,0:0:0:0:
448,192,48492,1,0,0:0:0:0:
64,192,48663,1,2,0:0:0:0:
192,192,48663,1,0,0:0:0:0:
320,192,48834,128,8,49177:0:0:0:0:
448,192,48834,1,0,0:0:0:0:
192,192,49177,1,0,0:0:0:0:
192,192,49349,1,0,0:0:0:0:
320,192,49434,1,0,0:0:0:0:
64,192,49520,1,2,0:0:0:0:
448,192,49520,128,4,49692:0:0:0:0:
192,192,49692,128,0,49863:0:0:0:0:
64,192,49863,1,8,0:0:0:0:
320,192,49863,128,0,50034:0:0:0:0:
64,192,50034,128,2,50206:0:0:0:0:
320,192,50206,1,8,0:0:0:0:
448,192,50206,128,0,50377:0:0:0:0:
64,192,50377,1,2,0:0:0:0:
192,192,50377,128,0,50549:0:0:0:0:
320,192,50549,128,8,50720:0:0:0:0:
448,192,50549,1,0,0:0:0:0:
64,192,50720,1,2,0:0:0:0:
448,192,50720,128,0,50892:0:0:0:0:
64,192,50892,1,8,0:0:0:0:
192,192,50977,1,8,0:0:0:0:
320,192,51063,1,8,0:0:0:0:
448,192,51149,1,8,0:0:0:0:
64,192,51234,128,0,51406:0:0:0:70:LR_Tom Hit.wav
192,192,51234,1,0,0:0:0:0:
64,192,51577,128,0,51749:0:0:0:70:LR_Tom Hit 3.wav
320,192,51577,1,0,0:0:0:0:
64,192,51920,128,0,52092:0:0:0:70:LR_Clap Fast Low.wav
448,192,51920,128,0,52092:0:0:0:0:
64,192,52263,1,4,0:0:0:0:
320,192,52263,1,2,0:0:0:0:
448,192,52263,1,0,0:0:0:0:
192,192,52434,1,0,0:0:0:0:
320,192,52520,1,0,0:0:0:0:
64,192,52606,1,8,0:0:0:0:
192,192,52606,1,0,0:0:0:0:
448,192,52692,1,0,0:0:0:0:
64,192,52863,1,0,0:0:0:0:
320,192,52949,1,2,0:0:0:0:
448,192,52949,1,0,0:0:0:0:
320,192,53120,1,0,0:0:0:0:
64,192,53292,1,8,0:0:0:0:
192,192,53292,1,0,0:0:0:0:
192,192,53463,1,0,0:0:0:0:
64,192,53634,1,2,0:0:0:0:
448,192,53634,128,0,53977:0:0:0:0:
64,192,53806,128,0,53977:0:0:0:0:
192,192,53977,1,8,0:0:0:0:
320,192,53977,1,0,0:0:0:0:
320,192,54149,128,0,54492:0:0:0:0:
64,192,54320,1,2,0:0:0:0:
192,192,54320,1,0,0:0:0:0:
448,192,54492,1,0,0:0:0:0:
64,192,54663,128,8,55006:0:0:0:0:
448,192,54663,128,0,55006:0:0:0:0:
192,192,54834,1,0,0:0:0:0:
192,192,55006,1,2,0:0:0:0:
320,192,55006,1,0,0:0:0:0:
448,192,55177,1,0,0:0:0:0:
192,192,55263,1,0,0:0:0:0:
320,192,55349,1,8,0:0:0:0:
448,192,55349,1,0,0:0:0:0:
64,192,55520,1,0,0:0:0:0:
320,192,55606,1,0,0:0:0:0:
64,192,55692,1,2,0:0:0:0:
192,192,55692,1,0,0:0:0:0:
448,192,55863,1,0,0:0:0:0:
192,192,55949,1,0,0:0:0:0:
320,192,56034,1,8,0:0:0:0:
448,192,56034,1,0,0:0:0:0:
320,192,56206,1,0,0:0:0:0:
64,192,56377,128,2,56720:0:0:0:0:
448,192,56377,1,0,0:0:0:0:
448,192,56549,128,0,56720:0:0:0:0:
192,192,56720,1,8,0:0:0:0:
320,192,56720,1,0,0:0:0:0:
192,192,56892,128,0,57234:0:0:0:0:
320,192,57063,1,2,0:0:0:0:
448,192,57063,1,0,0:0:0:0:
64,192,57234,1,0,0:0:0:0:
64,192,57406,128,8,57749:0:0:0:0:
448,192,57406,128,0,57749:0:0:0:0:
320,192,57577,1,0,0:0:0:0:
192,192,57749,128,2,58092:0:0:0:0:
320,192,57749,128,4,58092:0:0:0:0:
64,192,58092,1,8,0:0:0:0:
448,192,58092,1,0,0:0:0:0:
64,192,58263,128,2,58606:0:0:0:0:
448,192,58263,1,0,0:0:0:0:
192,192,58606,1,2,0:0:0:0:
320,192,58606,1,0,0:0:0:0:
64,192,58777,1,8,0:0:0:0:
448,192,58777,128,0,58949:0:0:0:0:
320,192,58949,128,0,59120:0:0:0:0:
64,192,59120,128,2,59463:0:0:0:0:
192,192,59120,128,0,59463:0:0:0:0:
320,192,59463,1,8,0:0:0:0:
448,192,59463,1,0,0:0:0:0:
64,192,59634,128,2,59977:0:0:0:0:
192,192,59634,1,0,0:0:0:0:
192,192,59977,1,2,0:0:0:0:
320,192,59977,1,0,0:0:0:0:
64,192,60149,1,8,0:0:0:0:
448,192,60149,128,0,60320:0:0:0:0:
192,192,60320,1,2,0:0:0:0:
320,192,60320,128,4,60492:0:0:0:0:
64,192,60492,128,0,60834:0:0:0:0:
192,192,60663,1,2,0:0:0:0:
320,192,60834,1,8,0:0:0:0:
448,192,60834,1,0,0:0:0:0:
192,192,61006,1,0,0:0:0:0:
64,192,61177,1,8,0:0:0:0:
448,192,61177,128,0,61520:0:0:0:0:
320,192,61349,1,2,0:0:0:0:
64,192,61520,1,8,0:0:0:0:
192,192,61520,1,0,0:0:0:0:
320,192,61692,128,4,62892:0:0:0:0:
448,192,61692,1,2,0:0:0:0:
64,192,61863,128,0,62034:0:0:0:0:
448,192,62034,1,2,0:0:0:0:
64,192,62206,128,8,62377:0:0:0:0:
192,192,62206,1,0,0:0:0:0:
64,192,62549,128,2,62720:0:0:0:0:
448,192,62549,1,0,0:0:0:0:
64,192,62892,128,8,63063:0:0:0:0:
192,192,62892,1,0,0:0:0:0:
448,192,63063,128,0,63234:0:0:0:0:
192,192,63577,1,4,0:0:0:0:
320,192,63577,1,8,0:0:0:0:
448,192,63577,1,0,0:0:0:0:
320,192,63834,1,0,0:0:0:0:
64,192,63920,1,2,0:0:0:0:
192,192,63920,1,0,0:0:0:0:
64,192,64092,1,0,0:0:0:0:
320,192,64263,1,8,0:0:0:0:
448,192,64263,1,0,0:0:0:0:
320,192,64434,1,0,0:0:0:0:
64,192,64606,1,2,0:0:0:0:
448,192,64606,128,0,64949:0:0:0:0:
64,192,64777,128,0,64949:0:0:0:0:
192,192,64949,1,8,0:0:0:0:
320,192,64949,1,0,0:0:0:0:
320,192,65120,128,0,65463:0:0:0:0:
64,192,65292,1,2,0:0:0:0:
192,192,65292,1,0,0:0:0:0:
448,192,65463,1,0,0:0:0:0:
64,192,65634,128,8,65977:0:0:0:0:
448,192,65634,128,0,65977:0:0:0:0:
192,192,65806,1,0,0:0:0:0:
192,192,65977,1,2,0:0:0:0:
320,192,65977,1,0,0:0:0:0:
448,192,66149,1,0,0:0:0:0:
192,192,66234,1,0,0:0:0:0:
320,192,66320,1,8,0:0:0:0:
448,192,66320,1,0,0:0:0:0:
64,192,66492,1,0,0:0:0:0:
320,192,66577,1,0,0:0:0:0:
64,192,66663,1,2,0:0:0:0:
192,192,66663,1,0,0:0:0:0:
448,192,66834,1,0,0:0:0:0:
64,192,67006,1,8,0:0:0:0:
320,192,67006,1,0,0:0:0:0:
64,192,67177,128,2,67349:0:0:0:0:
192,192,67177,128,4,67349:0:0:0:0:
448,192,67177,1,0,0:0:0:0:
192,192,67520,1,2,0:0:0:0:
320,192,67520,128,4,67692:0:0:0:0:
448,192,67520,128,0,67692:0:0:0:0:
64,192,67863,1,2,0:0:0:0:
192,192,67863,128,4,68034:0:0:0:0:
320,192,67863,128,0,68034:0:0:0:0:
64,192,68206,1,4,0:0:0:0:
320,192,68206,1,2,0:0:0:0:
448,192,68206,1,0,0:0:0:0:
64,192,68377,1,8,0:0:0:0:
192,192,68377,1,0,0:0:0:0:
448,192,68377,1,0,0:0:0:0:
320,192,68549,128,0,68720:0:0:0:0:
64,192,68720,1,2,0:0:0:0:
192,192,68720,128,4,69234:0:0:0:0:
448,192,68720,1,0,0:0:0:0:
320,192,69234,1,2,0:0:0:0:
448,192,69234,128,0,69406:0:0:0:0:
64,192,69406,128,8,69749:0:0:0:0:
192,192,69406,1,0,0:0:0:0:
320,192,69749,128,0,69920:0:0:0:0:
64,192,70092,1,2,0:0:0:0:
192,192,70092,128,0,70606:0:0:0:0:
448,192,70092,1,0,0:0:0:0:
64,192,70606,1,2,0:0:0:0:
448,192,70606,128,0,70777:0:0:0:0:
192,192,70777,1,8,0:0:0:0:
320,192,70777,128,0,70949:0:0:0:0:
64,192,70949,128,0,71120:0:0:0:0:
192,192,71120,128,0,71292:0:0:0:0:
320,192,71292,128,0,71463:0:0:0:0:
64,192,71463,1,4,0:0:0:0:
192,192,71463,1,2,0:0:0:0:
448,192,71463,128,0,71806:0:0:0:0:
64,192,71806,1,8,0:0:0:0:
320,192,71806,1,0,0:0:0:0:
192,192,71977,1,0,0:0:0:0:
192,192,72149,1,2,0:0:0:0:
320,192,72149,1,0,0:0:0:0:
64,192,72320,1,2,0:0:0:0:
320,192,72320,1,0,0:0:0:0:
64,192,72492,1,8,0:0:0:0:
448,192,72492,1,0,0:0:0:0:
192,192,72663,1,0,0:0:0:0:
320,192,72834,1,0,0:0:0:0:
64,192,73006,1,2,0:0:0:0:
192,192,73006,1,0,0:0:0:0:
320,192,73177,1,8,0:0:0:0:
448,192,73177,1,0,0:0:0:0:
64,192,73520,1,2,0:0:0:0:
448,192,73520,1,0,0:0:0:0:
192,192,73692,1,2,0:0:0:0:
448,192,73692,1,0,0:0:0:0:
192,192,73863,1,8,0:0:0:0:
320,192,73863,1,0,0:0:0:0:
64,192,74206,128,4,74549:0:0:0:0:
320,192,74206,1,2,0:0:0:0:
448,192,74206,1,0,0:0:0:0:
192,192,74549,1,8,0:0:0:0:
448,192,74549,1,0,0:0:0:0:
192,192,74892,1,8,0:0:0:0:
448,192,74892,1,0,0:0:0:0:
192,192,75063,1,2,0:0:0:0:
320,192,75063,1,0,0:0:0:0:
64,192,75234,1,8,0:0:0:0:
320,192,75234,1,0,0:0:0:0:
64,192,75406,1,2,0:0:0:0:
192,192,75406,1,0,0:0:0:0:
320,192,75577,1,8,0:0:0:0:
448,192,75577,1,0,0:0:0:0:
320,192,75749,1,8,0:0:0:0:
448,192,75749,1,0,0:0:0:0:
64,192,75920,1,8,0:0:0:0:
192,192,75920,1,0,0:0:0:0:
64,192,76092,1,8,0:0:0:0:
192,192,76092,1,0,0:0:0:0:
320,192,76263,1,8,0:0:0:0:
448,192,76263,1,0,0:0:0:0:
64,192,76349,1,8,0:0:0:0:
320,192,76434,1,8,0:0:0:0:
192,192,76520,1,8,0:0:0:0:
448,192,76606,1,8,0:0:0:0:
320,192,76692,1,8,0:0:0:0:
64,192,76777,1,8,0:0:0:0:
192,192,76863,1,8,0:0:0:0:
64,192,76949,1,2,0:0:0:0:
320,192,76949,1,4,0:0:0:0:
448,192,76949,128,0,77292:0:0:0:0:
192,192,77292,128,0,77634:0:0:0:0:
64,192,77634,1,2,0:0:0:0:
320,192,77634,1,4,0:0:0:0:
448,192,77634,1,0,0:0:0:0:
192,192,77806,1,4,0:0:0:0:
448,192,77806,1,2,0:0:0:0:
64,192,78149,1,4,0:0:0:0:
192,192,78149,1,2,0:0:0:0:
448,192,78149,1,0,0:0:0:0:
64,192,78492,1,2,0:0:0:0:
320,192,78492,1,4,0:0:0:0:
320,192,78663,128,0,79006:0:0:0:0:
64,192,79006,1,2,0:0:0:0:
192,192,79006,128,4,79349:0:0:0:0:
64,192,79349,128,2,79692:0:0:0:0:
448,192,79349,1,4,0:0:0:0:
192,192,79692,1,2,0:0:0:0:
320,192,79692,1,4,0:0:0:0:
448,192,79692,128,0,80034:0:0:0:0:
64,192,80034,1,0,0:0:0:0:
64,192,80206,1,0,0:0:0:0:
320,192,80377,1,2,0:0:0:0:
448,192,80377,1,4,0:0:0:0:
320,192,80549,128,0,80892:0:0:0:0:
64,192,80892,1,2,0:0:0:0:
192,192,80892,1,4,0:0:0:0:
448,192,80892,1,0,0:0:0:0:
192,192,81063,128,8,81406:0:0:0:0:
448,192,81406,1,0,0:0:0:70:LR_Tom Hit.wav
320,192,81492,1,0,0:0:0:70:LR_Tom Hit.wav
192,192,81577,1,0,0:0:0:70:LR_Tom Hit 2.wav
64,192,81663,1,0,0:0:0:70:LR_Tom Hit 2.wav
320,192,81749,1,0,0:0:0:70:LR_Tom Hit 3.wav
192,192,81834,1,0,0:0:0:70:LR_Tom Hit 3.wav
448,192,81920,1,0,0:0:0:70:LR_Tom Hit 2.wav
320,192,82006,1,0,0:0:0:70:LR_Tom Hit 2.wav
64,192,82092,1,0,0:0:0:70:LR_Clap Fast Low.wav
192,192,82092,1,0,0:0:0:0:
448,192,82092,128,0,82434:0:0:0:0:
192,192,82434,128,2,82606:0:0:0:0:
320,192,82434,1,4,0:0:0:0:
64,192,82606,128,0,82777:0:0:0:0:
320,192,82777,128,8,82949:0:0:0:0:
448,192,82777,1,0,0:0:0:0:
192,192,82949,1,0,0:0:0:0:
64,192,83120,1,2,0:0:0:0:
448,192,83120,128,0,83292:0:0:0:0:
320,192,83292,128,0,83463:0:0:0:0:
64,192,83463,1,8,0:0:0:0:
192,192,83463,128,0,83634:0:0:0:0:
320,192,83634,1,0,0:0:0:0:
64,192,83806,128,2,83977:0:0:0:0:
448,192,83806,1,0,0:0:0:0:
192,192,83977,128,0,84149:0:0:0:0:
320,192,84149,1,8,0:0:0:0:
448,192,84149,128,0,84320:0:0:0:0:
64,192,84320,1,0,0:0:0:0:
192,192,84492,1,2,0:0:0:0:
320,192,84492,128,0,84663:0:0:0:0:
448,192,84663,128,0,84834:0:0:0:0:
64,192,84834,128,8,85006:0:0:0:0:
192,192,84834,1,0,0:0:0:0:
448,192,85006,1,0,0:0:0:0:
192,192,85177,128,4,85349:0:0:0:0:
320,192,85177,1,2,0:0:0:0:
64,192,85349,128,0,85520:0:0:0:0:
320,192,85520,128,8,85692:0:0:0:0:
448,192,85520,1,0,0:0:0:0:
192,192,85692,1,0,0:0:0:0:
64,192,85863,1,2,0:0:0:0:
448,192,85863,128,0,86034:0:0:0:0:
320,192,86034,128,0,86206:0:0:0:0:
64,192,86206,1,8,0:0:0:0:
192,192,86206,128,0,86377:0:0:0:0:
320,192,86377,1,0,0:0:0:0:
64,192,86549,128,2,86720:0:0:0:0:
448,192,86549,1,0,0:0:0:0:
192,192,86720,128,0,86892:0:0:0:0:
320,192,86892,128,8,87063:0:0:0:0:
448,192,86892,1,0,0:0:0:0:
64,192,87063,1,0,0:0:0:0:
192,192,87234,128,2,87406:0:0:0:0:
320,192,87234,1,0,0:0:0:0:
64,192,87406,1,8,0:0:0:0:
448,192,87406,128,0,87577:0:0:0:0:
64,192,87577,128,8,87749:0:0:0:0:
320,192,87577,1,0,0:0:0:0:
320,192,87749,128,2,87920:0:0:0:0:
448,192,87749,1,4,0:0:0:0:
192,192,87920,128,0,88092:0:0:0:0:
64,192,88092,1,2,0:0:0:0:
448,192,88092,128,0,88263:0:0:0:0:
192,192,88263,1,4,0:0:0:0:
320,192,88263,128,8,88434:0:0:0:0:
64,192,88434,1,0,0:0:0:0:
192,192,88606,128,8,88777:0:0:0:0:
448,192,88606,1,4,0:0:0:0:
320,192,88777,1,2,0:0:0:0:
448,192,88777,128,0,88949:0:0:0:0:
64,192,88949,128,8,89120:0:0:0:0:
192,192,88949,1,4,0:0:0:0:
320,192,89120,1,2,0:0:0:0:
448,192,89120,1,0,0:0:0:0:
64,192,89292,1,8,0:0:0:0:
320,192,89292,128,4,89463:0:0:0:0:
192,192,89463,128,0,89634:0:0:0:0:
64,192,89634,128,8,89806:0:0:0:0:
448,192,89634,1,4,0:0:0:0:
320,192,89806,1,0,0:0:0:0:
192,192,89977,128,4,90149:0:0:0:0:
448,192,89977,1,8,0:0:0:0:
64,192,90149,1,2,0:0:0:0:
320,192,90149,128,0,90320:0:0:0:0:
64,192,90320,1,8,0:0:0:0:
448,192,90320,128,4,90492:0:0:0:0:
192,192,90492,1,2,0:0:0:0:
320,192,90492,1,0,0:0:0:0:
64,192,91006,128,2,91349:0:0:0:0:
320,192,91006,128,4,91349:0:0:0:0:
64,192,91520,128,2,91863:0:0:0:0:
320,192,91520,128,4,91863:0:0:0:0:
192,192,92034,128,4,94949:0:0:0:0:
448,192,92034,128,2,94949:0:0:0:0:
