osu file format v14

[General]
AudioFilename: audio.mp3
AudioLeadIn: 0
PreviewTime: 51327
Countdown: 0
SampleSet: Soft
StackLeniency: 0.7
Mode: 0
LetterboxInBreaks: 0
WidescreenStoryboard: 1

[Editor]
DistanceSpacing: 1.1
BeatDivisor: 4
GridSize: 4
TimelineZoom: 1.8

[Metadata]
Title:HEART's KISS -Ai Solo Ver.-
TitleUnicode:HEART's♡KISS -アイ Solo Ver.-
Artist:B-Komachi Ai (CV: Takahashi Rie)
ArtistUnicode:B小町 アイ (CV: 高橋李依)
Creator:Kawasaki Sakura
Version:Insane
Source:【推しの子】
Tags:-karUpA- Asukow FreezingAnimenz Yogurtt eringira j-pop japanese pop jpop idol oshi no ko 星野アイ Hoshino Ai 【Oshi no Ko】Character Song キャラクターソング CD Vol.1 Volume One
BeatmapID:4272003
BeatmapSetID:2046526

[Difficulty]
HPDrainRate:5
CircleSize:4
OverallDifficulty:8
ApproachRate:8.8
SliderMultiplier:1.7
SliderTickRate:1

[Events]
//Background and Video events
0,0,"109811787_p0.jpg",0,0
//Break Periods
//Storyboard Layer 0 (Background)
//Storyboard Layer 1 (Fail)
//Storyboard Layer 2 (Pass)
//Storyboard Layer 3 (Foreground)
//Storyboard Layer 4 (Overlay)
//Storyboard Sound Samples

[TimingPoints]
260,337.078651685393,4,2,1,70,1,0
260,-100,4,2,1,70,0,0
2619,-83.3333333333333,4,2,1,70,0,0
2956,-100,4,2,1,75,0,0
12731,-142.857142857143,4,2,1,75,0,0
13743,-100,4,2,1,75,0,1
16102,-83.3333333333333,4,2,1,75,0,1
16439,-83.3333333333333,4,2,1,60,0,0
16776,-111.111111111111,4,2,1,60,0,0
21833,-100,4,2,1,70,0,0
27226,-100,4,2,1,60,0,0
27563,-111.111111111111,4,2,1,60,0,0
32619,-100,4,2,1,70,0,0
38012,-125,4,2,1,60,0,0
42731,-83.3333333333333,4,2,1,60,0,0
43406,-100,4,2,1,70,0,0
51495,-100,4,2,1,80,0,0
73068,-100,4,2,1,75,0,0
77451,-166.666666666667,4,2,1,75,0,0
78462,-100,4,2,1,75,0,1
81158,-100,4,2,1,75,0,0
83855,-200,4,2,1,75,0,0
85203,-125,4,2,1,75,0,0

[Colours]
Combo1 : 238,160,17
Combo2 : 159,87,247
Combo3 : 243,29,29
Combo4 : 233,67,163

[HitObjects]
120,173,260,5,10,0:0:0:0:
245,132,428,1,10,0:0:0:0:
210,220,597,2,0,P|200:130|217:44,1,170,10|10,0:0|0:0,0:0:0:0:
312,13,1102,1,10,0:0:0:0:
348,146,1271,2,0,P|356:194|341:242,1,85,10|0,0:0|0:0,0:0:0:0:
256,297,1608,5,10,0:0:0:0:
354,323,1776,1,10,0:0:0:0:
452,351,1945,1,10,0:0:0:0:
326,241,2113,6,0,P|234:254|117:263,1,170,10|0,0:0|1:2,0:0:0:0:
100,316,2535,1,0,1:2:0:0:
100,316,2619,2,0,P|117:258|90:155,1,152.999995330811,8|0,0:0|0:0,0:0:0:0:
36,108,2956,6,0,B|132:117|99:131|233:140,1,170,6|8,1:2|0:0,0:0:0:0:
253,69,3462,1,0,0:0:0:0:
248,215,3630,2,0,P|236:267|236:313,2,85,0|2|10,1:2|0:0|0:0,0:0:0:0:
468,262,4136,6,0,P|423:291|308:263,1,170,2|2,0:0|0:0,0:0:0:0:
351,117,4642,1,10,0:0:0:0:
227,165,4810,2,0,P|286:190|326:191,1,85,2|0,0:0|1:2,0:0:0:0:
330,3,5147,1,2,0:0:0:0:
275,106,5316,1,10,0:0:0:0:
429,209,5484,1,2,0:0:0:0:
486,109,5653,6,0,P|431:119|305:125,1,170,0|10,1:2|0:0,0:0:0:0:
191,203,6158,2,0,P|134:188|4:181,1,170,2|2,0:0|0:0,0:0:0:0:
127,148,6664,1,10,0:0:0:0:
76,289,6833,5,2,1:2:0:0:
76,289,6917,1,0,1:2:0:0:
76,289,7001,1,2,1:2:0:0:
206,348,7170,2,0,P|144:358|117:363,1,85,2|10,0:0|0:0,0:0:0:0:
298,285,7507,2,0,P|376:308|488:308,1,170,2|8,0:0|0:0,0:0:0:0:
339,189,8012,1,8,0:0:0:0:
214,267,8181,5,8,0:0:0:0:
214,267,8265,1,8,0:0:0:0:
214,267,8349,2,0,B|204:160|199:212|184:95,2,170,6|8|2,1:2|0:0|1:2,0:0:0:0:
223,103,9192,1,2,0:0:0:0:
99,142,9361,1,10,0:0:0:0:
297,169,9529,6,0,P|356:169|412:152,1,85,2|0,0:0|1:2,0:0:0:0:
421,73,9866,1,2,0:0:0:0:
365,206,10035,1,10,0:0:0:0:
211,187,10203,2,0,P|154:172|21:171,1,170,2|2,0:0|0:0,0:0:0:0:
102,0,10709,5,10,0:0:0:0:
149,89,10877,1,2,0:0:0:0:
0,106,11046,2,0,P|59:118|95:117,1,85,6|0,1:2|0:0,0:0:0:0:
160,253,11383,2,0,P|117:254|76:264,1,85,10|0,0:0|0:0,0:0:0:0:
76,264,11720,1,2,1:2:0:0:
207,353,11889,2,0,P|237:359|259:364,1,42.5,0|8,1:2|0:0,0:0:0:0:
338,325,12057,1,10,0:0:0:0:
338,325,12142,1,8,0:0:0:0:
338,325,12226,1,8,3:0:0:0:
253,212,12394,6,0,P|239:163|240:113,1,85,2|0,1:2|1:2,0:0:0:0:
253,0,12731,2,0,P|262:62|254:203,1,178.499994552612,14|0,0:0|1:2,0:0:0:0:
194,275,13406,1,4,3:0:0:0:
194,275,13743,6,0,P|136:270|14:245,2,170,10|10|10,0:0|0:0|0:0,0:0:0:0:
313,228,14585,1,8,0:0:0:0:
439,304,14754,1,10,0:0:0:0:
439,304,15091,5,10,0:0:0:0:
416,204,15259,1,10,0:0:0:0:
397,103,15428,1,10,0:0:0:0:
315,251,15597,2,0,P|385:236|521:237,1,170,10|10,0:0|0:0,0:0:0:0:
326,45,16102,1,14,0:0:0:0:
326,45,16439,5,8,0:0:0:0:
180,134,16608,1,8,0:0:0:0:
180,134,17619,6,0,P|187:180|164:298,1,152.999995330811,10|10,0:0|0:0,0:0:0:0:
51,203,18125,1,2,0:0:0:0:
51,203,19136,5,10,0:0:0:0:
101,18,19304,1,10,0:0:0:0:
101,18,20316,6,0,B|210:17|149:48|260:54,1,152.999995330811,10|10,0:0|0:0,0:0:0:0:
339,22,20821,1,10,3:0:0:0:
366,109,20990,1,4,3:0:0:0:
299,171,21158,1,8,0:0:0:0:
171,148,21327,5,10,3:0:0:0:
171,148,21411,1,8,3:0:0:0:
171,148,21495,2,0,L|122:160,3,38.2499988327027,10|8|6|4,3:0|3:0|3:0|3:0,0:0:0:0:
40,76,21833,2,0,P|27:137|52:239,1,170,6|10,1:2|0:0,0:0:0:0:
52,239,22507,2,0,P|98:245|152:247,1,85,2|0,1:2|0:0,0:0:0:0:
225,342,22844,2,0,P|179:336|125:334,1,85,10|0,0:0|0:0,0:0:0:0:
335,286,23181,5,2,1:2:0:0:
249,248,23349,2,0,P|248:305|261:344,1,85,2|8,0:0|0:0,0:0:0:0:
379,197,23686,2,0,P|300:210|208:188,1,170,2|2,0:0|0:0,0:0:0:0:
106,117,24192,1,8,0:0:0:0:
106,117,24529,6,0,B|109:215|128:175|133:311,2,170,0|8|0,1:2|0:0|1:2,0:0:0:0:
185,34,25372,1,0,0:0:0:0:
313,126,25540,2,0,P|381:125|446:72,1,127.5,12|0,0:0|0:0,0:0:0:0:
445,80,25877,5,10,0:0:0:0:
348,15,26046,1,10,3:0:0:0:
386,178,26215,1,6,3:0:0:0:
282,244,26383,2,0,P|292:179|292:64,1,170,2|2,1:2|1:2,0:0:0:0:
142,14,26889,6,0,P|100:-1|89:96,1,170,12|8,0:0|0:0,0:0:0:0:
261,163,27394,1,8,0:0:0:0:
261,163,28406,6,0,P|251:225|231:335,1,152.999995330811,10|10,0:0|0:0,0:0:0:0:
405,281,28911,1,2,0:0:0:0:
405,281,29922,5,10,0:0:0:0:
355,106,30091,1,10,0:0:0:0:
355,106,31102,6,0,B|300:107|300:107|261:133|261:133|184:133,1,152.999995330811,10|10,0:0|0:0,0:0:0:0:
148,52,31608,1,10,3:0:0:0:
207,159,31776,1,10,3:0:0:0:
117,206,31945,1,4,3:0:0:0:
154,277,32113,2,0,P|149:301|147:324,1,38.2499988327027,6|4,3:0|3:0,0:0:0:0:
10,366,32282,2,0,P|50:360|66:358,1,38.2499988327027,10|8,3:0|3:0,0:0:0:0:
73,279,32451,2,0,P|54:276|35:273,1,38.2499988327027,6|4,3:0|3:0,0:0:0:0:
177,327,32619,6,0,P|253:347|356:337,1,170,6|8,1:2|0:0,0:0:0:0:
336,126,33125,1,2,0:0:0:0:
265,182,33293,2,0,P|255:228|263:273,1,85,2|0,1:2|0:0,0:0:0:0:
440,235,33630,2,0,P|374:230|345:221,1,85,8|2,0:0|0:0,0:0:0:0:
176,173,33967,6,0,B|283:165|232:123|352:125,1,170,2|8,1:2|0:0,0:0:0:0:
181,71,34473,1,0,0:0:0:0:
92,145,34642,2,0,P|39:162|2:164,1,85,2|8,1:2|0:0,0:0:0:0:
35,42,34979,1,8,0:0:0:0:
166,172,35147,2,0,P|163:205|159:223,1,42.5,8|8,3:0|3:0,0:0:0:0:
98,265,35316,5,2,1:2:0:0:
103,279,35484,1,2,0:0:0:0:
115,293,35653,1,10,0:0:0:0:
154,308,35821,1,2,0:0:0:0:
213,311,35990,1,2,1:2:0:0:
280,276,36158,1,2,0:0:0:0:
310,187,36327,1,10,0:0:0:0:
275,82,36495,1,2,0:0:0:0:
218,202,36664,5,10,0:0:0:0:
218,202,36833,1,0,1:2:0:0:
395,291,37001,2,0,P|413:242|417:109,1,170,14|10,0:0|0:0,0:0:0:0:
273,53,37591,5,10,3:0:0:0:
122,151,37844,5,6,3:0:0:0:
39,109,38012,6,0,P|95:117|194:118,1,136,6|2,1:2|0:0,0:0:0:0:
273,53,38518,2,0,P|290:112|269:196,1,136,2|0,1:2|1:2,0:0:0:0:
181,244,39024,2,0,P|237:226|342:246,1,136,8|2,0:0|1:2,0:0:0:0:
383,303,39529,1,0,1:2:0:0:
512,264,39866,2,0,P|443:274|368:284,1,136,2|2,1:2|1:2,0:0:0:0:
274,346,40372,1,8,0:0:0:0:
78,338,40709,6,0,P|66:284|85:189,1,136,2|0,1:2|0:0,0:0:0:0:
160,141,41215,2,0,P|172:207|159:273,1,136,0|0,1:2|1:2,0:0:0:0:
300,173,41720,1,10,0:0:0:0:
245,82,41889,1,2,1:2:0:0:
263,257,42057,6,0,P|274:305|280:351,1,68,12|8,0:0|3:0,0:0:0:0:
380,241,42394,2,0,L|426:233,2,34,4|4|0,3:0|3:0|1:2,0:0:0:0:
284,137,42731,6,0,P|217:113|129:125,1,152.999995330811,10|0,0:0|0:0,0:0:0:0:
46,75,43068,6,0,P|63:186|73:241,1,152.999995330811,10|0,0:0|0:0,0:0:0:0:
90,248,43406,5,6,1:2:0:0:
33,330,43574,1,2,1:2:0:0:
239,374,43743,1,10,0:0:0:0:
191,253,43911,2,0,P|248:288|364:264,1,170,6|2,1:2|1:2,0:0:0:0:
291,99,44417,1,10,0:0:0:0:
270,187,44585,6,0,P|274:248|265:286,1,85,2|0,1:2|0:0,0:0:0:0:
98,199,44922,2,0,P|140:204|182:198,1,85,2|0,1:2|0:0,0:0:0:0:
367,161,45259,2,0,P|324:155|282:161,1,85,2|0,1:2|0:0,0:0:0:0:
149,0,45597,1,0,1:2:0:0:
149,0,45681,1,0,1:2:0:0:
149,0,45765,2,0,P|138:52|138:145,1,127.5,12|0,0:0|0:0,0:0:0:0:
144,145,46102,6,0,P|211:137|326:126,1,170,6|8,1:2|0:0,0:0:0:0:
401,97,46608,1,2,0:0:0:0:
482,142,46776,1,2,1:2:0:0:
472,235,46945,1,0,1:2:0:0:
386,272,47113,2,0,P|377:221|391:173,1,85,8|2,0:0|0:0,0:0:0:0:
487,336,47451,6,0,P|412:317|308:339,1,170,2|8,1:2|0:0,0:0:0:0:
173,363,47956,1,2,0:0:0:0:
253,285,48125,1,2,1:2:0:0:
143,190,48293,1,0,1:2:0:0:
307,223,48462,1,8,0:0:0:0:
229,98,48630,1,2,1:2:0:0:
170,281,48799,6,0,P|160:223|171:176,1,85,14|0,0:0|1:2,0:0:0:0:
370,234,49136,2,0,P|328:243|286:240,1,85,10|0,0:0|1:2,0:0:0:0:
286,240,49389,1,8,0:0:0:0:
286,240,49473,1,10,0:0:0:0:
459,293,49642,1,0,1:2:0:0:
335,157,49810,1,6,3:0:0:0:
451,100,49979,5,14,0:0:0:0:
335,349,50316,1,10,0:0:0:0:
155,302,50484,1,10,0:0:0:0:
155,302,50990,5,0,1:2:0:0:
155,302,51074,1,0,1:2:0:0:
155,302,51158,2,0,P|169:239|161:152,1,127.5,12|0,0:0|0:0,0:0:0:0:
144,150,51495,6,0,P|87:137|55:129,2,85,6|2|10,1:2|0:0|0:0,0:0:0:0:
334,107,52001,2,0,B|345:62|345:62|343:19,1,85,2|0,0:0|1:2,0:0:0:0:
256,177,52338,2,0,P|256:243|251:272,1,85,2|8,0:0|0:0,0:0:0:0:
418,351,52675,5,2,1:2:0:0:
418,351,52759,1,0,1:2:0:0:
418,351,52844,1,0,1:2:0:0:
357,238,53012,1,2,0:0:0:0:
238,280,53181,1,10,0:0:0:0:
131,171,53349,1,2,0:0:0:0:
194,362,53518,2,0,P|207:308|206:192,1,170,2|10,1:2|0:0,0:0:0:0:
89,240,54024,1,2,0:0:0:0:
251,127,54192,1,0,1:2:0:0:
251,127,54529,6,0,B|344:136|301:152|425:169,1,170,10|2,0:0|1:2,0:0:0:0:
482,34,55035,2,0,P|427:58|388:61,1,85,0|10,0:0|0:0,0:0:0:0:
173,81,55372,2,0,P|163:136|180:187,1,85,2|0,0:0|1:2,0:0:0:0:
268,260,55709,2,0,L|260:303,1,42.5,10|8,0:0|0:0,0:0:0:0:
147,332,55877,5,10,0:0:0:0:
147,332,55962,1,8,0:0:0:0:
147,332,56046,1,10,3:0:0:0:
147,332,56130,1,8,3:0:0:0:
147,332,56215,1,2,1:2:0:0:
297,274,56383,1,0,1:2:0:0:
249,88,56552,2,0,P|244:143|255:276,1,170,14|6,0:0|1:2,0:0:0:0:
349,338,57057,5,2,0:0:0:0:
471,249,57226,1,10,0:0:0:0:
389,123,57394,2,0,P|378:171|377:217,1,85,2|0,0:0|1:2,0:0:0:0:
226,112,57731,2,0,P|215:70|213:28,1,85,2|8,0:0|0:0,0:0:0:0:
71,121,58068,6,0,B|80:176|80:176|71:223|71:223|81:295,1,170,2|2,0:0|0:0,0:0:0:0:
153,96,58574,1,10,0:0:0:0:
38,203,58743,1,2,0:0:0:0:
226,230,58911,2,0,P|270:240|323:240,1,85,2|0,1:2|0:0,0:0:0:0:
363,68,59248,1,10,0:0:0:0:
278,155,59417,1,2,0:0:0:0:
422,308,59585,1,0,1:2:0:0:
422,308,59922,6,0,P|321:326|248:348,1,170,10|2,0:0|1:2,0:0:0:0:
111,276,60428,1,0,0:0:0:0:
151,134,60597,1,10,0:0:0:0:
58,222,60765,6,0,B|75:325|93:293|111:419,1,170,2|10,0:0|0:0,0:0:0:0:
239,257,61271,1,10,0:0:0:0:
239,257,61355,1,0,1:2:0:0:
239,257,61439,1,2,1:2:0:0:
151,134,61608,2,0,P|135:81|143:33,1,85,8|8,0:0|0:0,0:0:0:0:
151,46,61861,1,8,0:0:0:0:
162,41,61945,2,0,L|214:50,3,42.5,8|8|8|8,0:0|0:0|0:0|0:0,0:0:0:0:
293,135,62282,6,0,P|352:138|379:129,1,85,6|0,1:2|0:0,0:0:0:0:
325,316,62619,2,0,P|319:274|329:232,1,85,8|0,0:0|0:0,0:0:0:0:
499,262,62956,2,0,B|453:277|453:277|415:272,1,85,0|0,1:2|0:0,0:0:0:0:
240,187,63293,1,8,0:0:0:0:
288,51,63462,5,2,1:2:0:0:
288,51,63546,1,0,1:2:0:0:
288,51,63630,2,0,P|282:116|271:232,1,170,2|10,1:2|0:0,0:0:0:0:
146,302,64136,2,0,P|96:299|56:273,1,85,2|0,0:0|1:2,0:0:0:0:
128,121,64473,2,0,P|127:170|130:214,1,85,2|8,0:0|0:0,0:0:0:0:
129,205,64979,6,0,B|188:215|188:215|230:235|230:235|297:245,1,170,2|8,1:2|0:0,0:0:0:0:
456,274,65484,1,0,1:2:0:0:
456,274,65568,1,8,0:0:0:0:
456,274,65653,1,2,1:2:0:0:
366,153,65821,2,0,P|303:167|276:167,1,85,2|0,1:2|0:0,0:0:0:0:
425,384,66158,6,0,P|426:337|420:185,1,170,6|0,1:2|1:2,0:0:0:0:
491,29,66664,2,0,P|486:90|483:137,1,85,8|0,0:0|1:2,0:0:0:0:
484,113,66917,1,0,1:2:0:0:
484,113,67001,1,8,0:0:0:0:
399,73,67170,1,0,0:0:0:0:
264,118,67338,5,8,0:0:0:0:
264,118,67422,1,8,0:0:0:0:
264,118,67507,1,8,0:0:0:0:
264,118,67591,1,8,0:0:0:0:
264,118,67675,2,0,P|196:128|82:88,1,170,6|8,1:2|0:0,0:0:0:0:
198,9,68181,1,2,0:0:0:0:
171,209,68349,2,0,P|158:270|161:307,1,85,2|2,1:2|0:0,0:0:0:0:
81,177,68686,1,10,0:0:0:0:
228,352,68855,6,0,P|181:333|48:365,1,170,10|8,0:0|0:0,0:0:0:0:
296,284,69361,1,8,0:0:0:0:
296,284,70372,5,10,0:0:0:0:
362,179,70540,1,10,0:0:0:0:
203,225,70709,2,0,P|151:226|101:221,1,85,10|0,0:0|0:0,0:0:0:0:
176,83,71046,5,10,0:0:0:0:
278,144,71215,1,10,0:0:0:0:
396,87,71383,2,0,P|451:104|496:111,1,85,10|0,0:0|0:0,0:0:0:0:
449,16,71720,5,10,0:0:0:0:
303,51,71889,1,10,0:0:0:0:
430,193,72057,1,10,0:0:0:0:
351,280,72226,2,0,P|341:226|363:109,1,170,10|0,0:0|1:2,0:0:0:0:
360,113,72647,1,0,1:2:0:0:
360,113,72731,1,8,0:0:0:0:
118,334,73068,6,0,B|105:227|92:278|84:163,2,170,6|8|0,1:2|0:0|1:2,0:0:0:0:
139,112,73911,2,0,P|84:123|43:125,1,85,2|10,0:0|0:0,0:0:0:0:
229,200,74248,6,0,P|276:211|401:173,1,170,2|2,0:0|0:0,0:0:0:0:
307,42,74754,1,10,0:0:0:0:
307,42,74922,2,0,P|293:93|305:151,1,85,2|0,0:0|1:2,0:0:0:0:
218,12,75259,1,2,0:0:0:0:
386,93,75428,1,10,0:0:0:0:
177,153,75597,1,2,0:0:0:0:
412,164,75765,6,0,B|424:117|424:117|416:65,1,85,6|0,1:2|0:0,0:0:0:0:
297,229,76102,2,0,B|285:276|285:276|291:313,1,85,10|0,0:0|0:0,0:0:0:0:
468,289,76439,2,0,P|424:287|372:270,1,85,2|8,1:2|0:0,0:0:0:0:
196,236,76776,5,10,0:0:0:0:
196,236,76861,1,8,0:0:0:0:
196,236,76945,1,8,3:0:0:0:
235,114,77113,1,2,1:2:0:0:
370,194,77282,1,0,1:2:0:0:
227,325,77451,2,0,P|163:314|53:313,1,152.999995330811,14|0,0:0|1:2,0:0:0:0:
10,360,78125,1,0,1:2:0:0:
181,50,78462,6,0,P|156:108|161:227,2,170,10|10|10,0:0|0:0|0:0,0:0:0:0:
132,225,79304,1,8,0:0:0:0:
317,137,79473,2,0,P|266:150|219:145,1,85,10|0,0:0|0:0,0:0:0:0:
406,182,79810,5,10,0:0:0:0:
253,61,79979,1,10,0:0:0:0:
395,7,80147,1,10,0:0:0:0:
287,164,80316,2,0,P|270:209|299:360,1,170,10|10,0:0|0:0,0:0:0:0:
455,350,80821,1,14,0:0:0:0:
455,350,81158,6,0,P|460:293|469:259,2,85,14|0|0,0:0|1:2|1:2,0:0:0:0:
341,230,81664,1,10,0:0:0:0:
394,125,81833,1,0,1:2:0:0:
382,301,82001,1,0,1:2:0:0:
184,257,82170,5,10,0:0:0:0:
312,220,82338,1,0,1:2:0:0:
142,242,82507,1,0,1:2:0:0:
250,356,82675,6,0,P|264:301|262:258,1,85,10|0,0:0|1:2,0:0:0:0:
213,75,83012,1,0,1:2:0:0:
213,75,83097,1,8,0:0:0:0:
213,75,83181,2,0,P|214:117|226:157,1,85,10|8,0:0|3:0,0:0:0:0:
372,113,83518,1,10,3:0:0:0:
304,19,83686,1,4,3:0:0:0:
335,222,83855,1,6,1:2:0:0:
256,192,83939,12,14,85203,0:0:0:0:
