osu file format v14

[General]
AudioFilename: audio.mp3
AudioLeadIn: 0
PreviewTime: 49684
Countdown: 0
SampleSet: Soft
StackLeniency: 0.7
Mode: 2
LetterboxInBreaks: 0
WidescreenStoryboard: 1

[Editor]
DistanceSpacing: 0.4
BeatDivisor: 4
GridSize: 8
TimelineZoom: 1.9

[Metadata]
Title:Sign wa B -New Arrange Ver.- (TV Size)
TitleUnicode:サインはB -New Arrange Ver.- (TV Size)
Artist:B-Komachi
ArtistUnicode:B小町
Creator:Verti
Version:Salad
Source:【推しの子】
Tags:oshinoko [oshi no ko] japanese pop jpop j-pop anime insert song 新生 shinsei ルビー 伊駒ゆりえ 有馬かな 潘めぐみ MEMちょ 大久保瑠美 Ruby Igoma Yurie Arima Kana Han Megumi MEMcho mem-cho Okubo Rumi -Aku bad mapper overranked juansy- stardust prism -rustyy aryssiel bad_mapper stardust_prism juanfmlal
BeatmapID:4209481
BeatmapSetID:2020349

[Difficulty]
HPDrainRate:3
CircleSize:3
OverallDifficulty:7
ApproachRate:7
SliderMultiplier:1.48
SliderTickRate:1

[Events]
//Background and Video events
0,0,"1320319.jpg",0,0
//Break Periods
//Storyboard Layer 0 (Background)
//Storyboard Layer 1 (Fail)
//Storyboard Layer 2 (Pass)
//Storyboard Layer 3 (Foreground)
//Storyboard Layer 4 (Overlay)
//Storyboard Sound Samples

[TimingPoints]
484,342.857142857143,4,2,1,50,1,0
3226,-100,4,2,1,55,0,0
5969,-100,4,2,1,60,0,0
11455,-100,4,2,1,55,0,0
12826,-100,4,2,1,60,0,0
14198,-100,4,2,1,65,0,0
15569,-100,4,2,1,70,0,0
16598,-100,4,2,2,70,0,0
16941,-100,4,2,1,60,0,0
27398,-100,4,2,2,60,0,0
27912,-100,4,2,1,60,0,0
38884,-100,4,2,1,65,0,0
44369,-100,4,2,1,70,0,0
49855,-100,4,2,1,75,0,1
50026,-100,4,2,2,75,0,1
50198,-100,4,2,1,75,0,1
50369,-100,4,2,2,75,0,1
50541,-100,4,2,1,75,0,1
50712,-100,4,2,2,75,0,1
50884,-100,4,2,1,75,0,1
51055,-100,4,2,2,75,0,1
51226,-100,4,2,1,75,0,1
51398,-100,4,2,2,75,0,1
51569,-100,4,2,1,75,0,1
51741,-100,4,2,2,75,0,1
51912,-100,4,2,1,75,0,1
52084,-100,4,2,2,75,0,1
52255,-100,4,2,1,75,0,1
52426,-100,4,2,2,75,0,1
52598,-100,4,2,1,75,0,1
52769,-100,4,2,2,75,0,1
52941,-100,4,2,1,75,0,1
53112,-100,4,2,2,75,0,1
53284,-100,4,2,1,75,0,1
53455,-100,4,2,2,75,0,1
53626,-100,4,2,1,75,0,1
53798,-100,4,2,2,75,0,1
53969,-100,4,2,1,75,0,1
54141,-100,4,2,2,75,0,1
54312,-100,4,2,1,75,0,1
54484,-100,4,2,2,75,0,1
54655,-100,4,2,1,75,0,1
54826,-100,4,2,2,75,0,1
54998,-100,4,2,1,75,0,1
55169,-100,4,2,2,75,0,1
55341,-100,4,2,1,75,0,1
55512,-100,4,2,2,75,0,1
55684,-100,4,2,1,75,0,1
55855,-100,4,2,2,75,0,1
56026,-100,4,2,1,75,0,1
56198,-100,4,2,2,75,0,1
56369,-100,4,2,1,75,0,1
56541,-100,4,2,2,75,0,1
56712,-100,4,2,1,75,0,1
56884,-100,4,2,2,75,0,1
57055,-100,4,2,1,75,0,1
57226,-100,4,2,2,75,0,1
57398,-100,4,2,1,75,0,1
57569,-100,4,2,2,75,0,1
57741,-100,4,2,1,75,0,1
58254,-100,4,2,2,75,0,1
58426,-100,4,2,1,75,0,1
58598,-100,4,2,2,75,0,1
58769,-100,4,2,1,75,0,1
58941,-100,4,2,2,75,0,1
59112,-100,4,2,1,75,0,1
60826,-100,4,2,1,50,0,0
61169,-100,4,2,1,75,0,1
61341,-100,4,2,2,75,0,1
61512,-100,4,2,1,75,0,1
61684,-100,4,2,2,75,0,1
61855,-100,4,2,1,75,0,1
62026,-100,4,2,2,75,0,1
62198,-100,4,2,1,75,0,1
62369,-100,4,2,2,75,0,1
62541,-100,4,2,1,75,0,1
62712,-100,4,2,2,75,0,1
62884,-100,4,2,1,75,0,1
63055,-100,4,2,2,75,0,1
63226,-100,4,2,1,75,0,1
63398,-100,4,2,2,75,0,1
63569,-100,4,2,1,75,0,1
63741,-100,4,2,2,75,0,1
63912,-100,4,2,1,75,0,1
64084,-100,4,2,2,75,0,1
64255,-100,4,2,1,75,0,1
64426,-100,4,2,2,75,0,1
64598,-100,4,2,1,75,0,1
66312,-100,4,2,1,60,0,0
74541,-100,4,2,1,65,0,0
80026,-100,4,2,1,70,0,0

[Colours]
Combo1 : 62,62,255
Combo2 : 255,255,28
Combo3 : 230,0,0
Combo4 : 202,202,202

[HitObjects]
160,264,483,6,0,L|160:112,1,148,6|2,3:0|0:3,0:0:0:0:
240,176,998,2,0,L|240:24,1,148,0|0,3:0|0:0,0:0:0:0:
88,176,1684,6,0,L|248:176,1,148,2|2,3:0|0:3,0:0:0:0:
384,176,2369,1,0,3:0:0:0:
232,152,2712,2,0,L|152:152,2,74,8|8|8,0:3|0:3|0:3,0:0:0:0:
400,232,3226,6,0,L|400:72,1,148,4|2,3:0|0:3,0:0:0:0:
320,88,3741,2,0,L|480:88,1,148,2|2,0:3|0:3,0:0:0:0:
200,160,4426,6,0,L|104:160,2,74,4|0|8,3:0|0:0|3:0,0:0:0:0:
280,168,4941,2,0,L|120:168,1,148,8|8,3:0|3:0,0:0:0:0:
280,168,5626,1,2,3:2:0:0:
16,192,5969,6,0,L|16:32,1,148,4|10,3:0|3:0,0:0:0:0:
168,112,6655,1,0,3:0:0:0:
96,112,6826,1,2,0:3:0:0:
24,112,6998,1,10,3:0:0:0:
288,184,7341,6,0,L|376:184,2,74,0|2|10,3:0|0:3|3:0,0:0:0:0:
136,104,8026,2,0,L|48:104,2,74,0|2|10,3:0|0:3|3:0,0:0:0:0:
408,176,8712,6,0,L|408:80,1,74,0|2,3:0|0:3,0:0:0:0:
328,80,9055,1,10,3:0:0:0:
248,72,9226,2,0,L|400:72,1,148,2|2,0:3|0:3,0:0:0:0:
472,72,9741,1,10,3:0:0:0:
304,168,9912,6,0,L|144:168,1,148,4|2,0:3|0:3,0:0:0:0:
232,128,10426,1,8,3:0:0:0:
384,120,10769,2,0,L|472:120,2,74,0|2|8,3:0|0:3|3:0,0:0:0:0:
120,256,11455,6,0,L|120:160,1,74,2|2,3:0|0:3,0:0:0:0:
200,176,11798,2,0,L|200:80,1,74,10|2,3:0|0:3,0:0:0:0:
120,184,12141,2,0,L|32:184,2,74,2|2|10,3:0|3:0|3:0,0:0:0:0:
384,128,12826,6,0,L|464:128,2,74,0|0|8,3:0|3:0|3:0,0:0:0:0:
304,128,13341,1,0,3:0:0:0:
456,104,13684,2,0,L|456:24,1,74,2|2,3:0|3:0,0:0:0:0:
192,256,14198,6,0,L|192:160,1,74,0|0,3:0|0:0,0:0:0:0:
272,176,14541,2,0,L|272:80,1,74,8|0,3:0|0:0,0:0:0:0:
192,184,14884,1,0,3:0:0:0:
272,176,15055,1,0,3:0:0:0:
352,160,15226,1,8,3:0:0:0:
80,104,15569,6,0,L|80:24,1,74,0|8,3:0|3:0,0:0:0:0:
160,104,15912,1,8,3:0:0:0:
123,104,15997,1,8,3:0:0:0:
86,104,16083,1,8,3:0:0:0:
160,104,16255,1,0,3:0:0:0:
240,104,16426,2,0,L|152:104,1,74,8|8,3:0|3:0,0:0:0:0:
123,104,16684,1,8,3:0:0:0:
80,104,16769,1,4,3:0:0:0:
248,176,16941,6,0,L|336:176,2,74,4|0|8,3:0|0:0|3:0,0:0:0:0:
96,176,17626,2,0,L|96:96,1,74,0|0,3:0|3:0,0:0:0:0:
360,112,18140,6,0,L|448:112,2,74,0|0|0,3:0|0:0|3:0,0:0:0:0:
280,112,18655,2,0,L|368:112,1,74,8|0,3:0|0:0,0:0:0:0:
496,160,19169,2,0,L|496:80,1,74,0|8,3:0|3:0,0:0:0:0:
424,64,19512,1,0,0:0:0:0:
345,65,19683,6,0,L|249:65,2,74,0|0|8,3:0|0:0|3:0,0:0:0:0:
424,64,20198,1,0,0:0:0:0:
265,65,20541,1,0,3:0:0:0:
345,65,20712,1,8,3:0:0:0:
425,65,20884,1,0,3:0:0:0:
265,65,21055,5,0,0:0:0:0:
185,73,21226,1,0,3:0:0:0:
145,81,21311,1,0,0:0:0:0:
185,73,21397,1,8,3:0:0:0:
328,176,21741,1,0,3:0:0:0:
408,152,21912,1,0,3:0:0:0:
408,88,22084,1,8,3:0:0:0:
328,128,22255,1,0,0:0:0:0:
256,128,22426,6,0,P|168:120|168:48,1,148,0|8,3:0|3:0,0:0:0:0:
304,128,23112,2,0,L|304:40,1,74,0|0,3:0|3:0,0:0:0:0:
224,88,23455,1,8,3:0:0:0:
64,176,23626,6,0,L|64:16,1,148,0|0,3:0|3:0,0:0:0:0:
144,104,24141,1,8,3:0:0:0:
296,160,24484,2,0,L|208:160,1,74,0|0,3:0|3:0,0:0:0:0:
152,104,24826,2,0,L|232:104,1,74,8|0,3:0|0:0,0:0:0:0:
384,128,25169,6,0,P|432:72|376:32,1,148,4|8,3:0|3:0,0:0:0:0:
232,64,25855,1,0,3:0:0:0:
312,64,26026,1,0,3:0:0:0:
392,64,26198,1,8,3:0:0:0:
224,128,26369,6,0,L|72:128,1,148,4|8,3:0|3:0,0:0:0:0:
152,88,26884,1,8,3:0:0:0:
232,80,27055,1,0,0:0:0:0:
152,88,27226,1,8,3:0:0:0:
72,168,27398,2,0,L|72:88,1,74,2|8,3:0|3:0,0:0:0:0:
152,88,27741,1,4,3:0:0:0:
320,176,27912,6,0,L|416:176,2,74,4|0|8,3:0|0:0|3:0,0:0:0:0:
168,144,28598,2,0,L|168:64,1,74,0|0,3:0|0:0,0:0:0:0:
320,200,29112,5,0,0:0:0:0:
400,192,29284,1,0,3:0:0:0:
320,200,29455,1,0,0:0:0:0:
240,200,29626,1,8,3:0:0:0:
320,200,29798,1,0,0:0:0:0:
168,144,30141,2,0,L|168:64,1,74,0|8,0:0|3:0,0:0:0:0:
248,64,30483,1,0,0:0:0:0:
424,136,30655,6,0,L|504:136,1,74,0|0,3:0|0:0,0:0:0:0:
424,104,30998,2,0,L|328:104,1,74,8|0,3:0|0:0,0:0:0:0:
200,168,31512,2,0,L|288:168,1,74,0|8,0:0|3:0,0:0:0:0:
352,184,31855,1,0,0:0:0:0:
184,184,32026,6,0,L|16:184,1,148,0|8,3:0|3:0,0:0:0:0:
128,144,32541,1,0,0:0:0:0:
216,136,32712,1,0,3:0:0:0:
64,152,33055,2,0,L|64:64,1,74,8|0,3:0|0:0,0:0:0:0:
232,256,33398,6,0,L|232:104,1,148,4|8,3:0|3:0,0:0:0:0:
152,112,33912,1,0,0:0:0:0:
72,104,34084,2,0,L|72:16,1,74,0|0,3:0|0:0,0:0:0:0:
152,88,34426,1,8,3:0:0:0:
320,176,34598,6,0,L|480:176,1,148
392,136,35112,1,8,3:0:0:0:
240,136,35455,1,0,3:0:0:0:
160,136,35626,1,0,0:0:0:0:
160,136,35798,1,8,3:0:0:0:
328,248,35969,6,0,L|328:96,1,148,4|0,3:0|3:0,0:0:0:0:
248,80,36484,1,8,3:0:0:0:
168,80,36655,2,0,L|320:80,1,148,0|0,3:0|3:0,0:0:0:0:
392,80,37169,1,8,3:0:0:0:
224,152,37341,6,0,L|64:152,1,148,4|4,3:0|3:0,0:0:0:0:
152,120,37855,1,8,3:0:0:0:
304,208,38198,1,8,3:0:0:0:
378,208,38369,1,8,3:0:0:0:
341,208,38454,1,8,3:0:0:0:
304,208,38540,1,8,3:0:0:0:
224,208,38712,1,8,3:0:0:0:
392,256,38884,6,0,L|392:96,1,148,4|8,3:0|3:0,0:0:0:0:
240,96,39569,2,0,L|392:96,1,148,8|8,3:0|3:0,0:0:0:0:
312,48,40084,1,0,0:0:0:0:
144,192,40255,6,0,L|144:32,1,148,8|8,3:0|3:0,0:0:0:0:
224,176,40769,1,0,0:0:0:0:
304,176,40941,2,0,L|304:16,1,148,8|8,3:0|3:0,0:0:0:0:
224,120,41455,1,0,3:0:0:0:
56,176,41626,6,0,L|56:88,1,74,8|0,3:0|0:0,0:0:0:0:
136,72,41969,1,8,3:0:0:0:
296,56,42312,1,8,3:0:0:0:
216,48,42484,1,0,0:0:0:0:
136,48,42655,1,8,3:0:0:0:
400,176,42998,6,0,L|480:176,2,74,8|0|8,3:0|0:0|3:0,0:0:0:0:
248,184,43684,2,0,L|248:80,1,74,4|0,3:0|0:0,0:0:0:0:
328,104,44026,2,0,L|328:192,1,74,4|0,3:0|0:0,0:0:0:0:
160,232,44369,6,0,L|160:72,1,148,4|8,3:0|3:0,0:0:0:0:
312,96,45055,2,0,L|464:96,1,148,8|8,3:0|3:0,0:0:0:0:
384,144,45569,1,0,3:0:0:0:
216,176,45741,6,0,L|56:176,1,148,8|8,3:0|3:0,0:0:0:0:
144,128,46255,1,0,0:0:0:0:
224,120,46426,1,8,3:0:0:0:
72,160,46769,2,0,L|72:72,1,74,8|0,3:0|3:0,0:0:0:0:
248,232,47112,6,0,L|344:232,2,74,4|0|8,3:0|0:0|3:0,0:0:0:0:
96,192,47798,2,0,L|16:192,2,74,8|8|8,3:0|3:0|3:0,0:0:0:0:
272,192,48312,5,4,3:0:0:0:
272,192,48826,2,0,L|424:192,1,148,2|2,0:3|3:0,0:0:0:0:
344,168,49341,1,0,3:0:0:0:
272,192,49512,1,10,3:0:0:0:
16,192,49855,6,0,L|16:112,1,74,4|0,3:0|0:0,0:0:0:0:
56,112,50112,1,0,0:0:0:0:
96,104,50198,1,8,3:0:0:0:
248,168,50541,2,0,L|168:168,1,74,0|0,3:0|0:0,0:0:0:0:
96,104,50884,2,0,L|184:104,1,74,8|0,3:0|0:0,0:0:0:0:
344,224,51226,5,0,3:0:0:0:
424,224,51398,2,0,L|424:128,1,74,0|8,0:0|3:0,0:0:0:0:
344,168,51741,1,0,0:0:0:0:
104,176,52084,1,10,0:2:0:0:
30,176,52255,2,0,L|110:176,1,74,10|0,3:0|0:0,0:0:0:0:
288,168,52598,6,0,L|384:168,1,74,4|0,3:0|0:0,0:0:0:0:
400,160,52855,1,0,0:0:0:0:
362,168,52941,1,8,3:0:0:0:
208,184,53284,2,0,L|208:104,1,74,0|0,3:0|0:0,0:0:0:0:
288,104,53626,2,0,L|288:192,1,74,8|0,3:0|0:0,0:0:0:0:
104,232,53969,5,0,3:0:0:0:
24,208,54141,2,0,L|24:112,1,74,0|8,0:0|3:0,0:0:0:0:
104,160,54484,1,0,0:0:0:0:
360,72,54826,1,10,0:2:0:0:
434,72,54998,2,0,L|354:72,1,74,10|0,3:0|0:0,0:0:0:0:
168,256,55341,6,0,L|16:256,2,148,4|8|0,3:0|3:0|3:0,0:0:0:0:
248,160,56197,1,0,0:0:0:0:
328,192,56368,2,0,L|424:192,1,74,8|0,3:0|0:0,0:0:0:0:
224,144,56712,6,0,L|72:144,2,148,4|8|0,3:0|3:0|3:0,0:0:0:0:
304,144,57569,1,0,0:0:0:0:
384,144,57741,1,8,3:0:0:0:
208,256,57912,6,0,L|208:104,1,148,4|0,0:3|0:0,0:0:0:0:
288,144,58426,1,8,3:0:0:0:
208,112,58598,1,0,0:0:0:0:
128,96,58769,1,0,3:0:0:0:
208,112,58941,1,0,0:0:0:0:
288,144,59112,1,8,3:0:0:0:
112,256,59284,6,0,L|112:96,1,148,4|8,0:3|3:0,0:0:0:0:
152,128,59712,1,8,3:0:0:0:
192,128,59798,1,0,0:0:0:0:
272,128,59969,1,8,3:0:0:0:
192,128,60141,2,0,L|192:48,1,74,8|8,3:0|3:0,0:0:0:0:
272,128,60484,2,0,L|336:128,2,37,8|8|8,3:0|3:0|3:0,0:0:0:0:
192,128,60825,5,2,2:0:0:0:
432,176,61168,2,0,P|432:104|368:104,1,148,12|0,3:0|3:0,0:0:0:0:
216,104,61855,2,0,L|136:104,1,74,8|0,3:0|0:0,0:0:0:0:
328,216,62198,5,0,3:0:0:0:
408,208,62369,2,0,L|408:112,1,74,0|8,0:0|3:0,0:0:0:0:
328,176,62712,1,0,0:0:0:0:
90,48,63055,1,10,0:0:0:0:
16,48,63226,2,0,L|96:48,1,74,10|2,3:0|0:2,0:0:0:0:
264,176,63569,6,0,L|264:96,1,74,4|0,3:0|0:0,0:0:0:0:
224,96,63826,1,0,0:0:0:0:
184,88,63912,1,8,3:0:0:0:
336,152,64255,2,0,L|424:152,2,74,0|0|0,3:0|0:0|3:0,0:0:0:0:
168,160,64769,6,0,L|16:160,2,148,8|8|8,3:0|3:0|3:0,0:0:0:0:
320,176,65798,2,0,L|320:88,1,74,8|0,3:0|0:0,0:0:0:0:
240,80,66141,1,0,0:0:0:0:
72,256,66312,6,0,L|72:96,1,148,4|0,3:0|0:0,0:0:0:0:
224,168,66998,1,8,3:0:0:0:
72,256,67341,1,2,0:3:0:0:
152,248,67512,1,0,3:0:0:0:
232,248,67683,6,0,L|232:88,1,148,0|0,3:0|0:0,0:0:0:0:
72,160,68370,1,8,3:0:0:0:
232,248,68713,1,2,0:3:0:0:
152,240,68884,1,0,0:0:0:0:
80,160,69055,6,0,L|248:160,1,148,4|0,3:0|0:0,0:0:0:0:
376,176,69741,1,8,3:0:0:0:
216,128,70084,1,2,0:3:0:0:
296,128,70255,1,0,0:0:0:0:
376,176,70426,6,0,L|376:328,1,148,0|0,3:0|0:0,0:0:0:0:
296,184,70941,1,0,3:0:0:0:
216,184,71112,1,8,3:0:0:0:
376,80,71455,1,10,3:0:0:0:
296,88,71626,1,0,0:0:0:0:
128,256,71798,6,0,L|128:96,1,148,4|8,3:0|3:0,0:0:0:0:
280,184,72484,2,0,L|280:96,1,74,0|0,3:0|0:0,0:0:0:0:
200,112,72826,2,0,L|200:24,1,74,8|0,3:0|0:0,0:0:0:0:
368,256,73169,6,0,L|368:96,1,148,0|8,3:0|3:0,0:0:0:0:
216,184,73855,2,0,L|320:184,1,74,8|8,3:0|3:0,0:0:0:0:
368,48,74197,2,0,L|288:48,1,74,8|0,3:0|0:0,0:0:0:0:
120,272,74541,6,0,L|120:112,1,148,4|8,3:0|3:0,0:0:0:0:
272,136,75226,2,0,L|104:136,1,148,8|8,3:0|3:0,0:0:0:0:
200,88,75741,1,0,3:0:0:0:
368,208,75912,6,0,L|448:208,2,74,8|0|8,3:0|0:0|3:0,0:0:0:0:
216,176,76598,2,0,L|368:176,1,148,8|8,3:0|3:0,0:0:0:0:
96,224,77284,6,0,L|96:72,1,148,4|8,3:0|3:0,0:0:0:0:
176,136,77798,1,0,0:0:0:0:
96,144,77969,1,8,3:0:0:0:
16,152,78141,1,0,3:0:0:0:
280,248,78484,6,0,L|448:248,1,148,4|8,3:0|3:0,0:0:0:0:
352,192,78998,2,0,L|264:192,2,74,8|8|8,3:0|3:0|3:0,0:0:0:0:
496,192,79684,1,10,3:0:0:0:
232,160,80026,6,0,L|128:160,1,74,4|2,3:0|0:3,0:0:0:0:
232,160,80369,2,0,L|392:160,1,148,10|0,3:0|3:0,0:0:0:0:
304,120,80884,1,2,0:3:0:0:
232,120,81055,1,8,3:0:0:0:
496,176,81398,6,0,L|496:80,1,74,0|2,3:0|0:3,0:0:0:0:
416,88,81741,2,0,L|264:88,1,148,10|0,3:0|3:0,0:0:0:0:
416,136,82426,1,8,3:0:0:0:
240,192,82598,6,0,L|88:192,1,148,4|2,0:3|0:3,0:0:0:0:
168,152,83112,1,10,3:0:0:0:
320,136,83455,2,0,L|416:136,2,74,0|2|10,3:0|0:3|3:0,0:0:0:0:
152,248,83969,6,0,L|152:88,1,148,6|2,0:3|0:3,0:0:0:0:
232,96,84484,1,10,3:0:0:0:
392,200,84826,1,0,3:0:0:0:
312,200,84998,1,2,0:3:0:0:
232,200,85169,1,10,3:0:0:0:
400,200,85341,6,0,L|400:40,1,148,6|2,0:3|0:3,0:0:0:0:
320,56,85855,1,10,3:0:0:0:
160,112,86198,1,0,3:0:0:0:
240,112,86369,1,2,0:3:0:0:
320,112,86541,1,10,3:0:0:0:
152,192,86712,6,0,L|152:32,1,148,6|2,0:3|0:3,0:0:0:0:
232,96,87226,1,10,3:0:0:0:
392,288,87569,1,0,3:0:0:0:
392,214,87740,1,10,3:0:0:0:
312,192,87912,1,10,3:0:0:0:
275,192,87997,1,8,3:0:0:0:
238,192,88084,2,0,L|400:192,1,148,8|0,3:0|0:0,0:0:0:0:
216,168,88598,5,6,3:0:0:0:
136,104,88769,1,8,3:0:0:0:
136,67,88854,1,0,3:0:0:0:
136,30,88940,1,0,3:0:0:0:
304,136,89112,2,0,L|304:296,1,148,6|0,3:0|0:0,0:0:0:0:
136,152,89626,5,6,3:0:0:0:
256,192,89969,12,0,90998,0:0:0:0:
