osu file format v14

[General]
AudioFilename: audio.mp3
AudioLeadIn: 0
PreviewTime: 88325
Countdown: 0
SampleSet: None
StackLeniency: 0.7
Mode: 0
LetterboxInBreaks: 0
EpilepsyWarning: 1
WidescreenStoryboard: 1

[Editor]
Bookmarks: 50,23843,44187,66256,88325,220738,242807,264876,325566,331083,353152,375221,397376
DistanceSpacing: 1.2
BeatDivisor: 4
GridSize: 4
TimelineZoom: 0.9

[Metadata]
Title:Beautiful Lies
TitleUnicode:Beautiful Lies
Artist:B-Complex
ArtistUnicode:B-Complex
Creator:olteR
Version:Liar
Source:
Tags:dnb marathon
BeatmapID:1021827
BeatmapSetID:478432

[Difficulty]
HPDrainRate:5
CircleSize:4
OverallDifficulty:8
ApproachRate:9.1
SliderMultiplier:1.8
SliderTickRate:1

[Events]
//Background and Video events
0,0,"bg.jpg",0,0
//Break Periods
2,68352,71879
2,73869,76017
2,85421,86534
2,132662,142913
2,176800,187051
2,223697,225672
2,227490,228430
2,229214,231189
2,233007,233947
2,234731,236706
2,238525,239465
2,240249,242223
//Storyboard Layer 0 (Background)
//Storyboard Layer 1 (Fail)
//Storyboard Layer 2 (Pass)
//Storyboard Layer 3 (Foreground)
//Storyboard Sound Samples

[TimingPoints]
50,344.827586206897,4,2,0,60,1,0
2808,-100,4,2,0,40,0,0
4187,-100,4,2,0,20,0,0
5567,-100,4,2,0,60,0,0
8325,-100,4,2,0,40,0,0
9705,-100,4,2,0,20,0,0
11084,-100,4,2,0,50,0,0
13843,-100,4,2,0,30,0,0
15222,-100,4,2,0,10,0,0
16601,-100,4,2,0,60,0,0
19360,-100,4,2,0,40,0,0
20739,-100,4,2,0,20,0,0
22118,-100,4,2,0,70,0,0
23498,-100,4,3,0,40,0,0
27636,-100,4,2,0,60,0,0
29015,-100,4,3,0,40,0,0
33153,-100,4,2,0,60,0,0
34532,-100,4,3,0,40,0,0
38670,-100,4,2,0,60,0,0
40222,-100,4,3,0,50,0,0
44187,-100,4,3,0,60,0,0
66946,689.655172413793,4,2,0,20,1,0
66946,-200,4,2,0,20,0,0
76601,-166.666666666667,4,2,0,30,0,0
77290,-200,4,1,0,30,0,0
80049,-200,4,1,0,40,0,0
81428,-200,4,1,0,50,0,0
84187,-200,4,1,0,60,0,0
87118,-133.333333333333,4,2,0,40,0,0
88325,344.827586206897,4,1,0,60,1,0
88325,-100,4,3,0,80,0,1
109014,-100,4,3,0,70,0,0
110393,-100,4,3,0,80,0,1
114704,-100,4,2,0,70,0,1
115911,-100,4,3,0,80,0,1
120221,-100,4,2,0,70,0,1
121428,-100,4,3,0,80,0,1
125738,-100,4,2,0,70,0,1
126945,-100,4,3,0,80,0,1
131083,-100,4,3,0,80,0,0
131256,-100,4,2,0,70,0,0
132462,-100,4,3,0,70,0,0
143497,-100,4,3,0,70,0,0
153152,-100,4,2,0,20,0,0
154531,-100,4,3,0,80,0,0
176600,-100,4,3,0,80,0,0
187635,-133.333333333333,4,2,0,70,0,0
198669,-100,4,3,0,80,0,1
202980,-100,4,2,0,80,0,1
204187,-100,4,3,0,80,0,1
208497,-100,4,2,0,80,0,1
209704,-100,4,3,0,80,0,1
214014,-100,4,2,0,80,0,1
215221,-100,4,3,0,80,0,1
220738,-100,4,3,0,80,0,0
220825,-166.666666666667,4,2,0,60,0,0
242807,-153.846153846154,4,3,0,70,0,0
256600,-153.846153846154,4,2,0,20,0,0
257290,-153.846153846154,4,2,0,30,0,0
257980,-153.846153846154,4,2,0,40,0,0
258669,-153.846153846154,4,2,0,50,0,0
259359,-153.846153846154,4,3,0,70,0,0
260049,-153.846153846154,4,2,0,40,0,0
260738,-153.846153846154,4,2,0,50,0,0
261428,-153.846153846154,4,2,0,60,0,0
262118,-153.846153846154,4,2,0,70,0,0
264876,-100,4,3,0,80,0,1
269187,-100,4,2,0,80,0,1
270393,-100,4,3,0,80,0,1
274704,-100,4,2,0,80,0,1
275911,-100,4,3,0,80,0,1
280049,-100,4,2,0,80,0,1
281428,-100,4,3,0,80,0,1
285566,-100,4,2,0,80,0,1
286945,-100,4,3,0,80,0,1
310911,-100,4,3,0,75,0,1
314531,-100,4,3,0,70,0,1
317290,-100,4,3,0,60,0,1
320049,-100,4,3,0,50,0,0
321428,-100,4,3,0,40,0,0
322807,-100,4,3,0,30,0,0
324187,-200,4,3,0,20,0,0
325566,-111.111111111111,4,2,0,70,0,0
331083,-133.333333333333,4,2,0,70,0,0
342118,-133.333333333333,4,3,0,70,0,0
342635,-133.333333333333,4,2,0,70,0,0
344876,-133.333333333333,4,2,0,60,0,0
346256,-133.333333333333,4,2,0,50,0,0
347635,-133.333333333333,4,2,0,40,0,0
349014,-133.333333333333,4,2,0,30,0,0
353152,-111.111111111111,4,2,0,70,0,0
354704,-111.111111111111,4,3,0,70,0,0
355566,-111.111111111111,4,2,0,70,0,0
357462,-111.111111111111,4,3,0,70,0,0
358669,-111.111111111111,4,2,0,70,0,0
360221,-111.111111111111,4,3,0,70,0,0
361428,-111.111111111111,4,2,0,70,0,0
362980,-111.111111111111,4,3,0,70,0,0
364187,-111.111111111111,4,2,0,70,0,0
365738,-111.111111111111,4,3,0,70,0,0
366945,-111.111111111111,4,2,0,70,0,0
368497,-111.111111111111,4,3,0,70,0,0
369704,-111.111111111111,4,2,0,70,0,0
371256,-111.111111111111,4,3,0,70,0,0
372462,-111.111111111111,4,2,0,70,0,0
374014,-111.111111111111,4,3,0,70,0,0
375221,-111.111111111111,4,2,0,70,0,0
376773,-111.111111111111,4,3,0,70,0,0
377980,-111.111111111111,4,2,0,70,0,0
379531,-111.111111111111,4,3,0,70,0,0
380738,-111.111111111111,4,2,0,70,0,0
382290,-111.111111111111,4,3,0,70,0,0
383497,-111.111111111111,4,2,0,70,0,0
385049,-111.111111111111,4,3,0,70,0,0
386428,-111.111111111111,4,2,0,70,0,0
387807,-111.111111111111,4,3,0,70,0,0
389014,-111.111111111111,4,2,0,70,0,0
390566,-111.111111111111,4,3,0,70,0,0
391773,-111.111111111111,4,2,0,70,0,0
393325,-111.111111111111,4,3,0,70,0,0
394531,-111.111111111111,4,2,0,70,0,0
396083,-111.111111111111,4,3,0,70,0,0
397376,-111.111111111111,4,2,0,70,0,0
398669,-111.111111111111,4,2,0,60,0,0
400049,-111.111111111111,4,2,0,50,0,0
401428,-111.111111111111,4,2,0,40,0,0
402807,-111.111111111111,4,2,0,30,0,0
404187,-111.111111111111,4,2,0,20,0,0

[Colours]
Combo1 : 0,128,255
Combo2 : 128,128,128
Combo3 : 192,192,192
Combo4 : 0,128,192

[HitObjects]
112,112,50,6,0,P|180:104|212:112,1,90
112,112,394,1,0,0:0:0:0:
112,204,567,2,0,P|132:264|164:296,1,90
112,204,912,1,0,0:0:0:0:
188,164,1084,2,0,P|252:136|276:100,1,90
188,164,1429,1,0,0:0:0:0:
256,192,1601,12,0,5394,0:0:0:0:
424,80,5567,6,0,P|376:72|332:56,1,90
424,80,5912,1,0,0:0:0:0:
452,156,6084,2,0,P|464:200|464:260,1,90
452,156,6429,1,0,0:0:0:0:
368,212,6601,2,0,P|368:272|388:316,1,90
368,212,6946,1,0,0:0:0:0:
256,192,7118,12,0,10912,0:0:0:0:
88,328,11084,38,0,P|88:280|68:208,1,90
88,328,11429,1,0,0:0:0:0:
172,332,11601,2,0,P|248:320|292:304,1,90
172,332,11946,1,0,0:0:0:0:
188,244,12118,2,0,P|256:220|304:224,1,90
188,244,12463,1,0,0:0:0:0:
256,192,12636,12,0,16429,0:0:0:0:
40,92,16601,6,0,P|124:96|144:80,1,90
40,92,16946,1,0,0:0:0:0:
288,68,17118,2,0,P|228:48|192:32,1,90
288,68,17463,1,0,0:0:0:0:
168,124,17636,2,0,P|128:184|88:208,1,90
168,124,17981,1,0,0:0:0:0:
256,192,18153,12,0,21946,0:0:0:0:
104,176,22118,6,2,P|100:128|72:76,1,90
280,104,22463,1,0,0:0:0:0:
144,264,22636,2,0,P|184:304|244:324,1,90
328,172,22981,1,0,0:0:0:0:
172,176,23153,2,0,P|252:220|264:224,1,90
392,104,23498,1,2,0:0:0:0:
460,240,23670,1,2,0:0:0:0:
312,164,23843,22,4,P|264:108|228:88,1,90
96,92,24187,1,2,0:0:0:0:
112,232,24360,1,0,0:0:0:0:
180,100,24532,1,0,0:0:0:0:
228,232,24705,1,0,0:0:0:0:
320,140,24877,2,4,P|392:140|432:132,1,90
376,248,25222,5,0,0:0:0:0:
360,56,25394,1,0,0:0:0:0:
288,240,25567,1,4,0:0:0:0:
456,216,25739,1,0,0:0:0:0:
264,160,25912,2,0,P|280:96|272:60,1,90
132,128,26256,37,4,0:0:0:0:
216,244,26429,1,0,0:0:0:0:
92,64,26601,2,0,P|148:60|196:72,1,90
256,232,26946,1,4,0:0:0:0:
340,112,27118,1,0,0:0:0:0:
192,152,27291,1,0,0:0:0:0:
400,176,27463,1,0,0:0:0:0:
368,328,27636,22,0,P|296:312|248:312,1,90
160,252,27981,1,0,0:0:0:0:
332,220,28153,2,0,P|396:224|456:240,1,90
360,88,28498,1,0,0:0:0:0:
228,172,28670,2,0,P|160:160|96:156,1,90
44,36,29015,1,2,0:0:0:0:
60,192,29187,1,2,0:0:0:0:
192,48,29360,22,4,P|272:40|312:52,1,90
432,68,29705,1,2,0:0:0:0:
348,192,29877,1,0,0:0:0:0:
456,192,30050,1,0,0:0:0:0:
344,88,30222,1,0,0:0:0:0:
248,216,30394,2,4,P|184:228|144:216,1,90
68,112,30739,5,0,0:0:0:0:
204,64,30912,1,0,0:0:0:0:
316,168,31084,2,4,P|348:204|388:228,1,90
448,72,31429,1,0,0:0:0:0:
276,104,31601,1,0,0:0:0:0:
288,244,31774,37,4,0:0:0:0:
128,220,31946,1,0,0:0:0:0:
108,84,32118,2,0,P|168:76|208:68,1,90
352,72,32463,1,4,0:0:0:0:
440,172,32636,1,0,0:0:0:0:
356,240,32808,1,0,0:0:0:0:
272,128,32981,1,0,0:0:0:0:
72,156,33153,22,0,P|64:224|76:264,1,90
184,96,33498,1,0,0:0:0:0:
160,244,33670,2,0,P|156:304|184:340,1,90
320,140,34015,1,0,0:0:0:0:
288,260,34187,2,0,P|304:332|320:352,1,90
416,160,34532,1,2,0:0:0:0:
460,288,34705,1,2,0:0:0:0:
256,172,34877,22,4,P|188:160|132:160,1,90
316,64,35222,1,2,0:0:0:0:
392,168,35394,1,0,0:0:0:0:
408,40,35567,1,0,0:0:0:0:
476,128,35739,1,0,0:0:0:0:
432,276,35912,2,4,P|384:312|344:324,1,90
168,248,36256,5,0,0:0:0:0:
288,344,36429,1,0,0:0:0:0:
304,152,36601,2,4,P|292:92|300:56,1,90
104,172,36946,1,0,0:0:0:0:
52,52,37118,1,0,0:0:0:0:
188,180,37291,1,4,0:0:0:0:
260,56,37463,1,0,0:0:0:0:
140,248,37636,38,0,P|152:312|188:336,1,90
276,216,37981,1,4,0:0:0:0:
448,208,38153,1,0,0:0:0:0:
276,216,38325,1,0,0:0:0:0:
344,76,38498,1,0,0:0:0:0:
120,84,38670,22,0,P|96:148|72:172,1,90
312,144,39015,1,0,0:0:0:0:
136,240,39187,2,0,P|92:304|48:312,1,90
360,204,39532,1,0,0:0:0:0:
176,336,39705,2,0,P|232:340|272:340,1,90
284,84,40050,1,0,0:0:0:0:
152,188,40222,1,0,0:0:0:0:
324,224,40394,22,4,P|404:232|436:252,1,90
460,52,40739,1,2,0:0:0:0:
368,160,40912,1,0,0:0:0:0:
284,40,41084,1,0,0:0:0:0:
200,180,41256,1,0,0:0:0:0:
80,40,41429,2,4,P|40:96|24:144,1,90
88,224,41774,5,0,0:0:0:0:
176,88,41946,1,0,0:0:0:0:
240,248,42118,2,4,P|280:276|328:284,1,90
452,188,42463,1,0,0:0:0:0:
300,160,42636,1,0,0:0:0:0:
448,148,42808,1,4,0:0:0:0:
456,328,42981,1,0,0:0:0:0:
420,136,43153,38,0,P|388:96|352:72,1,90
200,68,43498,1,4,0:0:0:0:
60,172,43670,2,0,P|116:224|128:272,1,90
276,136,44015,1,0,0:0:0:0:
268,284,44187,21,4,0:0:0:0:
424,200,44360,2,2,L|476:204,2,45
352,56,44705,1,4,0:0:0:0:
192,80,44877,2,0,P|148:76|96:84,1,90
112,224,45222,1,0,0:0:0:0:
232,296,45394,22,4,P|280:320|320:328,1,90
456,228,45739,1,2,0:0:0:0:
284,160,45912,2,4,P|248:108|240:72,1,90
56,120,46256,1,0,0:0:0:0:
232,216,46429,1,0,0:0:0:0:
60,276,46601,1,0,0:0:0:0:
168,132,46774,1,0,0:0:0:0:
192,320,46946,5,4,0:0:0:0:
372,264,47118,2,4,L|420:264,2,45
336,168,47463,1,2,0:0:0:0:
352,156,47550,1,2,0:0:0:0:
364,148,47636,1,2,0:0:0:0:
320,32,47808,1,0,0:0:0:0:
240,168,47981,1,0,0:0:0:0:
408,252,48153,1,0,0:0:0:0:
264,324,48325,37,0,0:0:0:0:
80,260,48498,1,0,0:0:0:0:
88,136,48670,2,4,P|128:92|148:56,1,90
288,184,49015,1,0,0:0:0:0:
252,32,49187,1,0,0:0:0:0:
172,208,49360,1,0,0:0:0:0:
360,108,49532,1,0,0:0:0:0:
424,244,49705,21,4,0:0:0:0:
276,308,49877,1,2,0:0:0:0:
276,308,49963,1,2,0:0:0:0:
276,308,50050,1,2,0:0:0:0:
272,148,50222,1,4,0:0:0:0:
128,224,50394,1,0,0:0:0:0:
136,68,50567,1,0,0:0:0:0:
136,220,50739,1,0,0:0:0:0:
300,228,50912,6,4,P|368:220|404:200,1,90
368,56,51256,1,0,0:0:0:0:
264,112,51429,2,4,P|184:112|148:108,1,90
132,296,51774,5,0,0:0:0:0:
232,176,51946,1,0,0:0:0:0:
292,328,52118,1,0,0:0:0:0:
392,220,52291,1,4,0:0:0:0:
392,220,52377,1,4,0:0:0:0:
392,220,52463,1,4,0:0:0:0:
372,88,52636,6,2,L|424:84,2,45
160,76,52981,1,0,0:0:0:0:
328,160,53153,1,0,0:0:0:0:
132,184,53325,1,0,0:0:0:0:
248,36,53498,1,0,0:0:0:0:
236,224,53670,38,4,P|256:268|296:292,1,90
460,276,54015,1,0,0:0:0:0:
424,176,54187,2,4,P|416:124|424:80,1,90
196,88,54532,1,0,0:0:0:0:
344,52,54705,1,0,0:0:0:0:
344,224,54877,1,0,0:0:0:0:
196,184,55050,1,0,0:0:0:0:
72,268,55222,22,4,P|132:312|168:320,1,90,4|2,0:0|0:0,0:0:0:0:
180,312,55481,1,2,0:0:0:0:
180,312,55567,1,2,0:0:0:0:
384,312,55739,1,0,0:0:0:0:
288,176,55912,1,0,0:0:0:0:
440,176,56084,1,0,0:0:0:0:
336,68,56256,1,0,0:0:0:0:
132,68,56429,22,4,P|124:112|88:156,1,90
172,320,56774,1,0,0:0:0:0:
280,176,56946,2,4,P|256:116|256:80,1,90
440,128,57291,1,0,0:0:0:0:
440,296,57463,2,0,P|388:316|352:312,1,90
216,244,57808,1,4,0:0:0:0:
216,224,57894,1,4,0:0:0:0:
216,204,57981,1,4,0:0:0:0:
84,160,58153,5,2,0:0:0:0:
84,176,58239,1,2,0:0:0:0:
84,188,58325,1,2,0:0:0:0:
128,336,58498,2,4,P|184:340|232:312,1,90
400,280,58843,37,0,0:0:0:0:
264,192,59015,1,0,0:0:0:0:
408,156,59187,2,4,P|392:84|404:44,1,90
264,192,59532,1,0,0:0:0:0:
108,144,59705,2,4,P|88:88|68:52,1,90
52,240,60050,1,0,0:0:0:0:
224,264,60222,1,0,0:0:0:0:
60,340,60394,1,0,0:0:0:0:
240,344,60567,21,4,0:0:0:0:
240,344,60653,1,4,0:0:0:0:
240,344,60739,1,4,0:0:0:0:
356,256,60912,2,2,L|356:200,2,45
216,164,61256,22,4,P|192:116|156:84,1,90
400,80,61601,1,0,0:0:0:0:
288,56,61774,1,0,0:0:0:0:
424,196,61946,2,0,P|452:240|456:304,1,90
288,188,62291,1,0,0:0:0:0:
256,320,62463,2,4,P|180:320|152:296,1,90
208,172,62808,1,0,0:0:0:0:
52,140,62981,2,0,P|60:76|60:40,1,90
272,64,63325,5,0,0:0:0:0:
296,80,63412,1,0,0:0:0:0:
308,100,63498,1,0,0:0:0:0:
316,128,63584,1,0,0:0:0:0:
320,152,63670,1,0,0:0:0:0:
324,176,63756,1,0,0:0:0:0:
328,204,63843,2,4,P|296:264|252:288,1,90
72,288,64187,37,0,0:0:0:0:
192,192,64360,1,0,0:0:0:0:
52,144,64532,1,0,0:0:0:0:
200,84,64705,1,2,0:0:0:0:
200,84,64791,1,2,0:0:0:0:
200,84,64877,1,2,0:0:0:0:
380,120,65050,1,0,0:0:0:0:
416,232,65222,1,0,0:0:0:0:
264,276,65394,6,0,L|204:296,2,45
332,152,65739,1,0,0:0:0:0:
132,152,65912,1,0,0:0:0:0:
332,152,66084,1,0,0:0:0:0:
328,156,66946,38,0,L|392:172,1,56.25
288,308,67980,2,0,L|252:308,1,22.5
196,104,72463,6,0,P|148:108|136:112,1,56.25
164,280,73497,2,0,L|192:288,1,22.5
176,160,76601,38,0,L|216:160,1,26.9999991760254
312,168,76946,2,0,L|340:192,1,26.9999991760254
312,324,77290,6,0,P|248:312|172:288,1,135
180,292,78670,38,0,P|116:256|100:184,1,135
96,200,80049,6,0,P|164:208|236:164,1,135
224,176,81428,38,0,P|240:124|312:80,1,135
304,80,82808,6,0,P|368:120|392:192,1,135
392,176,84187,38,0,P|312:196|256:240,1,135
264,224,87118,6,0,L|264:272,1,33.7500012874604
192,216,87463,2,0,L|192:264,1,33.7500012874604
264,144,87808,1,0,0:0:0:0:
184,132,87980,2,0,L|184:88,1,33.7500012874604
356,56,88325,22,0,P|408:136|408:152,1,90
400,268,88669,2,0,P|452:228|476:196,1,90
292,120,89014,1,0,0:0:0:0:
120,140,89187,1,0,0:0:0:0:
252,248,89359,1,0,0:0:0:0:
88,260,89531,2,2,L|48:232,2,45
200,136,89876,38,0,P|216:76|224:40,1,90
356,100,90221,1,2,0:0:0:0:
356,100,90307,1,2,0:0:0:0:
356,100,90393,1,2,0:0:0:0:
432,228,90566,1,0,0:0:0:0:
320,296,90738,6,0,P|272:268|232:256,1,90,0|2,0:0|0:0,0:0:0:0:
204,252,90997,1,2,0:0:0:0:
168,244,91083,2,0,P|128:200|112:160,1,90,2|0,0:0|0:0,0:0:0:0:
140,64,91428,1,0,0:0:0:0:
300,136,91600,1,2,0:0:0:0:
300,136,91687,1,2,0:0:0:0:
300,136,91773,1,2,0:0:0:0:
396,256,91945,38,0,P|336:308|300:328,1,90
128,276,92290,2,0,P|136:212|120:160,1,90
260,76,92635,1,0,0:0:0:0:
260,192,92807,1,2,0:0:0:0:
260,192,92893,1,2,0:0:0:0:
260,192,92980,1,2,0:0:0:0:
304,304,93152,5,0,0:0:0:0:
480,244,93325,1,0,0:0:0:0:
344,132,93497,1,0,0:0:0:0:
376,296,93669,1,0,0:0:0:0:
228,196,93842,38,0,P|212:144|176:112,1,90,0|2,0:0|0:0,0:0:0:0:
156,104,94100,1,2,0:0:0:0:
120,96,94187,2,0,P|64:72|32:32,1,90,2|0,0:0|0:0,0:0:0:0:
64,204,94531,1,0,0:0:0:0:
180,344,94704,1,0,0:0:0:0:
276,188,94876,1,0,0:0:0:0:
92,120,95049,1,0,0:0:0:0:
256,40,95221,6,0,P|336:56|372:88,1,90
420,272,95566,1,0,0:0:0:0:
232,240,95738,1,2,0:0:0:0:
204,228,95825,1,2,0:0:0:0:
184,240,95911,1,2,0:0:0:0:
388,144,96083,1,0,0:0:0:0:
236,52,96256,1,0,0:0:0:0:
96,200,96428,1,0,0:0:0:0:
236,324,96600,38,0,P|276:296|284:228,1,90
156,132,96945,2,0,P|256:120|264:124,1,90,0|2,0:0|0:0,0:0:0:0:
276,132,97204,1,2,0:0:0:0:
308,152,97290,2,0,P|368:176|412:176,1,90,2|0,0:0|0:0,0:0:0:0:
332,308,97635,6,2,L|268:320,2,45
200,172,97980,1,0,0:0:0:0:
128,324,98152,1,0,0:0:0:0:
56,192,98325,1,2,0:0:0:0:
56,160,98411,1,2,0:0:0:0:
64,132,98497,1,2,0:0:0:0:
220,72,98669,1,0,0:0:0:0:
368,152,98842,1,0,0:0:0:0:
200,256,99014,37,0,0:0:0:0:
248,88,99187,1,0,0:0:0:0:
388,232,99359,2,0,P|368:304|340:332,1,90
232,176,99704,2,0,P|200:144|164:88,1,90
104,308,100049,1,0,0:0:0:0:
288,272,100221,1,0,0:0:0:0:
92,172,100393,1,0,0:0:0:0:
240,108,100566,5,2,0:0:0:0:
240,120,100652,1,2,0:0:0:0:
240,132,100738,1,2,0:0:0:0:
176,272,100911,2,0,P|232:304|268:312,1,90
384,184,101256,1,2,0:0:0:0:
392,176,101342,1,2,0:0:0:0:
400,168,101428,1,2,0:0:0:0:
288,64,101600,1,0,0:0:0:0:
260,220,101773,38,2,L|216:236,2,45
432,260,102118,2,0,P|472:228|480:168,1,90
288,76,102462,2,0,P|224:84|184:72,1,90
60,184,102807,1,0,0:0:0:0:
148,312,102980,2,2,P|152:308|180:276,2,45
368,244,103325,1,0,0:0:0:0:
416,72,103497,1,2,0:0:0:0:
412,84,103583,1,2,0:0:0:0:
408,92,103669,1,2,0:0:0:0:
192,88,103842,5,0,0:0:0:0:
416,172,104014,1,0,0:0:0:0:
256,32,104187,1,0,0:0:0:0:
260,232,104359,1,0,0:0:0:0:
452,244,104531,1,0,0:0:0:0:
172,164,104704,1,0,0:0:0:0:
140,344,104876,38,0,P|196:348|252:336,1,90,0|2,0:0|0:0,0:0:0:0:
260,332,105135,1,2,0:0:0:0:
292,312,105221,2,0,P|336:256|352:212,1,90,2|0,0:0|0:0,0:0:0:0:
140,72,105566,1,0,0:0:0:0:
136,252,105738,1,0,0:0:0:0:
312,160,105911,1,0,0:0:0:0:
152,248,106083,6,2,L|180:308,2,45
212,132,106428,1,0,0:0:0:0:
320,284,106600,1,0,0:0:0:0:
408,144,106773,1,2,0:0:0:0:
412,132,106859,1,2,0:0:0:0:
416,120,106945,1,2,0:0:0:0:
244,52,107118,1,0,0:0:0:0:
116,188,107290,2,2,L|168:216,2,45
360,300,107635,38,0,P|332:248|320:196,1,90
200,320,107980,1,0,0:0:0:0:
160,116,108152,1,0,0:0:0:0:
344,176,108325,1,0,0:0:0:0:
232,40,108497,1,2,0:0:0:0:
232,40,108583,1,2,0:0:0:0:
232,40,108669,1,2,0:0:0:0:
248,200,108842,1,0,0:0:0:0:
76,124,109014,5,0,0:0:0:0:
112,268,109187,1,0,0:0:0:0:
112,268,109273,1,0,0:0:0:0:
112,268,109359,1,0,0:0:0:0:
176,120,109531,37,0,0:0:0:0:
176,120,109618,1,0,0:0:0:0:
176,120,109704,1,0,0:0:0:0:
232,252,109876,5,0,0:0:0:0:
248,244,109962,1,0,0:0:0:0:
264,236,110049,1,0,0:0:0:0:
276,224,110135,1,0,0:0:0:0:
284,208,110221,1,0,0:0:0:0:
292,192,110307,1,0,0:0:0:0:
300,176,110393,2,0,P|312:128|340:68,1,90
448,132,110738,37,0,0:0:0:0:
380,264,110911,1,0,0:0:0:0:
228,156,111083,1,0,0:0:0:0:
228,156,111169,1,0,0:0:0:0:
228,156,111256,1,0,0:0:0:0:
228,156,111342,1,0,0:0:0:0:
228,156,111428,2,0,P|164:204|128:216,1,90
144,332,111773,6,0,P|212:340|256:328,1,90
332,164,112118,1,0,0:0:0:0:
384,296,112290,1,0,0:0:0:0:
452,152,112462,1,0,0:0:0:0:
448,144,112549,1,0,0:0:0:0:
440,136,112635,1,0,0:0:0:0:
432,128,112721,1,0,0:0:0:0:
424,120,112807,2,0,P|372:104|328:84,1,90
112,84,113152,37,0,0:0:0:0:
236,188,113325,1,0,0:0:0:0:
52,224,113497,2,0,P|60:296|72:336,1,90
176,136,113842,1,0,0:0:0:0:
188,124,113928,1,0,0:0:0:0:
200,112,114014,1,0,0:0:0:0:
216,104,114100,1,0,0:0:0:0:
232,96,114187,2,0,P|300:88|340:96,1,90
416,204,114531,1,0,0:0:0:0:
292,344,114704,5,0,0:0:0:0:
192,188,114876,1,0,0:0:0:0:
168,344,115049,37,0,0:0:0:0:
288,196,115221,1,0,0:0:0:0:
376,348,115393,5,0,0:0:0:0:
424,184,115566,1,0,0:0:0:0:
464,340,115738,1,0,0:0:0:0:
352,184,115911,38,0,P|340:128|312:84,1,90
244,236,116256,1,0,0:0:0:0:
140,88,116428,1,0,0:0:0:0:
80,216,116600,1,0,0:0:0:0:
80,224,116687,1,0,0:0:0:0:
80,232,116773,1,0,0:0:0:0:
80,240,116859,1,0,0:0:0:0:
80,248,116945,2,0,L|80:348,1,90
304,288,117290,5,0,0:0:0:0:
160,204,117462,1,0,0:0:0:0:
320,152,117635,2,0,P|400:156|448:148,1,90
264,48,117980,1,0,0:0:0:0:
240,44,118066,1,0,0:0:0:0:
216,48,118152,1,0,0:0:0:0:
196,60,118238,1,0,0:0:0:0:
176,80,118325,2,0,P|152:136|144:184,1,90
344,200,118669,37,0,0:0:0:0:
180,268,118842,1,0,0:0:0:0:
348,340,119014,2,0,P|416:320|460:280,1,90
428,144,119359,1,0,0:0:0:0:
412,136,119445,1,0,0:0:0:0:
392,128,119531,1,0,0:0:0:0:
372,124,119618,1,0,0:0:0:0:
348,124,119704,2,0,P|296:136|232:176,1,90
356,336,120049,1,0,0:0:0:0:
124,336,120221,5,0,0:0:0:0:
296,272,120393,1,0,0:0:0:0:
128,284,120566,37,0,0:0:0:0:
252,180,120738,1,0,0:0:0:0:
108,232,120911,5,0,0:0:0:0:
160,92,121083,2,0,P|104:96|60:104,1,90
300,92,121428,38,0,P|376:88|416:96,1,90
236,192,121773,1,0,0:0:0:0:
392,320,121945,1,0,0:0:0:0:
224,320,122118,1,0,0:0:0:0:
224,320,122204,1,0,0:0:0:0:
224,320,122290,1,0,0:0:0:0:
224,320,122376,1,0,0:0:0:0:
224,320,122462,2,0,P|144:300|104:280,1,90
224,152,122807,5,0,0:0:0:0:
28,204,122980,1,0,0:0:0:0:
84,48,123152,2,0,P|160:64|184:80,1,90
104,192,123497,1,0,0:0:0:0:
100,212,123583,1,0,0:0:0:0:
104,236,123669,1,0,0:0:0:0:
116,256,123756,1,0,0:0:0:0:
128,272,123842,2,0,P|176:292|224:288,1,90
256,140,124187,37,0,0:0:0:0:
436,208,124359,1,0,0:0:0:0:
264,344,124531,2,0,P|264:280|256:224,1,90
76,208,124876,1,0,0:0:0:0:
88,200,124962,1,0,0:0:0:0:
100,188,125049,1,0,0:0:0:0:
108,176,125135,1,0,0:0:0:0:
116,160,125221,2,0,P|136:112|184:68,1,90
296,232,125566,1,0,0:0:0:0:
292,64,125738,5,0,0:0:0:0:
448,124,125911,1,0,0:0:0:0:
272,84,126083,37,0,0:0:0:0:
200,236,126256,1,0,0:0:0:0:
300,80,126428,5,0,0:0:0:0:
444,152,126600,1,0,0:0:0:0:
320,252,126773,1,0,0:0:0:0:
216,128,126945,38,0,P|152:120|96:128,1,90
92,288,127290,1,0,0:0:0:0:
248,304,127462,1,0,0:0:0:0:
144,180,127635,1,0,0:0:0:0:
136,160,127721,1,0,0:0:0:0:
132,132,127807,1,0,0:0:0:0:
140,108,127893,1,0,0:0:0:0:
152,88,127980,2,0,P|196:64|260:56,1,90
288,216,128325,5,0,0:0:0:0:
344,48,128497,1,0,0:0:0:0:
416,208,128669,2,0,P|416:252|404:312,1,90
220,304,129014,1,0,0:0:0:0:
204,292,129100,1,0,0:0:0:0:
192,272,129187,1,0,0:0:0:0:
192,248,129273,1,0,0:0:0:0:
200,224,129359,2,0,P|240:184|252:132,1,90
72,120,129704,37,0,0:0:0:0:
236,72,129876,1,0,0:0:0:0:
108,212,130049,2,0,P|112:256|124:324,1,90
296,268,130393,1,0,0:0:0:0:
304,256,130480,1,0,0:0:0:0:
312,244,130566,1,0,0:0:0:0:
320,232,130652,1,0,0:0:0:0:
328,220,130738,2,0,P|356:184|368:140,1,90
376,24,131083,1,0,0:0:0:0:
168,76,131256,5,0,0:0:0:0:
340,116,131428,1,0,0:0:0:0:
336,272,131600,37,0,0:0:0:0:
188,204,131773,1,0,0:0:0:0:
280,48,131945,5,0,0:0:0:0:
400,196,132118,1,0,0:0:0:0:
252,224,132290,1,0,0:0:0:0:
348,88,132462,1,0,0:0:0:0:
120,96,143497,37,0,0:0:0:0:
340,104,143669,1,0,0:0:0:0:
144,260,143842,1,0,0:0:0:0:
312,264,144014,5,0,0:0:0:0:
328,260,144100,1,0,0:0:0:0:
344,256,144187,1,0,0:0:0:0:
360,256,144273,1,0,0:0:0:0:
376,260,144359,2,0,P|428:276|468:268,2,90
276,200,144876,37,0,0:0:0:0:
388,72,145049,1,0,0:0:0:0:
176,48,145221,1,0,0:0:0:0:
192,208,145393,1,0,0:0:0:0:
196,228,145480,1,0,0:0:0:0:
200,244,145566,1,0,0:0:0:0:
212,260,145652,1,0,0:0:0:0:
228,276,145738,2,0,P|272:304|320:324,2,90
376,180,146256,5,0,0:0:0:0:
292,44,146428,1,0,0:0:0:0:
216,184,146600,1,0,0:0:0:0:
152,52,146773,1,0,0:0:0:0:
136,52,146859,1,0,0:0:0:0:
120,56,146945,1,0,0:0:0:0:
100,64,147031,1,0,0:0:0:0:
80,76,147118,2,0,P|48:132|52:188,2,90
204,196,147635,37,0,0:0:0:0:
400,192,147807,1,0,0:0:0:0:
204,196,147980,1,0,0:0:0:0:
400,240,148152,1,0,0:0:0:0:
392,256,148238,1,0,0:0:0:0:
380,268,148325,1,0,0:0:0:0:
368,276,148411,1,0,0:0:0:0:
352,288,148497,2,0,P|296:296|236:280,2,90
260,160,149014,5,0,0:0:0:0:
440,92,149187,1,0,0:0:0:0:
260,20,149359,1,0,0:0:0:0:
152,164,149531,1,0,0:0:0:0:
152,184,149618,1,0,0:0:0:0:
152,204,149704,1,0,0:0:0:0:
152,224,149790,1,0,0:0:0:0:
152,244,149876,2,0,P|152:320|152:352,2,90
376,212,150393,37,0,0:0:0:0:
364,48,150566,1,0,0:0:0:0:
188,48,150738,1,0,0:0:0:0:
184,200,150911,1,0,0:0:0:0:
184,200,150997,1,0,0:0:0:0:
184,200,151083,1,0,0:0:0:0:
184,200,151169,1,0,0:0:0:0:
184,200,151256,2,0,P|188:256|212:312,2,90
276,48,151773,5,0,0:0:0:0:
344,172,151945,1,0,0:0:0:0:
432,336,152118,1,0,0:0:0:0:
248,328,152290,1,0,0:0:0:0:
228,320,152376,1,0,0:0:0:0:
212,304,152462,1,0,0:0:0:0:
198,287,152549,1,0,0:0:0:0:
184,272,152635,2,0,P|156:228|148:180,1,90
316,188,152980,37,0,0:0:0:0:
256,192,153152,12,0,154445,0:0:0:0:
88,292,154531,5,0,0:0:0:0:
108,148,154704,1,0,0:0:0:0:
236,272,154876,1,0,0:0:0:0:
268,112,155049,1,0,0:0:0:0:
352,272,155221,2,0,P|404:224|420:188,1,90
392,48,155566,1,0,0:0:0:0:
192,64,155738,38,2,L|148:64,2,45
276,176,156083,2,0,P|336:192|384:184,1,90
188,272,156428,2,2,L|188:332,2,45
128,108,156773,1,0,0:0:0:0:
272,188,156945,1,2,0:0:0:0:
272,188,157031,1,2,0:0:0:0:
272,188,157118,1,2,0:0:0:0:
416,112,157290,5,0,0:0:0:0:
440,272,157462,1,0,0:0:0:0:
280,280,157635,2,0,P|232:268|172:260,1,90
32,188,157980,1,0,0:0:0:0:
188,132,158152,1,2,0:0:0:0:
188,132,158238,1,2,0:0:0:0:
188,132,158325,1,2,0:0:0:0:
184,296,158497,37,0,0:0:0:0:
320,220,158669,2,2,L|368:200,2,45
320,56,159014,1,0,0:0:0:0:
132,56,159187,1,0,0:0:0:0:
320,68,159359,1,0,0:0:0:0:
168,232,159531,1,0,0:0:0:0:
144,64,159704,1,0,0:0:0:0:
132,232,159876,1,0,0:0:0:0:
264,112,160049,6,0,P|308:168|344:200,1,90,0|2,0:0|0:0,0:0:0:0:
352,204,160307,1,2,0:0:0:0:
384,220,160393,2,0,P|408:276|416:332,1,90,2|0,0:0|0:0,0:0:0:0:
232,308,160738,1,0,0:0:0:0:
284,152,160911,1,0,0:0:0:0:
108,196,161083,1,0,0:0:0:0:
172,76,161256,38,2,L|216:52,2,45
212,236,161600,2,0,P|244:276|288:308,1,90
400,188,161945,2,2,L|448:200,2,45
240,116,162290,1,0,0:0:0:0:
400,52,162462,2,2,L|448:20,2,45
456,200,162807,5,0,0:0:0:0:
356,336,162980,1,0,0:0:0:0:
288,192,163152,1,0,0:0:0:0:
212,328,163325,1,2,0:0:0:0:
204,316,163411,1,2,0:0:0:0:
196,304,163497,1,2,0:0:0:0:
116,188,163669,2,0,P|144:140|160:96,1,90
296,200,164014,37,0,0:0:0:0:
384,52,164187,2,0,P|432:72|460:112,1,90
460,264,164531,1,0,0:0:0:0:
324,160,164704,1,0,0:0:0:0:
136,172,164876,5,0,0:0:0:0:
256,48,165049,1,0,0:0:0:0:
336,232,165221,37,0,0:0:0:0:
284,92,165393,1,0,0:0:0:0:
228,272,165566,6,0,P|184:280|120:256,1,90,0|2,0:0|0:0,0:0:0:0:
112,252,165825,1,2,0:0:0:0:
88,232,165911,2,0,P|60:180|44:120,1,90,2|0,0:0|0:0,0:0:0:0:
256,108,166256,1,0,0:0:0:0:
432,76,166428,1,0,0:0:0:0:
256,108,166600,1,0,0:0:0:0:
404,192,166773,37,2,0:0:0:0:
404,192,166859,1,2,0:0:0:0:
404,192,166945,1,2,0:0:0:0:
344,64,167118,1,0,0:0:0:0:
196,168,167290,1,0,0:0:0:0:
328,272,167462,5,2,0:0:0:0:
328,272,167549,1,2,0:0:0:0:
328,272,167635,1,2,0:0:0:0:
152,292,167807,1,0,0:0:0:0:
72,172,167980,1,2,0:0:0:0:
72,172,168066,1,2,0:0:0:0:
72,172,168152,1,2,0:0:0:0:
180,72,168325,38,0,P|240:100|276:136,1,90
428,188,168669,2,0,P|424:140|440:88,1,90
288,216,169014,1,0,0:0:0:0:
156,292,169187,2,2,L|100:316,2,45
160,144,169531,1,0,0:0:0:0:
360,164,169704,2,2,L|404:204,2,45
184,48,170049,1,0,0:0:0:0:
192,236,170221,1,0,0:0:0:0:
304,64,170393,5,0,0:0:0:0:
452,72,170566,1,0,0:0:0:0:
456,212,170738,1,0,0:0:0:0:
312,216,170911,1,0,0:0:0:0:
128,96,171083,38,0,P|84:128|60:160,1,90
152,320,171428,2,0,P|196:296|216:256,1,90
244,136,171773,1,0,0:0:0:0:
440,144,171945,1,0,0:0:0:0:
336,12,172118,1,0,0:0:0:0:
176,72,172290,5,2,0:0:0:0:
172,80,172376,1,2,0:0:0:0:
168,88,172462,1,2,0:0:0:0:
160,268,172635,2,0,P|176:220|196:172,1,90
296,216,172980,1,2,0:0:0:0:
292,224,173066,1,2,0:0:0:0:
288,232,173152,1,2,0:0:0:0:
372,320,173325,37,0,0:0:0:0:
468,188,173497,1,2,0:0:0:0:
456,184,173583,1,2,0:0:0:0:
440,180,173669,1,2,0:0:0:0:
296,72,173842,6,0,P|220:72|168:84,1,90
208,260,174187,1,0,0:0:0:0:
352,176,174359,1,0,0:0:0:0:
172,148,174531,1,0,0:0:0:0:
152,320,174704,1,0,0:0:0:0:
324,224,174876,1,0,0:0:0:0:
136,228,175049,1,0,0:0:0:0:
80,108,175221,38,0,P|108:64|160:44,1,90
388,120,175566,1,0,0:0:0:0:
344,248,175738,2,2,L|336:308,2,45
176,312,176083,1,0,0:0:0:0:
108,172,176256,5,0,0:0:0:0:
104,148,176342,1,0,0:0:0:0:
108,128,176428,1,0,0:0:0:0:
116,108,176514,1,0,0:0:0:0:
124,92,176600,1,0,0:0:0:0:
224,80,187635,38,4,P|188:120|156:208,1,135.000005149842,4|0,0:0|0:0,0:0:0:0:
304,248,188152,2,4,P|356:232|400:152,1,135.000005149842,4|0,0:0|0:0,0:0:0:0:
224,80,188669,1,0,0:0:0:0:
304,248,188842,1,0,0:0:0:0:
364,72,189014,6,4,P|408:120|432:204,1,135.000005149842,4|0,0:0|0:0,0:0:0:0:
244,184,189531,2,4,P|184:168|104:168,1,135.000005149842,4|0,0:0|0:0,0:0:0:0:
364,72,190049,1,0,0:0:0:0:
240,184,190221,1,0,0:0:0:0:
80,184,190393,38,0,P|84:224|96:264,1,67.5000025749208,4|0,0:0|0:0,0:0:0:0:
200,268,190738,2,0,P|224:216|224:188,1,67.5000025749208,4|0,0:0|0:0,0:0:0:0:
320,212,191083,2,0,P|332:272|344:300,1,67.5000025749208,4|0,0:0|0:0,0:0:0:0:
428,280,191428,2,0,P|448:232|444:212,1,67.5000025749208,4|0,0:0|0:0,0:0:0:0:
356,72,191773,6,0,P|292:88|276:100,1,67.5000025749208,4|0,0:0|0:0,0:0:0:0:
256,204,192118,1,0,0:0:0:0:
200,312,192290,2,0,P|156:348|116:352,1,67.5000025749208,4|0,0:0|0:0,0:0:0:0:
32,256,192635,1,0,0:0:0:0:
168,168,192807,1,0,0:0:0:0:
216,296,192980,1,0,0:0:0:0:
304,172,193152,38,0,P|376:192|436:236,1,135.000005149842,4|0,0:0|0:0,0:0:0:0:
296,332,193669,2,0,P|256:340|152:312,1,135.000005149842,4|0,0:0|0:0,0:0:0:0:
304,172,194187,1,0,0:0:0:0:
296,336,194359,1,0,0:0:0:0:
224,168,194531,6,0,P|224:88|196:36,1,135.000005149842,4|0,0:0|0:0,0:0:0:0:
408,68,195049,2,0,P|400:160|416:224,1,135.000005149842,4|0,0:0|0:0,0:0:0:0:
228,168,195566,1,0,0:0:0:0:
408,68,195738,1,0,0:0:0:0:
344,216,195911,38,0,P|344:256|360:304,1,67.5000025749208,4|0,0:0|0:0,0:0:0:0:
260,296,196256,2,0,P|240:256|244:220,1,67.5000025749208,4|0,0:0|0:0,0:0:0:0:
152,224,196600,2,0,P|156:272|168:320,1,67.5000025749208,4|0,0:0|0:0,0:0:0:0:
72,292,196945,2,0,P|60:244|68:200,1,67.5000025749208,4|0,0:0|0:0,0:0:0:0:
196,56,197290,6,0,P|164:96|160:128,1,67.5000025749208,4|0,0:0|0:0,0:0:0:0:
156,220,197635,1,0,0:0:0:0:
192,320,197807,2,0,P|228:344|280:348,1,67.5000025749208,4|0,0:0|0:0,0:0:0:0:
364,308,198152,1,0,0:0:0:0:
296,196,198325,1,0,0:0:0:0:
428,160,198497,1,0,0:0:0:0:
324,68,198669,38,0,P|240:64|204:72,1,90,0|2,0:0|0:0,0:0:0:0:
204,72,198928,1,2,0:0:0:0:
176,88,199014,2,0,P|144:128|124:196,1,90,2|0,0:0|0:0,0:0:0:0:
160,296,199359,1,0,0:0:0:0:
320,212,199531,1,0,0:0:0:0:
320,212,199618,1,0,0:0:0:0:
320,212,199704,1,0,0:0:0:0:
320,212,199790,1,0,0:0:0:0:
320,212,199876,1,0,0:0:0:0:
184,72,200049,6,0,P|156:116|148:160,1,90,0|2,0:0|0:0,0:0:0:0:
148,184,200307,1,2,0:0:0:0:
152,220,200393,2,2,P|164:288|192:328,1,90
380,268,200738,1,0,0:0:0:0:
408,72,200911,1,0,0:0:0:0:
408,84,200997,1,0,0:0:0:0:
408,96,201083,1,0,0:0:0:0:
408,108,201169,1,0,0:0:0:0:
408,120,201256,1,0,0:0:0:0:
296,260,201428,38,2,P|216:248|184:232,1,90
172,232,201687,1,2,0:0:0:0:
148,216,201773,2,0,P|96:176|80:128,1,90,2|0,0:0|0:0,0:0:0:0:
236,52,202118,1,0,0:0:0:0:
352,160,202290,1,0,0:0:0:0:
368,156,202376,1,0,0:0:0:0:
384,144,202462,1,0,0:0:0:0:
392,128,202549,1,0,0:0:0:0:
396,112,202635,1,0,0:0:0:0:
232,136,202807,5,0,0:0:0:0:
88,64,202980,37,0,0:0:0:0:
200,192,203152,1,0,0:0:0:0:
32,128,203325,5,0,0:0:0:0:
160,248,203497,1,0,0:0:0:0:
0,188,203669,37,0,0:0:0:0:
128,308,203842,1,0,0:0:0:0:
248,192,204014,1,0,0:0:0:0:
428,136,204187,6,0,P|448:180|448:232,1,90,0|2,0:0|0:0,0:0:0:0:
440,248,204445,1,2,0:0:0:0:
424,280,204531,2,0,P|388:316|336:336,1,90,2|0,0:0|0:0,0:0:0:0:
156,328,204876,1,0,0:0:0:0:
268,232,205049,1,0,0:0:0:0:
276,228,205135,1,0,0:0:0:0:
284,224,205221,1,0,0:0:0:0:
292,220,205307,1,0,0:0:0:0:
296,216,205393,1,0,0:0:0:0:
120,92,205566,38,0,P|200:60|236:60,1,90,0|2,0:0|0:0,0:0:0:0:
240,60,205825,1,2,0:0:0:0:
272,68,205911,2,0,P|332:80|376:68,1,90,2|0,0:0|0:0,0:0:0:0:
488,184,206256,1,0,0:0:0:0:
312,212,206428,1,0,0:0:0:0:
296,216,206514,1,0,0:0:0:0:
284,232,206600,1,0,0:0:0:0:
276,248,206687,1,0,0:0:0:0:
276,268,206773,1,0,0:0:0:0:
100,276,206945,6,0,P|88:208|88:160,1,90,0|2,0:0|0:0,0:0:0:0:
84,160,207204,1,2,0:0:0:0:
88,124,207290,2,0,P|108:76|148:32,1,90,2|0,0:0|0:0,0:0:0:0:
328,52,207635,1,0,0:0:0:0:
256,188,207807,1,0,0:0:0:0:
256,200,207893,1,0,0:0:0:0:
256,212,207980,1,0,0:0:0:0:
256,224,208066,1,0,0:0:0:0:
256,236,208152,1,0,0:0:0:0:
448,204,208325,37,0,0:0:0:0:
276,136,208497,5,0,0:0:0:0:
252,28,208669,1,0,0:0:0:0:
196,152,208842,37,0,0:0:0:0:
148,32,209014,1,0,0:0:0:0:
116,180,209187,5,0,0:0:0:0:
44,52,209359,2,0,P|40:108|44:172,1,90
72,324,209704,38,0,P|160:336|188:324,1,90,0|2,0:0|0:0,0:0:0:0:
192,324,209962,1,2,0:0:0:0:
220,312,210049,2,0,P|268:272|288:224,1,90,2|0,0:0|0:0,0:0:0:0:
332,68,210393,1,0,0:0:0:0:
408,180,210566,1,0,0:0:0:0:
416,196,210652,1,0,0:0:0:0:
424,212,210738,1,0,0:0:0:0:
424,228,210825,1,0,0:0:0:0:
424,244,210911,1,0,0:0:0:0:
264,188,211083,6,0,P|236:128|200:104,1,90,0|2,0:0|0:0,0:0:0:0:
188,96,211342,1,2,0:0:0:0:
144,96,211428,2,0,P|80:128|40:160,1,90,2|0,0:0|0:0,0:0:0:0:
276,48,211773,1,0,0:0:0:0:
368,152,211945,1,0,0:0:0:0:
368,152,212031,1,0,0:0:0:0:
368,152,212118,1,0,0:0:0:0:
368,152,212204,1,0,0:0:0:0:
368,152,212290,1,0,0:0:0:0:
324,320,212462,38,0,P|268:288|212:272,1,90,0|2,0:0|0:0,0:0:0:0:
212,268,212721,1,2,0:0:0:0:
176,264,212807,2,0,P|116:240|72:212,1,90,2|0,0:0|0:0,0:0:0:0:
88,48,213152,1,0,0:0:0:0:
248,96,213325,1,0,0:0:0:0:
264,104,213411,1,0,0:0:0:0:
280,112,213497,1,0,0:0:0:0:
296,120,213583,1,0,0:0:0:0:
308,128,213669,1,0,0:0:0:0:
408,280,213842,5,0,0:0:0:0:
264,348,214014,37,0,0:0:0:0:
324,224,214187,1,0,0:0:0:0:
184,328,214359,5,0,0:0:0:0:
240,188,214531,1,0,0:0:0:0:
104,312,214704,37,0,0:0:0:0:
160,172,214876,1,0,0:0:0:0:
24,280,215049,1,0,0:0:0:0:
56,120,215221,6,0,P|124:88|168:80,1,90,0|2,0:0|0:0,0:0:0:0:
172,84,215480,1,2,0:0:0:0:
208,84,215566,2,0,P|276:84|336:84,1,90,2|0,0:0|0:0,0:0:0:0:
484,96,215911,1,0,0:0:0:0:
424,228,216083,1,0,0:0:0:0:
404,228,216169,1,0,0:0:0:0:
388,228,216256,1,0,0:0:0:0:
368,228,216342,1,0,0:0:0:0:
348,228,216428,1,0,0:0:0:0:
112,264,216600,38,0,P|172:240|200:216,1,90,0|2,0:0|0:0,0:0:0:0:
208,200,216859,1,2,0:0:0:0:
224,168,216945,2,0,P|268:120|316:108,1,90,2|0,0:0|0:0,0:0:0:0:
104,92,217290,1,0,0:0:0:0:
132,224,217462,1,0,0:0:0:0:
124,232,217549,1,0,0:0:0:0:
112,240,217635,1,0,0:0:0:0:
96,248,217721,1,0,0:0:0:0:
80,252,217807,1,0,0:0:0:0:
300,300,217980,6,0,P|280:236|276:184,1,90,0|2,0:0|0:0,0:0:0:0:
276,180,218238,1,2,0:0:0:0:
276,144,218325,2,0,P|288:64|304:28,1,90,2|0,0:0|0:0,0:0:0:0:
484,160,218669,1,0,0:0:0:0:
376,280,218842,1,0,0:0:0:0:
376,280,218928,1,0,0:0:0:0:
376,280,219014,1,0,0:0:0:0:
376,280,219100,1,0,0:0:0:0:
376,280,219187,1,0,0:0:0:0:
216,192,219359,37,8,0:0:0:0:
40,180,219531,1,0,0:0:0:0:
144,60,219704,1,8,0:0:0:0:
216,192,219876,1,0,0:0:0:0:
144,328,220049,1,8,0:0:0:0:
40,192,220221,1,0,0:0:0:0:
224,196,220393,1,8,0:0:0:0:
224,44,220566,1,0,0:0:0:0:
368,176,220738,1,8,0:0:0:0:
256,192,220825,12,0,222462,0:0:0:0:
320,116,223497,37,0,0:0:0:0:
96,124,226256,37,0,0:0:0:0:
224,124,226600,1,0,0:0:0:0:
160,236,226945,1,0,0:0:0:0:
288,236,227290,1,0,0:0:0:0:
284,232,229014,5,0,0:0:0:0:
412,204,231773,37,0,0:0:0:0:
408,76,232118,1,0,0:0:0:0:
264,76,232462,1,0,0:0:0:0:
264,204,232807,1,0,0:0:0:0:
264,204,234531,5,0,0:0:0:0:
208,56,237290,37,0,0:0:0:0:
208,184,237635,1,0,0:0:0:0:
208,312,237980,1,0,0:0:0:0:
336,312,238325,1,0,0:0:0:0:
336,320,240049,5,0,0:0:0:0:
376,56,242807,6,0,P|384:96|356:176,1,116.999994644165
348,192,243325,1,0,0:0:0:0:
168,212,243497,1,0,0:0:0:0:
168,212,244531,21,0,0:0:0:0:
220,92,244704,1,0,0:0:0:0:
308,200,244876,2,0,P|372:200|448:112,1,175.499991966248
444,92,245566,5,0,0:0:0:0:
444,156,245911,1,0,0:0:0:0:
444,224,246256,1,0,0:0:0:0:
448,224,247290,37,0,0:0:0:0:
264,224,247462,1,0,0:0:0:0:
368,352,247635,1,0,0:0:0:0:
368,352,248325,22,0,P|296:304|248:296,1,116.999994644165
236,296,248842,1,0,0:0:0:0:
240,104,249014,1,0,0:0:0:0:
240,104,250049,21,0,0:0:0:0:
404,108,250221,1,0,0:0:0:0:
240,104,250393,2,0,P|240:168|280:288,1,175.499991966248
308,280,251083,5,0,0:0:0:0:
360,280,251428,1,0,0:0:0:0:
412,280,251773,1,0,0:0:0:0:
412,280,252807,37,0,0:0:0:0:
272,196,252980,1,0,0:0:0:0:
412,136,253152,1,0,0:0:0:0:
256,192,253842,21,0,0:0:0:0:
256,192,253928,12,0,256514,0:0:0:0:
256,192,256600,21,0,0:0:0:0:
256,228,257290,1,0,0:0:0:0:
256,260,257980,1,0,0:0:0:0:
256,296,258669,1,0,0:0:0:0:
256,192,259359,5,4,0:0:0:0:
256,156,260049,1,0,0:0:0:0:
256,120,260738,1,0,0:0:0:0:
256,88,261428,1,0,0:0:0:0:
256,192,262118,5,0,0:0:0:0:
256,192,262204,12,0,264704,0:0:0:0:
108,104,264876,5,0,0:0:0:0:
264,84,265049,1,0,0:0:0:0:
232,232,265221,1,0,0:0:0:0:
400,104,265393,1,0,0:0:0:0:
408,124,265480,1,0,0:0:0:0:
412,144,265566,1,0,0:0:0:0:
408,164,265652,1,0,0:0:0:0:
400,184,265738,2,0,P|372:240|320:276,1,90
264,112,266083,1,0,0:0:0:0:
80,164,266256,37,0,0:0:0:0:
280,224,266428,1,0,0:0:0:0:
104,272,266600,1,0,0:0:0:0:
208,128,266773,1,0,0:0:0:0:
192,104,266859,1,0,0:0:0:0:
168,88,266945,1,0,0:0:0:0:
136,80,267031,1,0,0:0:0:0:
104,80,267118,2,0,P|56:100|12:144,1,90
48,280,267462,1,0,0:0:0:0:
240,284,267635,5,0,0:0:0:0:
340,160,267807,1,0,0:0:0:0:
240,284,267980,1,0,0:0:0:0:
216,148,268152,1,0,0:0:0:0:
228,132,268238,1,0,0:0:0:0:
240,120,268325,1,0,0:0:0:0:
256,112,268411,1,0,0:0:0:0:
276,104,268497,2,0,P|320:96|376:96,1,90
488,184,268842,1,0,0:0:0:0:
368,288,269014,37,0,0:0:0:0:
256,188,269187,1,0,0:0:0:0:
88,188,269359,1,0,0:0:0:0:
176,52,269531,1,0,0:0:0:0:
256,200,269704,1,0,0:0:0:0:
92,200,269876,1,0,0:0:0:0:
248,216,270049,1,0,0:0:0:0:
208,56,270221,1,0,0:0:0:0:
368,56,270393,5,0,0:0:0:0:
456,192,270566,1,0,0:0:0:0:
352,312,270738,1,0,0:0:0:0:
288,168,270911,1,0,0:0:0:0:
268,156,270997,1,0,0:0:0:0:
244,148,271083,1,0,0:0:0:0:
220,152,271169,1,0,0:0:0:0:
196,160,271256,2,0,P|144:176|108:232,1,90
120,348,271600,1,0,0:0:0:0:
312,348,271773,37,0,0:0:0:0:
128,256,271945,1,0,0:0:0:0:
316,344,272118,1,0,0:0:0:0:
324,176,272290,1,0,0:0:0:0:
324,176,272376,1,0,0:0:0:0:
324,176,272462,1,0,0:0:0:0:
324,176,272549,1,0,0:0:0:0:
324,176,272635,2,0,P|408:160|440:132,1,90
248,80,272980,1,0,0:0:0:0:
52,176,273152,5,0,0:0:0:0:
192,344,273325,1,0,0:0:0:0:
248,176,273497,1,0,0:0:0:0:
344,348,273669,1,0,0:0:0:0:
368,344,273756,1,0,0:0:0:0:
392,332,273842,1,0,0:0:0:0:
408,316,273928,1,0,0:0:0:0:
420,296,274014,2,0,P|440:244|440:200,1,90
440,40,274359,1,0,0:0:0:0:
256,36,274531,37,0,0:0:0:0:
136,176,274704,1,0,0:0:0:0:
264,40,274876,1,0,0:0:0:0:
360,188,275049,1,0,0:0:0:0:
160,192,275221,1,0,0:0:0:0:
260,328,275393,1,0,0:0:0:0:
360,188,275566,2,0,P|372:116|368:72,1,90
232,88,275911,5,0,0:0:0:0:
224,272,276083,1,0,0:0:0:0:
308,96,276256,1,0,0:0:0:0:
160,228,276428,1,0,0:0:0:0:
144,216,276514,1,0,0:0:0:0:
136,200,276600,1,0,0:0:0:0:
128,184,276687,1,0,0:0:0:0:
120,168,276773,2,0,P|92:128|72:68,1,90
296,52,277118,1,0,0:0:0:0:
392,208,277290,37,0,0:0:0:0:
464,56,277462,1,0,0:0:0:0:
296,52,277635,1,0,0:0:0:0:
292,200,277807,1,0,0:0:0:0:
292,212,277893,1,0,0:0:0:0:
292,224,277980,1,0,0:0:0:0:
292,236,278066,1,0,0:0:0:0:
292,248,278152,2,0,P|292:312|268:352,1,90
104,316,278497,1,0,0:0:0:0:
112,180,278669,5,0,0:0:0:0:
260,72,278842,1,0,0:0:0:0:
268,244,279014,1,0,0:0:0:0:
384,88,279187,1,0,0:0:0:0:
404,112,279273,1,0,0:0:0:0:
412,140,279359,1,0,0:0:0:0:
400,172,279445,1,0,0:0:0:0:
380,196,279531,2,0,P|320:192|280:176,1,90
68,180,279876,1,0,0:0:0:0:
196,56,280049,37,0,0:0:0:0:
364,184,280221,1,0,0:0:0:0:
336,56,280393,1,0,0:0:0:0:
204,184,280566,1,0,0:0:0:0:
364,304,280738,1,0,0:0:0:0:
200,320,280911,1,0,0:0:0:0:
340,208,281083,1,0,0:0:0:0:
224,92,281256,1,0,0:0:0:0:
340,208,281428,5,0,0:0:0:0:
200,320,281600,1,0,0:0:0:0:
364,304,281773,1,0,0:0:0:0:
208,184,281945,1,0,0:0:0:0:
188,172,282031,1,0,0:0:0:0:
172,156,282118,1,0,0:0:0:0:
164,136,282204,1,0,0:0:0:0:
160,112,282290,2,0,P|152:56|160:16,1,90
136,240,282635,1,0,0:0:0:0:
264,344,282807,37,0,0:0:0:0:
352,196,282980,1,0,0:0:0:0:
208,124,283152,1,0,0:0:0:0:
304,16,283325,1,0,0:0:0:0:
320,28,283411,1,0,0:0:0:0:
336,40,283497,1,0,0:0:0:0:
352,56,283583,1,0,0:0:0:0:
368,68,283669,2,0,P|412:104|468:144,1,90
488,280,284014,1,0,0:0:0:0:
336,176,284187,5,0,0:0:0:0:
340,352,284359,1,0,0:0:0:0:
336,176,284531,1,0,0:0:0:0:
368,332,284704,1,0,0:0:0:0:
352,324,284790,1,0,0:0:0:0:
332,316,284876,1,0,0:0:0:0:
312,312,284962,1,0,0:0:0:0:
292,320,285049,2,0,P|236:332|192:312,1,90
292,156,285393,1,0,0:0:0:0:
92,168,285566,37,0,0:0:0:0:
236,44,285738,1,0,0:0:0:0:
304,208,285911,1,0,0:0:0:0:
400,56,286083,1,0,0:0:0:0:
488,212,286256,1,0,0:0:0:0:
360,320,286428,1,0,0:0:0:0:
352,140,286600,2,0,P|304:108|244:96,1,90
72,124,286945,5,0,0:0:0:0:
120,288,287118,1,0,0:0:0:0:
208,152,287290,2,0,P|280:160|304:188,1,90
344,324,287635,1,0,0:0:0:0:
472,208,287807,1,0,0:0:0:0:
320,180,287980,1,0,0:0:0:0:
244,44,288152,37,2,0:0:0:0:
236,56,288238,1,2,0:0:0:0:
224,68,288325,1,2,0:0:0:0:
100,172,288497,2,0,P|120:232|152:280,1,90
288,272,288842,5,2,0:0:0:0:
288,272,288928,1,2,0:0:0:0:
288,272,289014,1,2,0:0:0:0:
288,272,289100,1,2,0:0:0:0:
288,272,289187,1,2,0:0:0:0:
416,168,289359,2,0,P|384:112|352:84,1,90
212,80,289704,37,0,0:0:0:0:
92,180,289876,1,0,0:0:0:0:
288,204,290049,2,2,L|324:232,2,45
168,248,290393,2,2,L|136:288,2,45
168,104,290738,5,0,0:0:0:0:
316,92,290911,1,2,0:0:0:0:
316,92,290997,1,2,0:0:0:0:
316,92,291083,1,2,0:0:0:0:
436,192,291256,1,0,0:0:0:0:
328,296,291428,37,2,0:0:0:0:
320,304,291514,1,2,0:0:0:0:
308,312,291600,1,2,0:0:0:0:
292,316,291687,1,2,0:0:0:0:
276,316,291773,2,2,P|232:304|184:248,1,90,2|0,0:0|0:0,0:0:0:0:
320,148,292118,1,0,0:0:0:0:
128,136,292290,1,0,0:0:0:0:
288,44,292462,6,0,P|332:40|392:52,1,90,0|2,0:0|0:0,0:0:0:0:
420,68,292721,1,6,0:0:0:0:
448,104,292807,2,2,P|468:160|460:216,1,90
408,344,293152,1,0,0:0:0:0:
328,188,293325,1,0,0:0:0:0:
288,328,293497,1,0,0:0:0:0:
164,236,293669,38,2,L|176:192,2,45
300,80,294014,1,0,0:0:0:0:
88,76,294187,1,0,0:0:0:0:
248,196,294359,2,2,L|272:248,2,45
416,152,294704,1,0,0:0:0:0:
344,280,294876,2,2,L|304:312,2,45
208,192,295221,6,0,P|160:192|108:200,1,90
304,96,295566,2,0,P|384:112|420:136,1,90
440,256,295911,1,0,0:0:0:0:
296,304,296083,1,2,0:0:0:0:
296,304,296169,1,2,0:0:0:0:
296,304,296256,1,2,0:0:0:0:
192,164,296428,1,2,0:0:0:0:
136,288,296600,37,2,0:0:0:0:
136,288,296687,1,2,0:0:0:0:
136,288,296773,1,2,0:0:0:0:
76,160,296945,2,2,L|76:108,2,45
216,160,297290,1,2,0:0:0:0:
244,168,297376,1,2,0:0:0:0:
272,184,297462,1,2,0:0:0:0:
356,288,297635,5,2,0:0:0:0:
380,288,297721,1,2,0:0:0:0:
408,280,297807,1,2,0:0:0:0:
428,268,297893,1,2,0:0:0:0:
444,252,297980,2,2,P|472:204|480:132,1,90,0|0,0:0|0:0,0:0:0:0:
336,48,298325,37,0,0:0:0:0:
272,196,298497,1,0,0:0:0:0:
164,44,298669,1,0,0:0:0:0:
272,196,298842,1,0,0:0:0:0:
96,232,299014,2,0,P|120:292|164:320,1,90,0|2,0:0|0:0,0:0:0:0:
176,320,299273,1,2,0:0:0:0:
208,324,299359,2,0,P|280:332|328:316,1,90,2|0,0:0|0:0,0:0:0:0:
436,240,299704,1,0,0:0:0:0:
292,168,299876,5,2,0:0:0:0:
272,160,299962,1,2,0:0:0:0:
248,164,300049,1,2,0:0:0:0:
48,204,300221,1,0,0:0:0:0:
144,88,300393,2,2,L|188:56,2,45
176,240,300738,38,0,P|196:284|256:320,1,90
424,188,301083,2,0,P|352:176|316:152,1,90
116,136,301428,1,0,0:0:0:0:
288,72,301600,1,2,0:0:0:0:
304,92,301687,1,2,0:0:0:0:
312,112,301773,1,2,0:0:0:0:
328,264,301945,1,0,0:0:0:0:
436,128,302118,5,2,0:0:0:0:
448,148,302204,1,2,0:0:0:0:
460,168,302290,1,2,0:0:0:0:
472,192,302376,1,2,0:0:0:0:
480,216,302462,2,2,P|476:272|436:320,1,90,0|0,0:0|0:0,0:0:0:0:
268,200,302807,1,0,0:0:0:0:
332,336,302980,1,0,0:0:0:0:
384,172,303152,37,0,0:0:0:0:
252,308,303325,1,0,0:0:0:0:
144,212,303497,2,0,P|104:160|96:120,1,90,0|2,0:0|0:0,0:0:0:0:
96,104,303756,1,2,0:0:0:0:
104,72,303842,2,0,P|124:24|168:8,1,90,2|0,0:0|0:0,0:0:0:0:
348,60,304187,1,0,0:0:0:0:
264,192,304359,1,0,0:0:0:0:
172,68,304531,1,0,0:0:0:0:
128,192,304704,5,2,0:0:0:0:
128,212,304790,1,2,0:0:0:0:
128,232,304876,1,2,0:0:0:0:
132,344,305049,2,0,L|236:336,1,90
288,232,305393,37,2,0:0:0:0:
288,216,305480,1,2,0:0:0:0:
288,200,305566,1,2,0:0:0:0:
172,100,305738,1,0,0:0:0:0:
284,80,305911,1,2,0:0:0:0:
300,80,305997,1,2,0:0:0:0:
316,80,306083,1,2,0:0:0:0:
456,92,306256,6,0,P|464:144|460:204,1,90
400,332,306600,2,0,P|376:280|348:240,1,90
128,256,306945,1,0,0:0:0:0:
244,164,307118,1,2,0:0:0:0:
268,160,307204,1,2,0:0:0:0:
292,156,307290,1,2,0:0:0:0:
428,100,307462,1,0,0:0:0:0:
280,40,307635,37,2,0:0:0:0:
256,48,307721,1,2,0:0:0:0:
236,56,307807,1,2,0:0:0:0:
132,120,307980,1,2,0:0:0:0:
124,136,308066,1,2,0:0:0:0:
116,152,308152,1,2,0:0:0:0:
120,260,308325,5,2,0:0:0:0:
132,272,308411,1,2,0:0:0:0:
144,284,308497,1,2,0:0:0:0:
292,272,308669,1,2,0:0:0:0:
304,264,308756,1,2,0:0:0:0:
312,252,308842,1,2,0:0:0:0:
320,240,308928,1,2,0:0:0:0:
328,228,309014,2,0,P|328:164|304:112,1,90
152,68,309359,38,0,P|92:120|80:152,1,90
80,288,309704,1,0,0:0:0:0:
224,200,309876,1,0,0:0:0:0:
348,320,310049,2,0,P|412:264|416:236,1,90,0|2,0:0|0:0,0:0:0:0:
416,224,310307,1,2,0:0:0:0:
420,188,310393,2,0,P|420:112|392:80,1,90,2|0,0:0|0:0,0:0:0:0:
236,84,310738,1,0,0:0:0:0:
248,204,310911,5,2,0:0:0:0:
248,204,310997,1,2,0:0:0:0:
248,204,311083,1,2,0:0:0:0:
88,200,311256,1,0,0:0:0:0:
180,300,311428,2,2,L|212:344,2,45
172,144,311773,38,0,P|192:96|228:64,1,90
432,88,312118,2,0,P|464:144|468:184,1,90
400,344,312462,1,0,0:0:0:0:
336,184,312635,1,2,0:0:0:0:
324,172,312721,1,2,0:0:0:0:
312,160,312807,1,2,0:0:0:0:
244,336,312980,1,0,0:0:0:0:
164,192,313152,6,2,L|128:224,2,45
164,56,313497,1,0,0:0:0:0:
320,64,313669,1,0,0:0:0:0:
360,192,313842,2,0,P|360:268|332:312,1,90
212,220,314187,1,0,0:0:0:0:
184,348,314359,1,0,0:0:0:0:
64,224,314531,38,2,P|72:176|92:132,1,90
116,108,314790,1,2,0:0:0:0:
144,80,314876,2,0,P|192:52|244:32,1,90,2|0,0:0|0:0,0:0:0:0:
288,196,315221,1,0,0:0:0:0:
456,52,315393,1,0,0:0:0:0:
300,184,315566,1,0,0:0:0:0:
460,284,315738,5,2,0:0:0:0:
460,296,315825,1,2,0:0:0:0:
460,308,315911,1,2,0:0:0:0:
296,308,316083,2,0,P|240:280|188:264,1,90
80,152,316428,1,2,0:0:0:0:
104,144,316514,1,2,0:0:0:0:
132,144,316600,1,2,0:0:0:0:
280,224,316773,1,0,0:0:0:0:
384,100,316945,2,2,L|408:56,2,45
416,220,317290,38,0,P|412:288|376:324,1,90
252,320,317635,2,0,P|172:296|152:256,1,90
148,124,317980,1,0,0:0:0:0:
248,200,318152,2,0,P|304:220|336:220,1,90
444,128,318497,1,0,0:0:0:0:
304,56,318669,5,2,0:0:0:0:
272,76,318756,1,2,0:0:0:0:
244,96,318842,1,2,0:0:0:0:
164,164,319014,2,2,L|120:188,2,45
268,212,319359,1,2,0:0:0:0:
300,232,319445,1,2,0:0:0:0:
336,256,319531,1,2,0:0:0:0:
468,320,319704,37,2,0:0:0:0:
468,288,319790,1,2,0:0:0:0:
468,256,319876,1,2,0:0:0:0:
468,224,319962,1,2,0:0:0:0:
468,196,320049,2,0,L|468:96,1,90,2|2,0:0|0:0,0:0:0:0:
324,64,320393,6,0,P|288:104|232:120,1,90
268,280,320738,1,0,0:0:0:0:
372,176,320911,1,0,0:0:0:0:
448,312,321083,1,0,0:0:0:0:
296,204,321256,2,2,L|256:176,2,45
212,280,321600,2,0,P|156:300|88:296,1,90
88,184,321945,37,0,0:0:0:0:
100,168,322031,1,0,0:0:0:0:
124,160,322118,1,0,0:0:0:0:
288,224,322290,1,0,0:0:0:0:
400,152,322462,1,2,0:0:0:0:
408,132,322549,1,2,0:0:0:0:
408,108,322635,1,2,0:0:0:0:
288,52,322807,6,0,P|236:40|184:40,1,90
288,148,323152,2,0,P|276:208|252:252,1,90
136,328,323497,2,0,P|76:272|64:236,1,90,0|2,0:0|0:0,0:0:0:0:
68,232,323756,1,2,0:0:0:0:
64,200,323842,2,0,P|68:152|88:100,1,90,2|0,0:0|0:0,0:0:0:0:
216,56,324187,2,0,B|288:56|368:92|376:140|376:140|328:144|240:176,1,315
112,212,325566,38,4,P|120:288|204:368,1,161.999995056153,4|0,0:0|0:0,0:0:0:0:
356,316,326083,2,4,P|420:276|440:184,1,161.999995056153,4|0,0:0|0:0,0:0:0:0:
268,160,326600,1,0,0:0:0:0:
256,320,326773,1,0,0:0:0:0:
96,220,326945,6,4,P|80:152|128:48,1,161.999995056153,4|0,0:0|0:0,0:0:0:0:
296,68,327462,2,4,P|368:84|424:180,1,161.999995056153,4|0,0:0|0:0,0:0:0:0:
312,260,327980,1,0,0:0:0:0:
208,160,328152,1,0,0:0:0:0:
36,296,328325,38,0,L|128:296,1,80.9999975280763,4|0,0:0|0:0,0:0:0:0:
272,300,328669,2,0,L|176:296,1,80.9999975280763,4|0,0:0|0:0,0:0:0:0:
272,216,329014,2,0,L|376:216,1,80.9999975280763,4|0,0:0|0:0,0:0:0:0:
508,216,329359,2,0,L|416:216,1,80.9999975280763,4|0,0:0|0:0,0:0:0:0:
352,72,329704,6,0,P|296:68|256:72,1,80.9999975280763,4|0,0:0|0:0,0:0:0:0:
132,132,330049,1,0,0:0:0:0:
236,244,330221,2,0,P|288:232|332:240,1,80.9999975280763,4|0,0:0|0:0,0:0:0:0:
472,336,330566,1,0,0:0:0:0:
284,332,330738,1,0,0:0:0:0:
288,156,330911,1,0,0:0:0:0:
472,168,331083,22,0,P|440:224|368:272,1,135.000005149842,4|0,0:0|0:0,0:0:0:0:
248,224,331600,2,0,B|212:256|168:288|96:248|56:200|116:104,1,270.000010299683
248,64,332462,6,0,P|304:88|376:152,1,135.000005149842,4|0,0:0|0:0,0:0:0:0:
384,268,332980,2,0,P|340:300|308:308,1,67.5000025749208
172,272,333325,2,0,P|220:304|240:304,1,67.5000025749208
232,304,333842,38,0,P|288:212|268:168,1,135.000005149842,4|0,0:0|0:0,0:0:0:0:
240,104,334359,2,0,B|216:64|252:32|328:32|416:116|436:172,1,270.000010299683
472,336,335221,6,0,P|396:320|312:324,1,135.000005149842,4|0,0:0|0:0,0:0:0:0:
200,316,335738,2,0,L|128:320,1,67.5000025749208
216,200,336083,2,0,L|136:192,1,67.5000025749208
144,68,336600,38,0,P|216:64|296:96,1,135.000005149842,4|0,0:0|0:0,0:0:0:0:
368,140,337118,2,0,B|408:172|432:224|432:304|328:344,1,236.250009012223
168,336,337980,6,0,P|208:292|204:200,1,135.000005149842,4|0,0:0|0:0,0:0:0:0:
108,128,338497,2,0,P|80:76|52:52,1,67.5000025749208
240,140,338842,2,0,P|288:116|312:112,1,67.5000025749208
464,208,339359,38,0,P|440:252|352:296,1,135.000005149842,4|0,0:0|0:0,0:0:0:0:
216,296,339876,2,0,P|144:296|168:308,1,270.000010299683
336,332,340738,6,0,P|400:300|440:240,1,135.000005149842,4|0,0:0|0:0,0:0:0:0:
436,44,341256,2,0,L|436:132,1,67.5000025749208
436,249,341600,2,0,L|436:169,1,67.5000025749208
300,60,342118,38,0,P|232:52|156:64,1,135.000005149842,4|0,0:0|0:0,0:0:0:0:
64,176,342635,2,0,B|140:148|208:152|296:200|320:248,1,270.000010299683
368,332,343497,6,0,P|432:296|452:228,1,135.000005149842,4|0,0:0|0:0,0:0:0:0:
320,248,344014,2,0,L|304:160,1,67.5000025749208
216,208,344359,2,0,L|236:292,1,67.5000025749208
124,328,344876,38,0,P|120:252|96:192,1,135.000005149842,4|0,0:0|0:0,0:0:0:0:
152,40,345393,2,0,B|188:76|240:100|292:60|304:48|304:48|288:160,1,270.000010299683
284,304,346256,6,0,P|360:312|436:296,1,135.000005149842,4|0,0:0|0:0,0:0:0:0:
296,152,346773,2,0,L|320:224,1,67.5000025749208
432,124,347118,2,0,L|396:56,1,67.5000025749208
236,68,347635,38,0,P|180:72|104:96,1,135.000005149842,4|0,0:0|0:0,0:0:0:0:
88,228,348152,2,0,B|96:276|112:312|152:268|180:232|200:232|212:280|220:312|232:336|296:256,1,270.000010299683
424,176,349014,6,0,P|404:132|320:76,1,135.000005149842,4|0,0:0|0:0,0:0:0:0:
172,52,349531,2,0,L|100:80,1,67.5000025749208
188,172,349876,2,0,L|248:208,1,67.5000025749208
256,192,350393,12,0,352980,0:0:0:0:
176,76,353152,6,0,P|136:84|91:115,1,80.9999975280763
176,76,353497,1,0,0:0:0:0:
288,144,353669,2,0,P|328:160|363:195,1,80.9999975280763
288,144,354014,1,0,0:0:0:0:
180,212,354187,2,0,P|136:228|96:256,1,80.9999975280763
180,212,354531,1,0,0:0:0:0:
272,316,354704,5,0,0:0:0:0:
348,200,354876,1,0,0:0:0:0:
412,304,355049,1,0,0:0:0:0:
432,292,355135,1,0,0:0:0:0:
452,280,355221,1,0,0:0:0:0:
468,264,355307,1,0,0:0:0:0:
484,244,355393,1,0,0:0:0:0:
432,132,355566,2,0,P|392:104|352:80,1,80.9999975280763
188,80,355911,22,0,P|224:120|248:168,1,80.9999975280763
188,80,356256,1,0,0:0:0:0:
120,164,356428,2,0,P|176:204|200:232,1,80.9999975280763
120,164,356773,1,0,0:0:0:0:
76,268,356945,2,0,P|120:296|140:328,1,80.9999975280763
76,268,357290,1,0,0:0:0:0:
236,192,357462,37,0,0:0:0:0:
324,332,357635,1,0,0:0:0:0:
368,192,357807,1,0,0:0:0:0:
368,172,357893,1,0,0:0:0:0:
368,152,357980,1,0,0:0:0:0:
368,132,358066,1,0,0:0:0:0:
368,112,358152,1,0,0:0:0:0:
160,112,358325,2,0,L|160:212,1,80.9999975280763
176,328,358669,6,0,P|224:304|264:296,1,80.9999975280763
176,328,359014,1,0,0:0:0:0:
284,212,359187,2,0,P|348:204|392:208,1,80.9999975280763
284,212,359531,1,0,0:0:0:0:
400,116,359704,2,0,P|456:120|496:128,1,80.9999975280763
400,116,360049,1,0,0:0:0:0:
252,32,360221,21,0,0:0:0:0:
248,180,360393,1,0,0:0:0:0:
100,168,360566,1,0,0:0:0:0:
96,188,360652,1,0,0:0:0:0:
92,208,360738,1,0,0:0:0:0:
92,228,360825,1,0,0:0:0:0:
96,248,360911,1,0,0:0:0:0:
240,292,361083,2,0,P|292:280|344:288,1,80.9999975280763
456,192,361428,22,0,P|412:144|384:132,1,80.9999975280763
456,192,361773,1,0,0:0:0:0:
384,272,361945,2,0,P|332:232|304:216,1,80.9999975280763
384,272,362290,1,0,0:0:0:0:
284,308,362462,2,0,P|224:276|184:272,1,80.9999975280763
284,308,362807,1,0,0:0:0:0:
296,172,362980,37,0,0:0:0:0:
124,176,363152,1,0,0:0:0:0:
240,56,363325,1,0,0:0:0:0:
260,64,363411,1,0,0:0:0:0:
280,80,363497,1,0,0:0:0:0:
296,96,363583,1,0,0:0:0:0:
308,116,363669,1,0,0:0:0:0:
364,272,363842,2,0,P|308:276|296:276,2,40.4999987640381
88,256,364187,6,0,L|88:160,1,80.9999975280763,4|0,0:0|0:0,0:0:0:0:
172,292,364531,1,0,0:0:0:0:
264,172,364704,2,0,L|276:272,1,80.9999975280763
344,136,365049,1,0,0:0:0:0:
416,272,365221,2,0,L|436:188,1,80.9999975280763
504,312,365566,1,0,0:0:0:0:
336,320,365738,21,0,0:0:0:0:
328,176,365911,1,0,0:0:0:0:
220,248,366083,1,0,0:0:0:0:
200,248,366169,1,0,0:0:0:0:
180,248,366256,1,0,0:0:0:0:
160,248,366342,1,0,0:0:0:0:
140,248,366428,1,0,0:0:0:0:
112,80,366600,2,0,P|68:140|64:172,1,80.9999975280763
244,160,366945,22,0,P|280:120|292:88,1,80.9999975280763
440,56,367290,1,0,0:0:0:0:
436,184,367462,2,0,P|428:240|404:276,1,80.9999975280763
256,272,367807,1,0,0:0:0:0:
96,280,367980,2,0,P|52:220|48:192,1,80.9999975280763
256,176,368325,1,0,0:0:0:0:
328,336,368497,37,0,0:0:0:0:
428,192,368669,1,0,0:0:0:0:
308,60,368842,1,0,0:0:0:0:
308,60,368928,1,0,0:0:0:0:
308,60,369014,1,0,0:0:0:0:
308,60,369100,1,0,0:0:0:0:
308,60,369187,1,0,0:0:0:0:
256,192,369359,2,0,P|224:120|224:80,1,80.9999975280763
72,200,369704,6,0,P|132:192|164:196,1,80.9999975280763
364,192,370049,1,0,0:0:0:0:
372,348,370221,2,0,P|304:324|272:320,1,80.9999975280763
120,312,370566,1,0,0:0:0:0:
280,200,370738,2,0,P|236:140|224:112,1,80.9999975280763
452,100,371083,1,0,0:0:0:0:
456,260,371256,21,0,0:0:0:0:
296,268,371428,1,0,0:0:0:0:
456,260,371600,1,0,0:0:0:0:
448,240,371687,1,0,0:0:0:0:
436,224,371773,1,0,0:0:0:0:
424,208,371859,1,0,0:0:0:0:
408,196,371945,1,0,0:0:0:0:
220,176,372118,2,0,P|252:140|272:88,1,80.9999975280763
432,72,372462,22,0,P|380:60|336:56,1,80.9999975280763
436,196,372807,1,0,0:0:0:0:
244,196,372980,2,0,P|308:200|356:216,1,80.9999975280763
252,340,373325,1,0,0:0:0:0:
76,328,373497,2,0,P|80:256|92:216,1,80.9999975280763
96,84,373842,1,0,0:0:0:0:
192,188,374014,37,0,0:0:0:0:
256,72,374187,1,0,0:0:0:0:
328,184,374359,1,0,0:0:0:0:
344,172,374445,1,0,0:0:0:0:
360,160,374531,1,0,0:0:0:0:
376,148,374618,1,0,0:0:0:0:
392,136,374704,1,0,0:0:0:0:
460,252,374876,37,0,0:0:0:0:
460,252,374962,1,0,0:0:0:0:
460,252,375049,1,0,0:0:0:0:
344,336,375221,22,0,P|300:288|256:264,1,80.9999975280763
92,256,375566,1,0,0:0:0:0:
92,124,375738,2,0,P|112:64|132:44,1,80.9999975280763
272,56,376083,1,0,0:0:0:0:
412,56,376256,2,0,P|464:76|480:128,1,80.9999975280763
480,268,376600,1,0,0:0:0:0:
316,188,376773,37,0,0:0:0:0:
272,312,376945,2,0,P|204:316|180:300,1,80.9999975280763
96,208,377290,1,0,0:0:0:0:
208,108,377462,1,0,0:0:0:0:
232,252,377635,2,0,P|300:216|336:212,1,80.9999975280763
460,192,377980,6,0,P|456:144|444:108,1,80.9999975280763
256,100,378325,1,0,0:0:0:0:
352,204,378497,2,0,P|292:228|252:232,1,80.9999975280763
272,344,378842,1,0,0:0:0:0:
448,276,379014,2,0,P|408:328|376:336,1,80.9999975280763
296,196,379359,1,0,0:0:0:0:
420,128,379531,21,0,0:0:0:0:
368,252,379704,2,0,P|328:284|288:288,1,80.9999975280763
196,172,380049,1,0,0:0:0:0:
176,320,380221,1,0,0:0:0:0:
176,320,380393,2,0,P|116:296|88:292,1,80.9999975280763
80,152,380738,22,0,P|60:104|36:72,1,80.9999975280763
188,64,381083,1,0,0:0:0:0:
196,208,381256,2,0,P|200:256|208:308,1,80.9999975280763
336,184,381600,1,0,0:0:0:0:
336,52,381773,2,0,P|384:68|436:60,1,80.9999975280763
460,224,382118,1,0,0:0:0:0:
272,224,382290,37,0,0:0:0:0:
168,348,382462,2,0,P|120:312|88:292,1,80.9999975280763
164,168,382807,1,0,0:0:0:0:
56,276,382980,1,0,0:0:0:0:
228,296,383152,2,0,P|296:320|336:316,1,80.9999975280763
452,260,383497,6,0,L|448:164,1,80.9999975280763
436,40,383842,1,0,0:0:0:0:
248,108,384014,2,0,L|360:120,1,80.9999975280763
332,292,384359,1,0,0:0:0:0:
192,192,384531,2,0,L|224:280,1,80.9999975280763
380,176,384876,1,0,0:0:0:0:
264,76,385049,22,0,L|220:68,2,40.4999987640381
288,200,385393,2,0,P|268:248|232:288,1,80.9999975280763
112,192,385738,1,0,0:0:0:0:
136,320,385911,1,0,0:0:0:0:
296,312,386083,1,0,0:0:0:0:
296,312,386169,1,0,0:0:0:0:
296,312,386256,22,0,P|348:296|376:264,1,80.9999975280763
296,312,386600,1,0,0:0:0:0:
272,152,386773,2,0,P|208:176|180:200,1,80.9999975280763
272,152,387118,1,0,0:0:0:0:
384,88,387290,2,0,P|432:108|448:136,1,80.9999975280763
384,88,387635,1,0,0:0:0:0:
236,32,387807,37,0,0:0:0:0:
128,168,387980,2,0,P|160:220|196:256,1,80.9999975280763
56,284,388325,1,0,0:0:0:0:
40,132,388497,1,0,0:0:0:0:
124,72,388669,2,0,P|176:88|220:116,1,80.9999975280763
300,232,389014,6,0,P|332:200|352:164,1,80.9999975280763
300,232,389359,1,0,0:0:0:0:
248,160,389531,2,0,P|188:192|168:212,1,80.9999975280763
248,160,389876,1,0,0:0:0:0:
312,316,390049,2,0,P|372:296|384:264,1,80.9999975280763
312,316,390393,1,0,0:0:0:0:
136,312,390566,21,0,0:0:0:0:
144,164,390738,2,0,P|200:160|240:168,1,80.9999975280763
400,188,391083,1,0,0:0:0:0:
344,48,391256,1,0,0:0:0:0:
260,172,391428,2,0,P|264:228|224:272,1,80.9999975280763
96,168,391773,22,0,L|144:88,1,80.9999975280763
96,168,392118,1,0,0:0:0:0:
232,128,392290,2,0,L|184:216,1,80.9999975280763
232,128,392635,1,0,0:0:0:0:
288,240,392807,2,0,L|340:160,1,80.9999975280763
288,240,393152,1,0,0:0:0:0:
140,248,393325,37,0,0:0:0:0:
200,344,393497,2,0,P|260:332|296:324,1,80.9999975280763
384,312,393842,1,0,0:0:0:0:
428,216,394014,1,0,0:0:0:0:
420,108,394187,2,0,P|368:76|316:76,1,80.9999975280763
176,88,394531,6,0,P|168:140|172:184,1,80.9999975280763
176,88,394876,1,0,0:0:0:0:
304,112,395049,2,0,P|284:152|268:200,1,80.9999975280763
304,112,395393,1,0,0:0:0:0:
404,164,395566,2,0,P|372:212|360:244,1,80.9999975280763
404,164,395911,1,0,0:0:0:0:
460,292,396083,5,0,0:0:0:0:
460,292,396169,1,0,0:0:0:0:
460,292,396256,1,0,0:0:0:0:
296,288,396428,2,0,P|236:260|208:256,1,80.9999975280763
60,212,396773,1,0,0:0:0:0:
176,120,396945,2,0,P|232:104|276:96,1,80.9999975280763
292,96,397204,1,0,0:0:0:0:
292,96,397290,1,0,0:0:0:0:
256,192,397376,12,0,404187,0:0:0:0:
