osu file format v14

[General]
AudioFilename: Beautiful Lies.mp3
AudioLeadIn: 0
PreviewTime: 287339
Countdown: 0
SampleSet: Soft
StackLeniency: 0.7
Mode: 3
LetterboxInBreaks: 0
SpecialStyle: 0
WidescreenStoryboard: 0

[Editor]
Bookmarks: 298390,309441,320492
DistanceSpacing: 1.6
BeatDivisor: 4
GridSize: 32
TimelineZoom: 0.8999999

[Metadata]
Title:Beautiful Lies
TitleUnicode:Beautiful Lies
Artist:B-Complex
ArtistUnicode:B-Complex
Creator:Obilariated
Version:Insanity
Source:
Tags:drum bass
BeatmapID:894988
BeatmapSetID:412582

[Difficulty]
HPDrainRate:8
CircleSize:4
OverallDifficulty:8
ApproachRate:5
SliderMultiplier:1.4
SliderTickRate:1

[Events]
//Background and Video events
0,0,"BG.jpg",0,0
//Break Periods
//Storyboard Layer 0 (Background)
//Storyboard Layer 1 (Fail)
//Storyboard Layer 2 (Pass)
//Storyboard Layer 3 (Foreground)
//Storyboard Sound Samples

[TimingPoints]
14,345.343616898814,4,2,4,5,1,0
22115,-100,4,2,3,35,0,0
66319,-100,4,2,4,5,0,0
87040,-100,4,2,3,5,0,0
88421,-100,4,2,3,35,0,1
109142,-100,4,2,3,35,0,0
110523,-100,4,2,3,35,0,1
132625,-100,4,2,3,35,0,0
154727,-100,4,2,3,35,0,1
176829,-100,4,2,3,35,0,0
198931,-100,4,2,3,35,0,1
221033,-100,4,2,4,35,0,0
243135,-100,4,2,3,35,0,0
256949,-100,4,2,4,35,0,0
265237,-100,4,2,3,35,0,1
320492,-100,4,2,4,20,0,1
331543,-100,4,2,4,20,0,0

[HitObjects]
64,192,14,5,0,0:0:0:70:soft-hitnormal3.wav
448,192,14,1,0,0:0:0:70:soft-hitnormal3.wav
192,192,359,1,0,0:0:0:0:
448,192,532,1,0,0:0:0:0:
320,192,877,1,0,0:0:0:0:
64,192,1050,1,0,0:0:0:0:
64,192,1395,1,0,0:0:0:0:
192,192,5539,1,0,0:0:0:0:
448,192,5539,1,0,0:0:0:0:
64,192,5884,1,0,0:0:0:0:
320,192,6057,1,0,0:0:0:0:
448,192,6402,1,0,0:0:0:0:
192,192,6575,1,0,0:0:0:0:
192,192,6920,1,0,0:0:0:0:
64,192,11064,1,0,0:0:0:0:
320,192,11064,1,0,0:0:0:0:
192,192,11410,1,0,0:0:0:0:
448,192,11583,1,0,0:0:0:0:
64,192,11928,1,0,0:0:0:0:
320,192,12101,1,0,0:0:0:0:
320,192,12446,1,0,0:0:0:0:
192,192,16590,1,0,0:0:0:0:
320,192,16590,1,0,0:0:0:0:
320,192,16935,1,0,0:0:0:0:
64,192,17108,1,0,0:0:0:0:
192,192,17453,1,0,0:0:0:0:
448,192,17626,1,0,0:0:0:0:
448,192,17971,1,0,0:0:0:0:
192,192,22115,1,4,0:0:0:0:
448,192,22115,1,0,0:0:0:0:
64,192,22115,128,0,22461:0:0:0:0:
320,192,22461,1,0,0:0:0:0:
448,192,22634,1,0,0:0:0:0:
192,192,22806,1,0,0:0:0:0:
320,192,22806,1,0,0:0:0:0:
64,192,22979,1,0,0:0:0:0:
448,192,23152,1,0,0:0:0:0:
192,192,23324,1,0,0:0:0:0:
64,192,23497,1,0,0:0:0:0:
320,192,23670,1,0,0:0:0:0:
448,192,23842,128,0,24188:0:0:0:0:
64,192,24188,1,0,0:0:0:0:
192,192,24188,1,0,0:0:0:0:
320,192,24360,1,0,0:0:0:0:
448,192,24533,1,0,0:0:0:0:
64,192,24706,1,0,0:0:0:0:
192,192,24878,128,0,25224:0:0:0:0:
320,192,24878,1,0,0:0:0:0:
448,192,25224,1,0,0:0:0:0:
64,192,25396,1,0,0:0:0:0:
448,192,25569,1,0,0:0:0:0:
320,192,25569,1,0,0:0:0:0:
192,192,25742,1,0,0:0:0:0:
64,192,25914,1,0,0:0:0:0:
448,192,26087,1,0,0:0:0:0:
320,192,26260,1,0,0:0:0:0:
64,192,26260,1,0,0:0:0:0:
192,192,26432,1,0,0:0:0:0:
320,192,26605,128,0,26950:0:0:0:0:
192,192,26950,1,0,0:0:0:0:
448,192,26950,1,0,0:0:0:0:
64,192,27123,1,0,0:0:0:0:
320,192,27296,1,0,0:0:0:0:
192,192,27468,1,0,0:0:0:0:
320,192,27641,128,0,27986:0:0:0:0:
448,192,27641,1,0,0:0:0:0:
64,192,27986,1,0,0:0:0:0:
192,192,28159,1,0,0:0:0:0:
320,192,28332,1,0,0:0:0:0:
64,192,28332,1,0,0:0:0:0:
448,192,28504,1,0,0:0:0:0:
192,192,28677,1,0,0:0:0:0:
320,192,28850,1,0,0:0:0:0:
192,192,29022,1,0,0:0:0:0:
448,192,29022,1,0,0:0:0:0:
320,192,29195,1,0,0:0:0:0:
64,192,29368,128,0,29713:0:0:0:0:
192,192,29713,1,0,0:0:0:0:
448,192,29713,1,0,0:0:0:0:
320,192,29886,1,0,0:0:0:0:
448,192,30058,1,0,0:0:0:0:
192,192,30231,1,0,0:0:0:0:
320,192,30404,128,0,30749:0:0:0:0:
64,192,30404,1,0,0:0:0:0:
448,192,30749,1,0,0:0:0:0:
192,192,30922,1,0,0:0:0:0:
448,192,31094,1,0,0:0:0:0:
64,192,31094,1,0,0:0:0:0:
320,192,31267,1,0,0:0:0:0:
192,192,31440,1,0,0:0:0:0:
448,192,31612,1,0,0:0:0:0:
64,192,31785,1,0,0:0:0:0:
320,192,31785,1,0,0:0:0:0:
448,192,31958,1,0,0:0:0:0:
192,192,32130,128,0,32476:0:0:0:0:
448,192,32476,1,0,0:0:0:0:
320,192,32476,1,0,0:0:0:0:
64,192,32648,1,0,0:0:0:0:
320,192,32821,1,0,0:0:0:0:
64,192,32994,1,0,0:0:0:0:
448,192,33166,128,0,33512:0:0:0:0:
192,192,33166,1,0,0:0:0:0:
64,192,33512,1,0,0:0:0:0:
192,192,33685,1,0,0:0:0:0:
64,192,33857,1,0,0:0:0:0:
320,192,33857,1,0,0:0:0:0:
448,192,34030,1,0,0:0:0:0:
320,192,34203,1,0,0:0:0:0:
64,192,34375,1,0,0:0:0:0:
192,192,34548,1,0,0:0:0:0:
448,192,34721,1,0,0:0:0:0:
320,192,34893,128,0,35239:0:0:0:0:
192,192,35239,1,0,0:0:0:0:
448,192,35239,1,0,0:0:0:0:
64,192,35411,1,0,0:0:0:0:
448,192,35584,1,0,0:0:0:0:
320,192,35757,1,0,0:0:0:0:
64,192,35929,1,0,0:0:0:0:
192,192,35929,128,0,36275:0:0:0:0:
448,192,36275,1,0,0:0:0:0:
64,192,36447,1,0,0:0:0:0:
192,192,36620,1,0,0:0:0:0:
320,192,36620,1,0,0:0:0:0:
64,192,36793,1,0,0:0:0:0:
448,192,36965,1,0,0:0:0:0:
192,192,37138,1,0,0:0:0:0:
64,192,37311,1,0,0:0:0:0:
320,192,37311,1,0,0:0:0:0:
448,192,37483,1,0,0:0:0:0:
64,192,37656,128,0,38001:0:0:0:0:
320,192,38001,1,0,0:0:0:0:
448,192,38001,1,0,0:0:0:0:
192,192,38174,1,0,0:0:0:0:
448,192,38347,1,0,0:0:0:0:
192,192,38519,1,0,0:0:0:0:
320,192,38692,128,0,39037:0:0:0:0:
64,192,38692,1,0,0:0:0:0:
448,192,39037,1,0,0:0:0:0:
192,192,39210,1,0,0:0:0:0:
64,192,39383,1,0,0:0:0:0:
320,192,39383,1,0,0:0:0:0:
448,192,39555,1,0,0:0:0:0:
192,192,39728,1,0,0:0:0:0:
64,192,39901,1,0,0:0:0:0:
192,192,40073,1,0,0:0:0:0:
448,192,40073,1,0,0:0:0:0:
320,192,40246,1,0,0:0:0:0:
64,192,40419,128,0,40764:0:0:0:0:
192,192,40764,1,0,0:0:0:0:
448,192,40764,1,0,0:0:0:0:
320,192,40937,1,0,0:0:0:0:
64,192,41109,1,0,0:0:0:0:
192,192,41282,1,0,0:0:0:0:
448,192,41455,128,0,41800:0:0:0:0:
320,192,41455,1,0,0:0:0:0:
64,192,41800,1,0,0:0:0:0:
192,192,41973,1,0,0:0:0:0:
448,192,42145,1,0,0:0:0:0:
320,192,42145,1,0,0:0:0:0:
192,192,42318,1,0,0:0:0:0:
64,192,42491,1,0,0:0:0:0:
448,192,42663,1,0,0:0:0:0:
320,192,42836,1,0,0:0:0:0:
192,192,42836,1,0,0:0:0:0:
64,192,43009,1,0,0:0:0:0:
320,192,43181,128,0,43527:0:0:0:0:
192,192,43527,1,0,0:0:0:0:
448,192,43527,1,0,0:0:0:0:
64,192,43699,1,0,0:0:0:0:
192,192,43872,1,0,0:0:0:0:
64,192,44045,1,0,0:0:0:0:
448,192,44217,1,0,0:0:0:0:
320,192,44217,1,0,0:0:0:0:
192,192,44390,1,0,0:0:0:0:
320,192,44476,1,0,0:0:0:0:
448,192,44563,1,0,0:0:0:0:
64,192,44735,1,0,0:0:0:0:
192,192,44822,1,0,0:0:0:0:
320,192,44908,1,0,0:0:0:0:
448,192,44908,1,0,0:0:0:0:
192,192,44995,1,0,0:0:0:0:
64,192,45081,1,0,0:0:0:0:
320,192,45254,1,0,0:0:0:0:
448,192,45426,1,0,0:0:0:0:
192,192,45513,1,0,0:0:0:0:
64,192,45599,1,0,0:0:0:0:
192,192,45772,1,0,0:0:0:0:
320,192,45858,1,0,0:0:0:0:
448,192,45944,1,0,0:0:0:0:
64,192,46117,1,0,0:0:0:0:
192,192,46203,1,0,0:0:0:0:
320,192,46290,1,0,0:0:0:0:
448,192,46290,1,0,0:0:0:0:
192,192,46376,1,0,0:0:0:0:
64,192,46462,1,0,0:0:0:0:
448,192,46635,1,0,0:0:0:0:
192,192,46808,1,0,0:0:0:0:
64,192,46894,1,0,0:0:0:0:
320,192,46980,1,0,0:0:0:0:
448,192,47153,1,0,0:0:0:0:
320,192,47239,1,0,0:0:0:0:
64,192,47326,1,0,0:0:0:0:
448,192,47498,1,0,0:0:0:0:
320,192,47585,1,0,0:0:0:0:
64,192,47671,1,0,0:0:0:0:
192,192,47671,1,0,0:0:0:0:
320,192,47757,1,0,0:0:0:0:
448,192,47844,1,0,0:0:0:0:
192,192,48016,1,0,0:0:0:0:
64,192,48189,1,0,0:0:0:0:
448,192,48275,1,0,0:0:0:0:
320,192,48362,1,0,0:0:0:0:
192,192,48534,1,0,0:0:0:0:
64,192,48621,1,0,0:0:0:0:
448,192,48707,1,0,0:0:0:0:
64,192,48880,1,0,0:0:0:0:
192,192,48966,1,0,0:0:0:0:
448,192,49052,1,0,0:0:0:0:
320,192,49052,1,0,0:0:0:0:
192,192,49139,1,0,0:0:0:0:
64,192,49225,1,0,0:0:0:0:
320,192,49398,1,0,0:0:0:0:
448,192,49570,1,0,0:0:0:0:
192,192,49657,1,0,0:0:0:0:
64,192,49743,1,0,0:0:0:0:
320,192,49916,1,0,0:0:0:0:
448,192,50002,1,0,0:0:0:0:
192,192,50088,1,0,0:0:0:0:
64,192,50261,1,0,0:0:0:0:
320,192,50347,1,0,0:0:0:0:
192,192,50434,1,0,0:0:0:0:
448,192,50434,1,0,0:0:0:0:
64,192,50520,1,0,0:0:0:0:
320,192,50606,1,0,0:0:0:0:
448,192,50779,1,0,0:0:0:0:
64,192,50952,1,0,0:0:0:0:
192,192,51038,1,0,0:0:0:0:
320,192,51124,1,0,0:0:0:0:
448,192,51297,1,0,0:0:0:0:
320,192,51383,1,0,0:0:0:0:
64,192,51470,1,0,0:0:0:0:
448,192,51642,1,0,0:0:0:0:
192,192,51729,1,0,0:0:0:0:
320,192,51815,1,0,0:0:0:0:
64,192,51815,1,0,0:0:0:0:
448,192,51901,1,0,0:0:0:0:
192,192,51988,1,0,0:0:0:0:
320,192,52160,1,0,0:0:0:0:
64,192,52333,1,0,0:0:0:0:
192,192,52419,1,0,0:0:0:0:
448,192,52506,1,0,0:0:0:0:
320,192,52678,1,0,0:0:0:0:
192,192,52765,1,0,0:0:0:0:
448,192,52851,1,0,0:0:0:0:
64,192,53024,1,0,0:0:0:0:
320,192,53110,1,0,0:0:0:0:
192,192,53196,1,0,0:0:0:0:
448,192,53196,1,0,0:0:0:0:
64,192,53283,1,0,0:0:0:0:
320,192,53369,1,0,0:0:0:0:
448,192,53542,1,0,0:0:0:0:
64,192,53714,1,0,0:0:0:0:
320,192,53801,1,0,0:0:0:0:
192,192,53887,1,0,0:0:0:0:
64,192,54060,1,0,0:0:0:0:
192,192,54146,1,0,0:0:0:0:
320,192,54232,1,0,0:0:0:0:
448,192,54405,1,0,0:0:0:0:
192,192,54491,1,0,0:0:0:0:
64,192,54578,1,0,0:0:0:0:
320,192,54578,1,0,0:0:0:0:
448,192,54664,1,0,0:0:0:0:
192,192,54750,1,0,0:0:0:0:
64,192,54923,1,0,0:0:0:0:
320,192,55096,1,0,0:0:0:0:
448,192,55182,1,0,0:0:0:0:
192,192,55268,1,0,0:0:0:0:
64,192,55441,1,0,0:0:0:0:
320,192,55527,1,0,0:0:0:0:
448,192,55614,1,0,0:0:0:0:
192,192,55786,1,0,0:0:0:0:
320,192,55873,1,0,0:0:0:0:
64,192,55959,1,0,0:0:0:0:
448,192,55959,1,0,0:0:0:0:
192,192,56046,1,0,0:0:0:0:
320,192,56132,1,0,0:0:0:0:
64,192,56305,1,0,0:0:0:0:
448,192,56477,1,0,0:0:0:0:
320,192,56564,1,0,0:0:0:0:
192,192,56650,1,0,0:0:0:0:
64,192,56823,1,0,0:0:0:0:
192,192,56909,1,0,0:0:0:0:
448,192,56995,1,0,0:0:0:0:
320,192,57168,1,0,0:0:0:0:
192,192,57254,1,0,0:0:0:0:
64,192,57341,1,0,0:0:0:0:
448,192,57341,1,0,0:0:0:0:
320,192,57427,1,0,0:0:0:0:
192,192,57513,1,0,0:0:0:0:
64,192,57686,1,0,0:0:0:0:
192,192,57859,1,0,0:0:0:0:
320,192,57945,1,0,0:0:0:0:
448,192,58031,1,0,0:0:0:0:
64,192,58204,1,0,0:0:0:0:
320,192,58290,1,0,0:0:0:0:
448,192,58377,1,0,0:0:0:0:
192,192,58549,1,0,0:0:0:0:
320,192,58636,1,0,0:0:0:0:
448,192,58722,1,0,0:0:0:0:
64,192,58722,1,0,0:0:0:0:
192,192,58808,1,0,0:0:0:0:
320,192,58895,1,0,0:0:0:0:
64,192,59067,1,0,0:0:0:0:
448,192,59240,1,0,0:0:0:0:
320,192,59326,1,0,0:0:0:0:
192,192,59413,1,0,0:0:0:0:
64,192,59585,1,0,0:0:0:0:
192,192,59672,1,0,0:0:0:0:
448,192,59758,1,0,0:0:0:0:
320,192,59931,1,0,0:0:0:0:
192,192,60017,1,0,0:0:0:0:
64,192,60103,1,0,0:0:0:0:
448,192,60103,1,0,0:0:0:0:
320,192,60190,1,0,0:0:0:0:
192,192,60276,1,0,0:0:0:0:
64,192,60449,1,0,0:0:0:0:
320,192,60621,1,0,0:0:0:0:
192,192,60708,1,0,0:0:0:0:
448,192,60794,1,0,0:0:0:0:
64,192,60967,1,0,0:0:0:0:
320,192,61053,1,0,0:0:0:0:
192,192,61139,1,0,0:0:0:0:
448,192,61312,1,0,0:0:0:0:
320,192,61398,1,0,0:0:0:0:
192,192,61485,1,0,0:0:0:0:
64,192,61485,1,0,0:0:0:0:
320,192,61571,1,0,0:0:0:0:
448,192,61657,1,0,0:0:0:0:
64,192,61830,1,0,0:0:0:0:
192,192,62003,1,0,0:0:0:0:
448,192,62089,1,0,0:0:0:0:
320,192,62175,1,0,0:0:0:0:
192,192,62348,1,0,0:0:0:0:
64,192,62434,1,0,0:0:0:0:
320,192,62521,1,0,0:0:0:0:
448,192,62693,1,0,0:0:0:0:
320,192,62780,1,0,0:0:0:0:
64,192,62866,1,0,0:0:0:0:
192,192,62866,1,0,0:0:0:0:
320,192,62952,1,0,0:0:0:0:
448,192,63039,1,0,0:0:0:0:
192,192,63211,1,0,0:0:0:0:
320,192,63384,1,0,0:0:0:0:
64,192,63470,1,0,0:0:0:0:
448,192,63557,1,0,0:0:0:0:
192,192,63729,1,0,0:0:0:0:
64,192,63816,1,0,0:0:0:0:
320,192,63902,1,0,0:0:0:0:
64,192,64075,1,0,0:0:0:0:
192,192,64161,1,0,0:0:0:0:
320,192,64247,1,0,0:0:0:0:
448,192,64247,1,0,0:0:0:0:
192,192,64334,1,0,0:0:0:0:
64,192,64420,1,0,0:0:0:0:
448,192,64593,1,0,0:0:0:0:
64,192,64765,1,0,0:0:0:0:
192,192,64852,1,0,0:0:0:0:
320,192,64938,1,0,0:0:0:0:
192,192,65111,1,0,0:0:0:0:
448,192,65197,1,0,0:0:0:0:
64,192,65283,1,0,0:0:0:0:
448,192,65456,1,0,0:0:0:0:
320,192,65542,1,0,0:0:0:0:
192,192,65629,1,0,0:0:0:0:
64,192,65629,1,0,0:0:0:0:
320,192,65715,1,0,0:0:0:0:
448,192,65801,1,0,0:0:0:0:
192,192,65974,1,0,0:0:0:0:
320,192,66147,1,0,0:0:0:0:
64,192,66233,1,0,0:0:0:0:
64,192,67010,1,0,0:0:0:0:
192,192,67068,1,0,0:0:0:0:
320,192,67125,1,0,0:0:0:0:
448,192,67183,1,0,0:0:0:0:
64,192,67240,1,0,0:0:0:0:
192,192,67298,1,0,0:0:0:0:
320,192,67356,1,0,0:0:0:0:
448,192,67413,1,0,0:0:0:0:
192,192,68046,128,0,68276:0:0:0:0:
448,192,72536,1,0,0:0:0:0:
320,192,72593,1,0,0:0:0:0:
192,192,72651,1,0,0:0:0:0:
64,192,72708,1,0,0:0:0:0:
448,192,72766,1,0,0:0:0:0:
320,192,72823,1,0,0:0:0:0:
192,192,72881,1,0,0:0:0:0:
64,192,72939,1,0,0:0:0:0:
320,192,73572,128,0,73802:0:0:0:0:
64,192,76680,128,0,76910:0:0:0:0:
448,192,76968,128,0,77198:0:0:0:0:
192,192,77370,128,0,78407:0:0:0:0:
320,192,77888,128,0,78464:0:0:0:0:
192,192,78752,128,0,79788:0:0:0:0:
192,192,80133,128,0,81169:0:0:0:0:
320,192,80651,128,0,81227:0:0:0:0:
64,192,81515,128,0,82551:0:0:0:0:
448,192,82896,128,0,83932:0:0:0:0:
192,192,83414,128,0,83990:0:0:0:0:
64,192,84277,128,0,85659:0:0:0:0:
448,192,87213,128,0,87385:0:0:0:0:
64,192,87385,128,0,87558:0:0:0:0:
448,192,87558,128,0,87731:0:0:0:0:
64,192,87731,128,0,87903:0:0:0:0:
448,192,87903,128,0,88076:0:0:0:0:
192,192,88076,128,0,88421:0:0:0:8:soft-hitnormal3.wav
64,192,88421,1,0,0:0:0:35:LR2_KickBassD2.wav
320,192,88421,1,0,0:0:0:35:LR2_KickBassD2.wav
448,192,88594,1,0,0:0:0:0:
320,192,88680,1,0,0:0:0:0:
64,192,88767,1,0,0:0:0:20:LR2_DSnare.wav
192,192,88767,1,0,0:0:0:0:
448,192,88767,1,0,0:0:0:20:LR2_DSnare.wav
192,192,88939,1,0,0:0:0:0:
448,192,89026,1,0,0:0:0:0:
320,192,89112,1,0,0:0:0:0:
64,192,89198,1,0,0:0:0:0:
320,192,89285,1,0,0:0:0:35:LR2_KickBassD2.wav
192,192,89285,1,0,0:0:0:0:
320,192,89457,1,0,0:0:0:0:
448,192,89457,1,0,0:0:0:20:LR2_DSnare.wav
64,192,89457,1,0,0:0:0:20:LR2_DSnare.wav
192,192,89630,1,0,0:0:0:0:
448,192,89717,1,0,0:0:0:0:
64,192,89803,1,0,0:0:0:35:LR2_KickBassD2.wav
320,192,89803,1,0,0:0:0:0:
192,192,89976,1,0,0:0:0:0:
320,192,90062,1,0,0:0:0:0:
448,192,90148,1,0,0:0:0:20:LR2_DSnare.wav
192,192,90148,1,0,0:0:0:0:
64,192,90148,1,0,0:0:0:20:LR2_DSnare.wav
320,192,90321,1,0,0:0:0:0:
192,192,90407,1,0,0:0:0:0:
64,192,90494,1,0,0:0:0:0:
448,192,90580,1,0,0:0:0:0:
192,192,90666,1,0,0:0:0:0:
320,192,90666,1,0,0:0:0:35:LR2_KickBassD2.wav
64,192,90839,1,0,0:0:0:20:LR2_DSnare.wav
320,192,90839,1,0,0:0:0:0:
448,192,90839,1,0,0:0:0:20:LR2_DSnare.wav
192,192,91012,1,0,0:0:0:0:
320,192,91098,1,0,0:0:0:0:
64,192,91184,1,0,0:0:0:35:LR2_KickBassD2.wav
192,192,91184,1,0,0:0:0:0:
448,192,91357,1,0,0:0:0:0:
320,192,91443,1,0,0:0:0:0:
64,192,91530,1,0,0:0:0:20:LR2_DSnare.wav
192,192,91530,1,0,0:0:0:0:
448,192,91530,1,0,0:0:0:20:LR2_DSnare.wav
320,192,91702,1,0,0:0:0:0:
192,192,91789,1,0,0:0:0:0:
448,192,91875,1,0,0:0:0:0:
64,192,91961,1,0,0:0:0:0:
192,192,92048,1,0,0:0:0:35:LR2_KickBassD2.wav
320,192,92048,1,0,0:0:0:0:
64,192,92220,1,0,0:0:0:20:LR2_DSnare.wav
448,192,92220,1,0,0:0:0:20:LR2_DSnare.wav
192,192,92220,1,0,0:0:0:0:
320,192,92393,1,0,0:0:0:0:
64,192,92479,1,0,0:0:0:0:
192,192,92566,1,0,0:0:0:0:
448,192,92566,1,0,0:0:0:0:
320,192,92738,1,0,0:0:0:0:
192,192,92825,1,0,0:0:0:0:
64,192,92911,1,0,0:0:0:20:LR2_DSnare.wav
320,192,92911,1,0,0:0:0:0:
448,192,92911,1,0,0:0:0:20:LR2_DSnare.wav
192,192,93084,1,0,0:0:0:0:
64,192,93170,1,0,0:0:0:0:
320,192,93256,1,0,0:0:0:0:
448,192,93343,1,0,0:0:0:0:
192,192,93429,1,0,0:0:0:35:LR2_KickBassD2.wav
320,192,93429,1,0,0:0:0:0:
64,192,93602,1,0,0:0:0:20:LR2_DSnare.wav
192,192,93602,1,0,0:0:0:0:
448,192,93602,1,0,0:0:0:20:LR2_DSnare.wav
320,192,93774,1,0,0:0:0:0:
448,192,93861,1,0,0:0:0:0:
64,192,93947,1,0,0:0:0:0:
192,192,93947,1,0,0:0:0:35:LR2_KickBassD2.wav
320,192,94120,1,0,0:0:0:0:
448,192,94206,1,0,0:0:0:0:
192,192,94292,1,0,0:0:0:20:LR2_DSnare.wav
64,192,94292,1,0,0:0:0:20:LR2_DSnare.wav
320,192,94292,1,0,0:0:0:0:
64,192,94465,1,0,0:0:0:0:
192,192,94551,1,0,0:0:0:0:
448,192,94638,1,0,0:0:0:0:
320,192,94724,1,0,0:0:0:0:
64,192,94810,1,0,0:0:0:0:
192,192,94810,1,0,0:0:0:35:LR2_KickBassD2.wav
192,192,94983,1,0,0:0:0:0:
320,192,94983,1,0,0:0:0:20:LR2_DSnare.wav
448,192,94983,1,0,0:0:0:20:LR2_DSnare.wav
64,192,95156,1,0,0:0:0:0:
192,192,95242,1,0,0:0:0:0:
320,192,95328,1,0,0:0:0:35:LR2_KickBassD2.wav
448,192,95328,1,0,0:0:0:0:
64,192,95501,1,0,0:0:0:0:
448,192,95587,1,0,0:0:0:0:
64,192,95674,1,0,0:0:0:20:LR2_DSnare.wav
192,192,95674,1,0,0:0:0:20:LR2_DSnare.wav
320,192,95674,1,0,0:0:0:0:
448,192,95846,1,0,0:0:0:0:
192,192,95933,1,0,0:0:0:0:
64,192,96019,1,0,0:0:0:0:
320,192,96105,1,0,0:0:0:0:
64,192,96192,1,0,0:0:0:0:
192,192,96192,1,0,0:0:0:35:LR2_KickBassD2.wav
192,192,96364,1,0,0:0:0:0:
320,192,96364,1,0,0:0:0:20:LR2_DSnare.wav
448,192,96364,1,0,0:0:0:20:LR2_DSnare.wav
64,192,96537,1,0,0:0:0:0:
448,192,96623,1,0,0:0:0:0:
192,192,96710,1,0,0:0:0:0:
320,192,96710,1,0,0:0:0:35:LR2_KickBassD2.wav
64,192,96882,1,0,0:0:0:0:
448,192,96969,1,0,0:0:0:0:
320,192,97055,1,0,0:0:0:0:
64,192,97055,1,0,0:0:0:20:LR2_DSnare.wav
192,192,97055,1,0,0:0:0:20:LR2_DSnare.wav
448,192,97228,1,0,0:0:0:0:
320,192,97314,1,0,0:0:0:0:
192,192,97400,1,0,0:0:0:0:
64,192,97487,1,0,0:0:0:0:
320,192,97573,1,0,0:0:0:35:LR2_KickBassD2.wav
448,192,97573,1,0,0:0:0:0:
320,192,97746,1,0,0:0:0:0:
192,192,97746,1,0,0:0:0:20:LR2_DSnare.wav
64,192,97746,1,0,0:0:0:20:LR2_DSnare.wav
448,192,97918,1,0,0:0:0:0:
320,192,98005,1,0,0:0:0:0:
192,192,98091,1,0,0:0:0:35:LR2_KickBassD2.wav
64,192,98091,1,0,0:0:0:0:
320,192,98264,1,0,0:0:0:0:
64,192,98350,1,0,0:0:0:0:
192,192,98436,1,0,0:0:0:0:
320,192,98436,1,0,0:0:0:20:LR2_DSnare.wav
448,192,98436,1,0,0:0:0:20:LR2_DSnare.wav
64,192,98609,1,0,0:0:0:0:
320,192,98695,1,0,0:0:0:0:
448,192,98782,1,0,0:0:0:0:
192,192,98868,1,0,0:0:0:0:
320,192,98954,1,0,0:0:0:35:LR2_KickBassD2.wav
448,192,98954,1,0,0:0:0:0:
64,192,99127,1,0,0:0:0:20:LR2_DSnare.wav
192,192,99127,1,0,0:0:0:20:LR2_DSnare.wav
320,192,99127,1,0,0:0:0:0:
448,192,99300,1,0,0:0:0:0:
320,192,99386,1,0,0:0:0:0:
192,192,99472,1,0,0:0:0:35:LR2_KickBassD2.wav
64,192,99472,1,0,0:0:0:0:
448,192,99645,1,0,0:0:0:0:
320,192,99731,1,0,0:0:0:0:
192,192,99818,1,0,0:0:0:0:
448,192,99818,1,0,0:0:0:20:LR2_DSnare.wav
64,192,99818,1,0,0:0:0:20:LR2_DSnare.wav
64,192,99990,1,0,0:0:0:0:
192,192,100077,1,0,0:0:0:0:
320,192,100163,1,0,0:0:0:0:
448,192,100249,1,0,0:0:0:0:
320,192,100336,1,0,0:0:0:0:
192,192,100336,1,0,0:0:0:35:LR2_KickBassD2.wav
64,192,100508,1,0,0:0:0:20:LR2_DSnare.wav
448,192,100508,1,0,0:0:0:20:LR2_DSnare.wav
192,192,100508,1,0,0:0:0:0:
320,192,100681,1,0,0:0:0:0:
64,192,100768,1,0,0:0:0:0:
448,192,100854,1,0,0:0:0:0:
192,192,100854,1,0,0:0:0:35:LR2_KickBassD2.wav
64,192,101027,1,0,0:0:0:0:
192,192,101113,1,0,0:0:0:0:
64,192,101199,1,0,0:0:0:20:LR2_DSnare.wav
320,192,101199,1,0,0:0:0:0:
448,192,101199,1,0,0:0:0:20:LR2_DSnare.wav
448,192,101372,1,0,0:0:0:0:
320,192,101458,1,0,0:0:0:0:
192,192,101545,1,0,0:0:0:0:
64,192,101631,1,0,0:0:0:0:
192,192,101717,1,0,0:0:0:0:
320,192,101717,1,0,0:0:0:35:LR2_KickBassD2.wav
64,192,101890,1,0,0:0:0:20:LR2_DSnare.wav
320,192,101890,1,0,0:0:0:0:
448,192,101890,1,0,0:0:0:20:LR2_DSnare.wav
192,192,102063,1,0,0:0:0:0:
320,192,102149,1,0,0:0:0:0:
448,192,102235,1,0,0:0:0:0:
192,192,102235,1,0,0:0:0:35:LR2_KickBassD2.wav
64,192,102408,1,0,0:0:0:0:
320,192,102494,1,0,0:0:0:0:
64,192,102581,1,0,0:0:0:20:LR2_DSnare.wav
448,192,102581,1,0,0:0:0:20:LR2_DSnare.wav
192,192,102581,1,0,0:0:0:0:
320,192,102753,1,0,0:0:0:0:
192,192,102840,1,0,0:0:0:0:
64,192,102926,1,0,0:0:0:0:
448,192,103012,1,0,0:0:0:0:
192,192,103099,1,0,0:0:0:35:LR2_KickBassD2.wav
320,192,103099,1,0,0:0:0:0:
64,192,103271,1,0,0:0:0:20:LR2_DSnare.wav
448,192,103271,1,0,0:0:0:20:LR2_DSnare.wav
192,192,103271,1,0,0:0:0:0:
320,192,103444,1,0,0:0:0:0:
64,192,103530,1,0,0:0:0:0:
448,192,103617,1,0,0:0:0:0:
192,192,103617,1,0,0:0:0:35:LR2_KickBassD2.wav
320,192,103789,1,0,0:0:0:0:
192,192,103876,1,0,0:0:0:0:
64,192,103962,1,0,0:0:0:20:LR2_DSnare.wav
320,192,103962,1,0,0:0:0:0:
448,192,103962,1,0,0:0:0:20:LR2_DSnare.wav
192,192,104135,1,0,0:0:0:0:
448,192,104221,1,0,0:0:0:0:
320,192,104307,1,0,0:0:0:0:
64,192,104394,1,0,0:0:0:0:
192,192,104480,1,0,0:0:0:0:
320,192,104480,1,0,0:0:0:35:LR2_KickBassD2.wav
448,192,104653,1,0,0:0:0:20:LR2_DSnare.wav
64,192,104653,1,0,0:0:0:20:LR2_DSnare.wav
320,192,104653,1,0,0:0:0:0:
192,192,104825,1,0,0:0:0:0:
64,192,104912,1,0,0:0:0:0:
320,192,104998,1,0,0:0:0:35:LR2_KickBassD2.wav
448,192,104998,1,0,0:0:0:0:
192,192,105171,1,0,0:0:0:0:
64,192,105257,1,0,0:0:0:0:
192,192,105343,1,0,0:0:0:0:
320,192,105343,1,0,0:0:0:20:LR2_DSnare.wav
448,192,105343,1,0,0:0:0:20:LR2_DSnare.wav
320,192,105516,1,0,0:0:0:0:
448,192,105602,1,0,0:0:0:0:
192,192,105689,1,0,0:0:0:0:
64,192,105775,1,0,0:0:0:0:
320,192,105861,1,0,0:0:0:35:LR2_KickBassD2.wav
448,192,105861,1,0,0:0:0:0:
320,192,106034,1,0,0:0:0:0:
192,192,106034,1,0,0:0:0:20:LR2_DSnare.wav
64,192,106034,1,0,0:0:0:20:LR2_DSnare.wav
448,192,106207,1,0,0:0:0:0:
192,192,106293,1,0,0:0:0:0:
64,192,106379,1,0,0:0:0:0:
320,192,106379,1,0,0:0:0:35:LR2_KickBassD2.wav
448,192,106552,1,0,0:0:0:0:
192,192,106638,1,0,0:0:0:0:
320,192,106725,1,0,0:0:0:20:LR2_DSnare.wav
448,192,106725,1,0,0:0:0:20:LR2_DSnare.wav
64,192,106725,1,0,0:0:0:0:
192,192,106897,1,0,0:0:0:0:
320,192,106984,1,0,0:0:0:0:
64,192,107070,1,0,0:0:0:0:
448,192,107156,1,0,0:0:0:0:
192,192,107243,1,0,0:0:0:35:LR2_KickBassD2.wav
320,192,107243,1,0,0:0:0:0:
192,192,107415,1,0,0:0:0:20:LR2_DSnare.wav
64,192,107415,1,0,0:0:0:20:LR2_DSnare.wav
448,192,107415,1,0,0:0:0:0:
320,192,107588,1,0,0:0:0:0:
448,192,107674,1,0,0:0:0:0:
64,192,107761,1,0,0:0:0:0:
192,192,107761,1,0,0:0:0:35:LR2_KickBassD2.wav
320,192,107933,1,0,0:0:0:0:
192,192,108020,1,0,0:0:0:0:
320,192,108106,1,0,0:0:0:20:LR2_DSnare.wav
448,192,108106,1,0,0:0:0:20:LR2_DSnare.wav
64,192,108106,1,0,0:0:0:0:
192,192,108279,1,0,0:0:0:0:
64,192,108365,1,0,0:0:0:0:
320,192,108451,1,0,0:0:0:0:
448,192,108538,1,0,0:0:0:0:
64,192,108624,1,0,0:0:0:0:
192,192,108624,1,0,0:0:0:35:LR2_KickBassD2.wav
192,192,108797,1,0,0:0:0:0:
320,192,108797,1,0,0:0:0:20:LR2_DSnare.wav
448,192,108797,1,0,0:0:0:20:LR2_DSnare.wav
64,192,108969,1,0,0:0:0:0:
192,192,109056,1,0,0:0:0:0:
320,192,109142,1,0,0:0:0:35:LR2_KickBassD2.wav
448,192,109142,1,0,0:0:0:0:
64,192,109228,1,0,0:0:0:0:
448,192,109315,1,0,0:0:0:0:
320,192,109401,1,0,0:0:0:0:
192,192,109487,1,0,0:0:0:35:LR2_KickBassD2.wav
64,192,109487,1,0,0:0:0:0:
448,192,109574,1,0,0:0:0:0:
64,192,109660,1,0,0:0:0:0:
192,192,109746,1,0,0:0:0:0:
320,192,109833,1,0,0:0:0:35:LR2_KickBassD2.wav
448,192,109833,1,0,0:0:0:0:
64,192,109919,1,0,0:0:0:0:
448,192,110005,1,0,0:0:0:0:
320,192,110092,1,0,0:0:0:0:
192,192,110178,1,0,0:0:0:35:LR2_KickBassD2.wav
64,192,110178,1,0,0:0:0:0:
448,192,110264,1,0,0:0:0:0:
64,192,110351,1,0,0:0:0:0:
192,192,110437,1,0,0:0:0:0:
320,192,110523,1,0,0:0:0:35:LR2_KickBassD2.wav
448,192,110523,1,0,0:0:0:20:LR2_DSnare.wav
64,192,110523,1,0,0:0:0:20:LR2_DSnare.wav
192,192,110696,1,0,0:0:0:0:
320,192,110782,1,0,0:0:0:0:
64,192,110869,1,0,0:0:0:20:LR2_DSnare.wav
192,192,110869,1,0,0:0:0:0:
448,192,110869,1,0,0:0:0:20:LR2_DSnare.wav
320,192,111041,1,0,0:0:0:0:
64,192,111128,1,0,0:0:0:0:
192,192,111214,1,0,0:0:0:0:
320,192,111387,1,0,0:0:0:35:LR2_KickBassD2.wav
448,192,111387,1,0,0:0:0:0:
320,192,111559,1,0,0:0:0:0:
192,192,111559,1,0,0:0:0:20:LR2_DSnare.wav
64,192,111559,1,0,0:0:0:20:LR2_DSnare.wav
64,192,111732,1,0,0:0:0:0:
192,192,111818,1,0,0:0:0:0:
320,192,111905,1,0,0:0:0:35:LR2_KickBassD2.wav
448,192,111905,1,0,0:0:0:0:
192,192,112078,1,0,0:0:0:0:
64,192,112164,1,0,0:0:0:0:
448,192,112250,1,0,0:0:0:20:LR2_DSnare.wav
320,192,112250,1,0,0:0:0:20:LR2_DSnare.wav
192,192,112250,1,0,0:0:0:0:
64,192,112423,1,0,0:0:0:0:
448,192,112509,1,0,0:0:0:0:
192,192,112596,1,0,0:0:0:0:
320,192,112768,1,0,0:0:0:35:LR2_KickBassD2.wav
448,192,112768,1,0,0:0:0:0:
448,192,112941,1,0,0:0:0:20:LR2_DSnare.wav
64,192,112941,1,0,0:0:0:20:LR2_DSnare.wav
192,192,112941,1,0,0:0:0:0:
320,192,113114,1,0,0:0:0:0:
64,192,113200,1,0,0:0:0:0:
448,192,113286,1,0,0:0:0:0:
320,192,113286,1,0,0:0:0:35:LR2_KickBassD2.wav
192,192,113459,1,0,0:0:0:0:
448,192,113545,1,0,0:0:0:0:
192,192,113632,1,0,0:0:0:20:LR2_DSnare.wav
64,192,113632,1,0,0:0:0:20:LR2_DSnare.wav
320,192,113632,1,0,0:0:0:0:
448,192,113804,1,0,0:0:0:0:
192,192,113891,1,0,0:0:0:0:
64,192,113977,1,0,0:0:0:0:
320,192,114063,1,0,0:0:0:0:
192,192,114150,1,0,0:0:0:35:LR2_KickBassD2.wav
64,192,114150,1,0,0:0:0:0:
448,192,114322,1,0,0:0:0:20:LR2_DSnare.wav
320,192,114322,1,0,0:0:0:20:LR2_DSnare.wav
192,192,114322,1,0,0:0:0:0:
64,192,114495,1,0,0:0:0:0:
192,192,114581,1,0,0:0:0:0:
448,192,114668,1,0,0:0:0:0:
320,192,114668,1,0,0:0:0:35:LR2_KickBassD2.wav
64,192,114840,128,0,115013:0:0:0:0:
192,192,114840,1,0,0:0:0:0:
448,192,115013,128,0,115186:0:0:0:0:
320,192,115013,1,0,0:0:0:20:LR2_DSnare.wav
192,192,115013,1,0,0:0:0:20:LR2_DSnare.wav
64,192,115186,128,0,115358:0:0:0:0:
320,192,115186,1,0,0:0:0:0:
448,192,115358,128,0,115531:0:0:0:0:
192,192,115358,1,0,0:0:0:0:
64,192,115531,128,0,115704:0:0:0:0:
320,192,115531,1,0,0:0:0:35:LR2_KickBassD2.wav
448,192,115704,128,0,115876:0:0:0:0:
192,192,115704,1,0,0:0:0:20:LR2_DSnare.wav
320,192,115704,1,0,0:0:0:20:LR2_DSnare.wav
64,192,115876,1,0,0:0:0:0:
192,192,115963,1,0,0:0:0:0:
320,192,116049,1,0,0:0:0:35:LR2_KickBassD2.wav
64,192,116049,1,0,0:0:0:0:
448,192,116222,1,0,0:0:0:0:
192,192,116308,1,0,0:0:0:0:
64,192,116394,1,0,0:0:0:20:LR2_DSnare.wav
320,192,116394,1,0,0:0:0:0:
448,192,116394,1,0,0:0:0:20:LR2_DSnare.wav
192,192,116567,1,0,0:0:0:0:
448,192,116653,1,0,0:0:0:0:
64,192,116740,1,0,0:0:0:0:
320,192,116826,1,0,0:0:0:0:
192,192,116912,1,0,0:0:0:35:LR2_KickBassD2.wav
64,192,116912,1,0,0:0:0:0:
320,192,117085,1,0,0:0:0:20:LR2_DSnare.wav
448,192,117085,1,0,0:0:0:20:LR2_DSnare.wav
192,192,117085,1,0,0:0:0:0:
64,192,117258,1,0,0:0:0:0:
320,192,117344,1,0,0:0:0:0:
448,192,117430,1,0,0:0:0:0:
192,192,117430,1,0,0:0:0:35:LR2_KickBassD2.wav
64,192,117603,1,0,0:0:0:0:
192,192,117689,1,0,0:0:0:0:
320,192,117776,1,0,0:0:0:0:
64,192,117776,1,0,0:0:0:20:LR2_DSnare.wav
448,192,117776,1,0,0:0:0:20:LR2_DSnare.wav
192,192,117948,1,0,0:0:0:0:
448,192,118035,1,0,0:0:0:0:
64,192,118121,1,0,0:0:0:0:
320,192,118207,1,0,0:0:0:0:
192,192,118294,1,0,0:0:0:35:LR2_KickBassD2.wav
448,192,118294,1,0,0:0:0:0:
320,192,118466,1,0,0:0:0:0:
448,192,118466,1,0,0:0:0:20:LR2_DSnare.wav
64,192,118466,1,0,0:0:0:20:LR2_DSnare.wav
192,192,118639,1,0,0:0:0:0:
64,192,118725,1,0,0:0:0:0:
320,192,118812,1,0,0:0:0:35:LR2_KickBassD2.wav
448,192,118812,1,0,0:0:0:0:
192,192,118984,1,0,0:0:0:0:
320,192,119071,1,0,0:0:0:0:
448,192,119157,1,0,0:0:0:20:LR2_DSnare.wav
192,192,119157,1,0,0:0:0:0:
64,192,119157,1,0,0:0:0:20:LR2_DSnare.wav
320,192,119330,1,0,0:0:0:0:
448,192,119416,1,0,0:0:0:0:
192,192,119502,1,0,0:0:0:0:
64,192,119589,1,0,0:0:0:0:
320,192,119675,1,0,0:0:0:35:LR2_KickBassD2.wav
448,192,119675,1,0,0:0:0:0:
320,192,119848,1,0,0:0:0:0:
192,192,119848,1,0,0:0:0:20:LR2_DSnare.wav
64,192,119848,1,0,0:0:0:20:LR2_DSnare.wav
448,192,120020,1,0,0:0:0:0:
320,192,120107,1,0,0:0:0:0:
64,192,120193,1,0,0:0:0:0:
192,192,120193,1,0,0:0:0:35:LR2_KickBassD2.wav
320,192,120366,1,0,0:0:0:0:
448,192,120366,128,0,120538:0:0:0:0:
64,192,120538,128,0,120711:0:0:0:0:
192,192,120538,1,0,0:0:0:20:LR2_DSnare.wav
320,192,120538,1,0,0:0:0:20:LR2_DSnare.wav
192,192,120711,1,0,0:0:0:0:
448,192,120711,128,0,120884:0:0:0:0:
320,192,120884,1,0,0:0:0:0:
64,192,120884,128,0,121056:0:0:0:0:
192,192,121056,1,0,0:0:0:35:LR2_KickBassD2.wav
448,192,121056,128,0,121229:0:0:0:0:
320,192,121229,1,0,0:0:0:20:LR2_DSnare.wav
192,192,121229,1,0,0:0:0:20:LR2_DSnare.wav
64,192,121229,128,0,121574:0:0:0:0:
448,192,121402,1,0,0:0:0:0:
320,192,121488,1,0,0:0:0:0:
192,192,121574,1,0,0:0:0:35:LR2_KickBassD2.wav
448,192,121574,1,0,0:0:0:0:
320,192,121747,1,0,0:0:0:0:
64,192,121833,1,0,0:0:0:0:
192,192,121920,1,0,0:0:0:20:LR2_DSnare.wav
320,192,121920,1,0,0:0:0:20:LR2_DSnare.wav
448,192,121920,1,0,0:0:0:0:
448,192,122092,1,0,0:0:0:0:
192,192,122179,1,0,0:0:0:0:
64,192,122265,1,0,0:0:0:0:
320,192,122438,1,0,0:0:0:0:
192,192,122438,1,0,0:0:0:35:LR2_KickBassD2.wav
448,192,122610,1,0,0:0:0:20:LR2_DSnare.wav
64,192,122610,1,0,0:0:0:20:LR2_DSnare.wav
192,192,122610,1,0,0:0:0:0:
320,192,122783,1,0,0:0:0:0:
64,192,122869,1,0,0:0:0:0:
320,192,122956,1,0,0:0:0:35:LR2_KickBassD2.wav
192,192,122956,1,0,0:0:0:0:
448,192,123128,1,0,0:0:0:0:
192,192,123215,1,0,0:0:0:0:
320,192,123301,1,0,0:0:0:0:
448,192,123301,1,0,0:0:0:20:LR2_DSnare.wav
64,192,123301,1,0,0:0:0:20:LR2_DSnare.wav
64,192,123474,1,0,0:0:0:0:
192,192,123560,1,0,0:0:0:0:
448,192,123647,1,0,0:0:0:0:
320,192,123733,1,0,0:0:0:0:
192,192,123819,1,0,0:0:0:35:LR2_KickBassD2.wav
64,192,123819,1,0,0:0:0:0:
320,192,123906,1,0,0:0:0:0:
448,192,123992,1,0,0:0:0:20:LR2_DSnare.wav
192,192,123992,1,0,0:0:0:0:
64,192,123992,1,0,0:0:0:20:LR2_DSnare.wav
320,192,124165,1,0,0:0:0:0:
448,192,124251,1,0,0:0:0:0:
320,192,124337,1,0,0:0:0:35:LR2_KickBassD2.wav
64,192,124337,1,0,0:0:0:0:
192,192,124510,1,0,0:0:0:0:
320,192,124596,1,0,0:0:0:0:
64,192,124683,1,0,0:0:0:20:LR2_DSnare.wav
192,192,124683,1,0,0:0:0:0:
448,192,124683,1,0,0:0:0:20:LR2_DSnare.wav
320,192,124855,1,0,0:0:0:0:
64,192,124942,1,0,0:0:0:0:
192,192,125028,1,0,0:0:0:0:
448,192,125114,1,0,0:0:0:0:
320,192,125201,1,0,0:0:0:35:LR2_KickBassD2.wav
192,192,125201,1,0,0:0:0:0:
64,192,125373,1,0,0:0:0:20:LR2_DSnare.wav
448,192,125373,1,0,0:0:0:20:LR2_DSnare.wav
320,192,125373,1,0,0:0:0:0:
192,192,125546,1,0,0:0:0:0:
320,192,125632,1,0,0:0:0:0:
64,192,125719,1,0,0:0:0:35:LR2_KickBassD2.wav
448,192,125719,1,0,0:0:0:0:
320,192,125891,128,0,126064:0:0:0:0:
192,192,125891,1,0,0:0:0:0:
192,192,126064,128,0,126237:0:0:0:0:
64,192,126064,1,0,0:0:0:20:LR2_DSnare.wav
448,192,126064,1,0,0:0:0:20:LR2_DSnare.wav
320,192,126237,128,0,126409:0:0:0:0:
448,192,126237,1,0,0:0:0:0:
192,192,126409,128,0,126582:0:0:0:0:
64,192,126409,1,0,0:0:0:0:
320,192,126582,128,0,126755:0:0:0:0:
448,192,126582,1,0,0:0:0:35:LR2_KickBassD2.wav
192,192,126755,128,0,126927:0:0:0:0:
448,192,126755,1,0,0:0:0:20:LR2_DSnare.wav
64,192,126755,1,0,0:0:0:20:LR2_DSnare.wav
64,192,126927,1,0,0:0:0:0:
320,192,127014,1,0,0:0:0:0:
448,192,127100,1,0,0:0:0:0:
192,192,127100,1,0,0:0:0:35:LR2_KickBassD2.wav
64,192,127273,1,0,0:0:0:0:
192,192,127359,1,0,0:0:0:0:
320,192,127445,1,0,0:0:0:0:
448,192,127445,1,0,0:0:0:20:LR2_DSnare.wav
64,192,127445,1,0,0:0:0:20:LR2_DSnare.wav
192,192,127618,1,0,0:0:0:0:
448,192,127704,1,0,0:0:0:0:
64,192,127791,1,0,0:0:0:0:
320,192,127877,1,0,0:0:0:0:
192,192,127963,1,0,0:0:0:35:LR2_KickBassD2.wav
448,192,127963,1,0,0:0:0:0:
320,192,128136,1,0,0:0:0:0:
192,192,128136,1,0,0:0:0:20:LR2_DSnare.wav
64,192,128136,1,0,0:0:0:20:LR2_DSnare.wav
448,192,128309,1,0,0:0:0:0:
320,192,128395,1,0,0:0:0:0:
192,192,128481,1,0,0:0:0:35:LR2_KickBassD2.wav
64,192,128481,1,0,0:0:0:0:
448,192,128654,1,0,0:0:0:0:
64,192,128740,1,0,0:0:0:0:
192,192,128827,1,0,0:0:0:0:
320,192,128827,1,0,0:0:0:20:LR2_DSnare.wav
448,192,128827,1,0,0:0:0:20:LR2_DSnare.wav
64,192,128999,1,0,0:0:0:0:
192,192,129086,1,0,0:0:0:0:
320,192,129172,1,0,0:0:0:0:
448,192,129258,1,0,0:0:0:0:
192,192,129345,1,0,0:0:0:35:LR2_KickBassD2.wav
320,192,129345,1,0,0:0:0:0:
64,192,129517,1,0,0:0:0:20:LR2_DSnare.wav
192,192,129517,1,0,0:0:0:0:
448,192,129517,1,0,0:0:0:20:LR2_DSnare.wav
320,192,129690,1,0,0:0:0:0:
192,192,129776,1,0,0:0:0:0:
64,192,129863,1,0,0:0:0:0:
448,192,129863,1,0,0:0:0:35:LR2_KickBassD2.wav
320,192,130035,1,0,0:0:0:0:
448,192,130122,1,0,0:0:0:0:
64,192,130208,1,0,0:0:0:20:LR2_DSnare.wav
192,192,130208,1,0,0:0:0:20:LR2_DSnare.wav
320,192,130208,1,0,0:0:0:0:
448,192,130381,1,0,0:0:0:0:
320,192,130467,1,0,0:0:0:0:
192,192,130553,1,0,0:0:0:0:
64,192,130640,1,0,0:0:0:0:
320,192,130726,1,0,0:0:0:35:LR2_KickBassD2.wav
448,192,130726,1,0,0:0:0:0:
192,192,130899,1,0,0:0:0:0:
64,192,130899,1,0,0:0:0:20:LR2_DSnare.wav
448,192,130899,1,0,0:0:0:20:LR2_DSnare.wav
320,192,131071,1,0,0:0:0:0:
192,192,131158,1,0,0:0:0:0:
64,192,131244,1,0,0:0:0:25:LR2_KickBassD2.wav
448,192,131244,1,0,0:0:0:25:LR2_KickBassD2.wav
192,192,131417,128,0,131589:0:0:0:0:
320,192,131417,1,0,0:0:0:0:
320,192,131589,128,0,131762:0:0:0:0:
448,192,131589,1,0,0:0:0:40:LR2_DSnare.wav
64,192,131589,1,0,0:0:0:40:LR2_DSnare.wav
192,192,131762,128,0,131935:0:0:0:0:
64,192,131762,1,0,0:0:0:0:
320,192,131935,128,0,132107:0:0:0:0:
448,192,131935,1,0,0:0:0:0:
192,192,132107,128,0,132280:0:0:0:0:
64,192,132107,1,0,0:0:0:35:LR2_KickBassD2.wav
448,192,132280,1,0,0:0:0:40:LR2_DSnare.wav
320,192,132280,128,0,132453:0:0:0:0:
64,192,132280,1,0,0:0:0:40:LR2_DSnare.wav
192,192,132453,128,0,132625:0:0:0:0:
448,192,132539,1,0,0:0:0:0:
320,192,132625,1,0,0:0:0:35:LR2_KickBassD2.wav
64,192,132625,128,0,132971:0:0:0:0:
320,192,132971,128,0,133143:0:0:0:0:
192,192,132971,1,0,0:0:0:20:LR2_DSnare.wav
448,192,132971,1,0,0:0:0:20:LR2_DSnare.wav
448,192,133143,128,0,133489:0:0:0:0:
192,192,133489,128,0,133661:0:0:0:0:
64,192,133489,1,0,0:0:0:35:LR2_KickBassD2.wav
64,192,133661,128,0,134007:0:0:0:0:
320,192,133661,1,0,0:0:0:20:LR2_DSnare.wav
448,192,133661,1,0,0:0:0:20:LR2_DSnare.wav
320,192,134007,128,0,135043:0:0:0:0:
192,192,134007,1,0,0:0:0:35:LR2_KickBassD2.wav
448,192,134352,1,0,0:0:0:20:LR2_DSnare.wav
64,192,134352,1,0,0:0:0:20:LR2_DSnare.wav
192,192,134870,1,0,0:0:0:35:LR2_KickBassD2.wav
192,192,135043,128,0,135216:0:0:0:0:
448,192,135043,1,0,0:0:0:20:LR2_DSnare.wav
64,192,135043,1,0,0:0:0:20:LR2_DSnare.wav
320,192,135216,128,0,135388:0:0:0:0:
448,192,135388,128,0,135734:0:0:0:0:
192,192,135388,1,0,0:0:0:35:LR2_KickBassD2.wav
192,192,135734,128,0,135906:0:0:0:0:
64,192,135734,1,0,0:0:0:20:LR2_DSnare.wav
320,192,135734,1,0,0:0:0:20:LR2_DSnare.wav
64,192,135906,128,0,136252:0:0:0:0:
320,192,136252,128,0,136424:0:0:0:0:
448,192,136252,1,0,0:0:0:35:LR2_KickBassD2.wav
448,192,136424,128,0,136770:0:0:0:0:
192,192,136424,1,0,0:0:0:20:LR2_DSnare.wav
64,192,136424,1,0,0:0:0:20:LR2_DSnare.wav
320,192,136770,128,0,138151:0:0:0:0:
192,192,136770,1,0,0:0:0:35:LR2_KickBassD2.wav
64,192,137115,1,0,0:0:0:20:LR2_DSnare.wav
448,192,137115,1,0,0:0:0:20:LR2_DSnare.wav
192,192,137633,1,0,0:0:0:35:LR2_KickBassD2.wav
64,192,137806,1,0,0:0:0:20:LR2_DSnare.wav
448,192,137806,1,0,0:0:0:20:LR2_DSnare.wav
192,192,138151,128,0,138496:0:0:0:0:
448,192,138151,1,0,0:0:0:35:LR2_KickBassD2.wav
64,192,138496,128,0,138669:0:0:0:0:
448,192,138496,1,0,0:0:0:20:LR2_DSnare.wav
320,192,138496,1,0,0:0:0:20:LR2_DSnare.wav
320,192,138669,128,0,139014:0:0:0:0:
448,192,139014,128,0,139187:0:0:0:0:
192,192,139014,1,0,0:0:0:35:LR2_KickBassD2.wav
192,192,139187,128,0,139532:0:0:0:0:
320,192,139187,1,0,0:0:0:20:LR2_DSnare.wav
64,192,139187,1,0,0:0:0:20:LR2_DSnare.wav
64,192,139532,128,0,140568:0:0:0:0:
448,192,139532,1,0,0:0:0:35:LR2_KickBassD2.wav
320,192,139878,1,0,0:0:0:20:LR2_DSnare.wav
192,192,139878,1,0,0:0:0:20:LR2_DSnare.wav
192,192,140396,1,0,0:0:0:35:LR2_KickBassD2.wav
192,192,140568,128,0,140741:0:0:0:0:
320,192,140568,1,0,0:0:0:20:LR2_DSnare.wav
448,192,140568,1,0,0:0:0:20:LR2_DSnare.wav
320,192,140741,128,0,140914:0:0:0:0:
448,192,140914,128,0,141259:0:0:0:0:
64,192,140914,1,0,0:0:0:35:LR2_KickBassD2.wav
64,192,141259,128,0,141432:0:0:0:0:
192,192,141259,1,0,0:0:0:20:LR2_DSnare.wav
320,192,141259,1,0,0:0:0:20:LR2_DSnare.wav
320,192,141432,128,0,141777:0:0:0:0:
192,192,141777,128,0,141950:0:0:0:0:
448,192,141777,1,0,0:0:0:35:LR2_KickBassD2.wav
448,192,141950,128,0,142295:0:0:0:0:
320,192,141950,1,0,0:0:0:20:LR2_DSnare.wav
64,192,141950,1,0,0:0:0:20:LR2_DSnare.wav
64,192,142295,128,0,143676:0:0:0:0:
192,192,142295,1,0,0:0:0:35:LR2_KickBassD2.wav
320,192,142640,1,0,0:0:0:20:LR2_DSnare.wav
448,192,142640,1,0,0:0:0:20:LR2_DSnare.wav
192,192,143158,1,0,0:0:0:35:LR2_KickBassD2.wav
448,192,143331,1,0,0:0:0:20:LR2_DSnare.wav
320,192,143331,1,0,0:0:0:20:LR2_DSnare.wav
448,192,143676,128,0,144022:0:0:0:0:
192,192,143676,1,0,0:0:0:35:LR2_KickBassD2.wav
320,192,144022,128,0,144194:0:0:0:0:
64,192,144022,1,0,0:0:0:20:LR2_DSnare.wav
192,192,144022,1,0,0:0:0:20:LR2_DSnare.wav
64,192,144194,128,0,144540:0:0:0:0:
192,192,144540,128,0,144712:0:0:0:0:
448,192,144540,1,0,0:0:0:35:LR2_KickBassD2.wav
448,192,144712,128,0,145058:0:0:0:0:
320,192,144712,1,0,0:0:0:20:LR2_DSnare.wav
64,192,144712,1,0,0:0:0:20:LR2_DSnare.wav
320,192,145058,128,0,146094:0:0:0:0:
192,192,145058,1,0,0:0:0:35:LR2_KickBassD2.wav
64,192,145403,1,0,0:0:0:20:LR2_DSnare.wav
448,192,145403,1,0,0:0:0:20:LR2_DSnare.wav
192,192,145921,1,0,0:0:0:35:LR2_KickBassD2.wav
192,192,146094,128,0,146267:0:0:0:0:
64,192,146094,1,0,0:0:0:20:LR2_DSnare.wav
448,192,146094,1,0,0:0:0:20:LR2_DSnare.wav
448,192,146267,128,0,146439:0:0:0:0:
64,192,146439,128,0,146785:0:0:0:0:
320,192,146439,1,0,0:0:0:35:LR2_KickBassD2.wav
320,192,146785,128,0,146957:0:0:0:0:
448,192,146785,1,0,0:0:0:20:LR2_DSnare.wav
192,192,146785,1,0,0:0:0:20:LR2_DSnare.wav
192,192,146957,128,0,147303:0:0:0:0:
448,192,147303,128,0,147475:0:0:0:0:
320,192,147303,1,0,0:0:0:35:LR2_KickBassD2.wav
320,192,147475,128,0,147821:0:0:0:0:
192,192,147475,1,0,0:0:0:20:LR2_DSnare.wav
64,192,147475,1,0,0:0:0:20:LR2_DSnare.wav
64,192,147821,128,0,149202:0:0:0:0:
448,192,147821,1,0,0:0:0:35:LR2_KickBassD2.wav
192,192,148166,1,0,0:0:0:20:LR2_DSnare.wav
320,192,148166,1,0,0:0:0:20:LR2_DSnare.wav
448,192,148684,1,0,0:0:0:35:LR2_KickBassD2.wav
320,192,148857,1,0,0:0:0:20:LR2_DSnare.wav
192,192,148857,1,0,0:0:0:20:LR2_DSnare.wav
448,192,149202,128,0,149547:0:0:0:0:
320,192,149202,1,0,0:0:0:35:LR2_KickBassD2.wav
320,192,149547,128,0,149720:0:0:0:0:
64,192,149547,1,0,0:0:0:20:LR2_DSnare.wav
192,192,149547,1,0,0:0:0:20:LR2_DSnare.wav
64,192,149720,128,0,150065:0:0:0:0:
192,192,150065,128,0,150238:0:0:0:0:
320,192,150065,1,0,0:0:0:35:LR2_KickBassD2.wav
320,192,150238,128,0,150583:0:0:0:0:
64,192,150238,1,0,0:0:0:20:LR2_DSnare.wav
448,192,150238,1,0,0:0:0:20:LR2_DSnare.wav
448,192,150583,128,0,151619:0:0:0:0:
192,192,150583,1,0,0:0:0:35:LR2_KickBassD2.wav
64,192,150929,1,0,0:0:0:20:LR2_DSnare.wav
320,192,150929,1,0,0:0:0:20:LR2_DSnare.wav
320,192,151447,1,0,0:0:0:35:LR2_KickBassD2.wav
320,192,151619,128,0,151792:0:0:0:0:
192,192,151619,1,0,0:0:0:20:LR2_DSnare.wav
64,192,151619,1,0,0:0:0:20:LR2_DSnare.wav
192,192,151792,128,0,151965:0:0:0:0:
64,192,151965,128,0,152310:0:0:0:0:
448,192,151965,1,0,0:0:0:35:LR2_KickBassD2.wav
448,192,152310,128,0,152483:0:0:0:0:
320,192,152310,1,0,0:0:0:20:LR2_DSnare.wav
192,192,152310,1,0,0:0:0:20:LR2_DSnare.wav
192,192,152483,128,0,152828:0:0:0:0:
64,192,152828,128,0,153001:0:0:0:0:
320,192,152828,1,0,0:0:0:35:LR2_KickBassD2.wav
320,192,153001,128,0,153346:0:0:0:0:
448,192,153001,1,0,0:0:0:20:LR2_DSnare.wav
192,192,153001,1,0,0:0:0:20:LR2_DSnare.wav
448,192,153346,128,0,154727:0:0:0:0:
64,192,153346,1,0,0:0:0:35:LR2_KickBassD2.wav
192,192,154037,128,0,154727:0:0:0:100:soft-hitnormal4.wav
320,192,154727,1,0,0:0:0:55:LR2_KickBassD2.wav
64,192,154727,1,0,0:0:0:55:LR2_DSnare.wav
64,192,154900,1,0,0:0:0:0:
192,192,154986,1,0,0:0:0:0:
64,192,155073,1,0,0:0:0:20:LR2_DSnare.wav
320,192,155073,1,0,0:0:0:0:
448,192,155073,1,0,0:0:0:20:LR2_DSnare.wav
320,192,155245,1,0,0:0:0:0:
64,192,155332,1,0,0:0:0:0:
192,192,155418,1,0,0:0:0:0:
448,192,155504,1,0,0:0:0:0:
320,192,155591,1,0,0:0:0:0:
192,192,155591,1,0,0:0:0:35:LR2_KickBassD2.wav
448,192,155763,1,0,0:0:0:20:LR2_DSnare.wav
64,192,155763,1,0,0:0:0:20:LR2_DSnare.wav
192,192,155763,1,0,0:0:0:0:
320,192,155936,1,0,0:0:0:0:
64,192,156022,1,0,0:0:0:0:
192,192,156109,1,0,0:0:0:0:
448,192,156109,1,0,0:0:0:35:LR2_KickBassD2.wav
320,192,156281,1,0,0:0:0:0:
192,192,156368,1,0,0:0:0:0:
448,192,156454,1,0,0:0:0:20:LR2_DSnare.wav
320,192,156454,1,0,0:0:0:0:
64,192,156454,1,0,0:0:0:20:LR2_DSnare.wav
192,192,156627,1,0,0:0:0:0:
320,192,156713,1,0,0:0:0:0:
448,192,156800,1,0,0:0:0:0:
64,192,156886,1,0,0:0:0:0:
192,192,156972,1,0,0:0:0:35:LR2_KickBassD2.wav
320,192,156972,1,0,0:0:0:0:
64,192,157145,1,0,0:0:0:20:LR2_DSnare.wav
192,192,157145,1,0,0:0:0:0:
448,192,157145,1,0,0:0:0:20:LR2_DSnare.wav
320,192,157318,1,0,0:0:0:0:
192,192,157404,1,0,0:0:0:0:
320,192,157490,1,0,0:0:0:0:
448,192,157490,1,0,0:0:0:35:LR2_KickBassD2.wav
64,192,157663,1,0,0:0:0:0:
192,192,157749,1,0,0:0:0:0:
64,192,157836,1,0,0:0:0:20:LR2_DSnare.wav
320,192,157836,1,0,0:0:0:0:
448,192,157836,1,0,0:0:0:20:LR2_DSnare.wav
192,192,158008,1,0,0:0:0:0:
320,192,158095,1,0,0:0:0:0:
64,192,158181,1,0,0:0:0:0:
448,192,158267,1,0,0:0:0:0:
192,192,158354,1,0,0:0:0:0:
320,192,158354,1,0,0:0:0:35:LR2_KickBassD2.wav
320,192,158526,1,0,0:0:0:0:
64,192,158526,1,0,0:0:0:20:LR2_DSnare.wav
448,192,158526,1,0,0:0:0:20:LR2_DSnare.wav
192,192,158699,1,0,0:0:0:0:
448,192,158785,1,0,0:0:0:0:
64,192,158872,1,0,0:0:0:0:
320,192,158872,1,0,0:0:0:0:
192,192,159044,1,0,0:0:0:0:
320,192,159131,1,0,0:0:0:0:
64,192,159217,1,0,0:0:0:20:LR2_DSnare.wav
192,192,159217,1,0,0:0:0:0:
448,192,159217,1,0,0:0:0:20:LR2_DSnare.wav
320,192,159390,1,0,0:0:0:0:
448,192,159476,1,0,0:0:0:0:
192,192,159562,1,0,0:0:0:0:
64,192,159649,1,0,0:0:0:0:
192,192,159735,1,0,0:0:0:0:
320,192,159735,1,0,0:0:0:35:LR2_KickBassD2.wav
64,192,159908,1,0,0:0:0:20:LR2_DSnare.wav
320,192,159908,1,0,0:0:0:0:
448,192,159908,1,0,0:0:0:20:LR2_DSnare.wav
192,192,160080,1,0,0:0:0:0:
64,192,160167,1,0,0:0:0:0:
320,192,160253,1,0,0:0:0:35:LR2_KickBassD2.wav
448,192,160253,1,0,0:0:0:0:
192,192,160426,1,0,0:0:0:0:
64,192,160512,1,0,0:0:0:0:
192,192,160598,1,0,0:0:0:0:
448,192,160598,1,0,0:0:0:20:LR2_DSnare.wav
320,192,160598,1,0,0:0:0:20:LR2_DSnare.wav
448,192,160771,1,0,0:0:0:0:
320,192,160857,1,0,0:0:0:0:
64,192,160944,1,0,0:0:0:0:
192,192,161030,1,0,0:0:0:0:
320,192,161116,1,0,0:0:0:35:LR2_KickBassD2.wav
448,192,161116,1,0,0:0:0:0:
64,192,161289,1,0,0:0:0:20:LR2_DSnare.wav
192,192,161289,1,0,0:0:0:20:LR2_DSnare.wav
320,192,161289,1,0,0:0:0:0:
448,192,161462,1,0,0:0:0:0:
320,192,161548,1,0,0:0:0:0:
64,192,161634,1,0,0:0:0:0:
192,192,161634,1,0,0:0:0:35:LR2_KickBassD2.wav
448,192,161807,1,0,0:0:0:0:
64,192,161893,1,0,0:0:0:0:
192,192,161980,1,0,0:0:0:0:
320,192,161980,1,0,0:0:0:20:LR2_DSnare.wav
448,192,161980,1,0,0:0:0:20:LR2_DSnare.wav
64,192,162152,1,0,0:0:0:0:
320,192,162239,1,0,0:0:0:0:
448,192,162325,1,0,0:0:0:0:
192,192,162411,1,0,0:0:0:0:
320,192,162498,1,0,0:0:0:35:LR2_KickBassD2.wav
448,192,162498,1,0,0:0:0:0:
64,192,162670,1,0,0:0:0:20:LR2_DSnare.wav
192,192,162670,1,0,0:0:0:20:LR2_DSnare.wav
320,192,162670,1,0,0:0:0:0:
448,192,162843,1,0,0:0:0:0:
64,192,162929,1,0,0:0:0:0:
192,192,163016,1,0,0:0:0:35:LR2_KickBassD2.wav
320,192,163016,1,0,0:0:0:0:
448,192,163188,1,0,0:0:0:0:
64,192,163275,1,0,0:0:0:0:
320,192,163361,1,0,0:0:0:20:LR2_DSnare.wav
448,192,163361,1,0,0:0:0:20:LR2_DSnare.wav
192,192,163361,1,0,0:0:0:0:
64,192,163534,1,0,0:0:0:0:
192,192,163620,1,0,0:0:0:0:
320,192,163706,1,0,0:0:0:0:
448,192,163793,1,0,0:0:0:0:
64,192,163879,1,0,0:0:0:0:
192,192,163879,1,0,0:0:0:35:LR2_KickBassD2.wav
448,192,164052,1,0,0:0:0:20:LR2_DSnare.wav
320,192,164052,1,0,0:0:0:20:LR2_DSnare.wav
192,192,164052,1,0,0:0:0:0:
64,192,164224,1,0,0:0:0:0:
192,192,164311,1,0,0:0:0:0:
448,192,164397,1,0,0:0:0:0:
320,192,164397,1,0,0:0:0:35:LR2_KickBassD2.wav
192,192,164570,1,0,0:0:0:0:
448,192,164656,1,0,0:0:0:0:
64,192,164742,1,0,0:0:0:20:LR2_DSnare.wav
192,192,164742,1,0,0:0:0:20:LR2_DSnare.wav
320,192,164742,1,0,0:0:0:0:
448,192,164915,1,0,0:0:0:0:
192,192,165001,1,0,0:0:0:0:
64,192,165088,1,0,0:0:0:0:
320,192,165174,1,0,0:0:0:0:
64,192,165260,1,0,0:0:0:0:
192,192,165260,1,0,0:0:0:35:LR2_KickBassD2.wav
192,192,165433,1,0,0:0:0:0:
320,192,165433,1,0,0:0:0:20:LR2_DSnare.wav
448,192,165433,1,0,0:0:0:20:LR2_DSnare.wav
64,192,165606,1,0,0:0:0:0:
192,192,165692,1,0,0:0:0:0:
448,192,165778,1,0,0:0:0:0:
320,192,165778,1,0,0:0:0:35:LR2_KickBassD2.wav
64,192,165951,1,0,0:0:0:0:
192,192,166037,1,0,0:0:0:0:
448,192,166124,1,0,0:0:0:20:LR2_DSnare.wav
64,192,166124,1,0,0:0:0:20:LR2_DSnare.wav
320,192,166124,1,0,0:0:0:0:
448,192,166296,1,0,0:0:0:0:
320,192,166383,1,0,0:0:0:0:
192,192,166469,1,0,0:0:0:0:
64,192,166555,1,0,0:0:0:0:
320,192,166642,1,0,0:0:0:35:LR2_KickBassD2.wav
192,192,166642,1,0,0:0:0:0:
320,192,166814,1,0,0:0:0:0:
64,192,166814,1,0,0:0:0:20:LR2_DSnare.wav
448,192,166814,1,0,0:0:0:20:LR2_DSnare.wav
192,192,166987,1,0,0:0:0:0:
448,192,167073,1,0,0:0:0:0:
320,192,167160,1,0,0:0:0:35:LR2_KickBassD2.wav
64,192,167160,1,0,0:0:0:0:
448,192,167332,1,0,0:0:0:0:
320,192,167419,1,0,0:0:0:0:
64,192,167505,1,0,0:0:0:20:LR2_DSnare.wav
192,192,167505,1,0,0:0:0:0:
448,192,167505,1,0,0:0:0:20:LR2_DSnare.wav
64,192,167678,1,0,0:0:0:0:
192,192,167764,1,0,0:0:0:0:
320,192,167850,1,0,0:0:0:0:
448,192,167937,1,0,0:0:0:0:
192,192,168023,1,0,0:0:0:35:LR2_KickBassD2.wav
320,192,168023,1,0,0:0:0:0:
64,192,168196,1,0,0:0:0:20:LR2_DSnare.wav
192,192,168196,1,0,0:0:0:0:
448,192,168196,1,0,0:0:0:20:LR2_DSnare.wav
320,192,168369,1,0,0:0:0:0:
192,192,168455,1,0,0:0:0:0:
320,192,168541,1,0,0:0:0:35:LR2_KickBassD2.wav
64,192,168541,1,0,0:0:0:0:
448,192,168714,1,0,0:0:0:0:
192,192,168800,1,0,0:0:0:0:
320,192,168887,1,0,0:0:0:0:
64,192,168887,1,0,0:0:0:20:LR2_DSnare.wav
448,192,168887,1,0,0:0:0:20:LR2_DSnare.wav
192,192,169059,1,0,0:0:0:0:
320,192,169146,1,0,0:0:0:0:
448,192,169232,1,0,0:0:0:0:
64,192,169318,1,0,0:0:0:0:
192,192,169405,1,0,0:0:0:0:
320,192,169405,1,0,0:0:0:35:LR2_KickBassD2.wav
320,192,169577,1,0,0:0:0:0:
64,192,169577,1,0,0:0:0:20:LR2_DSnare.wav
448,192,169577,1,0,0:0:0:20:LR2_DSnare.wav
192,192,169750,1,0,0:0:0:0:
448,192,169836,1,0,0:0:0:0:
320,192,169923,1,0,0:0:0:35:LR2_KickBassD2.wav
64,192,169923,1,0,0:0:0:0:
192,192,170095,1,0,0:0:0:0:
320,192,170182,1,0,0:0:0:0:
64,192,170268,1,0,0:0:0:20:LR2_DSnare.wav
192,192,170268,1,0,0:0:0:0:
448,192,170268,1,0,0:0:0:20:LR2_DSnare.wav
320,192,170441,1,0,0:0:0:0:
64,192,170527,1,0,0:0:0:0:
192,192,170613,1,0,0:0:0:0:
448,192,170700,1,0,0:0:0:0:
192,192,170786,1,0,0:0:0:35:LR2_KickBassD2.wav
320,192,170786,1,0,0:0:0:0:
192,192,170959,1,0,0:0:0:0:
448,192,170959,1,0,0:0:0:20:LR2_DSnare.wav
64,192,170959,1,0,0:0:0:20:LR2_DSnare.wav
320,192,171131,1,0,0:0:0:0:
448,192,171218,1,0,0:0:0:0:
64,192,171304,1,0,0:0:0:0:
192,192,171304,1,0,0:0:0:35:LR2_KickBassD2.wav
320,192,171477,1,0,0:0:0:0:
448,192,171563,1,0,0:0:0:0:
64,192,171649,1,0,0:0:0:20:LR2_DSnare.wav
192,192,171649,1,0,0:0:0:20:LR2_DSnare.wav
320,192,171649,1,0,0:0:0:0:
192,192,171822,1,0,0:0:0:0:
64,192,171908,1,0,0:0:0:0:
320,192,171995,1,0,0:0:0:0:
448,192,172081,1,0,0:0:0:0:
64,192,172167,1,0,0:0:0:0:
192,192,172167,1,0,0:0:0:35:LR2_KickBassD2.wav
448,192,172340,1,0,0:0:0:20:LR2_DSnare.wav
320,192,172340,1,0,0:0:0:20:LR2_DSnare.wav
192,192,172340,1,0,0:0:0:0:
64,192,172513,1,0,0:0:0:0:
320,192,172599,1,0,0:0:0:0:
192,192,172685,1,0,0:0:0:35:LR2_KickBassD2.wav
448,192,172685,1,0,0:0:0:0:
64,192,172858,1,0,0:0:0:0:
320,192,172944,1,0,0:0:0:0:
64,192,173031,1,0,0:0:0:20:LR2_DSnare.wav
448,192,173031,1,0,0:0:0:0:
192,192,173031,1,0,0:0:0:20:LR2_DSnare.wav
320,192,173203,1,0,0:0:0:0:
192,192,173290,1,0,0:0:0:0:
448,192,173376,1,0,0:0:0:0:
64,192,173462,1,0,0:0:0:0:
192,192,173549,1,0,0:0:0:0:
320,192,173549,1,0,0:0:0:35:LR2_KickBassD2.wav
64,192,173721,1,0,0:0:0:0:
448,192,173721,1,0,0:0:0:20:LR2_DSnare.wav
320,192,173721,1,0,0:0:0:20:LR2_DSnare.wav
192,192,173894,1,0,0:0:0:0:
64,192,173980,1,0,0:0:0:0:
320,192,174067,1,0,0:0:0:35:LR2_KickBassD2.wav
448,192,174067,1,0,0:0:0:0:
192,192,174239,1,0,0:0:0:0:
320,192,174326,1,0,0:0:0:0:
448,192,174412,1,0,0:0:0:0:
64,192,174412,1,0,0:0:0:20:LR2_DSnare.wav
192,192,174412,1,0,0:0:0:20:LR2_DSnare.wav
320,192,174585,1,0,0:0:0:0:
448,192,174671,1,0,0:0:0:0:
192,192,174757,1,0,0:0:0:0:
64,192,174844,1,0,0:0:0:0:
320,192,174930,1,0,0:0:0:35:LR2_KickBassD2.wav
448,192,174930,1,0,0:0:0:0:
64,192,175103,1,0,0:0:0:20:LR2_DSnare.wav
192,192,175103,1,0,0:0:0:20:LR2_DSnare.wav
320,192,175103,1,0,0:0:0:0:
448,192,175275,1,0,0:0:0:0:
320,192,175362,1,0,0:0:0:0:
64,192,175448,1,0,0:0:0:0:
192,192,175448,1,0,0:0:0:35:LR2_KickBassD2.wav
64,192,175621,1,0,0:0:0:0:
192,192,175707,1,0,0:0:0:0:
448,192,175793,1,0,0:0:0:20:LR2_DSnare.wav
64,192,175793,1,0,0:0:0:20:LR2_DSnare.wav
320,192,175793,1,0,0:0:0:0:
448,192,175966,1,0,0:0:0:0:
320,192,176052,1,0,0:0:0:0:
192,192,176139,1,0,0:0:0:0:
64,192,176225,1,0,0:0:0:0:
320,192,176311,1,0,0:0:0:35:LR2_KickBassD2.wav
448,192,176311,1,0,0:0:0:0:
192,192,176398,1,0,0:0:0:0:
64,192,176484,1,0,0:0:0:20:LR2_DSnare.wav
320,192,176484,1,0,0:0:0:0:
448,192,176484,1,0,0:0:0:20:LR2_DSnare.wav
192,192,176657,1,0,0:0:0:0:
320,192,176743,1,0,0:0:0:0:
448,192,176829,1,0,0:0:0:55:LR2_DSnare.wav
192,192,176829,1,0,0:0:0:0:
64,192,176829,1,0,0:0:0:55:LR2_KickBassD2.wav
320,192,177175,1,0,0:0:0:20:LR2_DSnare.wav
64,192,177175,1,0,0:0:0:20:LR2_DSnare.wav
192,192,177347,1,0,0:0:0:0:
192,192,177693,1,0,0:0:0:35:LR2_KickBassD2.wav
448,192,177865,1,0,0:0:0:20:LR2_DSnare.wav
64,192,177865,1,0,0:0:0:20:LR2_DSnare.wav
320,192,178211,1,0,0:0:0:35:LR2_KickBassD2.wav
192,192,178556,1,0,0:0:0:20:LR2_DSnare.wav
448,192,178556,1,0,0:0:0:20:LR2_DSnare.wav
64,192,178729,1,0,0:0:0:0:
320,192,179074,1,0,0:0:0:35:LR2_KickBassD2.wav
64,192,179247,1,0,0:0:0:20:LR2_DSnare.wav
192,192,179247,1,0,0:0:0:20:LR2_DSnare.wav
448,192,179592,1,0,0:0:0:35:LR2_KickBassD2.wav
320,192,179592,1,0,0:0:0:0:
64,192,179938,1,0,0:0:0:20:LR2_DSnare.wav
320,192,179938,1,0,0:0:0:20:LR2_DSnare.wav
64,192,180283,1,0,0:0:0:0:
192,192,180456,1,0,0:0:0:35:LR2_KickBassD2.wav
320,192,180628,1,0,0:0:0:20:LR2_DSnare.wav
448,192,180628,1,0,0:0:0:20:LR2_DSnare.wav
64,192,180974,1,0,0:0:0:35:LR2_KickBassD2.wav
192,192,180974,1,0,0:0:0:0:
192,192,181319,1,0,0:0:0:20:LR2_DSnare.wav
320,192,181319,1,0,0:0:0:20:LR2_DSnare.wav
448,192,181492,1,0,0:0:0:0:
192,192,181837,1,0,0:0:0:35:LR2_KickBassD2.wav
320,192,181837,1,0,0:0:0:0:
64,192,182010,1,0,0:0:0:20:LR2_DSnare.wav
448,192,182010,1,0,0:0:0:20:LR2_DSnare.wav
192,192,182010,1,0,0:0:0:0:
320,192,182182,1,0,0:0:0:0:
192,192,182269,1,0,0:0:0:35:LR2_KickBassD2.wav
64,192,182355,1,0,0:0:0:35:LR2_KickBassD2.wav
448,192,182355,1,0,0:0:0:35:LR2_DSnare.wav
448,192,182700,1,0,0:0:0:20:LR2_DSnare.wav
192,192,182700,1,0,0:0:0:20:LR2_DSnare.wav
64,192,182873,1,0,0:0:0:0:
320,192,183218,1,0,0:0:0:35:LR2_KickBassD2.wav
64,192,183391,1,0,0:0:0:20:LR2_DSnare.wav
448,192,183391,1,0,0:0:0:20:LR2_DSnare.wav
192,192,183736,1,0,0:0:0:35:LR2_KickBassD2.wav
320,192,183736,1,0,0:0:0:0:
320,192,184082,1,0,0:0:0:20:LR2_DSnare.wav
448,192,184082,1,0,0:0:0:20:LR2_DSnare.wav
64,192,184254,1,0,0:0:0:0:
192,192,184600,1,0,0:0:0:35:LR2_KickBassD2.wav
448,192,184600,1,0,0:0:0:0:
64,192,184772,1,0,0:0:0:20:LR2_DSnare.wav
320,192,184772,1,0,0:0:0:20:LR2_DSnare.wav
448,192,185118,1,0,0:0:0:35:LR2_KickBassD2.wav
192,192,185118,1,0,0:0:0:0:
192,192,185463,1,0,0:0:0:20:LR2_DSnare.wav
64,192,185463,1,0,0:0:0:20:LR2_DSnare.wav
320,192,185463,1,0,0:0:0:0:
448,192,185808,1,0,0:0:0:0:
320,192,185981,1,0,0:0:0:35:LR2_KickBassD2.wav
192,192,186154,1,0,0:0:0:20:LR2_DSnare.wav
64,192,186154,1,0,0:0:0:20:LR2_DSnare.wav
448,192,186154,1,0,0:0:0:0:
320,192,186499,1,0,0:0:0:35:LR2_KickBassD2.wav
64,192,186499,1,0,0:0:0:0:
448,192,186844,1,0,0:0:0:20:LR2_DSnare.wav
192,192,186844,1,0,0:0:0:20:LR2_DSnare.wav
320,192,187017,1,0,0:0:0:0:
448,192,187362,1,0,0:0:0:35:LR2_KickBassD2.wav
320,192,187535,1,0,0:0:0:20:LR2_DSnare.wav
192,192,187535,1,0,0:0:0:20:LR2_DSnare.wav
64,192,187535,1,0,0:0:0:0:
448,192,187708,1,0,0:0:0:35:LR2_KickBassD2.wav
192,192,187794,1,0,0:0:0:35:LR2_KickBassD2.wav
64,192,187880,1,0,0:0:0:35:LR2_KickBassD2.wav
320,192,187880,1,0,0:0:0:35:LR2_DSnare.wav
192,192,188226,1,0,0:0:0:20:LR2_DSnare.wav
448,192,188226,1,0,0:0:0:20:LR2_DSnare.wav
320,192,188398,1,0,0:0:0:0:
320,192,188744,1,0,0:0:0:35:LR2_KickBassD2.wav
64,192,188916,1,0,0:0:0:20:LR2_DSnare.wav
448,192,188916,1,0,0:0:0:20:LR2_DSnare.wav
192,192,189262,1,0,0:0:0:35:LR2_KickBassD2.wav
320,192,189607,1,0,0:0:0:20:LR2_DSnare.wav
64,192,189607,1,0,0:0:0:20:LR2_DSnare.wav
448,192,189780,1,0,0:0:0:0:
192,192,190125,1,0,0:0:0:35:LR2_KickBassD2.wav
448,192,190298,1,0,0:0:0:20:LR2_DSnare.wav
320,192,190298,1,0,0:0:0:20:LR2_DSnare.wav
64,192,190643,1,0,0:0:0:35:LR2_KickBassD2.wav
192,192,190643,1,0,0:0:0:0:
448,192,190989,1,0,0:0:0:20:LR2_DSnare.wav
192,192,190989,1,0,0:0:0:20:LR2_DSnare.wav
448,192,191334,1,0,0:0:0:0:
320,192,191507,1,0,0:0:0:35:LR2_KickBassD2.wav
192,192,191679,1,0,0:0:0:20:LR2_DSnare.wav
64,192,191679,1,0,0:0:0:20:LR2_DSnare.wav
448,192,192025,1,0,0:0:0:35:LR2_KickBassD2.wav
320,192,192025,1,0,0:0:0:0:
320,192,192370,1,0,0:0:0:20:LR2_DSnare.wav
192,192,192370,1,0,0:0:0:20:LR2_DSnare.wav
64,192,192543,1,0,0:0:0:0:
320,192,192888,1,0,0:0:0:35:LR2_KickBassD2.wav
192,192,192888,1,0,0:0:0:0:
448,192,193061,1,0,0:0:0:20:LR2_DSnare.wav
64,192,193061,1,0,0:0:0:20:LR2_DSnare.wav
320,192,193061,1,0,0:0:0:0:
192,192,193233,1,0,0:0:0:0:
320,192,193320,1,0,0:0:0:35:LR2_KickBassD2.wav
448,192,193406,1,0,0:0:0:35:LR2_KickBassD2.wav
64,192,193406,1,0,0:0:0:35:LR2_DSnare.wav
64,192,193751,1,0,0:0:0:20:LR2_DSnare.wav
320,192,193751,1,0,0:0:0:20:LR2_DSnare.wav
448,192,193924,1,0,0:0:0:0:
192,192,194269,1,0,0:0:0:35:LR2_KickBassD2.wav
448,192,194442,1,0,0:0:0:20:LR2_DSnare.wav
64,192,194442,1,0,0:0:0:20:LR2_DSnare.wav
320,192,194787,1,0,0:0:0:35:LR2_KickBassD2.wav
192,192,194787,1,0,0:0:0:0:
192,192,195133,1,0,0:0:0:20:LR2_DSnare.wav
64,192,195133,1,0,0:0:0:20:LR2_DSnare.wav
448,192,195305,1,0,0:0:0:0:
320,192,195651,1,0,0:0:0:35:LR2_KickBassD2.wav
64,192,195651,1,0,0:0:0:0:
448,192,195823,1,0,0:0:0:20:LR2_DSnare.wav
192,192,195823,1,0,0:0:0:20:LR2_DSnare.wav
64,192,196169,1,0,0:0:0:35:LR2_KickBassD2.wav
320,192,196169,1,0,0:0:0:0:
320,192,196514,1,0,0:0:0:20:LR2_DSnare.wav
448,192,196514,1,0,0:0:0:20:LR2_DSnare.wav
192,192,196514,1,0,0:0:0:0:
64,192,196859,1,0,0:0:0:0:
192,192,197032,1,0,0:0:0:35:LR2_KickBassD2.wav
64,192,197205,1,0,0:0:0:20:LR2_DSnare.wav
320,192,197205,1,0,0:0:0:20:LR2_DSnare.wav
448,192,197205,1,0,0:0:0:0:
192,192,197550,1,0,0:0:0:35:LR2_KickBassD2.wav
448,192,197550,1,0,0:0:0:0:
64,192,197895,1,0,0:0:0:20:LR2_DSnare.wav
320,192,197895,1,0,0:0:0:20:LR2_DSnare.wav
192,192,198068,1,0,0:0:0:0:
320,192,198413,1,0,0:0:0:35:LR2_KickBassD2.wav
192,192,198586,1,0,0:0:0:20:LR2_DSnare.wav
64,192,198586,1,0,0:0:0:20:LR2_DSnare.wav
448,192,198586,1,0,0:0:0:0:
320,192,198759,1,0,0:0:0:35:LR2_KickBassD2.wav
64,192,198845,1,0,0:0:0:35:LR2_KickBassD2.wav
448,192,198931,1,0,0:0:0:35:LR2_KickBassD2.wav
192,192,198931,1,4,0:0:0:35:LR2_DSnare.wav
320,192,199104,1,0,0:0:0:0:
192,192,199190,1,0,0:0:0:0:
64,192,199277,1,0,0:0:0:20:LR2_DSnare.wav
320,192,199277,1,0,0:0:0:0:
448,192,199277,1,0,0:0:0:20:LR2_DSnare.wav
192,192,199449,1,0,0:0:0:0:
448,192,199536,1,0,0:0:0:0:
320,192,199622,1,0,0:0:0:0:
64,192,199795,1,0,0:0:0:0:
192,192,199795,1,0,0:0:0:35:LR2_KickBassD2.wav
448,192,199967,1,0,0:0:0:20:LR2_DSnare.wav
320,192,199967,1,0,0:0:0:20:LR2_DSnare.wav
192,192,199967,1,0,0:0:0:0:
448,192,200140,1,0,0:0:0:0:
320,192,200226,1,0,0:0:0:0:
64,192,200313,1,0,0:0:0:0:
192,192,200313,1,0,0:0:0:35:LR2_KickBassD2.wav
320,192,200485,1,0,0:0:0:0:
448,192,200572,1,0,0:0:0:0:
320,192,200658,1,0,0:0:0:0:
192,192,200658,1,0,0:0:0:20:LR2_DSnare.wav
64,192,200658,1,0,0:0:0:20:LR2_DSnare.wav
448,192,200831,1,0,0:0:0:0:
64,192,200917,1,0,0:0:0:0:
320,192,201003,1,0,0:0:0:0:
64,192,201176,1,0,0:0:0:0:
192,192,201176,1,0,0:0:0:35:LR2_KickBassD2.wav
320,192,201349,1,0,0:0:0:0:
448,192,201349,1,0,0:0:0:20:LR2_DSnare.wav
64,192,201349,1,0,0:0:0:20:LR2_DSnare.wav
192,192,201522,1,0,0:0:0:0:
448,192,201608,1,0,0:0:0:0:
192,192,201694,1,0,0:0:0:35:LR2_KickBassD2.wav
64,192,201694,1,0,0:0:0:0:
320,192,201867,1,0,0:0:0:0:
64,192,201953,1,0,0:0:0:0:
192,192,202040,1,0,0:0:0:0:
448,192,202040,1,0,0:0:0:20:LR2_DSnare.wav
320,192,202040,1,0,0:0:0:20:LR2_DSnare.wav
64,192,202212,1,0,0:0:0:0:
320,192,202299,1,0,0:0:0:0:
448,192,202385,1,0,0:0:0:0:
192,192,202471,1,0,0:0:0:0:
448,192,202558,1,0,0:0:0:0:
320,192,202558,1,0,0:0:0:35:LR2_KickBassD2.wav
320,192,202730,1,0,0:0:0:0:
192,192,202730,1,0,0:0:0:20:LR2_DSnare.wav
64,192,202730,1,0,0:0:0:20:LR2_DSnare.wav
448,192,202903,1,0,0:0:0:0:
320,192,202989,1,0,0:0:0:0:
192,192,203076,1,0,0:0:0:35:LR2_KickBassD2.wav
64,192,203076,1,0,0:0:0:0:
320,192,203248,1,0,0:0:0:0:
448,192,203248,128,0,203421:0:0:0:0:
320,192,203421,1,0,0:0:0:20:LR2_DSnare.wav
192,192,203421,1,0,0:0:0:20:LR2_DSnare.wav
64,192,203421,128,0,203594:0:0:0:0:
192,192,203594,1,0,0:0:0:0:
448,192,203594,128,0,203766:0:0:0:0:
320,192,203766,1,0,0:0:0:0:
64,192,203766,128,0,203939:0:0:0:0:
192,192,203939,1,0,0:0:0:35:LR2_KickBassD2.wav
448,192,203939,128,0,204112:0:0:0:0:
192,192,204112,1,0,0:0:0:20:LR2_DSnare.wav
320,192,204112,1,0,0:0:0:20:LR2_DSnare.wav
64,192,204112,128,0,204284:0:0:0:0:
448,192,204284,1,0,0:0:0:0:
320,192,204371,1,0,0:0:0:0:
448,192,204457,1,0,0:0:0:0:
192,192,204457,1,0,0:0:0:35:LR2_KickBassD2.wav
64,192,204630,1,0,0:0:0:0:
320,192,204716,1,0,0:0:0:0:
64,192,204802,1,0,0:0:0:20:LR2_DSnare.wav
192,192,204802,1,0,0:0:0:0:
448,192,204802,1,0,0:0:0:20:LR2_DSnare.wav
320,192,204975,1,0,0:0:0:0:
64,192,205061,1,0,0:0:0:0:
448,192,205148,1,0,0:0:0:0:
192,192,205234,1,0,0:0:0:0:
448,192,205320,1,0,0:0:0:0:
320,192,205320,1,0,0:0:0:35:LR2_KickBassD2.wav
320,192,205493,1,0,0:0:0:0:
64,192,205493,1,0,0:0:0:20:LR2_DSnare.wav
192,192,205493,1,0,0:0:0:20:LR2_DSnare.wav
448,192,205666,1,0,0:0:0:0:
192,192,205752,1,0,0:0:0:0:
320,192,205838,1,0,0:0:0:35:LR2_KickBassD2.wav
64,192,205838,1,0,0:0:0:0:
448,192,206011,1,0,0:0:0:0:
320,192,206097,1,0,0:0:0:0:
64,192,206184,1,0,0:0:0:20:LR2_DSnare.wav
448,192,206184,1,0,0:0:0:20:LR2_DSnare.wav
192,192,206184,1,0,0:0:0:0:
320,192,206356,1,0,0:0:0:0:
64,192,206443,1,0,0:0:0:0:
448,192,206529,1,0,0:0:0:0:
192,192,206615,1,0,0:0:0:0:
64,192,206702,1,0,0:0:0:0:
320,192,206702,1,0,0:0:0:35:LR2_KickBassD2.wav
448,192,206874,1,0,0:0:0:20:LR2_DSnare.wav
64,192,206874,1,0,0:0:0:20:LR2_DSnare.wav
192,192,206874,1,0,0:0:0:0:
320,192,207047,1,0,0:0:0:0:
448,192,207133,1,0,0:0:0:0:
64,192,207220,1,0,0:0:0:0:
192,192,207220,1,0,0:0:0:35:LR2_KickBassD2.wav
320,192,207392,1,0,0:0:0:0:
192,192,207479,1,0,0:0:0:0:
448,192,207565,1,0,0:0:0:20:LR2_DSnare.wav
320,192,207565,1,0,0:0:0:0:
64,192,207565,1,0,0:0:0:20:LR2_DSnare.wav
192,192,207738,1,0,0:0:0:0:
64,192,207824,1,0,0:0:0:0:
320,192,207910,1,0,0:0:0:0:
448,192,207997,1,0,0:0:0:0:
64,192,208083,1,0,0:0:0:0:
192,192,208083,1,0,0:0:0:35:LR2_KickBassD2.wav
448,192,208256,1,0,0:0:0:20:LR2_DSnare.wav
320,192,208256,1,0,0:0:0:20:LR2_DSnare.wav
192,192,208256,1,0,0:0:0:0:
64,192,208428,1,0,0:0:0:0:
192,192,208515,1,0,0:0:0:0:
320,192,208601,1,0,0:0:0:35:LR2_KickBassD2.wav
448,192,208601,1,0,0:0:0:0:
64,192,208774,128,0,208946:0:0:0:0:
192,192,208774,1,0,0:0:0:0:
192,192,208946,1,0,0:0:0:20:LR2_DSnare.wav
320,192,208946,1,0,0:0:0:20:LR2_DSnare.wav
448,192,208946,128,0,209119:0:0:0:0:
64,192,209119,128,0,209292:0:0:0:0:
320,192,209119,1,0,0:0:0:0:
448,192,209292,128,0,209464:0:0:0:0:
192,192,209292,1,0,0:0:0:0:
64,192,209464,128,0,209637:0:0:0:0:
320,192,209464,1,0,0:0:0:35:LR2_KickBassD2.wav
448,192,209637,128,0,209982:0:0:0:0:
320,192,209637,1,0,0:0:0:20:LR2_DSnare.wav
192,192,209637,1,0,0:0:0:20:LR2_DSnare.wav
64,192,209810,1,0,0:0:0:0:
192,192,209896,1,0,0:0:0:0:
64,192,209982,1,0,0:0:0:0:
320,192,209982,1,0,0:0:0:35:LR2_KickBassD2.wav
192,192,210155,1,0,0:0:0:0:
448,192,210241,1,0,0:0:0:0:
64,192,210328,1,0,0:0:0:0:
192,192,210328,1,0,0:0:0:20:LR2_DSnare.wav
320,192,210328,1,0,0:0:0:20:LR2_DSnare.wav
64,192,210500,1,0,0:0:0:0:
320,192,210587,1,0,0:0:0:0:
448,192,210673,1,0,0:0:0:0:
320,192,210846,1,0,0:0:0:35:LR2_KickBassD2.wav
192,192,210846,1,0,0:0:0:0:
320,192,211018,1,0,0:0:0:0:
448,192,211018,1,0,0:0:0:20:LR2_DSnare.wav
64,192,211018,1,0,0:0:0:20:LR2_DSnare.wav
192,192,211191,1,0,0:0:0:0:
448,192,211277,1,0,0:0:0:0:
320,192,211364,1,0,0:0:0:0:
192,192,211364,1,0,0:0:0:35:LR2_KickBassD2.wav
64,192,211536,1,0,0:0:0:0:
320,192,211623,1,0,0:0:0:0:
448,192,211709,1,0,0:0:0:20:LR2_DSnare.wav
64,192,211709,1,0,0:0:0:20:LR2_DSnare.wav
192,192,211709,1,0,0:0:0:0:
448,192,211882,1,0,0:0:0:0:
320,192,211968,1,0,0:0:0:0:
64,192,212054,1,0,0:0:0:0:
192,192,212141,1,0,0:0:0:0:
448,192,212227,1,0,0:0:0:0:
320,192,212227,1,0,0:0:0:35:LR2_KickBassD2.wav
192,192,212313,1,0,0:0:0:0:
448,192,212400,1,0,0:0:0:20:LR2_DSnare.wav
320,192,212400,1,0,0:0:0:0:
64,192,212400,1,0,0:0:0:20:LR2_DSnare.wav
192,192,212572,1,0,0:0:0:0:
64,192,212659,1,0,0:0:0:0:
448,192,212745,1,0,0:0:0:0:
192,192,212745,1,0,0:0:0:35:LR2_KickBassD2.wav
320,192,212918,1,0,0:0:0:0:
192,192,213004,1,0,0:0:0:0:
64,192,213091,1,0,0:0:0:20:LR2_DSnare.wav
320,192,213091,1,0,0:0:0:0:
448,192,213091,1,0,0:0:0:20:LR2_DSnare.wav
192,192,213263,1,0,0:0:0:0:
448,192,213350,1,0,0:0:0:0:
320,192,213436,1,0,0:0:0:0:
64,192,213522,1,0,0:0:0:0:
320,192,213609,1,0,0:0:0:0:
192,192,213609,1,0,0:0:0:35:LR2_KickBassD2.wav
192,192,213781,1,0,0:0:0:0:
64,192,213781,1,0,0:0:0:20:LR2_DSnare.wav
448,192,213781,1,0,0:0:0:20:LR2_DSnare.wav
320,192,213954,1,0,0:0:0:0:
192,192,214040,1,0,0:0:0:0:
64,192,214127,1,0,0:0:0:0:
448,192,214127,1,0,0:0:0:35:LR2_KickBassD2.wav
320,192,214299,1,0,0:0:0:0:
192,192,214299,128,0,214472:0:0:0:0:
64,192,214472,1,0,0:0:0:20:LR2_DSnare.wav
448,192,214472,1,0,0:0:0:20:LR2_DSnare.wav
320,192,214472,128,0,214645:0:0:0:0:
64,192,214645,1,0,0:0:0:0:
192,192,214645,128,0,214817:0:0:0:0:
448,192,214817,1,0,0:0:0:0:
320,192,214817,128,0,214990:0:0:0:0:
64,192,214990,1,0,0:0:0:35:LR2_KickBassD2.wav
192,192,214990,128,0,215163:0:0:0:0:
448,192,215163,1,0,0:0:0:20:LR2_DSnare.wav
64,192,215163,1,0,0:0:0:20:LR2_DSnare.wav
320,192,215163,128,0,215335:0:0:0:0:
448,192,215335,1,0,0:0:0:0:
192,192,215422,1,0,0:0:0:0:
320,192,215508,1,0,0:0:0:35:LR2_KickBassD2.wav
64,192,215508,1,0,0:0:0:0:
448,192,215681,1,0,0:0:0:0:
320,192,215767,1,0,0:0:0:0:
448,192,215853,1,0,0:0:0:20:LR2_DSnare.wav
64,192,215853,1,0,0:0:0:20:LR2_DSnare.wav
192,192,215853,1,0,0:0:0:0:
320,192,216026,1,0,0:0:0:0:
64,192,216112,1,0,0:0:0:0:
448,192,216199,1,0,0:0:0:0:
192,192,216285,1,0,0:0:0:0:
64,192,216371,1,0,0:0:0:0:
320,192,216371,1,0,0:0:0:35:LR2_KickBassD2.wav
448,192,216544,1,0,0:0:0:20:LR2_DSnare.wav
320,192,216544,1,0,0:0:0:20:LR2_DSnare.wav
192,192,216544,1,0,0:0:0:0:
64,192,216717,1,0,0:0:0:0:
192,192,216803,1,0,0:0:0:0:
448,192,216889,1,0,0:0:0:0:
320,192,216889,1,0,0:0:0:35:LR2_KickBassD2.wav
64,192,217062,1,0,0:0:0:0:
448,192,217148,1,0,0:0:0:0:
64,192,217235,1,0,0:0:0:20:LR2_DSnare.wav
192,192,217235,1,0,0:0:0:20:LR2_DSnare.wav
320,192,217235,1,0,0:0:0:0:
448,192,217407,1,0,0:0:0:0:
320,192,217494,1,0,0:0:0:0:
192,192,217580,1,0,0:0:0:0:
64,192,217666,1,0,0:0:0:0:
192,192,217753,1,0,0:0:0:0:
320,192,217753,1,0,0:0:0:35:LR2_KickBassD2.wav
64,192,217925,1,0,0:0:0:20:LR2_DSnare.wav
320,192,217925,1,0,0:0:0:0:
448,192,217925,1,0,0:0:0:20:LR2_DSnare.wav
192,192,218098,1,0,0:0:0:0:
320,192,218184,1,0,0:0:0:0:
64,192,218271,1,0,0:0:0:35:LR2_KickBassD2.wav
448,192,218271,1,0,0:0:0:0:
192,192,218443,1,0,0:0:0:0:
64,192,218530,1,0,0:0:0:0:
192,192,218616,1,0,0:0:0:0:
320,192,218616,1,0,0:0:0:20:LR2_DSnare.wav
448,192,218616,1,0,0:0:0:20:LR2_DSnare.wav
64,192,218789,1,0,0:0:0:0:
192,192,218875,1,0,0:0:0:0:
320,192,218961,1,0,0:0:0:0:
448,192,219048,1,0,0:0:0:0:
64,192,219134,1,0,0:0:0:0:
192,192,219134,1,0,0:0:0:35:LR2_KickBassD2.wav
64,192,219307,1,0,0:0:0:20:LR2_DSnare.wav
448,192,219307,1,0,0:0:0:20:LR2_DSnare.wav
320,192,219307,1,0,0:0:0:0:
192,192,219479,1,0,0:0:0:0:
320,192,219566,1,0,0:0:0:0:
64,192,219652,1,0,0:0:0:25:LR2_KickBassD2.wav
448,192,219652,1,0,0:0:0:25:LR2_KickBassD2.wav
192,192,219825,1,0,0:0:0:0:
320,192,219825,128,0,219997:0:0:0:0:
448,192,219997,1,0,0:0:0:20:LR2_DSnare.wav
64,192,219997,1,0,0:0:0:20:LR2_DSnare.wav
192,192,219997,128,0,220170:0:0:0:0:
448,192,220170,1,0,0:0:0:0:
320,192,220170,128,0,220343:0:0:0:0:
64,192,220343,1,0,0:0:0:0:
192,192,220343,128,0,220515:0:0:0:0:
448,192,220515,1,0,0:0:0:35:LR2_KickBassD2.wav
320,192,220515,128,0,220688:0:0:0:0:
448,192,220688,1,0,0:0:0:20:LR2_DSnare.wav
64,192,220688,128,0,221033:0:0:0:0:
192,192,220688,1,0,0:0:0:20:LR2_DSnare.wav
320,192,220861,1,0,0:0:0:20:LR2_KickBassD2.wav
448,192,220947,1,0,0:0:0:20:LR2_KickBassD2.wav
192,192,221033,1,0,0:0:0:35:LR2_KickBassD2.wav
320,192,221033,1,4,0:0:0:35:LR2_DSnare.wav
320,192,221379,1,0,0:0:0:0:
64,192,222069,1,0,0:0:0:0:
192,192,223796,1,0,0:0:0:0:
448,192,223796,1,0,0:0:0:0:
192,192,226559,1,0,0:0:0:0:
320,192,226904,1,0,0:0:0:0:
448,192,227250,1,0,0:0:0:0:
64,192,227595,1,0,0:0:0:0:
192,192,229322,1,0,0:0:0:0:
320,192,229322,1,0,0:0:0:0:
448,192,232084,1,0,0:0:0:0:
320,192,232430,1,0,0:0:0:0:
192,192,232775,1,0,0:0:0:0:
64,192,233120,1,0,0:0:0:0:
192,192,234847,1,0,0:0:0:0:
448,192,234847,1,0,0:0:0:0:
192,192,237610,1,0,0:0:0:0:
320,192,237955,1,0,0:0:0:0:
448,192,238301,1,0,0:0:0:0:
64,192,238646,1,0,0:0:0:0:
64,192,240373,1,0,0:0:0:0:
192,192,240373,1,0,0:0:0:0:
64,192,243135,1,0,0:0:0:0:
448,192,243135,1,0,0:0:0:0:
320,192,243135,1,0,0:0:0:0:
192,192,243653,1,0,0:0:0:0:
320,192,243826,1,0,0:0:0:0:
448,192,243826,1,0,0:0:0:0:
192,192,244862,1,0,0:0:0:0:
192,192,245035,1,0,0:0:0:0:
64,192,245207,1,0,0:0:0:0:
448,192,245207,1,0,0:0:0:0:
320,192,245898,1,0,0:0:0:0:
192,192,246243,1,0,0:0:0:0:
320,192,246589,1,0,0:0:0:0:
448,192,246589,1,0,0:0:0:0:
192,192,247625,1,0,0:0:0:0:
192,192,247798,1,0,0:0:0:0:
64,192,247970,1,0,0:0:0:0:
448,192,247970,1,0,0:0:0:0:
320,192,248661,1,0,0:0:0:0:
192,192,249179,1,0,0:0:0:0:
64,192,249352,1,0,0:0:0:0:
448,192,249352,1,0,0:0:0:0:
320,192,250388,1,0,0:0:0:0:
320,192,250560,1,0,0:0:0:0:
64,192,250733,1,0,0:0:0:0:
448,192,250733,1,0,0:0:0:0:
192,192,251424,1,0,0:0:0:0:
320,192,251769,1,0,0:0:0:0:
64,192,252114,1,0,0:0:0:0:
192,192,252114,1,0,0:0:0:0:
320,192,253150,1,0,0:0:0:0:
320,192,253323,1,0,0:0:0:0:
64,192,253496,1,0,0:0:0:0:
448,192,253496,1,0,0:0:0:0:
448,192,254186,128,0,256863:0:0:0:0:
192,192,254186,1,0,0:0:0:0:
64,192,254186,128,0,256863:0:0:0:0:
192,192,256949,1,0,0:0:0:0:
192,192,257640,1,0,0:0:0:0:
192,192,258331,1,0,0:0:0:0:
192,192,259021,1,0,0:0:0:0:
64,192,259712,1,0,0:0:0:25:LR2_KickBassD2.wav
448,192,259712,1,0,0:0:0:25:LR2_KickBassD2.wav
320,192,259712,1,0,0:0:0:0:
320,192,260403,1,0,0:0:0:0:
320,192,261093,1,0,0:0:0:0:
320,192,261784,1,0,0:0:0:0:
320,192,262475,128,0,265237:0:0:0:0:
64,192,264547,128,0,265237:0:0:0:0:
448,192,265237,1,0,0:0:0:70:LR2_KickBassD2.wav
192,192,265410,1,0,0:0:0:0:
320,192,265496,1,0,0:0:0:0:
448,192,265583,1,0,0:0:0:20:LR2_DSnare.wav
192,192,265583,1,0,0:0:0:0:
64,192,265583,1,0,0:0:0:20:LR2_DSnare.wav
320,192,265755,1,0,0:0:0:0:
64,192,265842,1,0,0:0:0:0:
192,192,265928,1,0,0:0:0:0:
448,192,266101,1,0,0:0:0:0:
320,192,266101,1,0,0:0:0:35:LR2_KickBassD2.wav
64,192,266273,1,0,0:0:0:20:LR2_DSnare.wav
192,192,266273,1,0,0:0:0:20:LR2_DSnare.wav
320,192,266273,1,0,0:0:0:0:
64,192,266446,1,0,0:0:0:0:
192,192,266532,1,0,0:0:0:0:
448,192,266619,1,0,0:0:0:0:
320,192,266619,1,0,0:0:0:35:LR2_KickBassD2.wav
192,192,266791,1,0,0:0:0:0:
64,192,266878,1,0,0:0:0:0:
192,192,266964,1,0,0:0:0:0:
320,192,266964,1,0,0:0:0:20:LR2_DSnare.wav
448,192,266964,1,0,0:0:0:20:LR2_DSnare.wav
64,192,267137,1,0,0:0:0:0:
448,192,267223,1,0,0:0:0:0:
192,192,267309,1,0,0:0:0:0:
448,192,267482,1,0,0:0:0:0:
320,192,267482,1,0,0:0:0:35:LR2_KickBassD2.wav
192,192,267655,1,0,0:0:0:0:
64,192,267655,1,0,0:0:0:20:LR2_DSnare.wav
448,192,267655,1,0,0:0:0:20:LR2_DSnare.wav
320,192,267827,1,0,0:0:0:0:
64,192,267914,1,0,0:0:0:0:
320,192,268000,1,0,0:0:0:35:LR2_KickBassD2.wav
448,192,268000,1,0,0:0:0:0:
192,192,268173,1,0,0:0:0:0:
448,192,268259,1,0,0:0:0:0:
320,192,268345,1,0,0:0:0:0:
64,192,268345,1,0,0:0:0:20:LR2_DSnare.wav
192,192,268345,1,0,0:0:0:20:LR2_DSnare.wav
448,192,268518,1,0,0:0:0:0:
192,192,268604,1,0,0:0:0:0:
64,192,268691,1,0,0:0:0:0:
320,192,268777,1,0,0:0:0:0:
64,192,268864,1,0,0:0:0:0:
192,192,268864,1,0,0:0:0:35:LR2_KickBassD2.wav
192,192,269036,1,0,0:0:0:0:
320,192,269036,1,0,0:0:0:20:LR2_DSnare.wav
448,192,269036,1,0,0:0:0:20:LR2_DSnare.wav
64,192,269209,1,0,0:0:0:0:
192,192,269295,1,0,0:0:0:0:
320,192,269382,1,0,0:0:0:35:LR2_KickBassD2.wav
448,192,269382,1,0,0:0:0:0:
192,192,269554,1,0,0:0:0:0:
64,192,269554,128,0,269727:0:0:0:0:
192,192,269727,1,0,0:0:0:20:LR2_DSnare.wav
320,192,269727,1,0,0:0:0:20:LR2_DSnare.wav
448,192,269727,128,0,269900:0:0:0:0:
320,192,269900,1,0,0:0:0:0:
64,192,269900,128,0,270072:0:0:0:0:
192,192,270072,1,0,0:0:0:0:
448,192,270072,128,0,270245:0:0:0:0:
320,192,270245,1,0,0:0:0:35:LR2_KickBassD2.wav
64,192,270245,128,0,270418:0:0:0:0:
320,192,270418,1,0,0:0:0:20:LR2_DSnare.wav
192,192,270418,1,0,0:0:0:20:LR2_DSnare.wav
448,192,270418,128,0,270590:0:0:0:0:
64,192,270590,1,0,0:0:0:0:
192,192,270677,1,0,0:0:0:0:
64,192,270763,1,0,0:0:0:0:
320,192,270763,1,0,0:0:0:35:LR2_KickBassD2.wav
448,192,270936,1,0,0:0:0:0:
192,192,271022,1,0,0:0:0:0:
448,192,271108,1,0,0:0:0:20:LR2_DSnare.wav
320,192,271108,1,0,0:0:0:0:
64,192,271108,1,0,0:0:0:20:LR2_DSnare.wav
192,192,271281,1,0,0:0:0:0:
448,192,271367,1,0,0:0:0:0:
64,192,271454,1,0,0:0:0:0:
320,192,271540,1,0,0:0:0:0:
64,192,271626,1,0,0:0:0:0:
192,192,271626,1,0,0:0:0:35:LR2_KickBassD2.wav
192,192,271799,1,0,0:0:0:0:
448,192,271799,1,0,0:0:0:20:LR2_DSnare.wav
320,192,271799,1,0,0:0:0:20:LR2_DSnare.wav
64,192,271972,1,0,0:0:0:0:
320,192,272058,1,0,0:0:0:0:
192,192,272144,1,0,0:0:0:35:LR2_KickBassD2.wav
448,192,272144,1,0,0:0:0:0:
64,192,272317,1,0,0:0:0:0:
192,192,272403,1,0,0:0:0:0:
448,192,272490,1,0,0:0:0:20:LR2_DSnare.wav
64,192,272490,1,0,0:0:0:20:LR2_DSnare.wav
320,192,272490,1,0,0:0:0:0:
192,192,272662,1,0,0:0:0:0:
448,192,272749,1,0,0:0:0:0:
64,192,272835,1,0,0:0:0:0:
320,192,272921,1,0,0:0:0:0:
448,192,273008,1,0,0:0:0:0:
192,192,273008,1,0,0:0:0:35:LR2_KickBassD2.wav
64,192,273180,1,0,0:0:0:20:LR2_DSnare.wav
448,192,273180,1,0,0:0:0:20:LR2_DSnare.wav
320,192,273180,1,0,0:0:0:0:
192,192,273353,1,0,0:0:0:0:
64,192,273439,1,0,0:0:0:0:
448,192,273526,1,0,0:0:0:0:
320,192,273526,1,0,0:0:0:35:LR2_KickBassD2.wav
192,192,273698,1,0,0:0:0:0:
320,192,273785,1,0,0:0:0:0:
64,192,273871,1,0,0:0:0:20:LR2_DSnare.wav
192,192,273871,1,0,0:0:0:0:
448,192,273871,1,0,0:0:0:20:LR2_DSnare.wav
320,192,274044,1,0,0:0:0:0:
448,192,274130,1,0,0:0:0:0:
192,192,274216,1,0,0:0:0:0:
64,192,274303,1,0,0:0:0:0:
448,192,274389,1,0,0:0:0:0:
320,192,274389,1,0,0:0:0:35:LR2_KickBassD2.wav
64,192,274562,1,0,0:0:0:20:LR2_DSnare.wav
192,192,274562,1,0,0:0:0:20:LR2_DSnare.wav
320,192,274562,1,0,0:0:0:0:
448,192,274734,1,0,0:0:0:0:
320,192,274821,1,0,0:0:0:0:
192,192,274907,1,0,0:0:0:35:LR2_KickBassD2.wav
64,192,274907,1,0,0:0:0:0:
448,192,275080,128,0,275252:0:0:0:0:
320,192,275080,1,0,0:0:0:0:
320,192,275252,1,0,0:0:0:20:LR2_DSnare.wav
192,192,275252,1,0,0:0:0:20:LR2_DSnare.wav
64,192,275252,128,0,275425:0:0:0:0:
448,192,275425,128,0,275598:0:0:0:0:
192,192,275425,1,0,0:0:0:0:
64,192,275598,128,0,275770:0:0:0:0:
320,192,275598,1,0,0:0:0:0:
448,192,275770,128,0,275943:0:0:0:0:
192,192,275770,1,0,0:0:0:35:LR2_KickBassD2.wav
64,192,275943,128,0,276288:0:0:0:0:
192,192,275943,1,0,0:0:0:20:LR2_DSnare.wav
320,192,275943,1,0,0:0:0:20:LR2_DSnare.wav
448,192,276116,1,0,0:0:0:0:
320,192,276202,1,0,0:0:0:0:
448,192,276288,1,0,0:0:0:0:
192,192,276288,1,0,0:0:0:35:LR2_KickBassD2.wav
320,192,276461,1,0,0:0:0:0:
64,192,276547,1,0,0:0:0:0:
448,192,276634,1,0,0:0:0:0:
320,192,276634,1,0,0:0:0:20:LR2_DSnare.wav
192,192,276634,1,0,0:0:0:20:LR2_DSnare.wav
448,192,276806,1,0,0:0:0:0:
192,192,276893,1,0,0:0:0:0:
64,192,276979,1,0,0:0:0:0:
192,192,277152,1,0,0:0:0:35:LR2_KickBassD2.wav
320,192,277152,1,0,0:0:0:0:
192,192,277324,1,0,0:0:0:0:
64,192,277324,1,0,0:0:0:20:LR2_DSnare.wav
448,192,277324,1,0,0:0:0:20:LR2_DSnare.wav
320,192,277497,1,0,0:0:0:0:
64,192,277583,1,0,0:0:0:0:
192,192,277670,1,0,0:0:0:0:
320,192,277670,1,0,0:0:0:35:LR2_KickBassD2.wav
448,192,277842,1,0,0:0:0:0:
192,192,277929,1,0,0:0:0:0:
64,192,278015,1,0,0:0:0:20:LR2_DSnare.wav
448,192,278015,1,0,0:0:0:20:LR2_DSnare.wav
320,192,278015,1,0,0:0:0:0:
64,192,278188,1,0,0:0:0:0:
192,192,278274,1,0,0:0:0:0:
448,192,278360,1,0,0:0:0:0:
320,192,278447,1,0,0:0:0:0:
64,192,278533,1,0,0:0:0:0:
192,192,278533,1,0,0:0:0:35:LR2_KickBassD2.wav
320,192,278619,1,0,0:0:0:0:
64,192,278706,1,0,0:0:0:20:LR2_DSnare.wav
192,192,278706,1,0,0:0:0:0:
448,192,278706,1,0,0:0:0:20:LR2_DSnare.wav
320,192,278878,1,0,0:0:0:0:
448,192,278965,1,0,0:0:0:0:
64,192,279051,1,0,0:0:0:0:
320,192,279051,1,0,0:0:0:35:LR2_KickBassD2.wav
192,192,279224,1,0,0:0:0:0:
320,192,279310,1,0,0:0:0:0:
448,192,279396,1,0,0:0:0:20:LR2_DSnare.wav
192,192,279396,1,0,0:0:0:0:
64,192,279396,1,0,0:0:0:20:LR2_DSnare.wav
320,192,279569,1,0,0:0:0:0:
64,192,279655,1,0,0:0:0:0:
192,192,279742,1,0,0:0:0:0:
448,192,279828,1,0,0:0:0:0:
192,192,279915,1,0,0:0:0:0:
320,192,279915,1,0,0:0:0:35:LR2_KickBassD2.wav
320,192,280087,1,0,0:0:0:0:
448,192,280087,1,0,0:0:0:20:LR2_DSnare.wav
64,192,280087,1,0,0:0:0:20:LR2_DSnare.wav
192,192,280260,1,0,0:0:0:0:
320,192,280346,1,0,0:0:0:0:
448,192,280433,1,0,0:0:0:0:
64,192,280433,1,0,0:0:0:35:LR2_KickBassD2.wav
192,192,280605,1,0,0:0:0:0:
320,192,280605,128,0,280778:0:0:0:0:
448,192,280778,1,0,0:0:0:20:LR2_DSnare.wav
64,192,280778,1,0,0:0:0:20:LR2_DSnare.wav
192,192,280778,128,0,280951:0:0:0:0:
448,192,280951,1,0,0:0:0:0:
320,192,280951,128,0,281123:0:0:0:0:
64,192,281123,1,0,0:0:0:0:
192,192,281123,128,0,281296:0:0:0:0:
448,192,281296,1,0,0:0:0:35:LR2_KickBassD2.wav
320,192,281296,128,0,281469:0:0:0:0:
64,192,281469,1,0,0:0:0:20:LR2_DSnare.wav
448,192,281469,1,0,0:0:0:20:LR2_DSnare.wav
192,192,281469,128,0,281641:0:0:0:0:
64,192,281641,1,0,0:0:0:0:
320,192,281728,1,0,0:0:0:0:
192,192,281814,1,0,0:0:0:35:LR2_KickBassD2.wav
448,192,281814,1,0,0:0:0:0:
64,192,281987,1,0,0:0:0:0:
192,192,282073,1,0,0:0:0:0:
64,192,282159,1,0,0:0:0:20:LR2_DSnare.wav
448,192,282159,1,0,0:0:0:20:LR2_DSnare.wav
320,192,282159,1,0,0:0:0:0:
192,192,282332,1,0,0:0:0:0:
448,192,282418,1,0,0:0:0:0:
64,192,282505,1,0,0:0:0:0:
320,192,282591,1,0,0:0:0:0:
448,192,282677,1,0,0:0:0:0:
192,192,282677,1,0,0:0:0:35:LR2_KickBassD2.wav
64,192,282850,1,0,0:0:0:20:LR2_DSnare.wav
192,192,282850,1,0,0:0:0:20:LR2_DSnare.wav
320,192,282850,1,0,0:0:0:0:
448,192,283023,1,0,0:0:0:0:
320,192,283109,1,0,0:0:0:0:
64,192,283195,1,0,0:0:0:0:
192,192,283195,1,0,0:0:0:35:LR2_KickBassD2.wav
448,192,283368,1,0,0:0:0:0:
64,192,283454,1,0,0:0:0:0:
448,192,283541,1,0,0:0:0:20:LR2_DSnare.wav
320,192,283541,1,0,0:0:0:20:LR2_DSnare.wav
192,192,283541,1,0,0:0:0:0:
64,192,283713,1,0,0:0:0:0:
192,192,283800,1,0,0:0:0:0:
320,192,283886,1,0,0:0:0:0:
448,192,283972,1,0,0:0:0:0:
320,192,284059,1,0,0:0:0:0:
192,192,284059,1,0,0:0:0:35:LR2_KickBassD2.wav
448,192,284231,1,0,0:0:0:20:LR2_DSnare.wav
192,192,284231,1,0,0:0:0:0:
64,192,284231,1,0,0:0:0:20:LR2_DSnare.wav
320,192,284404,1,0,0:0:0:0:
192,192,284490,1,0,0:0:0:0:
448,192,284577,1,0,0:0:0:35:LR2_KickBassD2.wav
64,192,284577,1,0,0:0:0:0:
320,192,284749,1,0,0:0:0:0:
448,192,284836,1,0,0:0:0:0:
320,192,284922,1,0,0:0:0:0:
192,192,284922,1,0,0:0:0:20:LR2_DSnare.wav
64,192,284922,1,0,0:0:0:20:LR2_DSnare.wav
448,192,285095,1,0,0:0:0:0:
320,192,285181,1,0,0:0:0:0:
192,192,285267,1,0,0:0:0:0:
64,192,285354,1,0,0:0:0:0:
448,192,285440,1,0,0:0:0:0:
320,192,285440,1,0,0:0:0:35:LR2_KickBassD2.wav
448,192,285613,1,0,0:0:0:20:LR2_DSnare.wav
64,192,285613,1,0,0:0:0:20:LR2_DSnare.wav
192,192,285613,1,0,0:0:0:0:
320,192,285785,1,0,0:0:0:0:
192,192,285872,1,0,0:0:0:0:
448,192,285958,1,0,0:0:0:25:LR2_KickBassD2.wav
64,192,285958,1,0,0:0:0:25:LR2_KickBassD2.wav
320,192,286131,1,0,0:0:0:0:
192,192,286131,128,0,286303:0:0:0:0:
64,192,286303,1,0,0:0:0:20:LR2_DSnare.wav
448,192,286303,1,0,0:0:0:20:LR2_DSnare.wav
320,192,286303,128,0,286476:0:0:0:0:
64,192,286476,1,0,0:0:0:0:
192,192,286476,128,0,286649:0:0:0:0:
448,192,286649,1,0,0:0:0:0:
320,192,286649,128,0,286821:0:0:0:0:
64,192,286821,1,0,0:0:0:35:LR2_KickBassD2.wav
192,192,286821,128,0,286994:0:0:0:0:
64,192,286994,1,0,0:0:0:20:LR2_DSnare.wav
320,192,286994,1,0,0:0:0:20:LR2_DSnare.wav
448,192,286994,128,0,287339:0:0:0:0:
192,192,287167,1,0,0:0:0:20:LR2_KickBassD2.wav
320,192,287253,1,0,0:0:0:20:LR2_KickBassD2.wav
64,192,287339,1,0,0:0:0:35:LR2_KickBassD2.wav
192,192,287339,1,4,0:0:0:0:
320,192,287512,1,0,0:0:0:0:
192,192,287598,1,0,0:0:0:0:
64,192,287685,1,0,0:0:0:20:LR2_DSnare.wav
320,192,287685,1,0,0:0:0:0:
448,192,287685,1,0,0:0:0:20:LR2_DSnare.wav
192,192,287857,1,0,0:0:0:0:
64,192,287944,1,0,0:0:0:0:
320,192,288030,1,0,0:0:0:0:
192,192,288116,128,0,288375:0:0:0:0:
448,192,288203,1,0,0:0:0:35:LR2_KickBassD2.wav
320,192,288375,1,0,0:0:0:20:LR2_DSnare.wav
64,192,288375,1,0,0:0:0:20:LR2_DSnare.wav
448,192,288375,128,0,288721:0:0:0:0:
320,192,288548,1,0,0:0:0:0:
192,192,288634,1,0,0:0:0:0:
64,192,288721,1,0,0:0:0:35:LR2_KickBassD2.wav
320,192,288721,128,0,289066:0:0:0:0:
192,192,288893,1,0,0:0:0:0:
64,192,288980,1,0,0:0:0:0:
448,192,289066,1,0,0:0:0:20:LR2_DSnare.wav
192,192,289066,1,0,0:0:0:20:LR2_DSnare.wav
320,192,289239,1,0,0:0:0:0:
64,192,289239,128,0,289498:0:0:0:0:
192,192,289325,1,0,0:0:0:0:
448,192,289411,1,0,0:0:0:0:
320,192,289498,1,0,0:0:0:0:
448,192,289584,1,0,0:0:0:35:LR2_KickBassD2.wav
192,192,289584,1,0,0:0:0:0:
192,192,289757,1,0,0:0:0:20:LR2_DSnare.wav
64,192,289757,1,0,0:0:0:20:LR2_DSnare.wav
448,192,289757,128,0,290102:0:0:0:0:
320,192,289929,1,0,0:0:0:0:
192,192,290016,1,0,0:0:0:0:
320,192,290102,1,0,0:0:0:35:LR2_KickBassD2.wav
64,192,290102,128,0,290447:0:0:0:0:
192,192,290275,1,0,0:0:0:0:
320,192,290361,1,0,0:0:0:0:
320,192,290447,1,0,0:0:0:20:LR2_DSnare.wav
448,192,290447,1,0,0:0:0:20:LR2_DSnare.wav
192,192,290447,128,0,290620:0:0:0:0:
320,192,290620,128,0,290793:0:0:0:0:
64,192,290620,1,0,0:0:0:0:
448,192,290706,1,0,0:0:0:0:
192,192,290793,128,0,290965:0:0:0:0:
64,192,290793,1,0,0:0:0:0:
448,192,290879,1,0,0:0:0:0:
320,192,290965,128,0,291311:0:0:0:0:
64,192,290965,1,0,0:0:0:35:LR2_KickBassD2.wav
448,192,291138,1,0,0:0:0:20:LR2_DSnare.wav
192,192,291138,1,0,0:0:0:20:LR2_DSnare.wav
192,192,291311,128,0,291484:0:0:0:0:
448,192,291311,1,0,0:0:0:0:
64,192,291397,1,0,0:0:0:0:
320,192,291484,128,0,291829:0:0:0:0:
448,192,291484,1,0,0:0:0:35:LR2_KickBassD2.wav
192,192,291656,1,0,0:0:0:0:
448,192,291743,1,0,0:0:0:0:
192,192,291829,128,0,292002:0:0:0:0:
448,192,291829,1,0,0:0:0:20:LR2_DSnare.wav
64,192,291829,1,0,0:0:0:20:LR2_DSnare.wav
320,192,292002,128,0,292174:0:0:0:0:
64,192,292002,1,0,0:0:0:0:
448,192,292088,1,0,0:0:0:0:
64,192,292174,128,0,292520:0:0:0:0:
192,192,292174,1,0,0:0:0:0:
448,192,292261,1,0,0:0:0:0:
320,192,292347,1,0,0:0:0:35:LR2_KickBassD2.wav
448,192,292520,1,0,0:0:0:20:LR2_DSnare.wav
192,192,292520,1,0,0:0:0:20:LR2_DSnare.wav
320,192,292692,1,0,0:0:0:20:LR2_KickBassD2.wav
192,192,292779,1,0,0:0:0:20:LR2_KickBassD2.wav
64,192,292865,1,0,0:0:0:35:LR2_KickBassD2.wav
320,192,292865,1,0,0:0:0:0:
448,192,293038,1,0,0:0:0:0:
192,192,293124,1,0,0:0:0:0:
64,192,293210,1,0,0:0:0:20:LR2_DSnare.wav
320,192,293210,1,0,0:0:0:0:
448,192,293210,1,0,0:0:0:20:LR2_DSnare.wav
192,192,293383,1,0,0:0:0:0:
448,192,293469,1,0,0:0:0:0:
64,192,293556,1,0,0:0:0:0:
320,192,293642,1,0,0:0:0:0:
192,192,293642,128,0,293901:0:0:0:0:
448,192,293728,1,0,0:0:0:35:LR2_KickBassD2.wav
64,192,293901,1,0,0:0:0:20:LR2_DSnare.wav
320,192,293901,1,0,0:0:0:20:LR2_DSnare.wav
448,192,293901,128,0,294246:0:0:0:0:
320,192,294074,1,0,0:0:0:0:
192,192,294160,1,0,0:0:0:0:
64,192,294246,1,0,0:0:0:35:LR2_KickBassD2.wav
320,192,294246,128,0,294592:0:0:0:0:
192,192,294419,1,0,0:0:0:0:
64,192,294505,1,0,0:0:0:0:
448,192,294592,1,0,0:0:0:20:LR2_DSnare.wav
192,192,294592,1,0,0:0:0:20:LR2_DSnare.wav
448,192,294764,1,0,0:0:0:0:
64,192,294764,128,0,295023:0:0:0:0:
320,192,294851,1,0,0:0:0:0:
192,192,294937,1,0,0:0:0:0:
320,192,295023,1,0,0:0:0:0:
448,192,295110,1,0,0:0:0:0:
192,192,295110,1,0,0:0:0:35:LR2_KickBassD2.wav
448,192,295282,1,0,0:0:0:20:LR2_DSnare.wav
320,192,295282,128,0,295628:0:0:0:0:
64,192,295282,1,0,0:0:0:20:LR2_DSnare.wav
192,192,295455,1,0,0:0:0:0:
448,192,295541,1,0,0:0:0:0:
64,192,295628,1,0,0:0:0:35:LR2_KickBassD2.wav
192,192,295628,128,0,295973:0:0:0:0:
448,192,295800,1,0,0:0:0:0:
320,192,295887,1,0,0:0:0:0:
64,192,295973,1,0,0:0:0:20:LR2_DSnare.wav
448,192,295973,128,0,296146:0:0:0:0:
320,192,295973,1,0,0:0:0:20:LR2_DSnare.wav
320,192,296146,128,0,296318:0:0:0:0:
192,192,296146,1,0,0:0:0:0:
64,192,296232,1,0,0:0:0:0:
448,192,296318,1,0,0:0:0:0:
192,192,296318,128,0,296491:0:0:0:0:
64,192,296405,1,0,0:0:0:0:
320,192,296491,128,0,296836:0:0:0:0:
448,192,296491,1,0,0:0:0:35:LR2_KickBassD2.wav
64,192,296664,1,0,0:0:0:20:LR2_DSnare.wav
192,192,296664,1,0,0:0:0:20:LR2_DSnare.wav
192,192,296836,128,0,297009:0:0:0:0:
448,192,297009,1,0,0:0:0:0:
64,192,297009,1,0,0:0:0:35:LR2_KickBassD2.wav
320,192,297009,128,0,297354:0:0:0:0:
192,192,297182,1,0,0:0:0:0:
448,192,297268,1,0,0:0:0:0:
448,192,297354,1,0,0:0:0:20:LR2_DSnare.wav
64,192,297354,1,0,0:0:0:20:LR2_DSnare.wav
192,192,297354,128,0,297527:0:0:0:0:
320,192,297527,128,0,297700:0:0:0:0:
64,192,297527,1,0,0:0:0:0:
64,192,297613,1,0,0:0:0:0:
192,192,297700,128,0,297872:0:0:0:0:
448,192,297700,1,0,0:0:0:0:
448,192,297786,1,0,0:0:0:0:
320,192,297872,128,0,298045:0:0:0:0:
64,192,297872,1,0,0:0:0:35:LR2_KickBassD2.wav
192,192,298045,128,0,298218:0:0:0:0:
448,192,298045,1,0,0:0:0:20:LR2_DSnare.wav
64,192,298045,1,0,0:0:0:20:LR2_DSnare.wav
448,192,298218,1,0,0:0:0:0:
320,192,298218,128,0,298390:0:0:0:0:
64,192,298304,1,0,0:0:0:0:
192,192,298390,1,0,0:0:0:0:
64,192,298390,1,4,0:0:0:35:LR2_KickBassD2.wav
448,192,298390,1,0,0:0:0:35:LR2_DSnare.wav
192,192,298563,1,0,0:0:0:0:
320,192,298649,1,0,0:0:0:0:
64,192,298736,1,0,0:0:0:20:LR2_DSnare.wav
192,192,298736,1,0,0:0:0:0:
448,192,298736,1,0,0:0:0:20:LR2_DSnare.wav
320,192,298908,1,0,0:0:0:0:
448,192,298995,1,0,0:0:0:0:
192,192,299081,1,0,0:0:0:0:
320,192,299167,128,0,299426:0:0:0:0:
64,192,299254,1,0,0:0:0:35:LR2_KickBassD2.wav
64,192,299426,128,0,299772:0:0:0:0:
448,192,299426,1,0,0:0:0:20:LR2_DSnare.wav
192,192,299426,1,0,0:0:0:20:LR2_DSnare.wav
192,192,299599,1,0,0:0:0:0:
320,192,299685,1,0,0:0:0:0:
192,192,299772,128,0,300117:0:0:0:0:
448,192,299772,1,0,0:0:0:35:LR2_KickBassD2.wav
320,192,299944,1,0,0:0:0:0:
448,192,300031,1,0,0:0:0:0:
320,192,300117,1,0,0:0:0:20:LR2_DSnare.wav
64,192,300117,1,0,0:0:0:20:LR2_DSnare.wav
448,192,300290,128,0,300549:0:0:0:0:
192,192,300290,1,0,0:0:0:0:
320,192,300376,1,0,0:0:0:0:
64,192,300462,1,0,0:0:0:0:
192,192,300549,1,0,0:0:0:0:
320,192,300635,1,0,0:0:0:0:
64,192,300635,1,0,0:0:0:35:LR2_KickBassD2.wav
64,192,300808,128,0,301153:0:0:0:0:
448,192,300808,1,0,0:0:0:20:LR2_DSnare.wav
320,192,300808,1,0,0:0:0:20:LR2_DSnare.wav
192,192,300980,1,0,0:0:0:0:
320,192,301067,1,0,0:0:0:0:
448,192,301153,128,0,301498:0:0:0:0:
192,192,301153,1,0,0:0:0:35:LR2_KickBassD2.wav
320,192,301326,1,0,0:0:0:0:
192,192,301412,1,0,0:0:0:0:
320,192,301498,128,0,301671:0:0:0:0:
64,192,301498,1,0,0:0:0:20:LR2_DSnare.wav
192,192,301498,1,0,0:0:0:20:LR2_DSnare.wav
448,192,301671,1,0,0:0:0:0:
192,192,301671,128,0,301844:0:0:0:0:
64,192,301757,1,0,0:0:0:0:
448,192,301844,1,0,0:0:0:0:
320,192,301844,128,0,302016:0:0:0:0:
64,192,301930,1,0,0:0:0:0:
448,192,302016,1,0,0:0:0:35:LR2_KickBassD2.wav
192,192,302016,128,0,302362:0:0:0:0:
320,192,302189,1,0,0:0:0:20:LR2_DSnare.wav
64,192,302189,1,0,0:0:0:20:LR2_DSnare.wav
64,192,302362,1,0,0:0:0:0:
320,192,302362,128,0,302535:0:0:0:0:
448,192,302448,1,0,0:0:0:0:
64,192,302535,1,0,0:0:0:35:LR2_KickBassD2.wav
192,192,302535,128,0,302880:0:0:0:0:
320,192,302707,1,0,0:0:0:0:
64,192,302794,1,0,0:0:0:0:
448,192,302880,1,0,0:0:0:20:LR2_DSnare.wav
64,192,302880,1,0,0:0:0:20:LR2_DSnare.wav
320,192,302880,128,0,303053:0:0:0:0:
448,192,303053,1,0,0:0:0:0:
192,192,303053,128,0,303225:0:0:0:0:
64,192,303139,1,0,0:0:0:0:
320,192,303225,1,0,0:0:0:0:
448,192,303225,128,0,303571:0:0:0:0:
64,192,303312,1,0,0:0:0:0:
192,192,303398,1,0,0:0:0:35:LR2_KickBassD2.wav
320,192,303571,1,0,0:0:0:20:LR2_DSnare.wav
64,192,303571,1,0,0:0:0:20:LR2_DSnare.wav
192,192,303743,1,0,0:0:0:20:LR2_KickBassD2.wav
320,192,303830,1,0,0:0:0:20:LR2_KickBassD2.wav
192,192,303916,1,0,0:0:0:0:
448,192,303916,1,0,0:0:0:35:LR2_KickBassD2.wav
64,192,304089,1,0,0:0:0:0:
320,192,304175,1,0,0:0:0:0:
64,192,304261,1,0,0:0:0:20:LR2_DSnare.wav
192,192,304261,1,0,0:0:0:0:
448,192,304261,1,0,0:0:0:20:LR2_DSnare.wav
320,192,304434,1,0,0:0:0:0:
64,192,304520,1,0,0:0:0:0:
448,192,304607,1,0,0:0:0:0:
320,192,304693,128,0,304952:0:0:0:0:
192,192,304693,1,0,0:0:0:0:
64,192,304779,1,0,0:0:0:35:LR2_KickBassD2.wav
64,192,304952,128,0,305297:0:0:0:0:
192,192,304952,1,0,0:0:0:20:LR2_DSnare.wav
448,192,304952,1,0,0:0:0:20:LR2_DSnare.wav
192,192,305125,1,0,0:0:0:0:
320,192,305211,1,0,0:0:0:0:
192,192,305297,128,0,305643:0:0:0:0:
448,192,305297,1,0,0:0:0:35:LR2_KickBassD2.wav
320,192,305470,1,0,0:0:0:0:
448,192,305556,1,0,0:0:0:0:
320,192,305643,1,0,0:0:0:20:LR2_DSnare.wav
64,192,305643,1,0,0:0:0:20:LR2_DSnare.wav
448,192,305815,128,0,306074:0:0:0:0:
64,192,305815,1,0,0:0:0:0:
192,192,305902,1,0,0:0:0:0:
320,192,305988,1,0,0:0:0:0:
192,192,306074,1,0,0:0:0:0:
320,192,306161,1,0,0:0:0:35:LR2_KickBassD2.wav
64,192,306161,1,0,0:0:0:0:
448,192,306333,1,0,0:0:0:20:LR2_DSnare.wav
192,192,306333,128,0,306679:0:0:0:0:
64,192,306333,1,0,0:0:0:20:LR2_DSnare.wav
320,192,306506,1,0,0:0:0:0:
64,192,306592,1,0,0:0:0:0:
320,192,306679,128,0,307024:0:0:0:0:
448,192,306679,1,0,0:0:0:35:LR2_KickBassD2.wav
64,192,306851,1,0,0:0:0:0:
192,192,306938,1,0,0:0:0:0:
192,192,307024,1,0,0:0:0:20:LR2_DSnare.wav
64,192,307024,128,0,307197:0:0:0:0:
448,192,307024,1,0,0:0:0:20:LR2_DSnare.wav
320,192,307197,1,0,0:0:0:0:
192,192,307197,128,0,307369:0:0:0:0:
448,192,307283,1,0,0:0:0:0:
320,192,307369,128,0,307542:0:0:0:0:
64,192,307369,1,0,0:0:0:0:
448,192,307456,1,0,0:0:0:0:
64,192,307542,1,0,0:0:0:35:LR2_KickBassD2.wav
192,192,307542,128,0,307887:0:0:0:0:
320,192,307715,1,0,0:0:0:20:LR2_DSnare.wav
448,192,307715,1,0,0:0:0:20:LR2_DSnare.wav
320,192,307887,128,0,308060:0:0:0:0:
192,192,308060,128,0,308405:0:0:0:0:
448,192,308060,1,0,0:0:0:35:LR2_KickBassD2.wav
64,192,308060,1,0,0:0:0:0:
320,192,308233,1,0,0:0:0:0:
64,192,308319,1,0,0:0:0:0:
320,192,308405,128,0,308578:0:0:0:0:
448,192,308405,1,0,0:0:0:20:LR2_DSnare.wav
64,192,308405,1,0,0:0:0:20:LR2_DSnare.wav
448,192,308578,1,0,0:0:0:0:
192,192,308578,128,0,308751:0:0:0:0:
448,192,308664,1,0,0:0:0:0:
64,192,308751,1,0,0:0:0:0:
320,192,308751,128,0,308923:0:0:0:0:
64,192,308837,1,0,0:0:0:0:
448,192,308923,1,0,0:0:0:35:LR2_KickBassD2.wav
192,192,308923,128,0,309096:0:0:0:0:
448,192,309096,1,0,0:0:0:20:LR2_DSnare.wav
64,192,309096,1,0,0:0:0:20:LR2_DSnare.wav
320,192,309096,128,0,309269:0:0:0:0:
192,192,309269,128,0,309441:0:0:0:0:
64,192,309269,1,0,0:0:0:0:
448,192,309355,1,0,0:0:0:0:
64,192,309441,1,0,0:0:0:35:LR2_DSnare.wav
448,192,309441,1,4,0:0:0:35:LR2_KickBassD2.wav
320,192,309441,1,0,0:0:0:0:
320,192,309614,1,0,0:0:0:0:
192,192,309700,1,0,0:0:0:0:
448,192,309787,1,0,0:0:0:20:LR2_DSnare.wav
320,192,309787,1,0,0:0:0:0:
64,192,309787,1,0,0:0:0:20:LR2_DSnare.wav
192,192,309959,1,0,0:0:0:0:
64,192,310046,1,0,0:0:0:0:
448,192,310132,1,0,0:0:0:0:
320,192,310218,128,0,310477:0:0:0:0:
64,192,310305,1,0,0:0:0:35:LR2_KickBassD2.wav
192,192,310477,1,0,0:0:0:20:LR2_DSnare.wav
448,192,310477,1,0,0:0:0:20:LR2_DSnare.wav
64,192,310477,128,0,310823:0:0:0:0:
320,192,310650,1,0,0:0:0:0:
448,192,310736,1,0,0:0:0:0:
320,192,310823,1,0,0:0:0:35:LR2_KickBassD2.wav
192,192,310823,128,0,311168:0:0:0:0:
448,192,310995,1,0,0:0:0:0:
320,192,311082,1,0,0:0:0:0:
64,192,311168,1,0,0:0:0:20:LR2_DSnare.wav
448,192,311168,1,0,0:0:0:20:LR2_DSnare.wav
192,192,311341,1,0,0:0:0:0:
320,192,311341,128,0,311600:0:0:0:0:
448,192,311427,1,0,0:0:0:0:
64,192,311513,1,0,0:0:0:0:
192,192,311600,1,0,0:0:0:0:
64,192,311686,1,0,0:0:0:35:LR2_KickBassD2.wav
448,192,311686,1,0,0:0:0:0:
320,192,311859,1,0,0:0:0:20:LR2_DSnare.wav
192,192,311859,1,0,0:0:0:20:LR2_DSnare.wav
64,192,311859,128,0,312204:0:0:0:0:
448,192,312031,1,0,0:0:0:0:
192,192,312118,1,0,0:0:0:0:
320,192,312204,1,0,0:0:0:35:LR2_KickBassD2.wav
448,192,312204,128,0,312549:0:0:0:0:
320,192,312377,1,0,0:0:0:0:
192,192,312463,1,0,0:0:0:0:
192,192,312549,1,0,0:0:0:20:LR2_DSnare.wav
64,192,312549,1,0,0:0:0:20:LR2_DSnare.wav
320,192,312549,128,0,312722:0:0:0:0:
192,192,312722,128,0,312895:0:0:0:0:
448,192,312722,1,0,0:0:0:0:
64,192,312808,1,0,0:0:0:0:
320,192,312895,128,0,313067:0:0:0:0:
448,192,312895,1,0,0:0:0:0:
64,192,312981,1,0,0:0:0:0:
192,192,313067,128,0,313413:0:0:0:0:
448,192,313067,1,0,0:0:0:35:LR2_KickBassD2.wav
64,192,313240,1,0,0:0:0:20:LR2_DSnare.wav
320,192,313240,1,0,0:0:0:20:LR2_DSnare.wav
320,192,313413,128,0,313586:0:0:0:0:
64,192,313413,1,0,0:0:0:0:
448,192,313499,1,0,0:0:0:0:
192,192,313586,128,0,313931:0:0:0:0:
64,192,313586,1,0,0:0:0:35:LR2_KickBassD2.wav
320,192,313758,1,0,0:0:0:0:
64,192,313845,1,0,0:0:0:0:
320,192,313931,128,0,314104:0:0:0:0:
64,192,313931,1,0,0:0:0:20:LR2_DSnare.wav
448,192,313931,1,0,0:0:0:20:LR2_DSnare.wav
192,192,314104,128,0,314276:0:0:0:0:
448,192,314104,1,0,0:0:0:0:
64,192,314190,1,0,0:0:0:0:
448,192,314276,128,0,314622:0:0:0:0:
320,192,314276,1,0,0:0:0:0:
64,192,314363,1,0,0:0:0:0:
192,192,314449,1,0,0:0:0:35:LR2_KickBassD2.wav
64,192,314622,1,0,0:0:0:20:LR2_DSnare.wav
320,192,314622,1,0,0:0:0:20:LR2_DSnare.wav
192,192,314794,1,0,0:0:0:20:LR2_KickBassD2.wav
320,192,314881,1,0,0:0:0:20:LR2_KickBassD2.wav
448,192,314967,1,0,0:0:0:35:LR2_KickBassD2.wav
64,192,314967,1,0,0:0:0:0:
192,192,315140,1,0,0:0:0:0:
320,192,315226,1,0,0:0:0:0:
448,192,315312,1,0,0:0:0:20:LR2_DSnare.wav
192,192,315312,1,0,0:0:0:0:
64,192,315312,1,0,0:0:0:20:LR2_DSnare.wav
320,192,315485,1,0,0:0:0:0:
64,192,315571,1,0,0:0:0:0:
448,192,315658,1,0,0:0:0:0:
192,192,315744,1,0,0:0:0:0:
320,192,315744,128,0,316003:0:0:0:0:
64,192,315830,1,0,0:0:0:35:LR2_KickBassD2.wav
448,192,316003,1,0,0:0:0:20:LR2_DSnare.wav
192,192,316003,1,0,0:0:0:20:LR2_DSnare.wav
64,192,316003,128,0,316348:0:0:0:0:
192,192,316176,1,0,0:0:0:0:
320,192,316262,1,0,0:0:0:0:
448,192,316348,1,0,0:0:0:35:LR2_KickBassD2.wav
192,192,316348,128,0,316694:0:0:0:0:
320,192,316521,1,0,0:0:0:0:
448,192,316607,1,0,0:0:0:0:
64,192,316694,1,0,0:0:0:20:LR2_DSnare.wav
320,192,316694,1,0,0:0:0:20:LR2_DSnare.wav
64,192,316866,1,0,0:0:0:0:
448,192,316866,128,0,317125:0:0:0:0:
192,192,316953,1,0,0:0:0:0:
320,192,317039,1,0,0:0:0:0:
192,192,317125,1,0,0:0:0:0:
64,192,317212,1,0,0:0:0:0:
320,192,317212,1,0,0:0:0:35:LR2_KickBassD2.wav
64,192,317384,1,0,0:0:0:20:LR2_DSnare.wav
192,192,317384,128,0,317730:0:0:0:0:
448,192,317384,1,0,0:0:0:20:LR2_DSnare.wav
320,192,317557,1,0,0:0:0:0:
64,192,317643,1,0,0:0:0:0:
448,192,317730,1,0,0:0:0:35:LR2_KickBassD2.wav
320,192,317730,128,0,318075:0:0:0:0:
64,192,317902,1,0,0:0:0:0:
192,192,317989,1,0,0:0:0:0:
64,192,318075,1,0,0:0:0:20:LR2_DSnare.wav
448,192,318075,128,0,318248:0:0:0:0:
192,192,318075,1,0,0:0:0:20:LR2_DSnare.wav
320,192,318248,128,0,318420:0:0:0:0:
192,192,318248,1,0,0:0:0:0:
64,192,318334,1,0,0:0:0:0:
448,192,318420,1,0,0:0:0:0:
192,192,318420,128,0,318593:0:0:0:0:
64,192,318507,1,0,0:0:0:0:
320,192,318593,128,0,318938:0:0:0:0:
448,192,318593,1,0,0:0:0:35:LR2_KickBassD2.wav
64,192,318766,1,0,0:0:0:20:LR2_DSnare.wav
192,192,318766,1,0,0:0:0:20:LR2_DSnare.wav
192,192,318938,128,0,319111:0:0:0:0:
448,192,319111,1,0,0:0:0:0:
64,192,319111,1,0,0:0:0:35:LR2_KickBassD2.wav
320,192,319111,128,0,319456:0:0:0:0:
192,192,319284,1,0,0:0:0:0:
448,192,319370,1,0,0:0:0:0:
448,192,319456,1,0,0:0:0:20:LR2_DSnare.wav
64,192,319456,1,0,0:0:0:20:LR2_DSnare.wav
192,192,319456,128,0,319629:0:0:0:0:
320,192,319629,128,0,319802:0:0:0:0:
64,192,319629,1,0,0:0:0:0:
64,192,319715,1,0,0:0:0:0:
192,192,319802,128,0,319974:0:0:0:0:
448,192,319802,1,0,0:0:0:0:
448,192,319888,1,0,0:0:0:0:
320,192,319974,128,0,320147:0:0:0:0:
64,192,319974,1,0,0:0:0:35:LR2_KickBassD2.wav
192,192,320147,128,0,320320:0:0:0:0:
448,192,320147,1,0,0:0:0:20:LR2_DSnare.wav
64,192,320147,1,0,0:0:0:20:LR2_DSnare.wav
448,192,320320,1,0,0:0:0:0:
320,192,320320,128,0,320492:0:0:0:0:
64,192,320406,1,0,0:0:0:0:
192,192,320492,1,0,0:0:0:0:
64,192,320492,1,4,0:0:0:35:LR2_KickBassD2.wav
448,192,320492,1,0,0:0:0:35:LR2_DSnare.wav
192,192,321010,1,0,0:0:0:0:
320,192,321010,1,0,0:0:0:0:
448,192,321874,1,0,0:0:0:0:
192,192,321874,1,0,0:0:0:0:
192,192,322392,1,0,0:0:0:0:
448,192,322392,1,0,0:0:0:0:
320,192,322478,1,0,0:0:0:0:
64,192,322478,1,0,0:0:0:0:
192,192,322564,1,0,0:0:0:0:
448,192,322564,1,0,0:0:0:0:
320,192,322737,1,0,0:0:0:0:
64,192,322737,1,0,0:0:0:0:
192,192,322823,1,0,0:0:0:0:
448,192,322823,1,0,0:0:0:0:
320,192,322910,1,0,0:0:0:0:
64,192,322910,1,0,0:0:0:0:
64,192,323255,1,0,0:0:0:0:
448,192,323255,1,0,0:0:0:0:
448,192,323600,1,0,0:0:0:0:
64,192,323600,1,0,0:0:0:0:
64,192,323946,1,0,0:0:0:0:
448,192,323946,1,0,0:0:0:0:
64,192,324291,1,0,0:0:0:0:
448,192,324291,1,0,0:0:0:0:
192,192,324636,1,0,0:0:0:0:
448,192,324636,1,0,0:0:0:0:
192,192,325155,1,0,0:0:0:0:
448,192,325155,1,0,0:0:0:0:
64,192,325241,1,0,0:0:0:0:
320,192,325241,1,0,0:0:0:0:
192,192,325327,1,0,0:0:0:0:
448,192,325327,1,0,0:0:0:0:
64,192,325500,1,0,0:0:0:0:
320,192,325500,1,0,0:0:0:0:
192,192,325586,1,0,0:0:0:0:
448,192,325586,1,0,0:0:0:0:
64,192,325673,1,0,0:0:0:0:
320,192,325673,1,0,0:0:0:0:
192,192,325845,1,0,0:0:0:0:
64,192,325845,1,0,0:0:0:0:
192,192,325932,1,0,0:0:0:0:
320,192,325932,1,0,0:0:0:0:
320,192,326018,1,0,0:0:0:0:
448,192,326018,1,0,0:0:0:0:
320,192,326536,1,0,0:0:0:0:
448,192,326536,1,0,0:0:0:0:
192,192,327399,1,0,0:0:0:0:
320,192,327399,1,0,0:0:0:0:
64,192,327917,1,0,0:0:0:0:
192,192,327917,1,0,0:0:0:0:
320,192,328004,1,0,0:0:0:0:
448,192,328004,1,0,0:0:0:0:
64,192,328090,1,0,0:0:0:0:
192,192,328090,1,0,0:0:0:0:
320,192,328263,1,0,0:0:0:0:
448,192,328263,1,0,0:0:0:0:
64,192,328349,1,0,0:0:0:0:
192,192,328349,1,0,0:0:0:0:
320,192,328435,1,0,0:0:0:0:
448,192,328435,1,0,0:0:0:0:
64,192,328781,1,0,0:0:0:0:
448,192,328781,1,0,0:0:0:0:
64,192,329126,1,0,0:0:0:0:
448,192,329126,1,0,0:0:0:0:
64,192,329471,1,0,0:0:0:0:
448,192,329471,1,0,0:0:0:0:
64,192,329817,1,0,0:0:0:0:
448,192,329817,1,0,0:0:0:0:
64,192,330162,1,0,0:0:0:0:
192,192,330162,1,0,0:0:0:0:
448,192,330680,1,0,0:0:0:0:
320,192,330680,1,0,0:0:0:0:
192,192,330766,1,0,0:0:0:0:
64,192,330766,1,0,0:0:0:0:
448,192,330853,1,0,0:0:0:0:
320,192,330853,1,0,0:0:0:0:
192,192,331025,1,0,0:0:0:0:
64,192,331025,1,0,0:0:0:0:
448,192,331112,1,0,0:0:0:0:
320,192,331112,1,0,0:0:0:0:
192,192,331198,1,0,0:0:0:0:
64,192,331198,1,0,0:0:0:0:
448,192,331371,1,0,0:0:0:0:
320,192,331371,1,0,0:0:0:0:
320,192,331457,1,0,0:0:0:0:
192,192,331457,1,0,0:0:0:0:
64,192,331543,1,0,0:0:0:0:
192,192,331543,1,0,0:0:0:0:
448,192,331543,1,4,0:0:0:0:
320,192,332061,1,0,0:0:0:0:
192,192,332925,1,0,0:0:0:0:
192,192,333443,1,0,0:0:0:0:
448,192,333529,1,0,0:0:0:0:
64,192,333615,1,0,0:0:0:0:
192,192,333788,1,0,0:0:0:0:
448,192,333874,1,0,0:0:0:0:
64,192,333961,1,0,0:0:0:0:
320,192,334306,1,0,0:0:0:0:
320,192,334824,1,0,0:0:0:0:
192,192,335687,1,0,0:0:0:0:
192,192,336206,1,0,0:0:0:0:
64,192,336292,1,0,0:0:0:0:
448,192,336378,1,0,0:0:0:0:
192,192,336551,1,0,0:0:0:0:
320,192,336637,1,0,0:0:0:0:
64,192,336724,1,0,0:0:0:0:
320,192,337069,1,0,0:0:0:0:
320,192,337587,1,0,0:0:0:0:
192,192,338450,1,0,0:0:0:0:
192,192,338968,1,0,0:0:0:0:
320,192,339055,1,0,0:0:0:0:
448,192,339141,1,0,0:0:0:0:
192,192,339314,1,0,0:0:0:0:
320,192,339400,1,0,0:0:0:0:
448,192,339486,1,0,0:0:0:0:
64,192,339832,1,0,0:0:0:0:
64,192,340350,1,0,0:0:0:0:
448,192,341213,1,0,0:0:0:0:
448,192,341731,1,0,0:0:0:0:
320,192,341817,1,0,0:0:0:0:
64,192,341904,1,0,0:0:0:0:
448,192,342076,1,0,0:0:0:0:
192,192,342163,1,0,0:0:0:0:
64,192,342249,1,0,0:0:0:0:
64,192,342594,1,0,0:0:0:0:
320,192,342594,1,0,0:0:0:0:
64,192,343112,1,0,0:0:0:0:
448,192,343976,1,0,0:0:0:0:
448,192,344494,1,0,0:0:0:0:
192,192,344580,1,0,0:0:0:0:
64,192,344666,1,0,0:0:0:0:
448,192,344839,1,0,0:0:0:0:
320,192,344925,1,0,0:0:0:0:
64,192,345012,1,0,0:0:0:0:
192,192,345357,1,0,0:0:0:0:
192,192,345875,1,0,0:0:0:0:
448,192,346738,1,0,0:0:0:0:
448,192,347257,1,0,0:0:0:0:
320,192,347343,1,0,0:0:0:0:
192,192,347429,1,0,0:0:0:0:
448,192,347602,1,0,0:0:0:0:
320,192,347688,1,0,0:0:0:0:
192,192,347775,1,0,0:0:0:0:
320,192,348120,1,0,0:0:0:0:
320,192,348638,1,0,0:0:0:0:
64,192,349501,1,0,0:0:0:0:
64,192,350019,1,0,0:0:0:0:
320,192,353645,1,4,0:0:0:0:
64,192,353645,1,0,0:0:0:0:
64,192,353991,1,0,0:0:0:0:
448,192,354163,1,0,0:0:0:0:
320,192,354509,1,0,0:0:0:0:
192,192,354681,1,0,0:0:0:0:
192,192,355027,1,0,0:0:0:0:
64,192,356063,1,0,0:0:0:0:
192,192,356235,1,0,0:0:0:0:
448,192,356408,1,0,0:0:0:0:
320,192,356753,1,0,0:0:0:0:
192,192,356926,1,0,0:0:0:0:
64,192,357271,1,0,0:0:0:0:
448,192,357444,1,0,0:0:0:0:
448,192,357789,1,0,0:0:0:0:
448,192,359171,1,0,0:0:0:0:
448,192,359516,1,0,0:0:0:0:
64,192,359689,1,0,0:0:0:0:
192,192,360034,1,0,0:0:0:0:
320,192,360207,1,0,0:0:0:0:
320,192,360552,1,0,0:0:0:0:
448,192,361588,1,0,0:0:0:0:
320,192,361761,1,0,0:0:0:0:
64,192,361934,1,0,0:0:0:0:
192,192,362279,1,0,0:0:0:0:
320,192,362452,1,0,0:0:0:0:
448,192,362797,1,0,0:0:0:0:
64,192,362970,1,0,0:0:0:0:
64,192,363315,1,0,0:0:0:0:
192,192,364696,1,0,0:0:0:0:
320,192,364696,1,0,0:0:0:0:
320,192,365042,1,0,0:0:0:0:
64,192,365214,1,0,0:0:0:0:
192,192,365560,1,0,0:0:0:0:
448,192,365732,1,0,0:0:0:0:
448,192,366078,1,0,0:0:0:0:
64,192,367114,1,0,0:0:0:0:
320,192,367286,1,0,0:0:0:0:
448,192,367459,1,0,0:0:0:0:
448,192,367804,1,0,0:0:0:0:
192,192,367977,1,0,0:0:0:0:
64,192,368322,1,0,0:0:0:0:
320,192,368495,1,0,0:0:0:0:
320,192,368840,1,0,0:0:0:0:
192,192,370222,1,0,0:0:0:0:
192,192,370567,1,0,0:0:0:0:
448,192,370740,1,0,0:0:0:0:
320,192,371085,1,0,0:0:0:0:
64,192,371258,1,0,0:0:0:0:
64,192,371603,1,0,0:0:0:0:
64,192,372639,1,0,0:0:0:0:
320,192,372812,1,0,0:0:0:0:
448,192,372985,1,0,0:0:0:0:
320,192,373330,1,0,0:0:0:0:
64,192,373503,1,0,0:0:0:0:
192,192,373848,1,0,0:0:0:0:
448,192,374021,1,0,0:0:0:0:
448,192,374366,1,0,0:0:0:0:
320,192,375747,1,4,0:0:0:0:
64,192,375747,1,0,0:0:0:0:
64,192,376093,1,0,0:0:0:0:
448,192,376265,1,0,0:0:0:0:
320,192,376611,1,0,0:0:0:0:
192,192,376783,1,0,0:0:0:0:
192,192,377129,1,0,0:0:0:0:
64,192,378165,1,0,0:0:0:0:
192,192,378337,1,0,0:0:0:0:
448,192,378510,1,0,0:0:0:0:
320,192,378855,1,0,0:0:0:0:
192,192,379028,1,0,0:0:0:0:
64,192,379373,1,0,0:0:0:0:
448,192,379546,1,0,0:0:0:0:
448,192,379891,1,0,0:0:0:0:
448,192,381273,1,0,0:0:0:0:
448,192,381618,1,0,0:0:0:0:
64,192,381791,1,0,0:0:0:0:
192,192,382136,1,0,0:0:0:0:
320,192,382309,1,0,0:0:0:0:
320,192,382654,1,0,0:0:0:0:
448,192,383690,1,0,0:0:0:0:
320,192,383863,1,0,0:0:0:0:
64,192,384036,1,0,0:0:0:0:
192,192,384381,1,0,0:0:0:0:
320,192,384554,1,0,0:0:0:0:
448,192,384899,1,0,0:0:0:0:
64,192,385072,1,0,0:0:0:0:
64,192,385417,1,0,0:0:0:0:
192,192,386798,1,0,0:0:0:0:
320,192,386798,1,0,0:0:0:0:
320,192,387144,1,0,0:0:0:0:
64,192,387316,1,0,0:0:0:0:
192,192,387662,1,0,0:0:0:0:
448,192,387834,1,0,0:0:0:0:
448,192,388180,1,0,0:0:0:0:
64,192,389216,1,0,0:0:0:0:
320,192,389388,1,0,0:0:0:0:
448,192,389561,1,0,0:0:0:0:
448,192,389906,1,0,0:0:0:0:
192,192,390079,1,0,0:0:0:0:
64,192,390424,1,0,0:0:0:0:
320,192,390597,1,0,0:0:0:0:
320,192,390942,1,0,0:0:0:0:
192,192,392324,1,0,0:0:0:0:
192,192,392669,1,0,0:0:0:0:
448,192,392842,1,0,0:0:0:0:
320,192,393187,1,0,0:0:0:0:
64,192,393360,1,0,0:0:0:0:
64,192,393705,1,0,0:0:0:0:
64,192,394741,1,0,0:0:0:0:
320,192,394914,1,0,0:0:0:0:
448,192,395087,1,0,0:0:0:0:
320,192,395432,1,0,0:0:0:0:
64,192,395605,1,0,0:0:0:0:
192,192,395950,1,0,0:0:0:0:
448,192,396123,1,0,0:0:0:0:
320,192,396468,1,0,0:0:0:0:
64,192,396468,1,0,0:0:0:35:LR2_KickBassD2.wav
192,192,396727,1,0,0:0:0:35:LR2_KickBassD2.wav
448,192,396813,1,0,0:0:0:20:LR2_DSnare.wav
320,192,396813,1,0,0:0:0:20:LR2_DSnare.wav
192,192,396986,1,0,0:0:0:35:LR2_KickBassD2.wav
192,192,397331,1,0,0:0:0:35:LR2_KickBassD2.wav
64,192,397504,1,0,0:0:0:20:LR2_DSnare.wav
320,192,397504,1,0,0:0:0:20:LR2_DSnare.wav
192,192,397763,1,0,0:0:0:0:
320,192,397849,1,0,0:0:0:35:LR2_DSnare.wav
64,192,397849,1,0,0:0:0:0:
448,192,397849,1,4,0:0:0:35:LR2_KickBassD2.wav
