osu file format v14

[General]
AudioFilename: audio.mp3
AudioLeadIn: 0
PreviewTime: 132501
Countdown: 0
SampleSet: Soft
StackLeniency: 0.3
Mode: 0
LetterboxInBreaks: 0
WidescreenStoryboard: 0

[Editor]
Bookmarks: 22242,105087,105432,105777,106122,106725,106811,107415,265001
DistanceSpacing: 0.8
BeatDivisor: 8
GridSize: 4
TimelineZoom: 1.7

[Metadata]
Title:Acid Trip
TitleUnicode:Acid Trip
Artist:B-Complex
ArtistUnicode:B-Complex
Creator:Zetera
Version:Sepsis
Source:
Tags:electronic drum and bass dnb instrumental stepsis sala-
BeatmapID:2774775
BeatmapSetID:1339332

[Difficulty]
HPDrainRate:5
CircleSize:4.6
OverallDifficulty:9
ApproachRate:9.3
SliderMultiplier:1.4
SliderTickRate:1

[Events]
//Background and Video events
0,0,"BG_TRIP.jpg",0,0
//Break Periods
2,222614,231343
2,233648,242378
2,248649,252033
//Storyboard Layer 0 (Background)
//Storyboard Layer 1 (Fail)
//Storyboard Layer 2 (Pass)
//Storyboard Layer 3 (Foreground)
//Storyboard Layer 4 (Overlay)
//Storyboard Sound Samples

[TimingPoints]
173.813953488372,344.827586206897,4,2,1,50,1,0
11208,-100,4,2,0,50,0,0
11294,-100,4,2,1,50,0,0
20863,-100,4,2,1,55,0,0
21208,-100,4,2,1,60,0,0
21553,-100,4,2,1,65,0,0
21897,-100,4,2,1,70,0,0
22242,-100,4,2,0,75,0,0
22415,-100,4,2,1,50,0,0
33277,-100,4,2,0,50,0,0
33449,-100,4,2,1,50,0,0
44311,-100,4,2,1,70,0,0
66380,-50,4,2,1,70,0,0
77415,-333.333333333333,4,2,1,30,0,0
80173,-200,4,2,1,40,0,0
82846,-200,4,2,1,5,0,0
82932,-142.857142857143,4,2,1,50,0,0
85748,-111.111111111111,4,2,1,60,0,0
88334,-111.111111111111,4,2,1,5,0,0
88449,-100,4,2,1,70,0,0
105346,-100,4,2,1,5,0,0
105432,-100,4,2,1,70,0,0
105604,-100,4,2,1,5,0,0
105691,-100,4,2,1,70,0,0
106035,-100,4,2,1,5,0,0
106122,-142.857142857143,4,2,1,70,0,0
106294,-142.857142857143,4,2,1,5,0,0
106639,-100,4,2,1,5,0,0
106725,-142.857142857143,4,2,1,70,0,0
106897,-142.857142857143,4,2,1,5,0,0
107328,-100,4,2,1,5,0,0
107415,-250,4,2,1,70,0,0
107587,-250,4,2,1,5,0,0
109139,-250,4,2,1,5,0,0
110518,-83.3333333333333,4,2,1,70,0,0
132587,-33.3333333333333,4,2,1,80,0,0
133104,-55.5555555555556,4,2,1,80,0,0
135346,-50,4,2,1,80,0,0
135518,-50,4,2,1,80,0,0
135863,-55.5555555555556,4,2,1,80,0,0
136897,-55.5555555555556,4,2,1,80,0,0
138104,-33.3333333333333,4,2,1,80,0,0
138449,-55.5555555555556,4,2,1,80,0,0
140863,-34.4827586206897,4,2,1,80,0,0
141380,-100,4,2,1,80,0,0
143622,-57.1428571428571,4,2,1,80,0,0
146553,-40,4,2,1,80,0,0
146897,-66.6666666666667,4,2,1,80,0,0
147760,-57.1428571428571,4,2,1,80,0,0
149139,-50,4,2,1,80,0,0
151897,-37.037037037037,4,2,1,80,0,0
152760,-66.6666666666667,4,2,1,80,0,0
154656,-50,4,2,1,80,0,0
156035,-66.6666666666667,4,2,1,80,0,0
157587,-50,4,2,1,80,0,0
157932,-66.6666666666667,4,2,1,80,0,0
160173,-57.1428571428571,4,2,1,80,0,0
162932,-50,4,2,1,80,0,0
163449,-80,4,2,1,80,0,0
165691,-50,4,2,1,80,0,0
166725,-62.5,4,2,1,80,0,0
167070,-57.1428571428571,4,2,1,80,0,0
168622,-50,4,2,1,80,0,0
169139,-66.6666666666667,4,2,1,80,0,0
171208,-50,4,2,1,80,0,0
173966,-50,4,2,2,80,0,0
176725,-100,4,2,1,80,0,1
216639,-100,4,2,1,75,0,1
216725,-100,4,2,1,70,0,1
216984,-100,4,2,1,65,0,1
217070,-100,4,2,1,60,0,1
217242,-100,4,2,1,50,0,1
217587,-100,4,2,1,45,0,1
217760,-100,4,2,1,40,0,1
218018,-100,4,2,1,5,0,1
218104,-83.3333333333333,4,2,1,60,0,0
219484,-83.3333333333333,4,2,1,55,0,0
219656,-83.3333333333333,4,2,1,50,0,0
219828,-83.3333333333333,4,2,1,45,0,0
220001,-83.3333333333333,4,2,1,40,0,0
220173,-83.3333333333333,4,2,1,35,0,0
220346,-83.3333333333333,4,2,1,30,0,0
220518,-83.3333333333333,4,2,1,25,0,0
220691,-83.3333333333333,4,2,1,20,0,0
220863,-111.111111111111,4,2,1,60,0,0
242932,-133.333333333333,4,2,1,80,0,0
243104,-133.333333333333,4,2,0,40,0,0
243277,-133.333333333333,4,2,1,60,0,0
243449,-133.333333333333,4,2,0,30,0,0
243794,-133.333333333333,4,2,1,20,0,0
243966,-133.333333333333,4,2,0,40,0,0
244139,-133.333333333333,4,2,1,20,0,0
244311,-133.333333333333,4,2,0,21,0,0
244397,-133.333333333333,4,2,1,22,0,0
244484,-133.333333333333,4,2,0,23,0,0
244570,-133.333333333333,4,2,1,24,0,0
244656,-133.333333333333,4,2,0,25,0,0
244742,-133.333333333333,4,2,1,26,0,0
244828,-133.333333333333,4,2,0,27,0,0
244915,-133.333333333333,4,2,1,28,0,0
245001,-133.333333333333,4,2,0,29,0,0
245087,-133.333333333333,4,2,1,30,0,0
245173,-133.333333333333,4,2,0,31,0,0
245260,-133.333333333333,4,2,1,32,0,0
245346,-133.333333333333,4,2,0,33,0,0
245432,-133.333333333333,4,2,1,34,0,0
245518,-133.333333333333,4,2,0,35,0,0
245604,-133.333333333333,4,2,1,36,0,0
245691,-133.333333333333,4,2,0,37,0,0
245777,-133.333333333333,4,2,1,38,0,0
245863,-133.333333333333,4,2,0,39,0,0
245949,-133.333333333333,4,2,1,40,0,0
246035,-133.333333333333,4,2,0,41,0,0
246122,-133.333333333333,4,2,1,42,0,0
246208,-133.333333333333,4,2,0,43,0,0
246294,-133.333333333333,4,2,1,44,0,0
246380,-133.333333333333,4,2,0,45,0,0
246466,-133.333333333333,4,2,1,46,0,0
246553,-133.333333333333,4,2,0,47,0,0
246639,-133.333333333333,4,2,1,48,0,0
246725,-133.333333333333,4,2,0,49,0,0
246811,-133.333333333333,4,2,1,50,0,0
246897,-133.333333333333,4,2,0,52,0,0
246984,-133.333333333333,4,2,1,54,0,0
247070,-133.333333333333,4,2,0,56,0,0
247156,-133.333333333333,4,2,1,58,0,0
247242,-133.333333333333,4,2,0,60,0,0
247328,-133.333333333333,4,2,1,62,0,0
247415,-133.333333333333,4,2,0,64,0,0
247501,-133.333333333333,4,2,1,66,0,0
247587,-133.333333333333,4,2,0,68,0,0
247673,-133.333333333333,4,2,1,70,0,0
247760,-133.333333333333,4,2,0,72,0,0
247846,-133.333333333333,4,2,1,74,0,0
247932,-133.333333333333,4,2,0,76,0,0
248018,-133.333333333333,4,2,1,78,0,0
248104,-133.333333333333,4,2,0,80,0,0
248191,-133.333333333333,4,2,1,82,0,0
248277,-133.333333333333,4,2,0,84,0,0
248363,-133.333333333333,4,2,1,87,0,0
248449,-133.333333333333,4,2,1,90,0,0
253880,-133.333333333333,4,2,1,5,0,0
253966,-111.111111111111,4,2,0,60,0,0
254570,-100,4,2,1,15,0,0
254828,-100,4,2,0,35,0,0
255001,-100,4,2,1,20,0,0
255346,-133.333333333333,4,2,0,21,0,0
255432,-133.333333333333,4,2,1,22,0,0
255519,-133.333333333333,4,2,0,23,0,0
255605,-133.333333333333,4,2,1,24,0,0
255691,-133.333333333333,4,2,0,25,0,0
255777,-133.333333333333,4,2,1,26,0,0
255863,-133.333333333333,4,2,0,27,0,0
255950,-133.333333333333,4,2,1,28,0,0
256036,-133.333333333333,4,2,0,29,0,0
256122,-133.333333333333,4,2,1,30,0,0
256208,-133.333333333333,4,2,0,31,0,0
256295,-133.333333333333,4,2,1,32,0,0
256381,-133.333333333333,4,2,0,33,0,0
256467,-133.333333333333,4,2,1,34,0,0
256553,-133.333333333333,4,2,0,35,0,0
256639,-133.333333333333,4,2,1,36,0,0
256726,-133.333333333333,4,2,0,37,0,0
256812,-133.333333333333,4,2,1,38,0,0
256898,-133.333333333333,4,2,0,39,0,0
256984,-133.333333333333,4,2,1,40,0,0
257070,-133.333333333333,4,2,0,41,0,0
257157,-133.333333333333,4,2,1,42,0,0
257243,-133.333333333333,4,2,0,43,0,0
257329,-133.333333333333,4,2,1,44,0,0
257415,-133.333333333333,4,2,0,45,0,0
257501,-133.333333333333,4,2,1,46,0,0
257588,-133.333333333333,4,2,0,47,0,0
257674,-133.333333333333,4,2,1,48,0,0
257760,-133.333333333333,4,2,0,49,0,0
257846,-133.333333333333,4,2,1,50,0,0
257932,-133.333333333333,4,2,0,52,0,0
258019,-133.333333333333,4,2,1,54,0,0
258105,-133.333333333333,4,2,0,56,0,0
258191,-133.333333333333,4,2,1,58,0,0
258277,-133.333333333333,4,2,0,60,0,0
258363,-133.333333333333,4,2,1,62,0,0
258450,-133.333333333333,4,2,0,64,0,0
258536,-133.333333333333,4,2,1,66,0,0
258622,-133.333333333333,4,2,0,68,0,0
258708,-133.333333333333,4,2,1,70,0,0
258795,-133.333333333333,4,2,0,72,0,0
258881,-133.333333333333,4,2,1,74,0,0
258967,-133.333333333333,4,2,0,76,0,0
259053,-133.333333333333,4,2,1,78,0,0
259139,-133.333333333333,4,2,0,80,0,0
259226,-133.333333333333,4,2,1,82,0,0
259312,-133.333333333333,4,2,0,84,0,0
259398,-133.333333333333,4,2,1,87,0,0
259484,-133.333333333333,4,2,1,90,0,0
262242,-133.333333333333,4,2,1,70,0,0
262760,-66.6666666666667,4,2,1,70,0,0
265001,-74.0740740740741,4,2,1,70,0,1
287070,-74.0740740740741,4,2,1,70,0,0
287242,-74.0740740740741,4,2,1,60,0,0
309139,-100,4,2,1,50,0,0

[Colours]
Combo1 : 0,255,64
Combo2 : 255,128,64
Combo3 : 255,0,128
Combo4 : 242,24,57
Combo5 : 0,128,192
Combo6 : 128,128,128

[HitObjects]
376,80,173,6,0,P|386:44|411:2,1,70,4|0,0:0|0:0,0:0:0:0:
295,95,518,2,0,P|269:64|232:39,1,70,2|0,0:0|0:0,0:0:0:0:
79,171,2932,6,0,P|71:135|44:93,1,70,2|0,0:0|0:0,0:0:0:0:
160,186,3277,2,0,P|186:155|223:130,1,70,2|0,0:0|0:0,0:0:0:0:
463,230,5691,6,0,P|473:194|498:152,1,70,2|0,0:0|0:0,0:0:0:0:
382,245,6036,2,0,P|356:214|319:189,1,70,2|0,0:0|0:0,0:0:0:0:
61,318,8449,6,0,P|51:282|26:240,1,70,2|0,0:0|0:0,0:0:0:0:
142,333,8794,2,0,P|168:302|205:277,1,70,2|0,0:0|0:0,0:0:0:0:
454,251,11208,5,4,0:0:0:0:
454,251,11553,2,0,L|427:112,1,140,2|0,0:0|0:0,0:0:0:0:
355,219,12070,2,0,L|327:366,1,140,2|0,0:0|0:0,0:0:0:0:
476,335,12587,1,0,0:0:0:0:
427,113,12932,6,0,P|350:73|290:88,1,140,2|0,0:0|0:0,0:0:0:0:
218,68,13449,2,0,L|201:-6,1,70
338,154,13794,1,2,0:0:0:0:
277,242,13966,5,0,0:0:0:0:
277,242,14311,2,0,L|124:263,1,140,2|0,0:0|0:0,0:0:0:0:
63,317,14829,2,0,P|48:268|-20:176,1,140,2|0,0:0|0:0,0:0:0:0:
143,363,15346,1,0,0:0:0:0:
168,167,15691,6,0,P|206:116|296:122,1,140,2|0,0:0|0:0,0:0:0:0:
408,137,16208,2,0,P|357:161|337:154,1,70
285,0,16553,1,2,0:0:0:0:
277,111,16725,5,0,0:0:0:0:
277,111,17070,2,0,L|268:260,1,140,2|0,0:0|0:0,0:0:0:0:
218,352,17587,2,0,P|164:319|172:229,1,140,2|0,0:0|0:0,0:0:0:0:
359,182,18104,1,0,0:0:0:0:
309,364,18449,6,0,L|462:340,1,140,2|0,0:0|0:0,0:0:0:0:
479,263,18966,2,0,P|483:231|495:189,1,70
350,66,19311,1,2,0:0:0:0:
413,131,19484,5,0,0:0:0:0:
413,131,19829,2,0,P|354:108|267:113,1,140,2|0,0:0|0:0,0:0:0:0:
196,166,20346,2,0,L|172:12,1,140,2|0,0:0|0:0,0:0:0:0:
326,190,20863,6,0,L|311:276,1,70
119,228,21208,2,0,L|98:137,1,70,2|0,0:0|0:0,0:0:0:0:
215,319,21553,2,0,L|206:368,2,35,0|2|0,0:0|0:0|0:0,0:0:0:0:
46,345,21897,2,0,L|26:264,1,70,2|0,0:0|0:0,0:0:0:0:
52,96,22242,5,4,0:0:0:0:
104,31,22415,1,0,0:0:0:0:
185,36,22587,1,2,0:0:0:0:
220,114,22760,1,0,0:0:0:0:
171,189,22932,1,0,0:0:0:0:
89,179,23104,1,2,0:0:0:0:
162,202,23277,1,0,0:0:0:0:
92,194,23449,1,0,0:0:0:0:
120,266,23622,5,0,0:0:0:0:
147,336,23794,1,0,0:0:0:0:
222,342,23966,1,2,0:0:0:0:
259,279,24139,1,0,0:0:0:0:
219,213,24311,1,0,0:0:0:0:
208,124,24484,1,0,0:0:0:0:
226,203,24656,1,0,0:0:0:0:
223,130,24828,5,2,0:0:0:0:
237,133,24915,1,0,0:0:0:0:
250,138,25001,1,0,0:0:0:0:
324,155,25173,1,0,0:0:0:0:
377,95,25346,1,2,0:0:0:0:
353,21,25518,1,0,0:0:0:0:
274,7,25691,1,0,0:0:0:0:
240,159,25863,1,2,0:0:0:0:
383,224,26035,1,0,0:0:0:0:
481,135,26208,5,0,0:0:0:0:
481,135,26294,1,0,0:0:0:0:
481,135,26380,1,0,0:0:0:0:
360,102,26553,1,0,0:0:0:0:
279,217,26725,1,2,0:0:0:0:
371,345,26897,1,0,0:0:0:0:
512,278,27070,5,0,0:0:0:0:
383,224,27242,1,0,0:0:0:0:
289,327,27415,1,0,0:0:0:0:
380,212,27587,5,2,0:0:0:0:
375,197,27673,1,0,0:0:0:0:
371,182,27760,1,0,0:0:0:0:
429,118,27932,1,0,0:0:0:0:
328,20,28104,1,2,0:0:0:0:
406,40,28277,1,0,0:0:0:0:
294,155,28449,1,0,0:0:0:0:
268,78,28622,1,2,0:0:0:0:
280,152,28794,1,0,0:0:0:0:
260,86,28966,1,0,0:0:0:0:
205,140,29139,5,0,0:0:0:0:
125,117,29311,1,0,0:0:0:0:
181,292,29484,1,2,0:0:0:0:
236,226,29656,1,0,0:0:0:0:
69,192,29828,1,0,0:0:0:0:
95,276,30001,1,0,0:0:0:0:
181,292,30173,1,0,0:0:0:0:
236,226,30346,5,2,0:0:0:0:
233,215,30432,1,0,0:0:0:0:
230,204,30518,1,0,0:0:0:0:
280,141,30691,1,0,0:0:0:0:
361,167,30863,1,2,0:0:0:0:
374,248,31035,1,0,0:0:0:0:
313,305,31208,1,0,0:0:0:0:
241,275,31380,1,2,0:0:0:0:
305,313,31553,1,0,0:0:0:0:
231,281,31725,1,0,0:0:0:0:
146,252,31897,5,0,0:0:0:0:
219,370,32070,1,0,0:0:0:0:
325,308,32242,1,2,0:0:0:0:
240,193,32415,1,0,0:0:0:0:
237,276,32587,1,0,0:0:0:0:
231,281,32673,2,0,L|224:330,1,35,2|0,0:0|0:0,0:0:0:0:
81,358,32932,2,0,L|61:266,1,70,2|0,0:0|0:0,0:0:0:0:
63,277,33191,5,0,0:0:0:0:
60,267,33277,1,4,0:0:0:0:
0,204,33449,1,0,0:0:0:0:
21,116,33622,1,2,0:0:0:0:
103,97,33794,1,0,0:0:0:0:
156,167,33966,1,0,0:0:0:0:
139,249,34139,1,2,0:0:0:0:
163,175,34311,1,0,0:0:0:0:
149,244,34484,1,0,0:0:0:0:
219,225,34656,5,0,0:0:0:0:
292,203,34828,1,0,0:0:0:0:
236,153,35001,1,2,0:0:0:0:
180,98,35173,1,0,0:0:0:0:
163,175,35346,1,0,0:0:0:0:
153,251,35518,1,0,0:0:0:0:
321,287,35691,5,0,0:0:0:0:
331,289,35777,1,0,0:0:0:0:
341,291,35863,1,2,0:0:0:0:
351,293,35949,1,0,0:0:0:0:
361,295,36035,1,0,0:0:0:0:
420,351,36208,1,0,0:0:0:0:
493,325,36380,1,2,0:0:0:0:
502,246,36553,1,0,0:0:0:0:
439,193,36725,5,0,0:0:0:0:
297,221,36897,1,2,0:0:0:0:
214,114,37070,1,0,0:0:0:0:
272,2,37242,5,0,0:0:0:0:
272,2,37328,1,0,0:0:0:0:
272,2,37415,1,0,0:0:0:0:
353,113,37587,1,0,0:0:0:0:
297,221,37760,1,2,0:0:0:0:
133,225,37932,1,0,0:0:0:0:
89,40,38104,5,0,0:0:0:0:
212,124,38277,1,0,0:0:0:0:
125,243,38449,1,0,0:0:0:0:
226,122,38622,5,2,0:0:0:0:
240,119,38708,1,0,0:0:0:0:
255,116,38794,1,0,0:0:0:0:
325,180,38966,1,0,0:0:0:0:
372,0,39139,1,2,0:0:0:0:
272,21,39311,1,0,0:0:0:0:
423,152,39484,5,0,0:0:0:0:
446,62,39656,1,2,0:0:0:0:
438,144,39828,1,0,0:0:0:0:
456,72,40001,1,0,0:0:0:0:
369,104,40173,5,0,0:0:0:0:
283,157,40346,1,0,0:0:0:0:
437,242,40518,1,2,0:0:0:0:
438,144,40691,1,0,0:0:0:0:
282,257,40863,1,0,0:0:0:0:
354,298,41035,1,0,0:0:0:0:
354,199,41208,5,0,0:0:0:0:
346,172,41294,1,0,0:0:0:0:
338,145,41380,1,2,0:0:0:0:
330,118,41466,1,0,0:0:0:0:
322,90,41553,1,0,0:0:0:0:
249,44,41725,1,0,0:0:0:0:
177,99,41897,1,2,0:0:0:0:
205,183,42070,1,0,0:0:0:0:
139,248,42242,1,0,0:0:0:0:
58,214,42415,1,2,0:0:0:0:
70,206,42587,1,0,0:0:0:0:
152,240,42760,5,0,0:0:0:0:
164,246,42846,1,0,0:0:0:0:
174,250,42932,1,0,0:0:0:0:
248,341,43104,1,0,0:0:0:0:
260,172,43277,1,2,0:0:0:0:
339,266,43449,1,0,0:0:0:0:
254,260,43622,1,0,0:0:0:0:
254,260,43708,2,0,L|196:271,1,35,2|0,0:0|0:0,0:0:0:0:
338,241,43966,2,0,L|371:173,1,70,2|0,0:0|0:0,0:0:0:0:
377,312,44311,6,0,L|452:300,1,70,4|0,1:0|0:0,0:0:0:0:
488,243,44570,2,0,P|489:203|460:163,1,70,2|0,0:0|0:0,0:0:0:0:
365,0,44828,2,0,L|356:79,1,70,6|0,0:0|0:0,0:0:0:0:
352,85,45087,2,0,P|307:90|276:116,1,70,2|0,0:0|0:0,0:0:0:0:
258,206,45346,5,6,0:0:0:0:
231,213,45432,1,0,0:0:0:0:
203,212,45518,1,0,0:0:0:0:
177,201,45604,1,2,0:0:0:0:
154,183,45691,2,0,P|147:125|139:88,1,70,6|0,0:0|0:0,0:0:0:0:
158,278,45949,2,0,P|111:313|83:338,1,70,2|0,0:0|0:0,0:0:0:0:
231,213,46208,2,0,P|284:235|320:247,1,70,6|0,0:0|0:0,0:0:0:0:
283,308,46466,2,0,L|240:314,1,35,2|0,0:0|0:0,0:0:0:0:
440,353,46725,5,4,0:0:0:0:
445,325,46811,1,0,0:0:0:0:
451,297,46897,1,0,0:0:0:0:
457,269,46984,1,2,0:0:0:0:
463,241,47070,2,0,P|457:193|436:149,1,70,6|0,0:0|0:0,0:0:0:0:
401,108,47328,2,0,L|411:23,1,70,2|0,0:0|0:0,0:0:0:0:
348,166,47587,2,0,L|361:246,1,70,6|0,0:0|0:0,0:0:0:0:
326,300,47846,2,0,P|286:300|255:312,1,70,2|0,0:0|0:0,0:0:0:0:
181,357,48104,53,6,0:0:0:0:
153,352,48191,1,0,0:0:0:0:
125,346,48277,1,0,0:0:0:0:
97,341,48363,1,2,0:0:0:0:
69,335,48449,2,0,P|47:264|38:245,1,70,6|0,0:0|0:0,0:0:0:0:
23,142,48708,2,0,P|95:158|116:160,1,70,2|0,0:0|0:0,0:0:0:0:
212,200,48966,2,0,P|161:254|149:271,1,70,6|0,0:0|0:0,0:0:0:0:
48,268,49225,2,0,P|73:277|89:287,1,35,2|0,0:0|0:0,0:0:0:0:
126,366,49484,5,6,0:0:0:0:
97,164,49656,1,2,0:0:0:0:
97,164,49742,1,2,0:0:0:0:
97,164,49828,2,0,P|78:93|75:74,1,70,6|0,0:0|0:0,0:0:0:0:
118,31,50087,2,0,L|190:16,1,70,2|0,0:0|0:0,0:0:0:0:
288,92,50346,2,0,P|269:163|266:182,1,70,6|0,0:0|0:0,0:0:0:0:
309,225,50605,2,0,L|381:240,1,70,2|0,0:0|0:0,0:0:0:0:
480,155,50863,5,6,0:0:0:0:
495,131,50949,1,0,0:0:0:0:
501,103,51035,1,0,0:0:0:0:
500,74,51122,1,2,0:0:0:0:
489,47,51208,2,0,P|432:30|408:18,1,70,6|0,0:0|0:0,0:0:0:0:
413,173,51466,2,0,P|442:161|485:154,1,70,2|0,0:0|0:0,0:0:0:0:
336,7,51725,2,0,L|350:86,1,70,6|0,0:0|0:0,0:0:0:0:
294,169,51984,2,0,L|301:135,1,35,2|0,0:0|0:0,0:0:0:0:
34,48,52242,53,6,0:0:0:0:
59,36,52328,1,0,0:0:0:0:
87,32,52415,1,0,0:0:0:0:
114,38,52501,1,2,0:0:0:0:
137,52,52587,2,0,L|156:138,1,70,6|0,0:0|0:0,0:0:0:0:
214,172,52846,2,0,P|168:196|125:188,1,70,2|0,0:0|0:0,0:0:0:0:
22,288,53104,2,0,L|31:200,1,70,6|0,0:0|0:0,0:0:0:0:
22,138,53363,2,0,P|56:140|85:158,1,70,2|0,0:0|0:0,0:0:0:0:
142,265,53622,5,6,0:0:0:0:
163,282,53708,1,0,0:0:0:0:
187,295,53794,1,0,0:0:0:0:
214,301,53880,1,2,0:0:0:0:
239,302,53966,2,0,L|255:403,1,70,6|0,0:0|0:0,0:0:0:0:
325,239,54225,2,0,L|318:311,1,70,2|0,0:0|0:0,0:0:0:0:
239,219,54484,2,0,L|250:289,1,70,6|0,0:0|0:0,0:0:0:0:
325,354,54742,2,0,L|330:311,1,35,2|0,0:0|0:0,0:0:0:0:
175,171,55001,69,6,0:0:0:0:
404,118,55173,1,0,0:0:0:0:
404,118,55260,1,2,0:0:0:0:
404,118,55346,2,0,P|430:67|455:37,1,70,6|0,0:0|0:0,0:0:0:0:
381,8,55604,2,0,L|302:20,1,70,2|0,0:0|0:0,0:0:0:0:
301,105,55863,2,0,P|320:151|329:187,1,70,6|0,0:0|0:0,0:0:0:0:
402,204,56122,2,0,L|478:214,1,70,2|0,0:0|0:0,0:0:0:0:
402,289,56380,5,6,0:0:0:0:
374,295,56466,1,0,0:0:0:0:
350,309,56553,1,0,0:0:0:0:
333,331,56639,1,2,0:0:0:0:
322,356,56725,2,0,P|300:321|266:301,1,70,6|0,0:0|0:0,0:0:0:0:
152,261,56984,2,0,P|193:259|227:240,1,70,2|0,0:0|0:0,0:0:0:0:
314,158,57242,2,0,P|294:194|294:233,1,70,6|0,0:0|0:0,0:0:0:0:
218,247,57501,2,0,L|206:199,1,35,2|0,0:0|0:0,0:0:0:0:
150,354,57760,5,6,0:0:0:0:
123,363,57846,1,0,0:0:0:0:
95,364,57932,1,0,0:0:0:0:
68,354,58018,1,2,0:0:0:0:
46,336,58104,2,0,L|29:255,1,70,6|0,0:0|0:0,0:0:0:0:
18,191,58363,2,0,P|78:203|98:228,1,70,2|0,0:0|0:0,0:0:0:0:
149,163,58622,2,0,L|155:81,1,70,6|0,0:0|0:0,0:0:0:0:
107,30,58880,2,0,P|80:70|77:99,1,70,2|0,0:0|0:0,0:0:0:0:
154,245,59139,53,6,0:0:0:0:
179,232,59225,1,0,0:0:0:0:
206,228,59311,1,0,0:0:0:0:
233,230,59397,1,2,0:0:0:0:
257,244,59484,2,0,L|269:318,1,70,6|0,0:0|0:0,0:0:0:0:
287,336,59742,2,0,L|211:349,1,70,2|0,0:0|0:0,0:0:0:0:
368,347,60001,2,0,L|354:267,1,70,6|0,0:0|0:0,0:0:0:0:
328,214,60260,2,0,L|372:207,1,35,2|0,0:0|0:0,0:0:0:0:
483,244,60518,5,6,0:0:0:0:
507,44,60691,1,0,0:0:0:0:
507,44,60777,1,2,0:0:0:0:
507,44,60863,2,0,L|425:33,1,70,6|0,0:0|0:0,0:0:0:0:
354,31,61122,2,0,P|367:69|375:114,1,70,2|0,0:0|0:0,0:0:0:0:
328,182,61380,2,0,L|404:168,1,70,6|0,0:0|0:0,0:0:0:0:
451,222,61639,2,0,P|435:267|432:297,1,70,2|0,0:0|0:0,0:0:0:0:
371,346,61897,5,6,0:0:0:0:
343,341,61984,1,0,0:0:0:0:
315,337,62070,1,0,0:0:0:0:
287,333,62156,1,2,0:0:0:0:
259,329,62242,2,0,P|203:360|188:377,1,70,6|0,0:0|0:0,0:0:0:0:
183,164,62501,2,0,P|237:196|260:201,1,70,2|0,0:0|0:0,0:0:0:0:
94,300,62760,2,0,P|95:236|87:214,1,70,6|0,0:0|0:0,0:0:0:0:
174,272,63018,2,0,L|212:267,1,35,2|0,0:0|0:0,0:0:0:0:
347,66,63277,53,6,0:0:0:0:
318,62,63364,1,0,0:0:0:0:
290,57,63450,1,0,0:0:0:0:
261,52,63536,1,2,0:0:0:0:
233,49,63622,2,0,P|185:61|155:85,1,70,6|0,0:0|0:0,0:0:0:0:
105,119,63880,2,0,L|91:42,1,70,2|0,0:0|0:0,0:0:0:0:
176,152,64139,2,0,L|166:236,1,70,6|0,0:0|0:0,0:0:0:0:
118,281,64397,2,0,P|136:321|145:362,1,70,2|0,0:0|0:0,0:0:0:0:
221,365,64656,5,6,0:0:0:0:
248,360,64742,1,0,0:0:0:0:
275,355,64828,1,0,0:0:0:0:
302,350,64915,1,2,0:0:0:0:
329,346,65001,2,0,L|430:365,1,70,6|0,0:0|0:0,0:0:0:0:
487,272,65260,2,0,L|472:355,1,70,2|0,0:0|0:0,0:0:0:0:
308,313,65518,2,0,L|376:327,1,70,6|0,0:0|0:0,0:0:0:0:
472,249,65777,2,0,L|481:208,1,35,2|0,0:0|0:0,0:0:0:0:
393,247,65949,1,0,0:0:0:0:
393,247,66035,2,0,L|320:233,1,70,6|0,0:0|0:0,0:0:0:0:
243,214,66294,1,2,0:0:0:0:
229,299,66380,53,4,1:0:0:0:
256,192,66466,12,0,67242,0:0:0:0:
256,192,69139,53,6,0:0:0:0:
256,192,69225,12,0,70001,0:0:0:0:
256,192,71897,21,6,0:0:0:0:
256,192,71984,12,0,72760,0:0:0:0:
256,192,74656,53,6,0:0:0:0:
256,192,74742,12,0,75518,0:0:0:0:
432,274,77415,6,0,P|449:269|464:259,2,36.749998878479,4|2|2,0:1|0:0|0:0,0:0:0:0:
377,325,78363,2,0,P|372:342|376:364,1,36.749998878479,0|2,0:0|0:0,0:0:0:0:
357,250,78880,2,0,P|344:237|330:230,2,31.4999990386963,0|2|2,0:0|0:0|0:0,0:0:0:0:
373,326,79742,1,0,0:0:0:0:
373,326,79828,1,2,0:0:0:0:
77,169,80260,38,0,P|44:160|26:147,2,52.5,0|2|2,0:0|0:0|0:0,0:0:0:0:
153,146,81122,2,0,P|176:122|207:109,1,61.25,0|2,0:0|0:0,0:0:0:0:
137,223,81639,2,0,P|145:255|140:278,2,52.5,0|2|2,0:0|0:0|0:0,0:0:0:0:
77,169,82501,1,0,0:0:0:0:
77,169,82587,2,0,L|68:112,1,52.5,2|0,0:0|0:0,0:0:0:0:
195,64,83018,38,0,P|181:25|151:1,2,73.4999977569581,0|2|2,0:0|0:0|0:0,0:0:0:0:
159,134,83880,2,0,P|132:164|126:210,1,85.7499973831178,0|2,0:0|0:0,0:0:0:0:
308,130,84397,2,0,P|269:143|232:135,2,73.4999977569581,0|2|2,0:0|0:0|0:0,0:0:0:0:
353,47,85260,1,0,0:0:0:0:
353,47,85346,1,2,0:0:0:0:
282,280,85777,38,0,P|293:326|337:364,2,94.499997116089,0|2|2,0:0|0:0|0:0,0:0:0:0:
229,213,86639,2,0,P|179:200|122:219,1,110.249996635437,0|2,0:0|0:0,0:0:0:0:
308,202,87156,2,0,P|342:169|354:113,2,94.499997116089,0|2|2,0:0|0:0|0:0,0:0:0:0:
146,188,88018,2,0,L|133:49,1,125.999996154785
90,2,88449,5,4,0:0:0:0:
90,2,88535,2,0,P|68:25|61:49,1,35,0|0,0:0|0:0,0:0:0:0:
188,102,88708,2,0,P|153:68|120:61,1,70,2|0,0:0|0:0,0:0:0:0:
21,88,88966,2,0,L|44:211,1,105,2|0,0:0|0:0,0:0:0:0:
33,201,89311,2,0,L|25:161,1,35,2|0,0:0|0:0,0:0:0:0:
111,201,89484,2,0,L|134:324,1,105,2|0,0:0|0:0,0:0:0:0:
79,373,89828,5,2,0:0:0:0:
79,373,89915,2,0,P|55:337|53:313,1,35,0|0,0:0|0:0,0:0:0:0:
130,304,90087,2,0,P|134:255|160:222,1,70,2|0,0:0|0:0,0:0:0:0:
210,322,90346,2,0,P|237:313|213:347,1,105,2|0,0:0|0:0,0:0:0:0:
130,304,90691,2,0,L|138:338,1,35
217,252,90863,2,0,L|208:341,1,70,2|0,0:0|0:0,0:0:0:0:
320,371,91122,69,2,0:0:0:0:
320,371,91208,2,0,P|337:348|383:331,1,70,6|0,0:0|0:0,0:0:0:0:
339,189,91466,2,0,P|350:215|342:263,1,70,6|0,0:0|0:0,0:0:0:0:
485,295,91725,1,4,0:0:0:0:
467,294,91811,1,0,0:0:0:0:
450,289,91897,1,0,0:0:0:0:
435,280,91983,1,0,0:0:0:0:
421,265,92070,2,0,P|425:241|426:210,1,35,2|0,0:0|0:0,0:0:0:0:
482,180,92242,2,0,P|474:143|473:89,1,70,6|0,0:0|0:0,0:0:0:0:
509,46,92501,5,0,0:0:0:0:
504,38,92587,2,0,L|408:21,1,70,6|0,0:0|0:0,0:0:0:0:
360,0,92846,2,0,P|358:37|350:71,1,70,6|0,0:0|0:0,0:0:0:0:
281,104,93104,2,0,P|242:94|281:89,1,105,4|0,0:0|0:0,0:0:0:0:
395,124,93449,2,0,P|373:135|352:137,1,35,2|0,0:0|0:0,0:0:0:0:
324,5,93622,2,0,P|345:41|349:88,1,70,6|0,0:0|0:0,0:0:0:0:
253,296,93966,69,2,0:0:0:0:
249,291,94053,2,0,P|238:252|238:237,1,35
382,234,94225,2,0,P|332:257|292:251,1,70,2|0,0:0|0:0,0:0:0:0:
268,188,94484,2,0,L|278:75,1,105,2|0,0:0|0:0,0:0:0:0:
271,72,94828,2,0,L|266:116,1,35,2|0,0:0|0:0,0:0:0:0:
160,258,95001,2,0,L|170:145,1,105,2|0,0:0|0:0,0:0:0:0:
127,93,95346,5,2,0:0:0:0:
127,93,95433,2,0,P|103:129|101:153,1,35,0|0,0:0|0:0,0:0:0:0:
18,77,95605,2,0,P|22:126|48:159,1,70,2|0,0:0|0:0,0:0:0:0:
88,221,95864,2,0,P|115:230|91:196,1,105,2|0,0:0|0:0,0:0:0:0:
32,143,96208,2,0,P|20:169|16:194,1,35,2|0,0:0|0:0,0:0:0:0:
98,290,96380,2,2,L|84:201,1,70,2|0,0:0|0:0,0:0:0:0:
192,274,96639,69,2,0:0:0:0:
198,286,96725,2,0,P|188:335|177:369,1,70,6|0,0:0|0:0,0:0:0:0:
280,313,96984,2,0,P|327:297|362:289,1,70,6|0,0:0|0:0,0:0:0:0:
267,224,97242,1,6,0:0:0:0:
253,212,97328,1,0,0:0:0:0:
240,201,97414,1,0,0:0:0:0:
227,189,97500,1,0,0:0:0:0:
214,175,97587,2,0,P|212:133|213:120,1,35,6|0,0:0|0:0,0:0:0:0:
142,213,97760,2,0,P|137:162|139:121,1,70,6|0,0:0|0:0,0:0:0:0:
70,96,98018,5,2,0:0:0:0:
72,88,98104,2,0,P|107:60|153:60,1,70,6|0,0:0|0:0,0:0:0:0:
196,3,98363,2,0,L|213:87,1,70,6|0,0:0|0:0,0:0:0:0:
278,106,98622,2,0,P|317:100|274:93,1,105,4|0,0:0|0:0,0:0:0:0:
210,73,98966,2,0,L|201:123,1,35,2|0,0:0|0:0,0:0:0:0:
239,175,99139,2,2,P|279:194|306:192,1,70,2|0,0:0|0:0,0:0:0:0:
389,167,99397,69,2,0:0:0:0:
405,154,99484,2,0,L|410:108,2,35,4|0|0,0:2|0:0|0:1,0:0:0:0:
467,219,99742,1,2,0:0:0:0:
480,230,99828,1,4,0:0:0:0:
448,41,100001,1,2,0:0:0:0:
305,154,100173,6,0,P|269:166|221:177,1,70,8|2,0:0|0:0,0:0:0:0:
278,238,100432,1,0,0:0:0:0:
298,242,100518,1,0,0:0:0:0:
318,245,100604,1,2,0:0:0:0:
338,249,100691,1,10,0:2:0:0:
373,102,100863,70,0,L|360:10,1,70,4|0,0:0|0:0,0:0:0:0:
361,25,101122,1,2,0:0:0:0:
361,17,101208,1,8,0:0:0:0:
457,144,101380,1,4,0:0:0:0:
300,165,101553,2,0,P|250:177|217:168,1,70,8|4,0:0|0:0,0:0:0:0:
75,113,101897,2,0,P|125:101|158:110,1,70,10|0,0:0|0:0,0:0:0:0:
152,109,102156,1,0,0:0:0:0:
160,118,102242,6,0,L|169:26,1,70,4|0,0:2|0:0,0:0:0:0:
168,40,102501,1,2,0:0:0:0:
169,31,102587,1,10,0:0:0:0:
14,65,102760,1,4,0:0:0:0:
76,194,102932,70,0,L|87:272,1,70,10|0,0:0|0:0,0:0:0:0:
172,356,103277,2,0,L|182:273,1,70,0|2,0:0|0:0,0:0:0:0:
30,350,103622,6,0,L|139:335,2,105,0|2|2,0:0|0:0|0:0,0:0:0:0:
213,360,104311,2,0,L|361:336,1,140,0|2,0:0|0:0,0:0:0:0:
351,338,105087,6,0,P|377:278|361:227,1,105,0|0,0:0|0:0,0:0:0:0:
297,206,105432,6,0,P|252:225|233:255,1,70,2|0,0:0|0:0,0:0:0:0:
217,310,105691,6,0,P|211:243|155:185,1,140,2|0,0:0|0:0,0:0:0:0:
97,110,106122,6,2,P|121:137|233:114,1,146.999995513916,2|0,0:0|0:0,0:0:0:0:
262,30,106725,6,2,P|252:79|270:220,1,171.499994766236,2|0,0:0|0:0,0:0:0:0:
343,248,107415,6,2,P|369:157|361:20,1,224,2|0,0:0|0:1,0:0:0:0:
256,192,109139,12,0,110346,0:0:0:0:
383,265,110518,38,0,L|484:283,1,83.9999974365235,4|2,1:0|0:0,0:0:0:0:
464,112,110863,1,8,0:0:0:0:
330,187,111035,1,2,0:0:0:0:
300,222,111122,1,0,0:0:0:0:
291,262,111208,1,2,0:0:0:0:
297,303,111294,1,0,0:0:0:0:
322,336,111380,1,8,0:0:0:0:
458,153,111553,2,0,L|467:89,1,41.9999987182618,4|0,0:0|0:0,0:0:0:0:
385,98,111725,2,0,L|394:34,1,41.9999987182618,10|0,0:0|0:0,0:0:0:0:
306,41,111897,6,0,L|218:51,1,83.9999974365235,4|2,0:0|0:0,0:0:0:0:
222,50,112156,1,0,0:0:0:0:
222,50,112242,1,8,0:0:0:0:
67,257,112415,1,2,0:0:0:0:
104,274,112501,1,0,0:0:0:0:
145,274,112587,1,2,0:0:0:0:
183,258,112673,1,0,0:0:0:0:
211,226,112760,1,8,0:0:0:0:
155,11,112932,1,2,0:0:0:0:
155,11,113018,2,0,P|134:63|138:108,1,83.9999974365235,12|0,0:0|0:0,0:0:0:0:
187,145,113277,5,4,0:0:0:0:
424,216,113449,1,2,0:0:0:0:
465,212,113535,1,0,0:0:0:0:
507,208,113622,1,10,0:0:0:0:
368,10,113794,1,2,0:0:0:0:
334,35,113880,1,0,0:0:0:0:
311,71,113966,1,2,0:0:0:0:
302,111,114053,1,0,0:0:0:0:
307,152,114139,1,14,0:0:0:0:
511,251,114311,53,4,0:0:0:0:
512,209,114397,1,4,0:0:0:0:
486,174,114484,1,14,0:0:0:0:
450,153,114570,1,0,0:0:0:0:
407,153,114656,1,4,0:0:0:0:
300,248,114828,1,6,0:0:0:0:
373,336,115001,6,0,L|461:353,1,83.9999974365235,12|2,0:0|0:0,0:0:0:0:
455,351,115260,1,8,0:0:0:0:
455,351,115346,1,6,0:0:0:0:
199,28,115518,2,0,L|117:44,1,83.9999974365235,12|2,0:0|0:0,0:0:0:0:
117,44,115776,1,8,0:0:0:0:
117,44,115862,1,2,0:0:0:0:
429,238,116035,6,0,P|485:236|520:205,1,83.9999974365235,4|2,0:0|0:0,0:0:0:0:
456,82,116380,1,12,0:0:0:0:
293,170,116553,1,2,0:0:0:0:
288,211,116639,1,0,0:0:0:0:
283,252,116725,1,2,0:0:0:0:
279,293,116811,1,0,0:0:0:0:
274,334,116897,1,2,0:0:0:0:
429,238,117070,54,0,L|421:187,1,41.9999987182618,4|0,0:0|0:0,0:0:0:0:
353,122,117242,2,0,L|361:74,1,41.9999987182618,10|0,0:0|0:0,0:0:0:0:
250,0,117415,2,0,L|261:86,1,83.9999974365235,4|2,0:0|0:0,0:0:0:0:
260,83,117673,1,0,0:0:0:0:
260,83,117760,1,12,0:0:0:0:
59,357,117932,1,2,0:0:0:0:
36,321,118018,1,0,0:0:0:0:
29,279,118104,1,2,0:0:0:0:
39,237,118191,1,0,0:0:0:0:
61,201,118277,1,10,0:0:0:0:
266,90,118449,1,4,0:0:0:0:
294,121,118535,1,0,0:0:0:0:
304,162,118622,1,10,0:0:0:0:
221,343,118794,6,0,L|121:329,1,83.9999974365235,4|2,0:0|0:0,0:0:0:0:
137,331,119053,1,4,0:0:0:0:
137,331,119139,1,12,0:0:0:0:
311,218,119311,1,2,0:0:0:0:
352,211,119397,1,0,0:0:0:0:
393,204,119484,1,2,0:0:0:0:
434,198,119570,1,4,0:0:0:0:
475,193,119656,2,0,L|486:252,1,41.9999987182618,12|0,0:0|0:0,0:0:0:0:
397,124,119828,2,0,L|388:71,1,41.9999987182618,10|0,0:0|0:0,0:0:0:0:
448,305,120001,2,0,L|458:359,1,41.9999987182618,10|0,0:0|0:0,0:0:0:0:
295,347,120173,5,4,0:0:0:0:
253,341,120259,1,0,0:0:0:0:
211,335,120346,1,2,0:0:0:0:
169,329,120432,1,4,0:0:0:0:
127,325,120518,1,12,0:0:0:0:
32,205,120691,1,2,0:0:0:0:
5,304,120863,54,0,L|17:375,1,41.9999987182618,12|0,0:0|0:0,0:0:0:0:
55,105,121035,2,0,L|46:55,1,41.9999987182618,2|0,0:0|0:0,0:0:0:0:
32,205,121208,1,2,0:0:0:0:
81,198,121294,1,0,0:0:0:0:
130,191,121380,1,10,0:0:0:0:
179,184,121466,1,0,0:0:0:0:
229,177,121553,5,4,1:0:0:0:
369,353,121725,1,2,0:0:0:0:
438,146,121897,1,12,0:0:0:0:
300,267,122070,1,2,0:0:0:0:
406,250,122242,1,2,0:0:0:0:
334,162,122415,1,12,0:0:0:0:
468,322,122587,6,0,L|538:309,1,41.9999987182618,2|0,0:0|0:0,0:0:0:0:
334,162,122760,2,0,L|315:122,1,41.9999987182618,2|0,0:0|0:0,0:0:0:0:
300,267,122932,2,0,L|283:376,1,83.9999974365235,4|2,0:0|0:0,0:0:0:0:
287,349,123191,1,0,0:0:0:0:
287,349,123277,1,8,0:0:0:0:
99,226,123449,1,2,0:0:0:0:
90,184,123535,1,0,0:0:0:0:
81,142,123622,1,2,0:0:0:0:
73,100,123708,1,0,0:0:0:0:
65,58,123794,1,12,0:0:0:0:
334,162,123966,1,6,0:0:0:0:
334,162,124053,2,0,L|236:182,1,83.9999974365235,8|0,0:0|0:0,0:0:0:0:
169,153,124311,53,6,0:0:0:0:
424,42,124484,1,2,0:0:0:0:
455,70,124570,1,0,0:0:0:0:
472,107,124656,1,12,0:0:0:0:
216,293,124828,1,2,0:0:0:0:
222,251,124915,1,0,0:0:0:0:
250,220,125001,1,2,0:0:0:0:
289,205,125087,1,0,0:0:0:0:
330,206,125173,1,12,0:0:0:0:
498,365,125346,5,2,0:0:0:0:
456,358,125432,1,0,0:0:0:0:
414,351,125518,1,10,0:0:0:0:
373,341,125604,1,0,0:0:0:0:
331,331,125691,1,4,0:0:0:0:
226,114,125863,1,2,0:0:0:0:
443,56,126035,6,0,L|429:152,1,83.9999974365235,12|2,0:0|0:0,0:0:0:0:
430,139,126294,1,0,0:0:0:0:
430,139,126380,1,4,0:0:0:0:
222,360,126553,2,0,L|208:264,1,83.9999974365235,8|2,0:0|0:0,0:0:0:0:
209,276,126812,1,0,0:0:0:0:
209,276,126898,1,2,0:0:0:0:
313,44,127070,53,4,0:0:0:0:
350,215,127242,1,2,0:0:0:0:
18,153,127415,1,10,0:0:0:0:
100,17,127587,1,2,0:0:0:0:
132,43,127673,1,0,0:0:0:0:
151,80,127760,1,2,0:0:0:0:
160,120,127846,1,0,0:0:0:0:
153,161,127932,1,12,0:0:0:0:
225,349,128104,5,6,0:0:0:0:
231,308,128190,1,4,0:0:0:0:
254,273,128277,1,10,0:0:0:0:
284,245,128363,1,0,0:0:0:0:
323,231,128449,1,4,0:0:0:0:
470,96,128622,1,2,0:0:0:0:
262,15,128794,1,12,0:0:0:0:
339,333,128966,6,0,L|399:326,1,41.9999987182618,2|0,0:0|0:0,0:0:0:0:
453,357,129139,2,0,L|505:351,1,41.9999987182618,2|0,0:0|0:0,0:0:0:0:
498,204,129311,2,0,B|442:210|442:210|421:251|421:251|340:260,1,167.999994873047,12|0,0:0|0:0,0:0:0:0:
355,258,132587,6,0,B|378:237|391:191|391:191|418:249|467:260|483:330|448:368|395:373|371:335|375:317,1,315.000012016297,4|0,1:0|0:1,0:1:0:0:
313,384,132932,2,0,P|298:339|256:276,1,105.000004005432,10|0,0:0|0:0,0:1:0:0:
369,79,133104,5,2,0:0:0:0:
349,95,133191,1,4,0:0:0:0:
333,115,133277,1,2,0:0:0:0:
321,137,133363,1,0,0:0:0:0:
312,160,133449,1,6,0:0:0:0:
311,173,133535,1,0,0:0:0:0:
311,187,133622,2,0,P|283:148|239:136,1,62.9999980773926,10|0,0:0|0:0,0:0:0:0:
226,61,133794,2,0,P|273:56|306:24,1,62.9999980773926,2|0,0:0|0:0,0:0:0:0:
426,196,133966,6,0,P|444:182|410:193,1,125.999996154785,4|2,0:0|0:0,0:0:0:0:
386,309,134225,1,0,0:0:0:0:
380,318,134311,2,0,P|365:272|344:249,1,62.9999980773926,10|0,0:0|0:0,0:0:0:0:
196,298,134484,1,2,0:0:0:0:
271,358,134570,2,0,P|283:289|269:227,1,125.999996154785,4|0,0:0|0:0,0:0:0:0:
116,311,134828,1,6,0:0:0:0:
91,331,134915,1,0,0:0:0:0:
120,343,135001,2,0,P|175:261|172:161,1,188.999994232178,8|2,0:0|0:0,0:0:0:0:
61,53,135346,6,0,L|76:143,1,70,4|0,1:2|0:0,0:0:0:0:
175,173,135518,2,0,B|168:132|168:132|139:131|149:193|99:194,1,140,2|8,0:0|0:0,0:0:0:0:
127,350,135863,1,2,0:0:0:0:
127,350,135949,1,4,0:0:0:0:
127,350,136035,2,0,L|191:360,1,62.9999980773926,2|0,0:0|0:0,0:0:0:0:
191,249,136208,1,6,0:0:0:0:
201,238,136294,2,0,L|234:304,1,62.9999980773926,2|8,0:0|0:0,0:0:0:0:
313,227,136466,1,2,0:0:0:0:
324,237,136552,2,0,L|300:303,1,62.9999980773926,2|0,0:0|0:0,0:0:0:0:
472,349,136725,6,0,P|507:319|468:339,1,125.999996154785,4|2,1:2|0:2,0:0:0:0:
396,372,136984,1,0,0:0:0:0:
396,372,137070,2,0,P|388:319|418:275,1,62.9999980773926,8|0,0:0|0:0,0:0:0:0:
512,227,137242,1,2,0:0:0:0:
506,238,137328,2,0,P|445:220|385:144,1,125.999996154785,4|2,0:0|0:0,0:0:0:0:
494,87,137587,2,0,P|464:105|429:112,1,62.9999980773926,4|2,0:0|0:0,0:0:0:0:
315,220,137760,2,0,B|286:116|363:153|322:32,1,188.999994232178,8|0,0:0|0:0,0:0:0:0:
168,37,138104,6,0,B|188:-26|286:26|271:87|227:134|158:151|74:120,1,315.000012016297,4|4,1:2|0:0,0:1:0:0:
14,84,138449,2,0,P|31:59|71:49,1,62.9999980773926,8|0,0:0|0:0,0:0:0:0:
82,122,138622,1,2,0:0:0:0:
90,138,138708,1,4,0:0:0:0:
97,155,138794,1,2,0:0:0:0:
102,172,138880,1,0,0:0:0:0:
106,190,138966,2,0,P|138:199|167:252,1,62.9999980773926,6|0,0:0|0:0,0:0:0:0:
92,282,139139,2,0,P|91:336|106:375,2,62.9999980773926,10|0|2,0:0|0:0|0:0,0:0:0:0:
192,27,139484,6,0,P|182:-10|172:37,1,125.999996154785,4|2,0:0|0:0,0:0:0:0:
207,99,139742,1,4,0:0:0:0:
218,107,139828,2,0,P|264:75|333:74,1,125.999996154785,10|2,0:0|0:0,0:0:0:0:
386,149,140087,2,0,B|392:183|382:212|382:212|360:191|356:157,1,125.999996154785,4|0,0:0|0:0,0:0:0:0:
375,16,140346,1,6,0:0:0:0:
396,6,140432,1,0,0:0:0:0:
416,26,140518,2,0,L|379:223,1,188.999994232178,12|0,0:0|0:0,0:0:0:0:
330,344,140863,6,0,B|300:295|300:295|313:255|313:255|287:180|287:180|377:210|377:210|393:206|393:206|477:227|477:227|425:260,1,406.000012390137,6|8,1:2|0:0,0:1:0:0:
462,374,141380,1,2,0:0:0:0:
451,372,141466,1,4,0:0:0:0:
440,370,141552,1,2,0:0:0:0:
429,368,141638,1,0,0:0:0:0:
418,366,141725,2,0,L|409:314,1,35,6|0,0:0|0:0,0:0:0:0:
229,261,141897,2,0,L|213:373,1,105,12|0,0:0|0:0,0:0:0:0:
141,371,142242,5,6,0:2:0:0:
132,376,142328,1,0,0:0:0:0:
118,379,142415,1,6,0:0:0:0:
97,378,142501,1,0,0:0:0:0:
78,367,142587,1,12,0:0:0:0:
63,342,142673,1,2,0:0:0:0:
68,306,142760,1,4,0:0:0:0:
96,283,142846,1,0,0:0:0:0:
139,287,142932,5,14,0:0:0:0:
185,264,143018,1,0,0:0:0:0:
199,210,143104,1,4,0:0:0:0:
183,159,143191,1,2,0:0:0:0:
129,140,143277,2,0,L|71:151,1,35,12|0,0:0|0:0,0:0:0:0:
37,84,143449,2,0,L|-15:94,1,35,6|0,0:0|0:0,0:0:0:0:
101,7,143622,6,0,B|155:17|155:17|174:56|174:56|260:79|260:79|276:73|276:73|325:84,1,245.000002336502,4|10,1:0|0:0,0:0:0:0:
496,29,144139,1,2,0:0:0:0:
479,21,144225,1,4,0:0:0:0:
460,19,144311,1,2,0:0:0:0:
442,26,144397,1,0,0:0:0:0:
427,37,144484,2,0,L|411:103,1,61.2500005841255,6|0,0:0|0:0,0:0:0:0:
461,277,144656,6,0,P|487:235|479:194,1,61.2500005841255,10|0,0:0|0:0,0:0:0:0:
400,214,144828,2,0,P|376:170|337:156,1,61.2500005841255,2|0,0:0|0:0,0:0:0:0:
304,291,145001,6,0,P|304:337|324:293,1,122.500001168251,4|2,0:0|0:0,0:0:0:0:
307,211,145260,1,4,0:0:0:0:
298,202,145346,2,0,P|248:200|217:227,1,61.2500005841255,10|0,0:0|0:0,0:0:0:0:
120,168,145518,1,2,0:0:0:0:
178,124,145604,2,0,P|149:190|163:283,1,122.500001168251,4|0,0:0|0:0,0:0:0:0:
235,352,145863,1,6,0:0:0:0:
221,330,145949,1,0,0:0:0:0:
208,356,146035,2,0,B|152:344|152:344|86:368|86:368|1:350,1,183.750001752377,10|0,0:0|0:0,0:0:0:0:
12,279,146380,6,0,L|1:201,1,61.2500005841255,4|0,1:2|0:0,0:0:0:0:
55,67,146553,2,0,B|81:94|81:94|89:130|89:130|78:161|78:161|81:192|81:192|86:199|86:199|93:253|93:253,1,175,2|8,0:0|0:0,0:0:0:0:
215,363,146897,5,2,0:0:0:0:
215,363,146984,1,4,0:0:0:0:
215,363,147070,2,0,P|246:329|249:288,1,52.5000020027161,2|0,0:0|0:0,0:0:0:0:
327,326,147242,1,6,0:0:0:0:
327,326,147328,2,0,P|313:282|279:259,1,52.5000020027161,2|10,0:0|0:0,0:0:0:0:
357,214,147501,1,2,0:0:0:0:
357,214,147587,2,0,P|312:204|275:222,1,52.5000020027161,4|0,0:0|0:0,0:0:0:0:
210,188,147760,6,0,P|183:225|215:193,1,122.500001168251,6|2,1:2|0:0,0:0:0:0:
266,136,148018,1,4,0:0:0:0:
266,136,148104,2,0,L|255:53,1,61.2500005841255,10|0,0:0|0:0,0:0:0:0:
338,40,148277,1,2,0:0:0:0:
373,120,148363,2,0,L|398:-15,1,122.500001168251,4|0,0:0|0:0,0:0:0:0:
457,177,148622,2,0,L|508:122,1,61.2500005841255,6|0,0:0|0:0,0:0:0:0:
378,206,148794,2,0,B|389:276|389:276|432:306|432:306|425:392,1,183.750001752377,8|2,0:0|0:0,0:0:0:0:
501,304,149139,6,0,B|493:278|493:278|357:294|357:294|347:347|347:347,1,210,4|2,1:2|0:0,0:0:0:0:
280,269,149484,2,0,L|268:189,1,70,8|0,0:0|0:0,0:0:0:0:
228,331,149656,1,2,0:0:0:0:
240,347,149742,1,4,0:0:0:0:
257,357,149828,1,2,0:0:0:0:
277,362,149915,1,0,0:0:0:0:
298,361,150001,2,0,L|306:287,1,70,6|0,0:0|0:0,0:0:0:0:
269,199,150173,2,0,P|241:169|204:160,2,70,10|0|2,0:0|0:0|0:0,0:0:0:0:
79,323,150518,6,0,P|39:307|85:317,1,140,4|2,0:0|0:0,0:0:0:0:
156,367,150777,1,0,0:0:0:0:
171,366,150863,2,0,B|136:279|207:304|157:181,1,140,10|2,0:0|0:0,0:0:0:0:
87,196,151122,2,0,P|75:178|95:193,1,70,4|2,0:0|0:0,0:0:0:0:
251,306,151294,1,0,0:0:0:0:
245,323,151380,1,6,0:0:0:0:
265,330,151466,1,0,0:0:0:0:
272,308,151553,2,0,P|343:264|478:273,1,210,8|2,0:0|0:0,0:0:0:0:
504,330,151897,6,0,B|472:344|462:379|462:379|389:299|490:130|490:130|424:165,1,378.000001441956,4|8,1:2|0:0,0:0:0:0:
296,26,152415,1,2,0:0:0:0:
298,35,152501,1,4,0:0:0:0:
300,44,152587,1,2,0:0:0:0:
302,53,152673,1,0,0:0:0:0:
304,62,152760,2,0,L|319:125,1,52.5000020027161,6|0,0:0|0:0,0:0:0:0:
426,0,152932,2,0,L|388:115,1,105.000004005432,10|2,0:0|0:0,0:0:0:0:
38,145,153277,5,6,0:0:0:0:
31,137,153363,1,0,0:0:0:0:
25,122,153449,1,6,0:0:0:0:
25,103,153535,1,0,0:0:0:0:
35,81,153622,1,12,0:0:0:0:
56,66,153708,1,2,0:0:0:0:
86,70,153794,1,4,0:0:0:0:
106,92,153880,1,0,0:0:0:0:
104,121,153966,5,14,0:0:0:0:
109,149,154053,1,0,0:0:0:0:
131,173,154139,1,4,0:0:0:0:
171,186,154225,1,2,0:0:0:0:
209,172,154311,2,0,L|201:116,1,52.5000020027161,12|0,0:0|0:0,0:0:0:0:
237,0,154484,2,0,L|247:71,1,52.5000020027161,6|0,0:0|0:0,0:0:0:0:
425,111,154656,6,0,B|448:83|448:83|439:39|439:39|392:21|392:21|357:52|357:52|362:99,1,210,4|0,1:0|0:0,0:0:0:0:
331,153,155001,2,0,L|342:245,1,70,10|0,0:0|0:0,0:0:0:0:
470,333,155173,1,2,0:0:0:0:
484,317,155260,1,4,0:0:0:0:
493,298,155346,1,2,0:0:0:0:
497,277,155432,1,0,0:0:0:0:
498,256,155518,1,6,0:0:0:0:
493,235,155604,1,0,0:0:0:0:
481,217,155691,2,0,P|444:195|397:198,1,70,10|0,0:0|0:0,0:0:0:0:
376,308,155863,2,0,L|387:389,1,70,2|0,0:0|0:0,0:0:0:0:
263,355,156035,6,0,L|144:370,1,105.000004005432,4|2,0:0|0:0,0:0:0:0:
152,300,156294,1,0,0:0:0:0:
152,300,156380,2,0,P|126:267|95:257,1,52.5000020027161,10|0,0:0|0:0,0:0:0:0:
43,268,156553,1,2,0:0:0:0:
110,259,156639,6,0,P|146:209|141:151,1,105.000004005432,4|0,0:0|0:0,0:0:0:0:
106,66,156897,1,6,0:0:0:0:
72,73,156984,1,0,0:0:0:0:
43,79,157070,2,0,B|100:100|100:100|150:87|150:87|228:110,1,157.500006008148,10|2,1:2|0:0,0:0:0:0:
304,10,157415,6,0,L|316:79,1,52.5000020027161,4|0,1:2|0:0,0:0:0:0:
391,158,157587,2,0,B|383:114|383:114|405:94|405:94|416:10,1,140,2|10,0:0|0:0,0:0:0:0:
452,226,157932,5,2,0:0:0:0:
438,241,158018,1,4,0:0:0:0:
419,250,158104,2,0,P|378:255|348:242,1,52.5000020027161,2|0,0:0|0:0,0:0:0:0:
346,358,158277,1,6,0:0:0:0:
332,361,158363,2,0,P|314:323|319:289,1,52.5000020027161,2|10,0:0|0:0,0:0:0:0:
203,342,158535,1,2,0:0:0:0:
195,329,158621,2,0,P|225:300|259:294,1,52.5000020027161,4|0,0:0|0:0,0:0:0:0:
208,218,158794,6,0,P|186:160|118:113,1,105.000004005432,4|2,1:2|0:0,0:0:0:0:
3,165,159053,1,0,0:0:0:0:
5,176,159139,2,0,P|34:179|72:171,1,52.5000020027161,10|0,0:0|0:0,0:0:0:0:
48,8,159311,5,2,0:0:0:0:
43,17,159397,2,0,B|50:50|50:50|73:75|73:75|69:133,1,105.000004005432,4|2,0:0|0:0,0:0:0:0:
5,176,159656,1,4,0:0:0:0:
3,165,159742,1,2,0:0:0:0:
0,156,159828,2,0,P|81:158|119:252,1,157.500006008148,12|0,1:2|0:0,0:0:0:0:
65,330,160173,6,0,B|57:357|57:357|-3:306|31:239|31:239|57:260,1,183.750001752377,4|0,1:2|0:0,0:0:0:0:
120,216,160518,2,0,L|188:205,1,61.2500005841255,10|0,0:0|0:0,0:0:0:0:
329,348,160691,1,2,0:0:0:0:
310,345,160777,1,4,0:0:0:0:
291,342,160863,1,2,0:0:0:0:
272,339,160949,1,0,0:0:0:0:
253,335,161035,2,0,L|241:271,1,61.2500005841255,6|0,0:0|0:0,0:0:0:0:
166,324,161208,2,0,L|153:402,2,61.2500005841255,8|0|2,0:0|0:0|0:0,0:0:0:0:
408,382,161553,6,0,P|444:328|430:257,1,122.500001168251,4|2,0:0|0:0,0:0:0:0:
364,200,161811,1,0,0:0:0:0:
380,214,161897,2,0,L|363:139,1,61.2500005841255,10|0,0:0|0:0,0:0:0:0:
425,117,162070,1,2,0:0:0:0:
452,181,162156,2,0,L|459:41,1,122.500001168251,4|2,0:0|0:0,0:0:0:0:
337,33,162415,1,6,0:0:0:0:
353,53,162501,1,0,0:0:0:0:
361,27,162587,2,0,B|248:0|297:81|175:64,1,183.750001752377,8|2,0:0|0:0,0:0:0:0:
29,75,162932,6,0,B|20:20|20:20|37:77|69:15|104:105|104:105|126:6,1,280,4|10,1:2|0:0,0:0:0:0:
23,166,163449,1,2,0:0:0:0:
27,186,163535,1,4,0:0:0:0:
31,206,163621,1,2,0:0:0:0:
35,226,163708,1,0,0:0:0:0:
41,246,163794,2,0,L|95:258,1,43.75,6|0,0:0|0:0,0:0:0:0:
160,321,163966,2,0,L|40:348,1,87.5,10|2,0:0|0:0,0:0:0:0:
127,182,164311,5,6,0:0:0:0:
136,167,164397,1,0,0:0:0:0:
154,156,164484,1,6,0:0:0:0:
183,158,164570,1,0,0:0:0:0:
208,185,164656,1,12,0:0:0:0:
206,224,164742,1,2,0:0:0:0:
176,245,164828,1,4,0:0:0:0:
161,280,164915,1,0,0:0:0:0:
172,324,165001,5,14,0:0:0:0:
206,351,165087,1,0,0:0:0:0:
257,352,165173,1,4,0:0:0:0:
294,315,165260,1,2,0:0:0:0:
291,267,165346,2,0,L|277:214,1,43.75,12|0,0:0|0:0,0:0:0:0:
376,315,165518,2,0,L|371:366,1,43.75,2|0,0:0|0:0,0:0:0:0:
494,194,165691,6,0,B|478:155|405:156|427:203|401:213|340:196|328:137|366:122|384:100,1,210,4|0,1:0|0:0,0:0:0:0:
434,73,166035,2,0,P|449:61|435:78,1,70,8|0,0:0|0:0,0:0:0:0:
245,0,166208,5,2,0:0:0:0:
269,28,166294,1,4,0:0:0:0:
280,68,166380,1,2,0:0:0:0:
275,97,166466,1,0,0:0:0:0:
262,119,166553,1,6,0:0:0:0:
249,128,166639,1,0,0:0:0:0:
237,136,166725,2,0,P|204:111|196:92,1,56,8|0,0:0|0:0,0:0:0:0:
117,99,166897,2,0,P|122:57|134:41,1,56,2|0,0:0|0:0,0:0:0:0:
8,134,167070,6,0,B|52:137|107:202|78:222|33:215,1,122.500001168251,4|2,1:2|0:0,0:0:0:0:
45,305,167328,1,4,0:0:0:0:
21,278,167415,1,10,0:0:0:0:
20,247,167501,1,0,0:0:0:0:
41,223,167587,1,2,0:0:0:0:
63,213,167673,2,0,B|137:213|82:278|196:257,1,122.500001168251,4|0,0:0|0:0,0:0:0:0:
226,215,167932,2,0,P|235:193|223:214,1,61.2500005841255,6|0,0:0|0:0,0:0:0:0:
133,352,168104,2,0,B|214:365|218:283|311:289,1,183.750001752377,8|2,0:0|0:0,0:0:0:0:
470,351,168449,6,0,P|446:357|412:344,1,61.2500005841255,4|0,1:2|0:0,0:0:0:0:
436,189,168622,2,0,B|481:215|424:246|328:218|388:282|369:309,1,140,2|8,0:0|0:0,0:0:0:0:
223,357,168966,5,2,0:0:0:0:
209,326,169053,1,4,0:0:0:0:
220,297,169139,2,0,L|195:229,1,52.5000020027161,2|0,0:0|0:0,0:0:0:0:
101,288,169311,1,6,0:0:0:0:
101,288,169397,2,0,L|126:229,1,52.5000020027161,0|8,0:0|0:0,0:0:0:0:
23,184,169570,1,0,0:0:0:0:
23,184,169656,2,0,L|80:177,1,52.5000020027161,2|0,0:0|0:0,0:0:0:0:
41,58,169828,6,0,P|31:23|49:54,1,105.000004005432,4|2,1:2|0:0,0:0:0:0:
48,83,170087,1,4,0:0:0:0:
69,108,170173,1,8,0:0:0:0:
109,115,170260,1,0,0:0:0:0:
148,87,170346,1,2,0:0:0:0:
171,45,170432,2,0,P|185:20|265:7,1,105.000004005432,4|2,0:0|0:0,0:0:0:0:
328,158,170691,2,0,B|320:182|320:182|318:147,1,52.5000020027161,4|2,0:0|0:0,0:0:0:0:
390,123,170863,2,0,B|281:122|340:75|241:76,1,157.500006008148,8|2,1:2|0:0,0:0:0:0:
426,51,171208,6,0,B|450:59|480:64|480:64|509:60|511:40|511:40|486:35|465:51|469:78|453:101|480:125,1,210,4|0,1:2|0:0,0:0:0:0:
509,189,171553,2,0,P|523:206|511:186,1,70,10|0,0:0|0:0,0:0:0:0:
346,168,171725,5,2,0:0:0:0:
329,205,171811,1,4,0:0:0:0:
344,244,171897,1,2,0:0:0:0:
380,261,171984,1,0,0:0:0:0:
418,253,172070,2,0,P|446:284|446:320,1,70,6|0,0:0|0:0,0:0:0:0:
396,363,172242,2,0,P|375:375|391:353,2,70,10|0|2,0:0|0:0|0:0,0:0:0:0:
446,116,172587,6,0,P|362:124|349:187,1,140,4|0,0:0|0:0,0:0:0:0:
454,299,172846,1,4,0:0:0:0:
448,310,172932,2,0,B|466:331|478:322|494:249|398:233,1,140,2|0,0:0|0:0,0:0:0:0:
328,240,173191,2,0,B|298:260|298:260|338:251,1,70,4|0,0:0|0:0,0:0:0:0:
458,83,173363,1,2,0:0:0:0:
454,94,173449,1,4,0:0:0:0:
450,105,173535,1,0,0:0:0:0:
446,116,173622,2,0,B|369:91|369:91|321:110|321:110|230:78,1,210,4|0,0:0|0:0,0:0:0:0:
256,192,173966,12,4,175518,0:1:0:0:
36,82,176725,5,4,1:3:0:0:
141,174,176897,1,2,0:3:0:0:
159,36,177070,1,8,0:3:0:0:
48,87,177242,1,4,1:3:0:0:
153,179,177414,1,2,0:3:0:0:
171,41,177587,1,8,0:3:0:0:
63,91,177760,1,4,0:3:0:0:
168,183,177932,1,2,0:3:0:0:
186,45,178105,1,8,0:3:0:0:
75,96,178277,1,4,0:3:0:0:
180,188,178449,1,2,0:3:0:0:
198,50,178622,1,8,0:3:0:0:
91,101,178794,5,4,0:3:0:0:
118,365,178966,1,2,0:3:0:0:
98,188,179139,5,8,0:3:0:0:
108,280,179311,1,2,0:3:0:0:
481,264,179484,5,4,1:3:0:0:
357,230,179656,1,2,0:3:0:0:
393,361,179828,1,8,0:3:0:0:
467,265,180001,1,4,1:3:0:0:
343,231,180173,1,2,0:3:0:0:
379,362,180345,1,8,0:3:0:0:
453,269,180518,1,4,0:3:0:0:
329,235,180690,1,2,0:3:0:0:
365,366,180862,1,8,0:3:0:0:
439,270,181035,1,4,0:3:0:0:
315,236,181207,1,2,0:3:0:0:
351,367,181379,1,8,0:3:0:0:
423,277,181553,5,4,0:3:0:0:
222,314,181725,1,2,0:3:0:0:
455,168,181897,5,8,0:3:0:0:
156,235,182070,1,2,0:3:0:0:
367,29,182242,5,4,1:3:0:0:
340,162,182415,1,2,0:3:0:0:
247,65,182587,1,8,0:3:0:0:
352,26,182760,1,4,1:3:0:0:
325,159,182933,1,2,0:3:0:0:
232,62,183105,1,8,0:3:0:0:
333,25,183277,1,4,0:3:0:0:
306,158,183450,1,2,0:3:0:0:
213,61,183622,1,8,0:3:0:0:
352,26,183795,1,4,0:3:0:0:
313,172,183966,1,2,0:3:0:0:
198,58,184140,1,8,0:3:0:0:
371,24,184311,5,4,0:3:0:0:
485,291,184484,1,2,0:3:0:0:
403,99,184656,5,8,0:3:0:0:
448,208,184828,1,2,0:3:0:0:
93,258,185001,5,4,1:3:0:0:
67,135,185173,1,2,0:3:0:0:
175,178,185346,1,8,0:3:0:0:
103,266,185518,1,4,1:3:0:0:
77,143,185690,1,2,0:3:0:0:
185,186,185863,1,8,0:3:0:0:
113,274,186035,1,4,1:3:0:0:
87,151,186207,1,2,0:3:0:0:
194,193,186380,6,0,L|244:187,1,35,6|0,0:3|0:3,0:3:0:0:
263,262,186553,2,0,L|302:258,1,35,6|0,0:3|0:3,0:3:0:0:
323,107,186725,2,0,L|373:101,1,35,12|2,0:3|0:3,0:3:0:0:
423,288,186898,2,0,L|462:284,1,35,4|0,0:3|0:3,0:3:0:0:
479,84,187070,6,0,L|430:91,1,35,14|0,0:3|0:3,0:3:0:0:
382,194,187242,2,0,L|333:203,1,35,4|2,0:3|0:3,0:3:0:0:
218,56,187415,2,0,L|169:63,1,35,12|0,0:3|0:3,0:3:0:0:
136,320,187587,2,0,L|87:329,1,35,6|0,0:3|0:3,0:3:0:0:
97,51,187760,5,4,1:3:0:0:
168,216,187932,1,2,0:3:0:0:
133,134,188104,1,8,0:3:0:0:
226,157,188277,5,4,0:3:0:0:
53,130,188449,1,2,0:3:0:0:
139,141,188622,1,8,0:3:0:0:
87,224,188794,5,4,0:3:0:0:
203,77,188966,1,2,0:3:0:0:
144,149,189139,1,8,0:3:0:0:
115,71,189311,5,4,0:3:0:0:
185,238,189484,1,2,0:3:0:0:
150,156,189656,1,8,0:3:0:0:
276,272,189828,5,4,0:3:0:0:
283,97,190001,1,2,0:3:0:0:
361,321,190173,1,8,0:3:0:0:
439,90,190346,1,2,0:3:0:0:
456,332,190518,5,4,1:3:0:0:
385,167,190690,1,2,0:3:0:0:
420,249,190862,1,8,0:3:0:0:
324,231,191035,5,4,1:3:0:0:
497,258,191207,1,2,0:3:0:0:
411,247,191380,1,8,0:3:0:0:
459,171,191552,5,4,0:3:0:0:
343,318,191724,1,2,0:3:0:0:
402,246,191897,1,8,0:3:0:0:
429,330,192069,5,4,0:3:0:0:
359,163,192242,1,2,0:3:0:0:
394,245,192414,1,8,0:3:0:0:
280,117,192587,5,4,0:3:0:0:
262,226,192760,1,2,0:3:0:0:
241,31,192932,1,8,0:3:0:0:
137,164,193104,1,2,0:3:0:0:
126,153,193191,1,2,0:3:0:0:
118,138,193277,5,4,1:3:0:0:
66,310,193449,1,2,0:3:0:0:
92,224,193621,1,8,0:3:0:0:
155,300,193794,5,4,1:3:0:0:
40,169,193966,1,2,0:3:0:0:
99,232,194139,1,8,0:3:0:0:
13,260,194311,5,4,0:3:0:0:
196,222,194483,1,2,0:3:0:0:
0,180,194656,1,8,0:3:0:0:
140,162,194828,5,4,0:3:0:0:
86,335,195001,1,2,0:3:0:0:
74,110,195173,1,8,0:3:0:0:
226,351,195346,5,4,0:3:0:0:
85,235,195518,1,2,0:3:0:0:
361,135,195691,1,8,0:3:0:0:
223,183,195863,1,2,0:3:0:0:
456,347,196035,5,4,1:3:0:0:
304,277,196208,1,2,0:3:0:0:
327,268,196294,1,2,0:3:0:0:
351,278,196380,2,0,L|400:268,1,35,8|0,0:3|0:3,0:3:0:0:
482,185,196553,1,2,1:3:0:0:
482,185,196639,2,0,L|401:199,1,70,4|0,0:3|0:3,0:3:0:0:
361,135,196897,1,2,0:3:0:0:
198,53,197070,5,8,0:3:0:0:
223,39,197156,1,0,0:3:0:0:
245,20,197242,1,2,0:3:0:0:
272,30,197328,1,0,0:3:0:0:
302,41,197415,2,0,L|314:94,1,35,4|0,1:3|0:3,0:3:0:0:
437,82,197587,2,0,L|429:136,1,35,6|0,0:3|0:3,0:3:0:0:
236,133,197760,6,0,P|261:145|281:158,1,35,12|2,0:3|0:3,0:3:0:0:
487,186,197932,2,0,P|461:194|445:203,1,35,4|0,1:3|0:3,0:3:0:0:
168,230,198104,6,0,P|159:200|147:178,1,35,14|0,0:3|0:3,0:3:0:0:
382,302,198277,2,0,P|375:326|372:346,1,35,4|2,0:3|0:3,0:3:0:0:
59,319,198449,6,0,P|42:320|49:328,1,35,12|0,0:3|0:3,0:3:0:0:
289,233,198622,2,0,P|306:232|299:224,1,35,6|0,0:3|0:3,0:3:0:0:
38,128,198794,5,4,1:3:0:0:
157,196,198966,1,2,0:3:0:0:
115,9,199139,1,8,0:3:0:0:
229,97,199311,5,4,0:3:0:0:
110,24,199484,1,2,0:3:0:0:
152,209,199656,1,8,0:3:0:0:
28,151,199828,5,4,0:3:0:0:
147,222,200001,1,2,0:3:0:0:
105,37,200173,1,8,0:3:0:0:
220,127,200346,5,4,0:3:0:0:
100,55,200518,1,2,0:3:0:0:
142,240,200690,1,8,0:3:0:0:
18,174,200863,5,4,0:3:0:0:
139,267,201035,1,2,0:3:0:0:
113,50,201208,1,8,0:3:0:0:
234,143,201380,1,2,0:3:0:0:
342,242,201553,5,4,1:3:0:0:
512,158,201725,1,2,0:3:0:0:
390,105,201897,1,8,0:3:0:0:
442,280,202070,5,4,1:3:0:0:
370,104,202242,1,2,0:3:0:0:
492,157,202414,1,8,0:3:0:0:
301,241,202587,5,4,0:3:0:0:
471,157,202759,1,2,0:3:0:0:
349,104,202931,1,8,0:3:0:0:
401,279,203104,5,4,0:3:0:0:
329,103,203276,1,2,0:3:0:0:
451,156,203448,1,8,0:3:0:0:
273,241,203622,5,4,0:3:0:0:
219,42,203794,1,2,0:3:0:0:
79,291,203966,1,8,0:3:0:0:
27,86,204139,1,2,0:3:0:0:
27,86,204225,1,2,0:3:0:0:
27,86,204311,5,4,1:3:0:0:
161,197,204484,1,2,0:3:0:0:
32,217,204656,1,8,0:3:0:0:
151,73,204828,5,4,1:3:0:0:
44,222,205001,1,2,0:3:0:0:
173,202,205173,1,8,0:3:0:0:
51,98,205346,5,4,0:3:0:0:
185,209,205519,1,2,0:3:0:0:
65,323,205691,1,8,0:3:0:0:
248,115,205863,5,4,0:3:0:0:
218,286,206036,1,2,0:3:0:0:
60,239,206208,1,8,0:3:0:0:
323,199,206380,5,4,0:3:0:0:
131,273,206553,1,2,0:3:0:0:
57,75,206725,1,8,0:3:0:0:
247,10,206897,1,2,0:3:0:0:
455,319,207070,5,4,1:3:0:0:
295,309,207242,1,2,0:3:0:0:
451,157,207415,1,8,0:3:0:0:
277,130,207587,5,4,1:3:0:0:
443,140,207760,1,2,0:3:0:0:
287,292,207933,1,8,0:3:0:0:
437,281,208104,5,4,1:3:0:0:
277,271,208276,1,2,0:3:0:0:
434,119,208449,6,0,L|426:71,1,35,4|0,0:3|0:3,0:3:0:0:
276,47,208622,2,0,L|268:6,1,35,6|0,0:3|0:3,0:3:0:0:
354,3,208794,6,0,L|360:43,1,35,12|2,0:3|0:3,0:3:0:0:
221,110,208966,2,0,L|227:156,1,35,4|0,0:3|0:3,0:3:0:0:
325,195,209139,6,0,L|317:146,1,35,14|0,0:3|0:3,0:3:0:0:
124,139,209311,2,0,L|117:96,1,35,4|2,0:3|0:3,0:3:0:0:
173,1,209484,6,0,L|182:56,1,35,12|0,0:3|0:3,0:3:0:0:
44,178,209656,2,0,L|52:228,1,35,6|0,0:3|0:3,0:3:0:0:
230,359,209828,6,0,L|222:311,1,35,4|0,1:3|0:3,0:3:0:0:
112,332,210001,2,0,L|168:347,1,35,2|0,0:3|0:3,0:3:0:0:
144,255,210173,6,0,L|148:220,1,35,4|0,0:3|0:3,0:3:0:0:
257,224,210346,2,0,L|224:235,1,35,2|0,0:3|0:3,0:3:0:0:
208,160,210518,6,0,L|200:112,1,35,4|0,0:3|0:3,0:3:0:0:
90,133,210691,2,0,L|146:148,1,35,2|0,0:3|0:3,0:3:0:0:
122,56,210863,6,0,L|126:21,1,35,4|0,0:3|0:3,0:3:0:0:
235,25,211036,2,0,L|201:35,1,35,2|0,0:3|0:3,0:3:0:0:
294,93,211208,5,4,0:3:0:0:
414,137,211380,1,2,0:3:0:0:
435,129,211466,1,0,0:3:0:0:
439,105,211553,1,8,0:3:0:0:
366,1,211725,1,2,0:3:0:0:
356,12,211811,2,0,P|368:77|371:106,1,70,4|0,0:3|0:3,0:3:0:0:
414,137,212070,2,0,P|401:181|400:195,1,35,2|0,0:3|0:3,0:3:0:0:
328,208,212242,1,8,0:3:0:0:
469,358,212415,5,2,0:3:0:0:
469,358,212501,1,2,0:3:0:0:
469,358,212587,2,0,P|409:351|382:353,1,70,4|2,0:3|0:3,0:3:0:0:
476,262,212932,1,8,0:3:0:0:
332,287,213104,1,2,0:3:0:0:
332,287,213191,2,0,P|371:276|406:270,1,70,4|0,0:3|0:3,0:3:0:0:
427,197,213449,2,0,P|397:189|367:176,1,35,2|0,0:3|0:3,0:3:0:0:
331,137,213622,1,8,0:3:0:0:
221,243,213794,5,2,0:3:0:0:
221,243,213880,1,2,0:3:0:0:
221,243,213966,2,0,P|230:299|231:330,1,70,4|2,0:3|0:3,0:3:0:0:
166,353,214225,1,0,0:3:0:0:
161,339,214311,1,8,0:3:0:0:
307,299,214484,1,2,0:3:0:0:
307,299,214570,2,0,L|295:374,1,70,4|0,0:3|0:3,0:3:0:0:
230,312,214828,2,0,L|236:263,1,35,2|0,0:3|0:3,0:3:0:0:
286,214,215001,1,8,0:3:0:0:
135,175,215173,5,2,0:3:0:0:
135,175,215260,1,2,0:3:0:0:
135,175,215346,2,0,P|87:185|36:190,1,70,4|0,0:3|0:3,0:3:0:0:
54,66,215691,2,0,L|32:-2,1,70,8|0,0:3|0:3,0:3:0:0:
127,87,215949,2,0,L|136:43,1,35,4|0,0:3|0:3,0:3:0:0:
5,127,216208,1,4,0:3:0:0:
204,117,216380,2,0,P|262:137|295:158,1,70,8|0,0:3|0:3,0:3:0:0:
339,167,216639,5,0,0:3:0:0:
345,154,216725,2,0,L|336:59,1,70,4|0,0:3|0:3,0:3:0:0:
271,31,216984,1,0,0:3:0:0:
277,41,217070,1,8,0:3:0:0:
412,20,217242,2,0,L|324:6,1,70,4|0,0:3|0:3,0:3:0:0:
318,240,217587,1,4,0:3:0:0:
404,222,217760,2,0,L|511:206,1,105,8|0,0:3|0:3,0:3:0:0:
507,206,218104,6,0,B|506:160|476:133|476:133|504:108|504:108|483:78|493:32|493:32|511:32|511:32|378:33|378:33|377:33|377:33|338:13|338:13|364:72|364:72|358:94|358:94|372:135|372:135,1,503.999984619141,2|0,0:3|0:3,0:3:0:0:
365,115,219484,5,2,0:0:0:0:
354,270,219656,1,2,0:0:0:0:
205,315,219828,1,2,0:0:0:0:
122,216,220000,1,2,0:0:0:0:
174,120,220173,1,2,0:0:0:0:
129,26,220345,1,2,0:0:0:0:
53,41,220518,1,2,0:0:0:0:
48,72,220691,1,2,0:0:0:0:
174,120,220863,6,0,B|246:111|275:174|275:174|279:121|275:70|317:95|365:165|417:160|468:90|468:90|430:2|341:18|316:43,1,566.999982696534,4|0,0:1|0:0,0:0:0:0:
325,35,231897,6,0,B|386:59|378:137|378:137|314:92|218:119|238:165|281:198|345:216|345:216|354:193|285:156|280:197|312:268|312:268|294:291|295:327|295:327,1,566.999982696534,4|0,0:1|0:0,0:0:0:0:
341,378,242932,6,2,B|338:353|306:349|274:363|250:362|230:343|235:322|253:305|286:296|315:299|340:314|345:322|346:324|346:324|332:270|356:220|382:202|396:191|407:153|400:114|381:75|358:49|314:35|233:49|171:82|151:113|146:158|161:200|174:232|191:249|206:259|212:259|222:262|250:263|261:262|273:255|287:246|296:240|300:224|301:210|298:192|297:186|286:175|303:135|289:103|254:125|230:146|209:158|193:162|177:197|180:243|-97:48|84:229|79:239|73:246|69:255|-7:211|-67:228|-25:269|3:287|-3:297|-7:306|-14:323|-14:337|-21:352|-11:359|-4:367|9:374|27:384|34:382|48:382|64:376|78:370|91:363|98:360|108:343|116:333|125:311|129:297|129:287|130:274|125:259|111:211|71:151|43:95|60:58|108:47|107:11|140:0|175:-1,1,1680.00006408692,4|4,0:1|0:0,0:1:0:0:
256,192,252587,12,0,253880,0:0:0:0:
138,7,253966,6,2,B|147:1|147:1|150:7|150:7|163:2|163:2|171:8|171:8|177:-2|177:-2|189:5|189:5|214:-2|214:-2|239:7|239:7|262:-4|262:-4|288:2|288:2|300:-6|300:-6|323:-19|323:-19|361:-5|361:-5|406:66|406:66|46:120|46:120|-14:173|-8:232|16:273|53:301|105:297|145:285|160:274|173:252|176:222|175:200|191:178|232:161|289:167|337:188|358:221|362:268|362:268|363:305|361:311|359:317|358:324|355:333|352:342|347:347|336:353|319:362|307:363|284:364|278:373|264:373|264:373|230:333|199:337|199:337|239:308|242:297|237:267|266:234|419:275|467:286|467:286|487:256|525:210|470:133|470:133|437:153|431:180,1,2015.99993847656,4|4,0:2|0:0,0:1:0:0:
256,192,259570,12,0,261897,0:0:0:0:
225,33,262242,6,0,L|217:-14,1,26.2500010013581,4|0,0:3|0:3,0:3:0:0:
314,59,262415,2,0,L|307:14,1,26.2500010013581,4|0,0:3|0:3,0:3:0:0:
155,97,262587,1,8,0:3:0:0:
359,138,262760,5,0,0:3:0:0:
359,138,262846,2,0,P|396:132|435:105,1,52.5000020027161,8|0,0:3|0:3,0:3:0:0:
294,196,263018,2,0,P|257:183|234:167,1,52.5000020027161,8|0,0:3|0:3,0:3:0:0:
378,303,263191,2,0,L|401:243,1,52.5000020027161,4|0,0:3|0:3,0:3:0:0:
393,238,263334,53,8,0:3:0:0:
388,228,263391,1,8,0:3:0:0:
375,221,263449,6,0,P|396:281|412:345,1,105.000004005432,4|0,0:3|0:3,0:3:0:0:
482,362,263708,2,0,P|494:324|506:302,1,52.5000020027161,8|0,0:3|0:3,0:3:0:0:
505,165,263880,1,8,0:3:0:0:
512,181,263966,2,0,L|386:154,1,105.000004005432,4|0,0:3|0:3,0:3:0:0:
365,70,264225,2,0,L|410:62,1,26.2500010013581,8|0,0:3|0:3,0:3:0:0:
390,65,265001,6,0,L|275:50,1,94.5000003604889,4|2,1:0|0:0,0:0:0:0:
270,72,265260,1,0,0:0:0:0:
234,60,265346,1,10,0:0:0:0:
212,26,265432,1,0,0:0:0:0:
176,11,265518,1,2,0:0:0:0:
134,12,265604,1,0,0:0:0:0:
103,32,265691,1,2,0:0:0:0:
86,74,265777,1,0,0:0:0:0:
110,114,265863,1,10,0:0:0:0:
149,129,265949,1,0,0:0:0:0:
185,128,266035,1,2,0:0:0:0:
211,141,266122,1,0,0:0:0:0:
224,157,266208,1,2,0:0:0:0:
227,167,266294,1,0,0:0:0:0:
230,180,266380,5,6,0:0:0:0:
226,198,266466,1,0,0:0:0:0:
191,217,266553,1,2,0:0:0:0:
150,215,266639,1,0,0:0:0:0:
119,184,266725,1,10,0:0:0:0:
70,181,266811,1,0,0:0:0:0:
41,195,266897,1,2,0:0:0:0:
27,217,266984,1,0,0:0:0:0:
13,237,267070,5,2,0:0:0:0:
23,248,267156,1,0,0:0:0:0:
34,276,267242,1,10,0:0:0:0:
22,310,267328,1,0,0:0:0:0:
32,347,267415,1,2,0:0:0:0:
44,358,267501,1,0,0:0:0:0:
76,370,267587,1,6,0:0:0:0:
121,354,267673,1,0,0:0:0:0:
159,361,267760,5,6,0:0:0:0:
189,341,267846,1,0,0:0:0:0:
209,306,267932,1,2,0:0:0:0:
207,268,268018,1,0,0:0:0:0:
192,233,268104,1,10,0:0:0:0:
158,206,268191,1,0,0:0:0:0:
129,179,268277,1,2,0:0:0:0:
114,140,268363,1,0,0:0:0:0:
125,89,268449,5,2,0:0:0:0:
164,60,268535,1,0,0:0:0:0:
206,71,268622,1,10,0:0:0:0:
234,101,268708,1,0,0:0:0:0:
268,122,268794,1,6,0:0:0:0:
303,125,268880,1,0,0:0:0:0:
331,119,268966,1,2,0:0:0:0:
351,101,269053,1,0,0:0:0:0:
363,78,269139,5,6,0:0:0:0:
380,95,269225,1,0,0:0:0:0:
389,123,269311,1,2,0:0:0:0:
375,159,269397,1,0,0:0:0:0:
338,188,269484,1,10,0:0:0:0:
287,181,269570,1,0,0:0:0:0:
248,141,269656,1,2,0:0:0:0:
241,90,269742,1,0,0:0:0:0:
261,41,269828,1,2,0:0:0:0:
299,14,269915,1,0,0:0:0:0:
353,0,270001,1,2,0:0:0:0:
406,7,270087,1,0,0:0:0:0:
452,37,270173,1,6,0:0:0:0:
473,74,270260,1,0,0:0:0:0:
477,107,270346,1,10,0:0:0:0:
471,125,270432,1,0,0:0:0:0:
465,140,270517,5,6,0:0:0:0:
443,154,270604,1,0,0:0:0:0:
410,157,270690,1,2,0:0:0:0:
378,138,270776,1,0,0:0:0:0:
361,101,270862,1,10,0:0:0:0:
316,82,270948,1,0,0:0:0:0:
267,93,271035,1,2,0:0:0:0:
239,130,271121,1,0,0:0:0:0:
245,170,271207,1,2,0:0:0:0:
279,200,271293,1,0,0:0:0:0:
316,202,271379,1,10,0:0:0:0:
351,187,271466,1,0,0:0:0:0:
394,180,271552,1,2,0:0:0:0:
436,199,271638,1,0,0:0:0:0:
456,233,271724,1,6,0:0:0:0:
448,277,271810,1,0,0:0:0:0:
412,307,271897,5,6,0:0:0:0:
382,305,271984,1,0,0:0:0:0:
354,290,272070,1,2,0:0:0:0:
330,258,272156,1,0,0:0:0:0:
285,238,272242,1,10,0:0:0:0:
236,263,272328,1,0,0:0:0:0:
216,294,272415,1,2,0:0:0:0:
217,321,272501,1,0,0:0:0:0:
230,338,272587,1,2,0:0:0:0:
246,344,272673,1,0,0:0:0:0:
265,333,272760,1,10,0:0:0:0:
263,301,272846,1,0,0:0:0:0:
232,271,272932,1,2,0:0:0:0:
186,270,273018,1,0,0:0:0:0:
139,286,273104,1,6,0:0:0:0:
90,272,273191,1,0,0:0:0:0:
61,231,273277,5,6,0:0:0:0:
57,183,273363,1,0,0:0:0:0:
92,154,273449,1,2,0:0:0:0:
141,161,273535,1,0,0:0:0:0:
187,156,273622,1,10,0:0:0:0:
215,133,273708,1,0,0:0:0:0:
224,102,273794,1,2,0:0:0:0:
217,71,273880,1,0,0:0:0:0:
198,51,273966,5,2,0:0:0:0:
174,67,274053,1,0,0:0:0:0:
170,99,274139,1,10,0:0:0:0:
194,130,274225,1,0,0:0:0:0:
240,126,274311,1,6,0:0:0:0:
274,100,274397,1,0,0:0:0:0:
300,50,274484,1,2,0:0:0:0:
337,29,274570,1,0,0:0:0:0:
388,38,274656,5,6,0:0:0:0:
426,74,274742,1,0,0:0:0:0:
427,119,274828,1,6,0:0:0:0:
401,157,274915,1,0,0:0:0:0:
372,175,275001,1,10,0:0:0:0:
334,166,275087,1,0,0:0:0:0:
318,147,275173,1,6,0:0:0:0:
310,129,275260,1,0,0:0:0:0:
311,116,275346,1,10,0:0:0:0:
315,102,275432,1,0,0:0:0:0:
323,96,275518,1,6,0:0:0:0:
331,93,275604,1,0,0:0:0:0:
340,95,275691,1,10,0:0:0:0:
347,99,275777,1,0,0:0:0:0:
350,102,275863,1,2,0:0:0:0:
353,105,275949,1,2,0:0:0:0:
357,108,276035,6,0,L|369:209,1,94.5000003604889,4|2,1:0|0:0,0:0:0:0:
353,232,276294,1,0,0:0:0:0:
379,266,276380,1,10,0:0:0:0:
425,277,276466,1,0,0:0:0:0:
470,254,276553,1,2,0:0:0:0:
492,201,276639,1,0,0:0:0:0:
483,146,276725,5,2,0:0:0:0:
436,119,276811,1,0,0:0:0:0:
405,153,276897,1,10,0:0:0:0:
406,202,276984,1,0,0:0:0:0:
439,236,277070,1,2,0:0:0:0:
470,276,277156,1,0,0:0:0:0:
467,326,277242,1,6,0:0:0:0:
452,350,277328,1,0,0:0:0:0:
431,360,277415,5,6,0:0:0:0:
392,359,277501,1,0,0:0:0:0:
361,333,277587,1,2,0:0:0:0:
354,284,277673,1,0,0:0:0:0:
367,244,277760,1,10,0:0:0:0:
352,201,277846,1,0,0:0:0:0:
303,185,277932,1,2,0:0:0:0:
275,200,278018,1,0,0:0:0:0:
262,221,278104,5,2,0:0:0:0:
258,237,278191,1,0,0:0:0:0:
264,260,278277,1,10,0:0:0:0:
282,300,278363,1,0,0:0:0:0:
270,341,278449,1,6,0:0:0:0:
263,356,278535,1,0,0:0:0:0:
231,370,278622,1,2,0:0:0:0:
187,351,278708,1,0,0:0:0:0:
175,298,278794,5,6,0:0:0:0:
147,259,278880,1,0,0:0:0:0:
108,243,278966,1,2,0:0:0:0:
61,253,279053,1,0,0:0:0:0:
19,226,279139,1,10,0:0:0:0:
8,173,279225,1,0,0:0:0:0:
34,129,279311,1,2,0:0:0:0:
78,117,279397,1,0,0:0:0:0:
112,139,279484,1,2,0:0:0:0:
134,157,279570,1,0,0:0:0:0:
164,165,279656,1,10,0:0:0:0:
208,151,279742,1,0,0:0:0:0:
243,105,279828,1,6,0:0:0:0:
242,58,279915,1,0,0:0:0:0:
209,15,280001,1,2,0:0:0:0:
167,9,280087,1,0,0:0:0:0:
139,18,280173,5,6,0:0:0:0:
121,35,280260,1,0,0:0:0:0:
103,65,280346,1,2,0:0:0:0:
102,114,280432,1,0,0:0:0:0:
131,162,280518,1,10,0:0:0:0:
166,199,280604,1,0,0:0:0:0:
172,249,280691,1,6,0:0:0:0:
144,296,280777,1,0,0:0:0:0:
94,305,280863,1,2,0:0:0:0:
44,286,280949,1,0,0:0:0:0:
31,237,281035,1,10,0:0:0:0:
39,199,281122,1,0,0:0:0:0:
59,165,281208,1,6,0:0:0:0:
71,138,281294,1,0,0:0:0:0:
72,116,281380,1,2,0:0:0:0:
63,101,281466,1,0,0:0:0:0:
46,85,281553,5,6,0:0:0:0:
30,112,281639,1,0,0:0:0:0:
42,149,281725,1,2,0:0:0:0:
71,170,281811,1,0,0:0:0:0:
117,176,281897,1,10,0:0:0:0:
158,149,281984,1,0,0:0:0:0:
177,103,282070,1,2,0:0:0:0:
196,58,282156,1,0,0:0:0:0:
230,30,282242,5,2,0:0:0:0:
275,19,282328,1,0,0:0:0:0:
320,42,282415,1,10,0:0:0:0:
338,87,282501,1,0,0:0:0:0:
329,131,282587,1,2,0:0:0:0:
325,174,282673,1,0,0:0:0:0:
347,209,282760,1,6,0:0:0:0:
389,221,282846,1,0,0:0:0:0:
434,199,282932,5,6,0:0:0:0:
414,158,283018,1,0,0:0:0:0:
377,141,283104,1,2,0:0:0:0:
336,142,283191,1,0,0:0:0:0:
305,161,283277,1,10,0:0:0:0:
273,188,283363,1,0,0:0:0:0:
226,199,283449,1,2,0:0:0:0:
183,179,283535,1,0,0:0:0:0:
161,141,283622,1,2,0:0:0:0:
174,95,283708,1,0,0:0:0:0:
212,90,283794,1,10,0:0:0:0:
232,120,283880,1,0,0:0:0:0:
220,159,283966,1,2,0:0:0:0:
201,185,284053,1,0,0:0:0:0:
205,217,284139,1,2,0:0:0:0:
218,235,284225,1,0,0:0:0:0:
237,244,284311,5,6,0:0:0:0:
278,229,284397,1,0,0:0:0:0:
309,191,284484,1,2,0:0:0:0:
354,196,284570,1,0,0:0:0:0:
385,238,284656,1,10,0:0:0:0:
364,277,284742,1,0,0:0:0:0:
383,322,284828,1,6,0:0:0:0:
433,333,284915,1,0,0:0:0:0:
471,299,285001,5,2,0:0:0:0:
449,261,285087,1,0,0:0:0:0:
401,250,285173,1,10,0:0:0:0:
361,267,285260,1,0,0:0:0:0:
328,294,285346,1,2,0:0:0:0:
291,318,285432,1,0,0:0:0:0:
256,321,285518,1,10,0:0:0:0:
235,309,285604,1,0,0:0:0:0:
222,286,285691,5,6,0:0:0:0:
223,246,285777,1,0,0:0:0:0:
251,209,285863,1,2,0:0:0:0:
257,162,285949,1,0,0:0:0:0:
233,126,286035,1,10,0:0:0:0:
185,100,286122,1,0,0:0:0:0:
136,114,286208,1,6,0:0:0:0:
110,157,286294,1,0,0:0:0:0:
109,193,286380,1,10,0:0:0:0:
118,219,286466,1,0,0:0:0:0:
130,232,286553,1,6,0:0:0:0:
140,239,286639,1,0,0:0:0:0:
151,243,286725,1,10,0:0:0:0:
156,244,286811,1,0,0:0:0:0:
163,244,286897,1,2,0:0:0:0:
169,244,286984,1,0,0:0:0:0:
174,242,287070,6,0,P|169:182|152:131,1,94.5000003604889,4|2,1:0|0:0,0:0:0:0:
72,18,287415,2,0,P|55:76|45:130,1,94.5000003604889,8|0,0:0|0:0,0:0:0:0:
51,125,287673,1,2,0:0:0:0:
56,136,287760,1,2,0:0:0:0:
247,167,287932,2,0,L|361:154,1,94.5000003604889,8|0,0:0|0:0,0:0:0:0:
351,162,288191,1,2,0:0:0:0:
362,168,288277,1,2,0:0:0:0:
372,173,288363,1,0,0:0:0:0:
381,179,288449,5,4,0:0:0:0:
506,168,288622,1,2,0:0:0:0:
448,3,288794,2,0,P|451:56|437:109,1,94.5000003604889,8|0,0:0|0:0,0:0:0:0:
435,105,289053,1,2,0:0:0:0:
427,112,289139,1,2,0:0:0:0:
381,179,289311,1,8,0:0:0:0:
489,296,289484,1,4,0:0:0:0:
482,287,289570,1,0,0:0:0:0:
472,279,289656,2,0,P|461:245|461:217,1,47.2500001802444,2|0,0:0|0:0,0:0:0:0:
506,168,289828,5,4,0:0:0:0:
302,345,290001,1,2,0:0:0:0:
302,345,290087,1,0,0:0:0:0:
302,345,290173,2,0,L|194:357,1,94.5000003604889,8|0,0:0|0:0,0:0:0:0:
194,364,290432,1,2,0:0:0:0:
184,374,290518,1,2,0:0:0:0:
50,256,290691,2,0,P|28:203|29:144,1,94.5000003604889,8|2,0:0|0:0,0:0:0:0:
53,357,291035,1,4,0:0:0:0:
196,144,291208,5,4,0:0:0:0:
139,238,291380,1,2,0:0:0:0:
139,238,291466,1,0,0:0:0:0:
139,238,291553,2,0,L|244:252,1,94.5000003604889,8|0,0:0|0:0,0:0:0:0:
246,246,291811,1,2,0:0:0:0:
259,241,291897,1,2,0:0:0:0:
272,236,291984,1,0,0:0:0:0:
285,232,292070,1,4,0:0:0:0:
358,324,292242,1,8,0:0:0:0:
323,156,292415,2,0,L|377:170,1,47.2500001802444,2|0,0:0|0:0,0:0:0:0:
481,275,292587,5,4,0:0:0:0:
394,250,292760,1,2,0:0:0:0:
461,182,292932,2,0,P|469:127|452:71,1,94.5000003604889,8|0,0:0|0:0,0:0:0:0:
451,78,293191,1,2,0:0:0:0:
441,67,293277,1,2,0:0:0:0:
254,6,293449,2,0,L|271:115,1,94.5000003604889,8|0,0:0|0:0,0:0:0:0:
354,46,293794,1,2,0:0:0:0:
171,66,293966,5,4,0:0:0:0:
280,211,294139,1,2,0:0:0:0:
280,211,294225,1,0,0:0:0:0:
280,211,294311,2,0,P|352:223|390:234,1,94.5000003604889,8|0,0:0|0:0,0:0:0:0:
386,232,294570,1,2,0:0:0:0:
398,237,294656,1,2,0:0:0:0:
414,356,294828,1,8,0:0:0:0:
504,339,295001,1,4,0:0:0:0:
509,326,295087,1,0,0:0:0:0:
512,312,295173,2,0,P|510:273|498:238,1,47.2500001802444,2|0,0:0|0:0,0:0:0:0:
478,152,295346,5,4,0:0:0:0:
322,303,295518,1,2,0:0:0:0:
322,303,295604,1,0,0:0:0:0:
322,303,295691,2,0,L|226:321,1,94.5000003604889,8|0,0:0|0:0,0:0:0:0:
215,323,295949,1,2,0:0:0:0:
201,326,296035,1,2,0:0:0:0:
192,130,296208,2,0,L|156:240,1,94.5000003604889,8|2,0:0|0:0,0:0:0:0:
151,228,296466,1,0,0:0:0:0:
137,231,296553,1,2,0:0:0:0:
123,233,296639,1,0,0:0:0:0:
108,233,296725,5,4,0:0:0:0:
34,121,296897,1,2,0:0:0:0:
34,121,296984,1,0,0:0:0:0:
34,121,297070,2,0,P|32:60|64:14,1,94.5000003604889,8|2,0:0|0:0,0:0:0:0:
69,23,297328,1,0,0:0:0:0:
91,18,297415,2,0,L|146:9,2,47.2500001802444,8|0|2,0:0|0:0|0:0,0:0:0:0:
192,130,297760,1,8,0:0:0:0:
117,100,297932,1,10,0:0:0:0:
264,13,298104,6,0,L|271:68,1,47.2500001802444,4|0,1:0|0:0,0:0:0:0:
351,89,298277,2,0,L|345:40,1,47.2500001802444,2|0,0:0|0:0,0:0:0:0:
255,6,298449,2,0,L|270:118,1,94.5000003604889,8|0,0:0|0:0,0:0:0:0:
275,111,298708,1,2,0:0:0:0:
283,122,298794,1,2,0:0:0:0:
453,195,298966,2,0,P|466:135|487:96,1,94.5000003604889,8|0,0:0|0:0,0:0:0:0:
474,92,299225,1,2,0:0:0:0:
468,79,299311,1,2,0:0:0:0:
372,101,299484,5,4,0:0:0:0:
419,280,299656,1,2,0:0:0:0:
419,280,299742,1,0,0:0:0:0:
419,280,299828,2,0,P|486:284|522:252,1,94.5000003604889,8|0,0:0|0:0,0:0:0:0:
459,204,300087,1,2,0:0:0:0:
446,194,300173,2,0,P|419:185|386:191,1,47.2500001802444,2|0,0:0|0:0,0:0:0:0:
339,249,300346,1,8,0:0:0:0:
372,101,300518,2,0,P|342:138|336:162,1,47.2500001802444
266,140,300691,2,0,P|250:110|246:88,1,47.2500001802444,2|0,0:0|0:0,0:0:0:0:
259,23,300863,5,4,0:0:0:0:
219,206,301035,1,2,0:0:0:0:
219,206,301122,1,0,0:0:0:0:
219,206,301208,2,0,L|231:309,1,94.5000003604889,8|0,0:0|0:0,0:0:0:0:
232,313,301466,1,2,0:0:0:0:
235,326,301553,1,2,0:0:0:0:
72,292,301725,2,0,L|79:238,1,47.2500001802444,8|0,0:0|0:0,0:0:0:0:
150,313,301897,2,0,L|157:373,2,47.2500001802444,4|0|2,0:0|0:0|0:0,0:0:0:0:
12,180,302242,5,4,0:0:0:0:
151,195,302415,1,2,0:0:0:0:
151,195,302501,1,0,0:0:0:0:
151,195,302587,2,0,P|166:132|132:76,1,94.5000003604889,8|0,0:0|0:0,0:0:0:0:
144,99,302846,1,2,0:0:0:0:
131,92,302932,1,2,0:0:0:0:
201,5,303104,1,8,0:0:0:0:
35,13,303277,1,0,0:0:0:0:
35,13,303363,1,0,0:0:0:0:
35,13,303449,2,0,L|45:71,1,47.2500001802444,2|0,0:0|0:0,0:0:0:0:
59,144,303622,5,4,0:0:0:0:
249,117,303794,1,2,0:0:0:0:
110,26,303966,2,0,P|150:76|156:124,1,94.5000003604889,8|0,0:0|0:0,0:0:0:0:
152,167,304225,2,2,P|157:133|169:115,1,47.2500001802444
291,28,304484,6,0,P|259:56|245:110,1,94.5000003604889,8|0,0:0|0:0,0:0:0:0:
249,117,304742,1,0,0:0:0:0:
253,130,304828,2,0,P|267:153|268:188,1,47.2500001802444,2|0,0:0|0:0,0:0:0:0:
217,248,305001,5,4,0:0:0:0:
324,295,305173,1,2,0:0:0:0:
324,295,305260,1,0,0:0:0:0:
324,295,305346,2,0,L|420:310,1,94.5000003604889,8|2,0:0|0:0,0:0:0:0:
432,312,305604,1,0,0:0:0:0:
446,314,305691,1,2,0:0:0:0:
459,317,305777,1,0,0:0:0:0:
472,320,305863,1,10,0:0:0:0:
295,211,306035,1,4,0:0:0:0:
270,367,306208,2,0,L|202:379,1,47.2500001802444,2|0,0:0|0:0,0:0:0:0:
170,316,306380,5,4,0:0:0:0:
87,307,306553,1,2,0:0:0:0:
80,330,306639,1,0,0:0:0:0:
92,352,306725,1,8,0:0:0:0:
170,316,306897,5,2,0:0:0:0:
179,279,306984,1,0,0:0:0:0:
179,241,307070,1,2,0:0:0:0:
166,205,307156,1,0,0:0:0:0:
144,174,307242,1,10,0:0:0:0:
26,2,307415,2,0,L|33:57,1,47.2500001802444,4|0,0:0|0:0,0:0:0:0:
0,118,307587,1,2,0:0:0:0:
179,99,307760,5,4,0:0:0:0:
192,101,307846,1,0,0:0:0:0:
205,103,307932,1,6,0:0:0:0:
218,105,308018,1,0,0:0:0:0:
231,107,308104,2,0,L|218:6,1,94.5000003604889,8|2,0:0|0:0,0:0:0:0:
298,33,308363,1,0,0:0:0:0:
298,33,308449,2,0,L|304:84,1,47.2500001802444,2|0,0:0|0:0,0:0:0:0:
377,47,308622,1,6,0:0:0:0:
479,32,308794,1,2,0:0:0:0:
465,34,308880,1,0,0:0:0:0:
451,36,308966,1,10,0:0:0:0:
454,251,309139,5,4,1:0:0:0:
454,251,309484,2,0,L|427:112,1,140,8|0,0:0|0:0,0:0:0:0:
353,266,310001,2,0,L|342:358,1,70,8|0,0:0|0:0,0:0:0:0:
476,335,310346,1,4,0:0:0:0:
427,113,310518,5,4,0:0:0:0:
427,113,310863,2,0,P|350:73|290:88,1,140,8|2,0:0|0:0,0:0:0:0:
218,68,311380,2,0,L|201:-6,1,70,8|0,0:0|0:0,0:0:0:0:
338,154,311725,2,0,L|330:199,1,35,2|0,0:0|0:0,0:0:0:0:
277,242,311897,5,4,0:0:0:0:
277,242,312242,2,0,L|124:263,1,140,8|0,0:0|0:0,0:0:0:0:
63,317,312760,2,0,P|48:268|30:245,1,70,8|0,0:0|0:0,0:0:0:0:
143,363,313104,1,4,0:0:0:0:
168,167,313277,5,4,0:0:0:0:
168,167,313622,2,0,P|206:116|296:122,1,140,8|2,0:0|0:0,0:0:0:0:
408,137,314139,2,0,P|357:161|337:154,1,70,8|0,0:0|0:0,0:0:0:0:
290,1,314484,2,0,L|301:51,1,35,2|0,0:0|0:0,0:0:0:0:
277,111,314656,5,4,0:0:0:0:
277,111,315001,2,0,L|268:260,1,140,8|0,0:0|0:0,0:0:0:0:
203,316,315518,2,0,P|179:274|182:236,1,70,8|0,0:0|0:0,0:0:0:0:
359,182,315863,1,4,0:0:0:0:
309,364,316035,5,4,0:0:0:0:
309,364,316380,2,0,L|462:340,1,140,8|2,0:0|0:0,0:0:0:0:
479,263,316897,2,0,P|483:231|495:189,1,70,8|0,0:0|0:0,0:0:0:0:
442,31,317242,2,0,L|452:77,1,35,2|0,0:0|0:0,0:0:0:0:
413,131,317415,5,4,0:0:0:0:
413,131,317760,2,0,P|354:108|267:113,1,140,8|0,0:0|0:0,0:0:0:0:
193,78,318277,2,0,L|183:1,1,70,8|0,0:0|0:0,0:0:0:0:
271,179,318622,2,0,L|280:89,1,70,8|0,0:0|0:0,0:0:0:0:
135,150,318966,1,4,0:0:0:0:
259,251,319139,6,0,L|249:161,1,70,8|0,0:0|0:0,0:0:0:0:
160,313,319484,2,0,L|166:217,1,70,8|0,0:0|0:0,0:0:0:0:
308,339,319828,1,2,0:0:0:0:
244,365,320001,1,8,0:0:0:0:
450,370,320173,5,4,1:0:0:0:
256,192,320260,12,0,331035,0:0:0:0:
