osu file format v14

[General]
AudioFilename: audio.mp3
AudioLeadIn: 0
PreviewTime: 64221
Countdown: 0
SampleSet: Soft
StackLeniency: 0.7
Mode: 3
LetterboxInBreaks: 0
SpecialStyle: 0
WidescreenStoryboard: 0

[Editor]
DistanceSpacing: 1.1
BeatDivisor: 16
GridSize: 8
TimelineZoom: 2.6

[Metadata]
Title:Frontline
TitleUnicode:Frontline
Artist:B@kamin & M2U feat. Guriri
ArtistUnicode:B@kamin & M2U feat. Guriri
Creator:Meowstic
Version:NM
Source:Girl’s Frontline
Tags:Girl’sFrontline Guriri M2U B@kamin
BeatmapID:1581730
BeatmapSetID:751282

[Difficulty]
HPDrainRate:7
CircleSize:4
OverallDifficulty:7
ApproachRate:5
SliderMultiplier:1.4
SliderTickRate:1

[Events]
//Background and Video events
0,0,"a.jpg",0,0
//Break Periods
//Storyboard Layer 0 (Background)
//Storyboard Layer 1 (Fail)
//Storyboard Layer 2 (Pass)
//Storyboard Layer 3 (Foreground)
//Storyboard Sound Samples

[TimingPoints]
24752,606.060606060606,4,2,0,10,1,0
64751,-100,4,2,0,10,0,1
84297,-100,4,2,0,10,0,0

[HitObjects]
448,192,307,5,0,0:0:0:0:
320,192,358,1,0,0:0:0:0:
192,192,433,1,0,0:0:0:0:
320,192,1216,1,0,0:0:0:0:
192,192,1469,1,0,0:0:0:0:
64,192,1721,1,0,0:0:0:0:
320,192,1948,1,0,0:0:0:0:
192,192,2176,1,0,0:0:0:0:
320,192,2403,1,0,0:0:0:0:
64,192,2706,1,0,0:0:0:0:
192,192,2984,1,0,0:0:0:0:
448,192,3186,1,0,0:0:0:0:
320,192,3438,1,0,0:0:0:0:
192,192,3691,1,0,0:0:0:0:
64,192,3994,1,0,0:0:0:0:
320,192,4259,1,0,0:0:0:0:
192,192,4827,1,0,0:0:0:0:
448,192,4903,1,0,0:0:0:0:
64,192,5206,1,0,0:0:0:0:
320,192,5509,1,0,0:0:0:0:
448,192,5509,1,0,0:0:0:0:
192,192,5736,1,0,0:0:0:0:
64,192,6039,1,0,0:0:0:0:
448,192,6039,1,0,0:0:0:0:
320,192,6342,1,0,0:0:0:0:
64,192,6645,1,0,0:0:0:0:
192,192,7327,1,0,0:0:0:0:
320,192,7681,1,0,0:0:0:0:
448,192,7984,1,0,0:0:0:0:
192,192,8236,1,0,0:0:0:0:
448,192,8464,1,0,0:0:0:0:
320,192,8539,1,0,0:0:0:0:
192,192,8577,1,0,0:0:0:0:
64,192,8615,1,0,0:0:0:0:
64,192,8943,1,0,0:0:0:0:
192,192,9297,1,0,0:0:0:0:
320,192,9297,1,0,0:0:0:0:
448,192,9676,1,0,0:0:0:0:
320,192,9676,1,0,0:0:0:0:
192,192,10017,1,0,0:0:0:0:
448,192,10017,1,0,0:0:0:0:
64,192,10358,1,0,0:0:0:0:
320,192,10509,1,0,0:0:0:0:
192,192,10560,1,0,0:0:0:0:
64,192,10610,1,0,0:0:0:0:
448,192,10661,1,0,0:0:0:0:
320,192,10711,1,0,0:0:0:0:
192,192,10762,1,0,0:0:0:0:
64,192,10812,1,0,0:0:0:0:
192,192,11065,1,0,0:0:0:0:
320,192,11418,1,0,0:0:0:0:
448,192,11418,1,0,0:0:0:0:
192,192,11923,1,0,0:0:0:0:
320,192,11923,1,0,0:0:0:0:
64,192,12365,1,0,0:0:0:0:
192,192,12365,1,0,0:0:0:0:
320,192,12555,1,0,0:0:0:0:
448,192,12744,1,0,0:0:0:0:
192,192,12744,1,0,0:0:0:0:
64,192,13085,1,0,0:0:0:0:
448,192,13426,1,0,0:0:0:0:
320,192,13767,1,0,0:0:0:0:
192,192,13918,1,0,0:0:0:0:
64,192,13994,1,0,0:0:0:0:
448,192,14145,1,0,0:0:0:0:
320,192,14145,1,0,0:0:0:0:
320,192,14941,1,0,0:0:0:0:
192,192,14941,1,0,0:0:0:0:
448,192,15661,1,0,0:0:0:0:
320,192,15711,1,0,0:0:0:0:
64,192,15762,1,0,0:0:0:0:
192,192,16166,1,0,0:0:0:0:
320,192,16519,1,0,0:0:0:0:
192,192,16822,1,0,0:0:0:0:
320,192,17125,1,0,0:0:0:0:
448,192,17428,1,0,0:0:0:0:
320,192,17731,1,0,0:0:0:0:
192,192,18135,1,0,0:0:0:0:
64,192,18615,1,0,0:0:0:0:
320,192,18615,1,0,0:0:0:0:
192,192,20168,128,0,24751:0:0:0:0:
448,192,23539,128,0,24751:0:0:0:0:
64,192,24751,5,0,0:0:0:0:
320,192,24751,1,0,0:0:0:0:
320,192,25055,128,0,25206:0:0:0:0:
192,192,25206,1,0,0:0:0:0:
448,192,25206,128,0,25358:0:0:0:0:
192,192,25661,128,0,25812:0:0:0:0:
64,192,25812,1,0,0:0:0:0:
320,192,25812,128,0,25964:0:0:0:0:
64,192,26267,128,0,26418:0:0:0:0:
320,192,26418,1,0,0:0:0:0:
192,192,26418,128,0,26570:0:0:0:0:
448,192,26570,1,0,0:0:0:0:
320,192,26721,128,0,26873:0:0:0:0:
192,192,26873,128,0,27024:0:0:0:0:
448,192,27024,1,0,0:0:0:0:
64,192,27176,1,0,0:0:0:0:
320,192,27176,128,0,27327:0:0:0:0:
448,192,27479,128,0,27630:0:0:0:0:
64,192,27630,1,0,0:0:0:0:
320,192,27630,128,0,27782:0:0:0:0:
320,192,28085,128,0,28236:0:0:0:0:
448,192,28236,1,0,0:0:0:0:
192,192,28236,128,0,28388:0:0:0:0:
64,192,28691,128,0,28842:0:0:0:0:
448,192,28842,1,0,0:0:0:0:
192,192,28842,128,0,28994:0:0:0:0:
320,192,28994,1,0,0:0:0:0:
64,192,29145,1,0,0:0:0:0:
448,192,29145,1,0,0:0:0:0:
64,192,29297,1,0,0:0:0:0:
448,192,29297,1,0,0:0:0:0:
448,192,29600,1,0,0:0:0:0:
64,192,29600,1,0,0:0:0:0:
320,192,29600,1,0,0:0:0:0:
192,192,29903,128,0,30055:0:0:0:0:
448,192,30055,128,0,30206:0:0:0:0:
320,192,30055,1,0,0:0:0:0:
64,192,30055,1,0,0:0:0:0:
64,192,30509,128,0,30661:0:0:0:0:
320,192,30661,128,0,30812:0:0:0:0:
448,192,30661,1,0,0:0:0:0:
192,192,30661,1,0,0:0:0:0:
64,192,30812,1,0,0:0:0:0:
192,192,31115,128,0,31267:0:0:0:0:
448,192,31267,128,0,31418:0:0:0:0:
64,192,31267,1,0,0:0:0:0:
320,192,31267,1,0,0:0:0:0:
192,192,31418,128,0,31570:0:0:0:0:
64,192,31570,128,0,31721:0:0:0:0:
320,192,31570,1,0,0:0:0:0:
320,192,31721,128,0,31873:0:0:0:0:
448,192,31721,1,0,0:0:0:0:
192,192,31873,1,0,0:0:0:0:
448,192,32024,1,0,0:0:0:0:
64,192,32024,1,0,0:0:0:0:
192,192,32327,1,0,0:0:0:0:
192,192,32479,1,0,0:0:0:0:
320,192,32479,1,0,0:0:0:0:
448,192,32630,1,0,0:0:0:0:
192,192,32630,1,0,0:0:0:0:
192,192,32782,1,0,0:0:0:0:
320,192,32782,1,0,0:0:0:0:
320,192,32933,1,0,0:0:0:0:
64,192,32933,1,0,0:0:0:0:
192,192,33085,1,0,0:0:0:0:
320,192,33085,1,0,0:0:0:0:
64,192,33236,1,0,0:0:0:0:
448,192,33236,128,0,34600:0:0:0:0:
192,192,33691,1,0,0:0:0:0:
192,192,33994,1,0,0:0:0:0:
64,192,34145,1,0,0:0:0:0:
320,192,34221,1,0,0:0:0:0:
64,192,34297,1,0,0:0:0:0:
192,192,34297,1,0,0:0:0:0:
320,192,34448,1,0,0:0:0:0:
64,192,34600,1,0,0:0:0:0:
192,192,34600,1,0,0:0:0:0:
64,192,34751,1,0,0:0:0:0:
192,192,34751,1,0,0:0:0:0:
192,192,35661,1,0,0:0:0:0:
320,192,35661,1,0,0:0:0:0:
192,192,35964,1,0,0:0:0:0:
320,192,35964,1,0,0:0:0:0:
64,192,36873,1,0,0:0:0:0:
192,192,36948,1,0,0:0:0:0:
320,192,37024,1,0,0:0:0:0:
448,192,37024,1,0,0:0:0:0:
320,192,37176,1,0,0:0:0:0:
448,192,37176,1,0,0:0:0:0:
64,192,38085,1,0,0:0:0:0:
320,192,38085,1,0,0:0:0:0:
448,192,38388,1,0,0:0:0:0:
192,192,38539,1,0,0:0:0:0:
320,192,38691,1,0,0:0:0:0:
64,192,38691,1,0,0:0:0:0:
448,192,38994,1,0,0:0:0:0:
64,192,39145,1,0,0:0:0:0:
320,192,39145,1,0,0:0:0:0:
192,192,39297,1,0,0:0:0:0:
320,192,39373,1,0,0:0:0:0:
64,192,39448,1,0,0:0:0:0:
448,192,39448,1,0,0:0:0:0:
64,192,39600,1,0,0:0:0:0:
448,192,39600,1,0,0:0:0:0:
192,192,39751,1,0,0:0:0:0:
192,192,40509,1,0,0:0:0:0:
320,192,40509,1,0,0:0:0:0:
192,192,40812,1,0,0:0:0:0:
320,192,40812,1,0,0:0:0:0:
448,192,41418,1,0,0:0:0:0:
192,192,41418,1,0,0:0:0:0:
64,192,41570,1,0,0:0:0:0:
448,192,41721,1,0,0:0:0:0:
64,192,41797,1,0,0:0:0:0:
320,192,41873,1,0,0:0:0:0:
192,192,41873,1,0,0:0:0:0:
192,192,42024,1,0,0:0:0:0:
320,192,42024,1,0,0:0:0:0:
320,192,42327,1,0,0:0:0:0:
448,192,42327,1,0,0:0:0:0:
448,192,42555,1,0,0:0:0:0:
320,192,42630,1,0,0:0:0:0:
64,192,42782,1,0,0:0:0:0:
192,192,42782,1,0,0:0:0:0:
64,192,42933,1,0,0:0:0:0:
192,192,42933,1,0,0:0:0:0:
64,192,43236,1,0,0:0:0:0:
448,192,43236,1,0,0:0:0:0:
192,192,43539,1,0,0:0:0:0:
448,192,43691,1,0,0:0:0:0:
320,192,43691,1,0,0:0:0:0:
192,192,43842,1,0,0:0:0:0:
320,192,43994,1,0,0:0:0:0:
448,192,43994,1,0,0:0:0:0:
64,192,44297,1,0,0:0:0:0:
320,192,44297,128,0,44448:0:0:0:0:
64,192,44600,1,0,0:0:0:0:
320,192,44600,1,0,0:0:0:0:
448,192,44751,128,0,44903:0:0:0:0:
64,192,44903,1,0,0:0:0:0:
320,192,44903,1,0,0:0:0:0:
320,192,45055,1,0,0:0:0:0:
64,192,45206,1,0,0:0:0:0:
320,192,45206,128,0,45358:0:0:0:0:
192,192,45509,1,0,0:0:0:0:
448,192,45509,1,0,0:0:0:0:
320,192,45661,128,0,45812:0:0:0:0:
192,192,45812,1,0,0:0:0:0:
448,192,45812,1,0,0:0:0:0:
448,192,45964,1,0,0:0:0:0:
192,192,46115,1,0,0:0:0:0:
320,192,46115,128,0,46267:0:0:0:0:
192,192,46418,1,0,0:0:0:0:
448,192,46418,128,0,46570:0:0:0:0:
320,192,46721,1,0,0:0:0:0:
192,192,46721,128,0,46873:0:0:0:0:
64,192,46873,1,0,0:0:0:0:
320,192,47024,1,0,0:0:0:0:
64,192,47024,1,0,0:0:0:0:
192,192,47176,128,0,47327:0:0:0:0:
320,192,47327,1,0,0:0:0:0:
64,192,47327,1,0,0:0:0:0:
64,192,47479,1,0,0:0:0:0:
320,192,47630,1,0,0:0:0:0:
64,192,47630,128,0,47782:0:0:0:0:
192,192,47782,1,0,0:0:0:0:
448,192,47933,1,0,0:0:0:0:
192,192,47933,1,0,0:0:0:0:
64,192,48085,128,0,48236:0:0:0:0:
448,192,48236,1,0,0:0:0:0:
192,192,48236,1,0,0:0:0:0:
192,192,48388,1,0,0:0:0:0:
448,192,48539,1,0,0:0:0:0:
64,192,48539,128,0,48691:0:0:0:0:
448,192,48842,1,0,0:0:0:0:
192,192,48842,128,0,48994:0:0:0:0:
64,192,49145,1,0,0:0:0:0:
320,192,49145,1,0,0:0:0:0:
448,192,49145,128,0,49297:0:0:0:0:
192,192,49297,1,0,0:0:0:0:
64,192,49448,1,0,0:0:0:0:
192,192,49448,1,0,0:0:0:0:
448,192,49600,128,0,49751:0:0:0:0:
320,192,49751,1,0,0:0:0:0:
64,192,49751,1,0,0:0:0:0:
320,192,49903,1,0,0:0:0:0:
64,192,50055,1,0,0:0:0:0:
448,192,50055,1,0,0:0:0:0:
320,192,50206,128,0,50358:0:0:0:0:
64,192,50358,1,0,0:0:0:0:
448,192,50358,128,0,50509:0:0:0:0:
320,192,50509,1,0,0:0:0:0:
64,192,50661,1,0,0:0:0:0:
320,192,50661,1,0,0:0:0:0:
320,192,50812,1,0,0:0:0:0:
64,192,50964,1,0,0:0:0:0:
320,192,50964,1,0,0:0:0:0:
448,192,51115,128,0,51267:0:0:0:0:
64,192,51267,1,0,0:0:0:0:
320,192,51267,1,0,0:0:0:0:
320,192,51418,1,0,0:0:0:0:
192,192,51570,1,0,0:0:0:0:
64,192,51570,1,0,0:0:0:0:
64,192,51721,1,0,0:0:0:0:
192,192,51721,1,0,0:0:0:0:
192,192,51873,1,0,0:0:0:0:
64,192,51873,1,0,0:0:0:0:
64,192,52024,1,0,0:0:0:0:
320,192,52024,1,0,0:0:0:0:
320,192,52176,1,0,0:0:0:0:
64,192,52176,1,0,0:0:0:0:
448,192,52327,1,0,0:0:0:0:
64,192,52327,1,0,0:0:0:0:
192,192,52630,1,0,0:0:0:0:
448,192,52630,1,0,0:0:0:0:
64,192,52933,1,0,0:0:0:0:
192,192,53009,1,0,0:0:0:0:
320,192,53085,1,0,0:0:0:0:
448,192,53085,1,0,0:0:0:0:
192,192,53236,1,0,0:0:0:0:
320,192,53388,1,0,0:0:0:0:
448,192,53388,1,0,0:0:0:0:
192,192,53539,1,0,0:0:0:0:
64,192,53842,1,0,0:0:0:0:
320,192,53842,1,0,0:0:0:0:
448,192,53842,1,0,0:0:0:0:
192,192,54448,1,0,0:0:0:0:
64,192,54600,1,0,0:0:0:0:
448,192,54600,1,0,0:0:0:0:
320,192,54751,1,0,0:0:0:0:
320,192,55055,1,0,0:0:0:0:
320,192,55661,1,0,0:0:0:0:
192,192,55736,1,0,0:0:0:0:
64,192,55812,1,0,0:0:0:0:
448,192,55812,1,0,0:0:0:0:
320,192,55964,1,0,0:0:0:0:
320,192,56267,1,0,0:0:0:0:
320,192,56873,1,0,0:0:0:0:
64,192,57024,1,0,0:0:0:0:
192,192,57024,1,0,0:0:0:0:
320,192,57176,1,0,0:0:0:0:
192,192,57479,1,0,0:0:0:0:
448,192,57479,1,0,0:0:0:0:
192,192,57782,1,0,0:0:0:0:
448,192,57782,1,0,0:0:0:0:
320,192,57933,1,0,0:0:0:0:
64,192,58085,1,0,0:0:0:0:
448,192,58085,1,0,0:0:0:0:
192,192,58236,1,0,0:0:0:0:
64,192,58388,1,0,0:0:0:0:
320,192,58388,1,0,0:0:0:0:
448,192,58539,1,0,0:0:0:0:
448,192,58691,1,0,0:0:0:0:
64,192,58691,1,0,0:0:0:0:
192,192,58691,128,0,59751:0:0:0:0:
320,192,59373,1,0,0:0:0:0:
320,192,59676,1,0,0:0:0:0:
448,192,59903,1,0,0:0:0:0:
192,192,60812,1,0,0:0:0:0:
64,192,60964,1,0,0:0:0:0:
192,192,61115,1,0,0:0:0:0:
448,192,61267,1,0,0:0:0:0:
320,192,61267,1,0,0:0:0:0:
64,192,61873,1,0,0:0:0:0:
320,192,62327,1,0,0:0:0:0:
192,192,62327,1,0,0:0:0:0:
64,192,62782,1,0,0:0:0:0:
448,192,62933,1,0,0:0:0:0:
320,192,63085,1,0,0:0:0:0:
192,192,63085,1,0,0:0:0:0:
192,192,63236,1,0,0:0:0:0:
320,192,63388,1,0,0:0:0:0:
448,192,63501,1,0,0:0:0:0:
320,192,63539,1,0,0:0:0:0:
192,192,63577,5,0,0:0:0:0:
320,192,63615,1,0,0:0:0:0:
192,192,63653,1,0,0:0:0:0:
64,192,63691,1,0,0:0:0:0:
320,192,64297,1,0,0:0:0:0:
192,192,64448,128,0,64676:0:0:0:0:
448,192,64751,5,0,0:0:0:0:
320,192,64751,1,0,0:0:0:0:
64,192,65206,1,0,0:0:0:0:
448,192,65206,1,0,0:0:0:0:
64,192,65509,1,0,0:0:0:0:
64,192,65812,1,0,0:0:0:0:
448,192,65812,1,0,0:0:0:0:
192,192,66115,128,0,66418:0:0:0:0:
64,192,66115,1,0,0:0:0:0:
320,192,66418,128,0,66721:0:0:0:0:
448,192,66418,1,0,0:0:0:0:
64,192,66418,1,0,0:0:0:0:
448,192,66721,128,0,66873:0:0:0:0:
64,192,66721,1,0,0:0:0:0:
192,192,66873,1,0,0:0:0:0:
64,192,67024,1,0,0:0:0:0:
448,192,67024,1,0,0:0:0:0:
320,192,67176,128,0,68236:0:0:0:0:
192,192,67327,1,0,0:0:0:0:
192,192,67630,1,0,0:0:0:0:
448,192,67630,1,0,0:0:0:0:
192,192,67933,1,0,0:0:0:0:
192,192,68236,1,0,0:0:0:0:
448,192,68236,1,0,0:0:0:0:
448,192,68539,1,0,0:0:0:0:
192,192,68691,128,0,68842:0:0:0:0:
64,192,68842,128,0,68994:0:0:0:0:
320,192,68842,1,0,0:0:0:0:
448,192,68842,1,0,0:0:0:0:
192,192,68994,128,0,69145:0:0:0:0:
320,192,69145,128,0,69297:0:0:0:0:
448,192,69145,1,0,0:0:0:0:
192,192,69297,128,0,69448:0:0:0:0:
64,192,69297,1,0,0:0:0:0:
448,192,69448,1,0,0:0:0:0:
320,192,69448,1,0,0:0:0:0:
448,192,69600,128,0,70661:0:0:0:0:
64,192,69600,1,0,0:0:0:0:
192,192,70055,1,0,0:0:0:0:
320,192,70055,1,0,0:0:0:0:
64,192,70055,1,0,0:0:0:0:
192,192,70358,1,0,0:0:0:0:
320,192,70661,1,0,0:0:0:0:
192,192,70661,1,0,0:0:0:0:
64,192,70964,1,0,0:0:0:0:
64,192,71267,1,0,0:0:0:0:
320,192,71267,1,0,0:0:0:0:
64,192,71570,1,0,0:0:0:0:
320,192,71570,1,0,0:0:0:0:
64,192,71721,1,0,0:0:0:0:
320,192,71721,1,0,0:0:0:0:
64,192,71873,1,0,0:0:0:0:
320,192,71873,1,0,0:0:0:0:
64,192,72024,1,0,0:0:0:0:
64,192,72176,1,0,0:0:0:0:
192,192,72479,1,0,0:0:0:0:
448,192,72479,1,0,0:0:0:0:
448,192,72630,1,0,0:0:0:0:
448,192,72782,1,0,0:0:0:0:
192,192,72782,1,0,0:0:0:0:
192,192,73085,1,0,0:0:0:0:
448,192,73085,1,0,0:0:0:0:
64,192,73236,1,0,0:0:0:0:
320,192,73236,1,0,0:0:0:0:
64,192,73539,1,0,0:0:0:0:
320,192,73539,1,0,0:0:0:0:
192,192,73691,1,0,0:0:0:0:
448,192,73691,1,0,0:0:0:0:
192,192,74448,128,0,74903:0:0:0:0:
320,192,74903,1,0,0:0:0:0:
448,192,74903,1,0,0:0:0:0:
64,192,75206,1,0,0:0:0:0:
320,192,75509,1,0,0:0:0:0:
192,192,75509,1,0,0:0:0:0:
64,192,75812,1,0,0:0:0:0:
320,192,76115,1,0,0:0:0:0:
448,192,76115,1,0,0:0:0:0:
192,192,76418,1,0,0:0:0:0:
448,192,76721,1,0,0:0:0:0:
64,192,76721,1,0,0:0:0:0:
320,192,77024,1,0,0:0:0:0:
64,192,77327,1,0,0:0:0:0:
192,192,77327,1,0,0:0:0:0:
448,192,77630,1,0,0:0:0:0:
192,192,77933,1,0,0:0:0:0:
320,192,77933,1,0,0:0:0:0:
64,192,78236,1,0,0:0:0:0:
320,192,78539,1,0,0:0:0:0:
448,192,78539,1,0,0:0:0:0:
192,192,78842,1,0,0:0:0:0:
448,192,78842,1,0,0:0:0:0:
320,192,78994,1,0,0:0:0:0:
192,192,79108,1,0,0:0:0:0:
64,192,79297,1,0,0:0:0:0:
320,192,79297,1,0,0:0:0:0:
448,192,79297,1,0,0:0:0:0:
64,192,79751,1,0,0:0:0:0:
448,192,79751,1,0,0:0:0:0:
320,192,79751,1,0,0:0:0:0:
192,192,79903,1,0,0:0:0:0:
64,192,80055,1,0,0:0:0:0:
320,192,80055,1,0,0:0:0:0:
192,192,80206,1,0,0:0:0:0:
320,192,80358,1,0,0:0:0:0:
448,192,80358,1,0,0:0:0:0:
64,192,80358,1,0,0:0:0:0:
192,192,80509,1,0,0:0:0:0:
64,192,80661,1,0,0:0:0:0:
320,192,80661,1,0,0:0:0:0:
448,192,80812,1,0,0:0:0:0:
192,192,80964,1,0,0:0:0:0:
320,192,80964,1,0,0:0:0:0:
64,192,80964,1,0,0:0:0:0:
448,192,81115,1,0,0:0:0:0:
64,192,81267,1,0,0:0:0:0:
320,192,81267,1,0,0:0:0:0:
448,192,81418,1,0,0:0:0:0:
64,192,81570,1,0,0:0:0:0:
192,192,81570,1,0,0:0:0:0:
320,192,81570,1,0,0:0:0:0:
448,192,81721,1,0,0:0:0:0:
320,192,81873,1,0,0:0:0:0:
64,192,81873,1,0,0:0:0:0:
192,192,82024,1,0,0:0:0:0:
64,192,82176,1,0,0:0:0:0:
448,192,82176,1,0,0:0:0:0:
320,192,82176,1,0,0:0:0:0:
192,192,82327,1,0,0:0:0:0:
64,192,82479,1,0,0:0:0:0:
448,192,82479,1,0,0:0:0:0:
320,192,82630,1,0,0:0:0:0:
64,192,82782,1,0,0:0:0:0:
448,192,82782,1,0,0:0:0:0:
192,192,82782,1,0,0:0:0:0:
320,192,82933,1,0,0:0:0:0:
192,192,83085,1,0,0:0:0:0:
448,192,83085,1,0,0:0:0:0:
64,192,83236,1,0,0:0:0:0:
448,192,83236,1,0,0:0:0:0:
64,192,83388,1,0,0:0:0:0:
320,192,83388,1,0,0:0:0:0:
192,192,83539,1,0,0:0:0:0:
448,192,83539,1,0,0:0:0:0:
64,192,83691,1,0,0:0:0:0:
320,192,83691,1,0,0:0:0:0:
192,192,83842,1,0,0:0:0:0:
320,192,83918,1,0,0:0:0:0:
448,192,83994,1,0,0:0:0:0:
64,192,84070,1,0,0:0:0:0:
192,192,84145,1,0,0:0:0:0:
320,192,84221,1,0,0:0:0:0:
64,192,84297,1,0,0:0:0:0:
448,192,84297,1,0,0:0:0:0:
192,192,84297,1,0,0:0:0:0:
320,192,84448,1,0,0:0:0:0:
192,192,84600,1,0,0:0:0:0:
448,192,84751,1,0,0:0:0:0:
192,192,84903,1,0,0:0:0:0:
320,192,84903,1,0,0:0:0:0:
64,192,84903,1,0,0:0:0:0:
448,192,85055,1,0,0:0:0:0:
192,192,85206,1,0,0:0:0:0:
320,192,85358,1,0,0:0:0:0:
64,192,85509,1,0,0:0:0:0:
192,192,85509,1,0,0:0:0:0:
448,192,85509,1,0,0:0:0:0:
320,192,85661,1,0,0:0:0:0:
448,192,85812,1,0,0:0:0:0:
192,192,85964,1,0,0:0:0:0:
64,192,86115,1,0,0:0:0:0:
320,192,86115,1,0,0:0:0:0:
448,192,86115,1,0,0:0:0:0:
192,192,86267,1,0,0:0:0:0:
64,192,86418,1,0,0:0:0:0:
448,192,86570,1,0,0:0:0:0:
64,192,86721,1,0,0:0:0:0:
192,192,86721,1,0,0:0:0:0:
320,192,86721,1,0,0:0:0:0:
320,192,86873,1,0,0:0:0:0:
64,192,87024,1,0,0:0:0:0:
448,192,87024,1,0,0:0:0:0:
448,192,87176,1,0,0:0:0:0:
64,192,87327,1,0,0:0:0:0:
192,192,87327,1,0,0:0:0:0:
320,192,87327,1,0,0:0:0:0:
320,192,87479,1,0,0:0:0:0:
64,192,87630,1,0,0:0:0:0:
448,192,87630,1,0,0:0:0:0:
448,192,87782,1,0,0:0:0:0:
64,192,87933,1,0,0:0:0:0:
192,192,87933,1,0,0:0:0:0:
320,192,87933,1,0,0:0:0:0:
320,192,88085,1,0,0:0:0:0:
64,192,88236,1,0,0:0:0:0:
448,192,88236,1,0,0:0:0:0:
448,192,88388,1,0,0:0:0:0:
192,192,88464,1,0,0:0:0:0:
64,192,88539,1,0,0:0:0:0:
320,192,88539,1,0,0:0:0:0:
192,192,88691,1,0,0:0:0:0:
64,192,88842,1,0,0:0:0:0:
448,192,88842,1,0,0:0:0:0:
64,192,88994,1,0,0:0:0:0:
448,192,88994,1,0,0:0:0:0:
192,192,89145,1,0,0:0:0:0:
320,192,89145,1,0,0:0:0:0:
192,192,89297,1,0,0:0:0:0:
320,192,89297,1,0,0:0:0:0:
320,192,89600,1,0,0:0:0:0:
448,192,89600,1,0,0:0:0:0:
320,192,89751,1,0,0:0:0:0:
448,192,89751,1,0,0:0:0:0:
192,192,90055,1,0,0:0:0:0:
320,192,90055,1,0,0:0:0:0:
192,192,90206,1,0,0:0:0:0:
320,192,90206,1,0,0:0:0:0:
64,192,90509,1,0,0:0:0:0:
192,192,90509,1,0,0:0:0:0:
64,192,90661,1,0,0:0:0:0:
192,192,90661,1,0,0:0:0:0:
192,192,90964,1,0,0:0:0:0:
320,192,90964,1,0,0:0:0:0:
192,192,91115,1,0,0:0:0:0:
448,192,91115,1,0,0:0:0:0:
64,192,91418,1,0,0:0:0:0:
448,192,91418,1,0,0:0:0:0:
320,192,91418,1,0,0:0:0:0:
64,192,91721,1,0,0:0:0:0:
192,192,91721,1,0,0:0:0:0:
64,192,91873,1,0,0:0:0:0:
192,192,91873,1,0,0:0:0:0:
192,192,92176,1,0,0:0:0:0:
320,192,92176,1,0,0:0:0:0:
192,192,92327,1,0,0:0:0:0:
320,192,92327,1,0,0:0:0:0:
64,192,92479,1,0,0:0:0:0:
448,192,92630,1,0,0:0:0:0:
320,192,92630,1,0,0:0:0:0:
192,192,92933,1,0,0:0:0:0:
64,192,92933,1,0,0:0:0:0:
192,192,93085,1,0,0:0:0:0:
64,192,93085,1,0,0:0:0:0:
