osu file format v14

[General]
AudioFilename: audio.mp3
AudioLeadIn: 0
PreviewTime: 61633
Countdown: 0
SampleSet: None
StackLeniency: 0.7
Mode: 1
LetterboxInBreaks: 0
WidescreenStoryboard: 1

[Editor]
DistanceSpacing: 1
BeatDivisor: 4
GridSize: 8
TimelineZoom: 2.999999

[Metadata]
Title:Red Zone
TitleUnicode:Red Zone
Artist:B
ArtistUnicode:B
Creator:AIR315
Version:Muzukashii*7
Source:
Tags:
BeatmapID:1377146
BeatmapSetID:649820

[Difficulty]
HPDrainRate:5
CircleSize:5
OverallDifficulty:5
ApproachRate:5
SliderMultiplier:1.4
SliderTickRate:1

[Events]
//Background and Video events
//Break Periods
//Storyboard Layer 0 (Background)
//Storyboard Layer 1 (Fail)
//Storyboard Layer 2 (Pass)
//Storyboard Layer 3 (Foreground)
//Storyboard Sound Samples

[TimingPoints]
661,324.324324324324,4,1,0,85,1,0
61633,-100,4,1,0,85,0,1
79796,-100,4,1,0,85,0,0

[Colours]
Combo1 : 0,128,255
Combo2 : 255,0,0

[HitObjects]
184,104,661,5,8,0:0:0:0:
256,80,823,1,8,0:0:0:0:
176,104,985,1,8,0:0:0:0:
248,88,1147,1,8,0:0:0:0:
208,96,2769,1,8,0:0:0:0:
136,128,2931,1,8,0:0:0:0:
136,128,3093,1,8,0:0:0:0:
136,128,3255,1,8,0:0:0:0:
136,128,3417,1,8,0:0:0:0:
136,128,3579,1,8,0:0:0:0:
136,128,3742,1,8,0:0:0:0:
136,128,4066,1,8,0:0:0:0:
136,128,4390,1,8,0:0:0:0:
136,128,4715,1,0,0:0:0:0:
136,128,4877,1,8,0:0:0:0:
136,128,5039,1,0,0:0:0:0:
136,128,5201,1,8,0:0:0:0:
136,128,5363,1,0,0:0:0:0:
136,128,5525,1,8,0:0:0:0:
136,128,5688,1,8,0:0:0:0:
136,128,5850,1,12,0:0:0:0:
136,128,6012,1,12,0:0:0:0:
136,128,6174,1,12,0:0:0:0:
136,128,6336,1,12,0:0:0:0:
136,128,7958,1,8,0:0:0:0:
136,128,8120,1,8,0:0:0:0:
136,128,8282,1,8,0:0:0:0:
136,128,8444,1,8,0:0:0:0:
136,128,8769,1,0,0:0:0:0:
136,128,9093,1,0,0:0:0:0:
136,128,9417,1,0,0:0:0:0:
136,128,9579,1,8,0:0:0:0:
136,128,9742,1,0,0:0:0:0:
136,128,10066,1,8,0:0:0:0:
136,128,10390,1,0,0:0:0:0:
136,128,10552,1,8,0:0:0:0:
136,128,10715,1,8,0:0:0:0:
136,128,10877,1,8,0:0:0:0:
136,128,10958,1,8,0:0:0:0:
136,128,11039,1,0,0:0:0:0:
136,128,11363,1,8,0:0:0:0:
136,128,11688,1,0,0:0:0:0:
136,128,11850,1,0,0:0:0:0:
136,128,12012,1,8,0:0:0:0:
136,128,12174,1,0,0:0:0:0:
136,128,12498,1,0,0:0:0:0:
136,128,12660,1,8,0:0:0:0:
136,128,12823,1,0,0:0:0:0:
136,128,13147,1,0,0:0:0:0:
136,128,13309,1,8,0:0:0:0:
136,128,13633,1,0,0:0:0:0:
136,128,13958,1,8,0:0:0:0:
136,128,14120,1,0,0:0:0:0:
136,128,14444,1,0,0:0:0:0:
136,128,14606,1,8,0:0:0:0:
136,128,14931,1,8,0:0:0:0:
136,128,15255,1,8,0:0:0:0:
136,128,15579,1,8,0:0:0:0:
136,128,15904,1,8,0:0:0:0:
136,128,16228,1,8,0:0:0:0:
136,128,16309,1,8,0:0:0:0:
136,128,16390,1,8,0:0:0:0:
136,128,16552,1,8,0:0:0:0:
136,128,16633,1,8,0:0:0:0:
136,128,16715,1,8,0:0:0:0:
136,128,16877,1,8,0:0:0:0:
136,128,16958,1,8,0:0:0:0:
136,128,17039,1,8,0:0:0:0:
136,128,17201,1,0,0:0:0:0:
136,128,17525,1,0,0:0:0:0:
136,128,17850,1,0,0:0:0:0:
136,128,18174,1,0,0:0:0:0:
136,128,18498,1,0,0:0:0:0:
136,128,18823,1,0,0:0:0:0:
136,128,19147,1,0,0:0:0:0:
136,128,19471,1,0,0:0:0:0:
136,128,19796,1,0,0:0:0:0:
136,128,20120,1,0,0:0:0:0:
136,128,20444,1,0,0:0:0:0:
136,128,20769,1,0,0:0:0:0:
136,128,21093,1,0,0:0:0:0:
136,128,21417,1,0,0:0:0:0:
136,128,21742,1,0,0:0:0:0:
136,128,22066,1,0,0:0:0:0:
136,128,22390,1,0,0:0:0:0:
248,56,22715,1,4,0:0:0:0:
136,120,23039,1,8,0:0:0:0:
192,88,23201,1,0,0:0:0:0:
312,24,23525,1,0,0:0:0:0:
248,56,23688,1,8,0:0:0:0:
128,128,24012,1,4,0:0:0:0:
240,56,24336,1,8,0:0:0:0:
240,56,24498,1,0,0:0:0:0:
240,56,24823,1,0,0:0:0:0:
240,56,24985,1,8,0:0:0:0:
240,56,25309,1,4,0:0:0:0:
240,56,25633,1,8,0:0:0:0:
240,56,25796,1,8,0:0:0:0:
240,56,25958,1,4,0:0:0:0:
240,56,26282,1,8,0:0:0:0:
240,56,26444,1,8,0:0:0:0:
240,56,26606,1,8,0:0:0:0:
240,56,26769,1,0,0:0:0:0:
240,56,26931,1,8,0:0:0:0:
240,56,27093,1,0,0:0:0:0:
240,56,27255,1,8,0:0:0:0:
240,56,27417,1,0,0:0:0:0:
240,56,27579,1,8,0:0:0:0:
240,56,27742,1,0,0:0:0:0:
240,56,27904,1,0,0:0:0:0:
240,56,28228,1,8,0:0:0:0:
240,56,28390,1,8,0:0:0:0:
240,56,28471,1,8,0:0:0:0:
240,56,28552,1,8,0:0:0:0:
240,56,28715,1,0,0:0:0:0:
240,56,28877,1,8,0:0:0:0:
240,56,29039,1,0,0:0:0:0:
240,56,29363,1,0,0:0:0:0:
240,56,29525,1,8,0:0:0:0:
240,56,29850,1,0,0:0:0:0:
240,56,30012,1,0,0:0:0:0:
240,56,30174,1,8,0:0:0:0:
240,56,30498,1,0,0:0:0:0:
240,56,30823,1,8,0:0:0:0:
240,56,30985,1,8,0:0:0:0:
240,56,31066,1,8,0:0:0:0:
240,56,31147,1,8,0:0:0:0:
240,56,31309,1,0,0:0:0:0:
240,56,31471,1,8,0:0:0:0:
240,56,31633,1,0,0:0:0:0:
240,56,31958,1,0,0:0:0:0:
240,56,32120,1,8,0:0:0:0:
240,56,32444,1,0,0:0:0:0:
240,56,32606,1,0,0:0:0:0:
240,56,32769,1,8,0:0:0:0:
240,56,33093,1,0,0:0:0:0:
240,56,33417,1,8,0:0:0:0:
240,56,33579,1,0,0:0:0:0:
240,56,33742,1,0,0:0:0:0:
240,56,33904,1,0,0:0:0:0:
240,56,34066,1,8,0:0:0:0:
240,56,34390,1,0,0:0:0:0:
240,56,34715,1,8,0:0:0:0:
240,56,34877,1,0,0:0:0:0:
240,56,35039,1,0,0:0:0:0:
240,56,35201,1,0,0:0:0:0:
240,56,35363,1,8,0:0:0:0:
240,56,35688,1,0,0:0:0:0:
240,56,36012,1,8,0:0:0:0:
240,56,36336,1,8,0:0:0:0:
240,56,36498,1,0,0:0:0:0:
240,56,36660,1,0,0:0:0:0:
240,56,36823,1,8,0:0:0:0:
240,56,37147,1,0,0:0:0:0:
240,56,37309,1,8,0:0:0:0:
240,56,37471,1,0,0:0:0:0:
240,56,37633,1,8,0:0:0:0:
240,56,37796,1,0,0:0:0:0:
240,56,37958,1,8,0:0:0:0:
240,56,38120,1,8,0:0:0:0:
240,56,38282,1,0,0:0:0:0:
240,56,38525,1,0,0:0:0:0:
240,56,38606,1,0,0:0:0:0:
240,56,38769,1,0,0:0:0:0:
240,56,38931,1,0,0:0:0:0:
240,56,39093,1,0,0:0:0:0:
240,56,39255,1,8,0:0:0:0:
240,56,39579,1,0,0:0:0:0:
240,56,39823,1,0,0:0:0:0:
240,56,39904,1,0,0:0:0:0:
240,56,40066,1,0,0:0:0:0:
240,56,40228,1,0,0:0:0:0:
240,56,40390,1,0,0:0:0:0:
240,56,40552,1,8,0:0:0:0:
240,56,40877,1,0,0:0:0:0:
240,56,41039,1,0,0:0:0:0:
240,56,41120,1,0,0:0:0:0:
240,56,41201,1,0,0:0:0:0:
240,56,41363,1,0,0:0:0:0:
240,56,41525,1,0,0:0:0:0:
240,56,41688,1,0,0:0:0:0:
240,56,41850,1,8,0:0:0:0:
240,56,42174,1,0,0:0:0:0:
240,56,42336,1,0,0:0:0:0:
240,56,42417,1,0,0:0:0:0:
240,56,42498,1,0,0:0:0:0:
240,56,42660,1,0,0:0:0:0:
240,56,42823,1,0,0:0:0:0:
240,56,42985,1,8,0:0:0:0:
240,56,43147,1,8,0:0:0:0:
240,56,43471,1,8,0:0:0:0:
240,56,43715,1,8,0:0:0:0:
240,56,43796,1,8,0:0:0:0:
240,56,43958,1,8,0:0:0:0:
240,56,44120,1,0,0:0:0:0:
240,56,44282,1,0,0:0:0:0:
240,56,44444,1,8,0:0:0:0:
240,56,44769,1,8,0:0:0:0:
240,56,45012,1,8,0:0:0:0:
240,56,45093,1,8,0:0:0:0:
136,56,45255,1,8,0:0:0:0:
136,56,45417,1,0,0:0:0:0:
136,56,45579,1,0,0:0:0:0:
136,56,45742,1,8,0:0:0:0:
136,56,46066,1,0,0:0:0:0:
136,56,46228,1,0,0:0:0:0:
136,56,46390,1,0,0:0:0:0:
136,56,46552,1,0,0:0:0:0:
136,56,46633,1,0,0:0:0:0:
136,56,46715,1,0,0:0:0:0:
136,56,46877,1,0,0:0:0:0:
136,56,47039,1,0,0:0:0:0:
136,56,47201,1,0,0:0:0:0:
136,56,47363,1,0,0:0:0:0:
136,56,47525,1,0,0:0:0:0:
136,56,47688,1,0,0:0:0:0:
136,56,47850,1,0,0:0:0:0:
136,56,47931,1,0,0:0:0:0:
136,56,48012,1,0,0:0:0:0:
136,56,48174,1,0,0:0:0:0:
136,56,48336,1,0,0:0:0:0:
136,56,48660,1,0,0:0:0:0:
136,56,48985,1,8,0:0:0:0:
136,56,49147,1,0,0:0:0:0:
136,56,49309,1,0,0:0:0:0:
136,56,49471,1,0,0:0:0:0:
136,56,49633,1,8,0:0:0:0:
136,56,49796,1,8,0:0:0:0:
136,56,49958,1,0,0:0:0:0:
136,56,50282,1,8,0:0:0:0:
136,56,50444,1,0,0:0:0:0:
136,56,50769,1,0,0:0:0:0:
136,56,50931,1,8,0:0:0:0:
136,56,51255,1,0,0:0:0:0:
136,56,51579,1,8,0:0:0:0:
136,56,51742,1,0,0:0:0:0:
136,56,52066,1,0,0:0:0:0:
136,56,52228,1,8,0:0:0:0:
112,40,52552,1,0,0:0:0:0:
112,40,52715,1,8,0:0:0:0:
112,40,52877,1,0,0:0:0:0:
112,40,53201,1,8,0:0:0:0:
112,40,53363,1,0,0:0:0:0:
112,40,53525,1,8,0:0:0:0:
112,40,53688,1,8,0:0:0:0:
112,40,53769,1,8,0:0:0:0:
112,40,53850,1,0,0:0:0:0:
112,40,54174,1,8,0:0:0:0:
112,40,54336,1,0,0:0:0:0:
112,40,54660,1,0,0:0:0:0:
112,40,54823,1,8,0:0:0:0:
112,40,55147,1,4,0:0:0:0:
112,40,55471,1,8,0:0:0:0:
112,40,55633,1,4,0:0:0:0:
112,40,55958,1,0,0:0:0:0:
112,40,56120,1,12,0:0:0:0:
112,40,56444,1,8,0:0:0:0:
112,40,56606,1,8,0:0:0:0:
112,40,56931,1,8,0:0:0:0:
112,40,57093,1,8,0:0:0:0:
112,40,57417,1,8,0:0:0:0:
112,40,57579,1,8,0:0:0:0:
112,40,57904,1,8,0:0:0:0:
112,40,58066,1,8,0:0:0:0:
112,40,58390,1,8,0:0:0:0:
112,40,58471,1,8,0:0:0:0:
112,40,58552,1,8,0:0:0:0:
112,40,58715,1,8,0:0:0:0:
112,40,58877,1,8,0:0:0:0:
112,40,59039,1,12,0:0:0:0:
112,40,59201,1,12,0:0:0:0:
112,40,59525,1,12,0:0:0:0:
112,40,59688,1,12,0:0:0:0:
112,40,60012,1,12,0:0:0:0:
112,40,60174,1,12,0:0:0:0:
112,40,60498,1,12,0:0:0:0:
112,40,60660,1,12,0:0:0:0:
112,40,60985,1,8,0:0:0:0:
112,40,61066,1,8,0:0:0:0:
112,40,61147,1,8,0:0:0:0:
112,40,61309,1,8,0:0:0:0:
112,40,61471,1,8,0:0:0:0:
112,40,61633,1,0,0:0:0:0:
112,40,61796,1,0,0:0:0:0:
112,40,61958,1,8,0:0:0:0:
112,40,62120,1,0,0:0:0:0:
112,40,62444,1,0,0:0:0:0:
112,40,62606,1,8,0:0:0:0:
112,40,62769,1,0,0:0:0:0:
112,40,63093,1,0,0:0:0:0:
112,40,63255,1,8,0:0:0:0:
112,40,63579,1,0,0:0:0:0:
112,40,63742,1,0,0:0:0:0:
112,40,63904,1,8,0:0:0:0:
112,40,64066,1,8,0:0:0:0:
112,40,64228,1,8,0:0:0:0:
112,40,64390,1,0,0:0:0:0:
112,40,64552,1,8,0:0:0:0:
112,40,64715,1,0,0:0:0:0:
112,40,64877,1,8,0:0:0:0:
112,40,65039,1,8,0:0:0:0:
112,40,65201,1,0,0:0:0:0:
112,40,65363,1,8,0:0:0:0:
112,40,65688,1,0,0:0:0:0:
112,40,65850,1,8,0:0:0:0:
112,40,66012,1,0,0:0:0:0:
112,40,66174,1,0,0:0:0:0:
112,40,66255,1,0,0:0:0:0:
112,40,66336,1,0,0:0:0:0:
112,40,66498,1,8,0:0:0:0:
112,40,66579,1,8,0:0:0:0:
112,40,66660,1,8,0:0:0:0:
112,40,66823,1,8,0:0:0:0:
112,40,66985,1,8,0:0:0:0:
112,40,67147,1,8,0:0:0:0:
112,40,67309,1,8,0:0:0:0:
112,40,67633,1,0,0:0:0:0:
112,40,67796,1,8,0:0:0:0:
112,40,67958,1,0,0:0:0:0:
112,40,68282,1,0,0:0:0:0:
112,40,68444,1,8,0:0:0:0:
112,40,68606,1,0,0:0:0:0:
112,40,68931,1,0,0:0:0:0:
112,40,69093,1,8,0:0:0:0:
112,40,69255,1,8,0:0:0:0:
112,40,69336,1,8,0:0:0:0:
112,40,69417,1,8,0:0:0:0:
112,40,69579,1,0,0:0:0:0:
112,40,69742,1,8,0:0:0:0:
112,40,69904,1,0,0:0:0:0:
112,40,70066,1,8,0:0:0:0:
112,40,70390,1,0,0:0:0:0:
112,40,70552,1,8,0:0:0:0:
112,40,70877,1,0,0:0:0:0:
112,40,71039,1,8,0:0:0:0:
112,40,71201,1,0,0:0:0:0:
112,40,71363,1,0,0:0:0:0:
112,40,71525,1,0,0:0:0:0:
112,40,71688,1,8,0:0:0:0:
112,40,71850,1,8,0:0:0:0:
112,40,72012,1,0,0:0:0:0:
112,40,72093,1,0,0:0:0:0:
112,40,72174,1,0,0:0:0:0:
112,40,72336,1,0,0:0:0:0:
112,40,72498,1,0,0:0:0:0:
112,40,72660,1,0,0:0:0:0:
112,40,72823,1,0,0:0:0:0:
112,40,72985,1,0,0:0:0:0:
112,40,73147,1,0,0:0:0:0:
112,40,73309,1,0,0:0:0:0:
112,40,73390,1,0,0:0:0:0:
112,40,73471,1,0,0:0:0:0:
112,40,73633,1,0,0:0:0:0:
112,40,73796,1,0,0:0:0:0:
112,40,73958,1,0,0:0:0:0:
112,40,74120,1,0,0:0:0:0:
112,40,74282,1,0,0:0:0:0:
112,40,74444,1,0,0:0:0:0:
112,40,74606,1,8,0:0:0:0:
112,40,74688,1,8,0:0:0:0:
112,40,74769,1,8,0:0:0:0:
200,152,74931,1,8,0:0:0:0:
200,152,75093,1,8,0:0:0:0:
200,152,75255,1,8,0:0:0:0:
200,152,75417,1,8,0:0:0:0:
200,152,75579,1,8,0:0:0:0:
200,152,75742,1,8,0:0:0:0:
200,152,75904,1,8,0:0:0:0:
200,152,75985,1,8,0:0:0:0:
200,152,76066,1,8,0:0:0:0:
200,152,76228,1,8,0:0:0:0:
200,152,76390,1,8,0:0:0:0:
200,152,76552,1,8,0:0:0:0:
200,152,76715,1,8,0:0:0:0:
200,152,76877,1,8,0:0:0:0:
192,144,76958,1,8,0:0:0:0:
200,152,77039,1,8,0:0:0:0:
192,144,77201,1,0,0:0:0:0:
272,40,77525,1,8,0:0:0:0:
192,144,77850,1,0,0:0:0:0:
496,176,78012,1,0,0:0:0:0:
496,176,78174,1,8,0:0:0:0:
192,144,78498,1,12,0:0:0:0:
192,144,78985,1,12,0:0:0:0:
192,144,79471,1,12,0:0:0:0:
192,144,79796,1,0,0:0:0:0:
496,176,79958,1,0,0:0:0:0:
496,176,80282,1,0,0:0:0:0:
496,176,80444,1,0,0:0:0:0:
496,176,80769,1,0,0:0:0:0:
496,176,80931,1,0,0:0:0:0:
496,176,81255,1,0,0:0:0:0:
496,176,81417,1,0,0:0:0:0:
496,176,81742,1,8,0:0:0:0:
496,176,81904,1,0,0:0:0:0:
496,176,82066,1,0,0:0:0:0:
496,176,82228,1,0,0:0:0:0:
496,176,82390,1,8,0:0:0:0:
496,176,82552,1,8,0:0:0:0:
408,200,82877,1,8,0:0:0:0:
408,200,83039,1,8,0:0:0:0:
408,200,83363,1,8,0:0:0:0:
408,200,83525,1,8,0:0:0:0:
408,200,83850,1,8,0:0:0:0:
408,200,84012,1,8,0:0:0:0:
408,200,84336,1,8,0:0:0:0:
408,200,84498,1,0,0:0:0:0:
408,200,84660,1,0,0:0:0:0:
408,200,84823,1,0,0:0:0:0:
344,72,84985,1,4,0:0:0:0:
344,72,85147,1,12,0:0:0:0:
344,72,85309,1,8,0:0:0:0:
344,72,85471,1,4,0:0:0:0:
344,72,85633,1,12,0:0:0:0:
344,72,85796,1,8,0:0:0:0:
344,72,85958,1,4,0:0:0:0:
344,72,86120,1,12,0:0:0:0:
344,72,86282,1,8,0:0:0:0:
344,72,86444,1,4,0:0:0:0:
344,72,86606,1,12,0:0:0:0:
344,72,86769,1,8,0:0:0:0:
344,72,86931,1,0,0:0:0:0:
344,72,87093,1,8,0:0:0:0:
344,72,87255,1,8,0:0:0:0:
344,72,87336,1,8,0:0:0:0:
344,72,87417,1,8,0:0:0:0:
344,72,87579,1,4,0:0:0:0:
