osu file format v14

[General]
AudioFilename: hanatan.mp3
AudioLeadIn: 0
PreviewTime: 56494
Countdown: 0
SampleSet: Soft
StackLeniency: 0.6
Mode: 0
LetterboxInBreaks: 0
WidescreenStoryboard: 0

[Editor]
DistanceSpacing: 1
BeatDivisor: 4
GridSize: 4
TimelineZoom: 1

[Metadata]
Title:Junshin Always
TitleUnicode:純真Always
Artist:Azusa Tadokoro
ArtistUnicode:田所あずさ
Creator:handsome
Version:Normal
Source:無彩限のファントム・ワールド
Tags:myriad colors phantom world colours musaigen no tv size opening anime kawakami mai izumi reina ichijou haruhiko
BeatmapID:874747
BeatmapSetID:402187

[Difficulty]
HPDrainRate:4
CircleSize:3.2
OverallDifficulty:4
ApproachRate:5.5
SliderMultiplier:1.1
SliderTickRate:1

[Events]
//Background and Video events
Video,-50,"hanatan.flv"
0,0,"hanatan.jpg",0,0
//Break Periods
//Storyboard Layer 0 (Background)
//Storyboard Layer 1 (Fail)
//Storyboard Layer 2 (Pass)
//Storyboard Layer 3 (Foreground)
//Storyboard Sound Samples

[TimingPoints]
1245,333.333333333333,4,2,1,55,1,0
1245,-166.666666666667,4,2,1,55,0,0
1911,-166.666666666667,4,2,1,30,0,0
2578,-166.666666666667,4,2,1,55,0,0
3244,-166.666666666667,4,2,1,30,0,0
3911,-166.666666666667,4,2,1,55,0,0
4578,-166.666666666667,4,2,1,30,0,0
5244,-100,4,2,1,50,0,0
6911,-100,4,2,1,35,0,0
7244,-100,4,2,1,45,0,0
7578,-100,4,2,1,55,0,0
7911,-100,4,2,1,65,0,0
18744,-100,4,2,1,45,0,0
25244,-100,4,2,1,60,0,0
30578,-100,4,2,1,45,0,0
35911,-100,4,2,1,60,0,0
57244,-100,4,2,1,65,0,0
78578,-100,4,2,1,60,0,0
83911,-100,4,2,1,70,0,0
86911,-100,4,2,1,50,0,0
87911,-100,4,2,1,60,0,0
88578,-100,4,2,1,70,0,0

[Colours]
Combo1 : 94,174,255
Combo2 : 138,248,126
Combo3 : 255,164,233
Combo4 : 255,215,130

[HitObjects]
140,158,1245,6,0,L|284:140,1,131.99999597168,4|0,0:0|0:0,0:0:0:0:
384,209,2578,2,0,L|253:225,1,131.99999597168,4|0,0:0|0:0,0:0:0:0:
167,325,3911,2,0,L|311:307,1,131.99999597168,4|0,0:0|0:0,0:0:0:0:
465,355,5244,5,4,0:0:0:0:
399,266,5578,1,4,0:0:0:0:
469,181,5911,2,0,L|478:122,1,55,4|0,0:0|0:0,0:0:0:0:
431,95,6244,2,0,L|422:36,1,55,8|8,0:3|0:3,0:0:0:0:
380,4,6578,6,0,P|299:1|246:46,1,110,4|8,0:0|0:3,0:0:0:0:
166,30,7244,2,0,L|152:148,1,110,8|8,0:3|0:3,0:0:0:0:
134,247,7911,1,8,1:3:0:0:
134,247,8078,1,0,1:3:0:0:
267,344,8578,2,0,L|338:333,1,55,2|0,0:0|0:0,0:0:0:0:
375,345,8911,2,0,L|446:334,1,55,8|8,0:3|0:3,0:0:0:0:
481,353,9244,6,0,P|506:269|486:204,1,110,4|8,1:2|1:2,0:0:0:0:
450,151,9911,2,0,L|495:111,2,55,0|0|8,1:0|0:0|1:2,0:0:0:0:
346,188,10578,2,0,L|216:179,1,110,0|8,1:0|1:2,0:0:0:0:
181,172,11078,1,0,0:0:0:0:
181,172,11244,1,0,1:0:0:0:
90,234,11578,1,8,1:2:0:0:
0,170,11911,6,0,P|-5:110|49:55,1,110,0|8,1:0|1:2,0:0:0:0:
131,70,12578,2,0,L|121:3,2,55,0|0|8,1:0|0:0|1:2,0:0:0:0:
228,119,13244,2,0,L|356:103,1,110,0|4,1:0|1:2,0:0:0:0:
391,97,13744,1,0,0:0:0:0:
391,97,13911,2,0,L|411:161,1,55,8|8,3:0|3:0,0:0:0:0:
450,183,14244,2,0,L|430:247,1,55,8|8,3:0|3:0,0:0:0:0:
410,285,14578,5,4,1:2:0:0:
312,335,14911,2,0,P|248:326|185:358,2,110,8|0|8,1:2|1:0|1:2,0:0:0:0:
414,375,15911,2,0,L|430:218,1,110,0|8,1:0|1:2,0:0:0:0:
430,210,16411,1,0,0:0:0:0:
430,210,16578,1,0,1:0:0:0:
347,137,16911,1,8,1:2:0:0:
281,225,17244,6,0,P|212:236|160:208,1,110,0|4,1:0|1:2,0:0:0:0:
118,127,17911,1,0,1:0:0:0:
118,127,18078,1,0,1:0:0:0:
118,127,18244,2,0,L|37:119,2,55,0|0|0,1:0|1:0|1:0,0:0:0:0:
376,163,19578,2,0,L|383:229,1,55,8|8,0:3|0:3,0:0:0:0:
391,271,19911,6,0,L|262:268,1,110,4|0,1:2|1:0,0:0:0:0:
221,175,20578,2,0,L|92:178,1,110,0|0,1:0|1:0,0:0:0:0:
25,246,21244,2,0,P|6:314|32:379,2,110,0|0|0,1:0|1:0|1:0,0:0:0:0:
116,307,22244,1,0,1:0:0:0:
196,232,22578,5,4,1:2:0:0:
263,318,22911,2,0,L|401:332,1,110,0|0,1:0|1:0,0:0:0:0:
482,337,23578,1,0,1:0:0:0:
426,241,23911,2,0,L|415:182,1,55,4|0,1:2|0:0,0:0:0:0:
403,133,24244,2,0,L|392:74,1,55,4|0,1:2|0:0,0:0:0:0:
379,25,24578,2,0,P|425:6|462:13,2,55,4|0|8,1:2|0:0|1:2,0:0:0:0:
303,104,25244,6,0,P|237:116|169:82,1,110,4|8,1:2|1:2,0:0:0:0:
123,21,25911,2,0,L|2:39,1,110,0|8,1:0|1:2,0:0:0:0:
61,136,26578,2,0,P|75:198|40:255,2,110,0|8|0,1:0|1:2|1:0,0:0:0:0:
14,37,27578,1,8,1:2:0:0:
123,48,27911,6,0,L|277:38,1,110,0|8,1:0|1:2,0:0:0:0:
342,30,28578,1,0,1:0:0:0:
415,111,28911,2,0,L|403:171,1,55,8|0,1:2|0:0,0:0:0:0:
424,216,29244,2,0,L|293:216,1,110,0|4,1:0|1:2,0:0:0:0:
206,190,29911,2,0,L|201:262,1,55,0|0,1:0|1:0,0:0:0:0:
153,271,30244,2,0,L|129:348,1,55,0|0,1:0|1:0,0:0:0:0:
81,329,30578,6,0,P|28:308|16:232,1,110,4|0,1:2|1:0,0:0:0:0:
67,168,31244,2,0,L|84:37,1,110,0|0,1:0|1:0,0:0:0:0:
187,31,31911,2,0,P|247:5|318:25,2,110,0|0|0,1:0|1:0|1:0,0:0:0:0:
258,114,32911,1,0,1:0:0:0:
202,209,33244,5,4,1:2:0:0:
292,273,33578,2,0,L|417:251,1,110,0|0,1:0|1:0,0:0:0:0:
506,226,34244,1,0,1:0:0:0:
473,331,34578,2,0,L|410:351,1,55,4|0,1:2|0:0,0:0:0:0:
368,366,34911,2,0,L|305:386,1,55,4|0,1:2|0:0,0:0:0:0:
266,358,35244,2,0,P|205:335|142:349,1,110,4|8,1:2|0:3,0:0:0:0:
52,357,35911,6,0,L|31:224,1,110,4|8,1:2|1:2,0:0:0:0:
103,162,36578,2,0,P|166:132|233:168,1,110,0|8,1:0|1:2,0:0:0:0:
285,68,37244,2,0,L|430:56,2,110,0|8|0,1:0|1:2|1:0,0:0:0:0:
183,24,38244,1,8,1:2:0:0:
82,70,38578,6,0,P|53:119|82:194,1,110,0|8,1:2|1:2,0:0:0:0:
101,206,39078,1,0,0:0:0:0:
208,226,39411,2,0,L|224:288,1,55,0|8,0:0|1:2,0:0:0:0:
239,331,39744,6,0,P|306:356|377:327,1,110,4|0,1:2|1:0,0:0:0:0:
388,320,40244,2,0,L|395:260,1,55,0|0,1:0|1:0,0:0:0:0:
401,210,40578,1,0,1:0:0:0:
450,112,40911,1,8,0:3:0:0:
438,57,41078,1,8,0:3:0:0:
424,3,41244,6,0,L|304:21,1,110,4|0,1:2|1:0,0:0:0:0:
259,114,41911,2,0,L|367:97,1,110,4|0,1:2|1:0,0:0:0:0:
446,174,42578,2,0,L|326:192,2,110,0|0|0,1:0|1:0|1:0,0:0:0:0:
447,284,43578,1,0,1:0:0:0:
348,332,43911,5,0,1:0:0:0:
238,323,44244,1,0,1:0:0:0:
247,212,44578,1,0,1:0:0:0:
357,222,44911,1,0,1:0:0:0:
348,332,45244,6,0,L|225:346,1,110,0|0,1:0|1:0,0:0:0:0:
131,370,45911,2,0,P|73:344|62:288,1,110,0|4,1:0|1:2,0:0:0:0:
108,203,46578,6,0,L|0:188,2,110,0|8|0,1:0|0:2|1:0,0:0:0:0:
216,219,47578,1,8,0:2:0:0:
176,116,47911,1,0,1:0:0:0:
266,54,48244,1,8,0:2:0:0:
302,157,48578,2,0,L|296:215,1,55,8|8,0:3|0:3,0:0:0:0:
329,255,48911,2,0,L|335:313,1,55,8|8,0:3|0:3,0:0:0:0:
347,363,49244,6,0,P|408:378|471:350,1,110,4|0,0:0|1:0,0:0:0:0:
501,265,49911,2,0,L|483:140,1,110,0|0,1:0|1:0,0:0:0:0:
475,101,50411,1,0,0:0:0:0:
475,101,50578,1,0,1:0:0:0:
379,155,50911,1,4,1:2:0:0:
283,101,51244,2,0,L|265:226,1,110,0|8,1:0|0:3,0:0:0:0:
257,265,51744,1,8,0:3:0:0:
257,265,51911,6,0,P|204:253|145:272,1,110,0|4,0:0|1:2,0:0:0:0:
101,366,52578,2,0,P|154:378|213:359,1,110,0|4,0:0|1:2,0:0:0:0:
256,192,53244,12,4,55911,1:2:0:0:
265,302,57244,6,0,L|378:292,1,110,4|8,1:2|1:2,0:0:0:0:
472,242,57911,2,0,P|487:181|465:128,1,110,0|8,1:0|1:2,0:0:0:0:
392,61,58578,2,0,L|507:50,2,110,0|8|0,1:0|1:2|1:0,0:0:0:0:
282,75,59578,1,8,1:2:0:0:
181,30,59911,6,0,P|111:36|67:73,1,110,0|8,1:0|1:2,0:0:0:0:
155,138,60578,1,0,1:0:0:0:
66,202,60911,1,8,1:2:0:0:
162,255,61244,2,0,L|283:242,1,110,0|8,1:0|1:2,0:0:0:0:
376,275,61911,1,0,1:0:0:0:
448,192,62244,2,0,L|441:120,1,55,8|8,0:3|0:3,0:0:0:0:
436,82,62578,1,0,1:0:0:0:
327,86,62911,6,0,L|205:82,1,110,4|0,1:2|1:0,0:0:0:0:
106,85,63578,2,0,L|163:192,1,110,4|0,1:2|0:0,0:0:0:0:
216,277,64244,2,0,L|280:173,1,110,4|0,1:2|1:0,0:0:0:0:
327,86,64911,1,8,1:2:0:0:
434,107,65244,6,0,P|481:151|486:211,1,110,4|8,1:2|1:2,0:0:0:0:
444,294,65911,2,0,P|397:250|392:190,1,110,0|8,1:0|1:2,0:0:0:0:
388,96,66578,1,0,1:0:0:0:
301,163,66911,1,8,1:2:0:0:
233,76,67244,2,0,P|185:73|160:85,1,55,4|0,1:2|0:3,0:0:0:0:
124,69,67578,2,0,P|87:100|78:126,1,55,8|8,0:3|0:3,0:0:0:0:
41,139,67911,6,0,L|58:253,1,110,4|8,1:2|1:2,0:0:0:0:
41,356,68578,2,0,P|107:371|170:349,1,110,0|8,1:0|1:2,0:0:0:0:
231,291,69244,2,0,L|356:310,2,110,0|8|0,1:0|1:2|1:0,0:0:0:0:
125,257,70244,1,8,1:2:0:0:
206,182,70578,6,0,P|248:146|312:154,1,110,0|8,1:0|1:2,0:0:0:0:
373,232,71244,1,0,1:0:0:0:
462,167,71578,1,8,1:2:0:0:
501,269,71911,2,0,L|479:385,2,110,0|4|0,1:0|1:2|1:0,0:0:0:0:
462,167,72911,2,0,L|441:100,1,55,8|0,1:2|1:0,0:0:0:0:
424,63,73244,5,4,1:2:0:0:
322,20,73578,1,8,1:2:0:0:
249,103,73911,1,0,1:0:0:0:
306,197,74244,1,8,1:2:0:0:
415,173,74578,1,0,1:0:0:0:
387,279,74911,2,0,P|457:296|514:273,2,110,4|0|8,1:2|1:0|1:2,0:0:0:0:
344,243,75744,1,0,0:0:0:0:
344,243,75911,6,0,L|232:257,1,110,4|0,1:2|1:0,0:0:0:0:
168,168,76578,2,0,L|280:154,1,110,0|4,1:0|1:2,0:0:0:0:
386,142,77244,1,4,1:0:0:0:
195,32,77911,2,0,L|121:58,1,55,8|8,0:3|0:3,0:0:0:0:
88,45,78244,2,0,L|48:93,1,55,8|8,0:3|0:3,0:0:0:0:
3,113,78578,6,0,P|-6:162|38:230,1,110,4|0,1:2|1:0,0:0:0:0:
39,322,79244,2,0,P|85:305|122:233,1,110,0|0,1:0|1:0,0:0:0:0:
202,186,79911,2,0,P|164:153|83:157,1,110,0|0,1:0|1:0,0:0:0:0:
3,113,80578,2,0,L|0:173,1,55,2|2,1:2|0:2,0:0:0:0:
26,216,80911,2,0,L|23:276,1,55,2|2,1:2|0:2,0:0:0:0:
20,325,81244,6,0,P|77:351|145:338,1,110,0|0,1:0|1:0,0:0:0:0:
230,369,81911,2,0,P|256:312|243:244,1,110,0|0,1:0|1:0,0:0:0:0:
274,159,82578,2,0,P|217:133|149:146,1,110,0|0,1:0|1:0,0:0:0:0:
64,115,83244,2,0,P|38:172|51:240,1,110,0|4,1:0|1:2,0:0:0:0:
108,305,83911,6,0,L|-5:314,2,110,4|0|0,1:2|1:0|1:0,0:0:0:0:
217,294,84911,1,0,1:0:0:0:
317,337,85244,1,0,1:0:0:0:
417,291,85578,1,0,1:0:0:0:
424,181,85911,2,0,L|404:117,1,55,2|2,1:2|0:2,0:0:0:0:
431,78,86244,2,0,L|395:21,1,55,2|2,1:2|0:2,0:0:0:0:
355,1,86578,6,0,L|228:22,1,110,4|0,1:2|1:0,0:0:0:0:
171,99,87244,2,0,L|298:120,1,110,0|0,1:0|1:0,0:0:0:0:
379,163,87911,2,0,L|408:215,1,55,0|0,3:0|3:0,3:0:0:0:
377,259,88244,2,0,L|359:317,1,55,0|0,3:0|3:0,3:0:0:0:
308,325,88578,2,0,L|255:354,1,55,0|0,3:0|3:0,3:0:0:0:
208,332,88911,1,0,3:0:0:0:
208,332,89078,1,4,3:2:0:0:
